  0
SECTION
  2
HEADER
  9
$ACADVER
  1
AC1024
  9
$ACADMAINTVER
 70
   181
  9
$DWGCODEPAGE
  3
ANSI_1252
  9
$AUTHOR
  1
KIM
  9
$CUSTOMPROPERTYTAG
  1
Manager
  9
$CUSTOMPROPERTY
  1

  9
$CUSTOMPROPERTYTAG
  1
Company
  9
$CUSTOMPROPERTY
  1

  9
$CUSTOMPROPERTYTAG
  1
Category
  9
$CUSTOMPROPERTY
  1

  9
$CUSTOMPROPERTYTAG
  1
Part Number
  9
$CUSTOMPROPERTY
  1
055200
  9
$CUSTOMPROPERTYTAG
  1
Description
  9
$CUSTOMPROPERTY
  1

  9
$CUSTOMPROPERTYTAG
  1
Project
  9
$CUSTOMPROPERTY
  1

  9
$CUSTOMPROPERTYTAG
  1
Designer
  9
$CUSTOMPROPERTY
  1
KIM
  9
$CUSTOMPROPERTYTAG
  1
Engineer
  9
$CUSTOMPROPERTY
  1

  9
$CUSTOMPROPERTYTAG
  1
Authority
  9
$CUSTOMPROPERTY
  1

  9
$CUSTOMPROPERTYTAG
  1
Cost Center
  9
$CUSTOMPROPERTY
  1

  9
$CUSTOMPROPERTYTAG
  1
Cost
  9
$CUSTOMPROPERTY
  1

  9
$CUSTOMPROPERTYTAG
  1
Vendor
  9
$CUSTOMPROPERTY
  1

  9
$CUSTOMPROPERTYTAG
  1
User Status
  9
$CUSTOMPROPERTY
  1

  9
$CUSTOMPROPERTYTAG
  1
Design Status
  9
$CUSTOMPROPERTY
  1
WorkInProgress
  9
$CUSTOMPROPERTYTAG
  1
Checked by
  9
$CUSTOMPROPERTY
  1

  9
$CUSTOMPROPERTYTAG
  1
Engr Approved by
  9
$CUSTOMPROPERTY
  1

  9
$CUSTOMPROPERTYTAG
  1
Mfg Approved by
  9
$CUSTOMPROPERTY
  1

  9
$CUSTOMPROPERTYTAG
  1
Date Created
  9
$CUSTOMPROPERTY
  1
12/03/2017
  9
$CUSTOMPROPERTYTAG
  1
Stock Number
  9
$CUSTOMPROPERTY
  1

  9
$INSBASE
 10
0.0
 20
0.0
 30
0.0
  9
$EXTMIN
 10
0.0
 20
0.0
 30
0.0
  9
$EXTMAX
 10
840.9999999999998
 20
594.0
 30
0.0
  9
$LIMMIN
 10
0.0
 20
0.0
  9
$LIMMAX
 10
840.9999999999998
 20
594.0
  9
$ORTHOMODE
 70
     0
  9
$REGENMODE
 70
     1
  9
$FILLMODE
 70
     1
  9
$QTEXTMODE
 70
     0
  9
$MIRRTEXT
 70
     0
  9
$LTSCALE
 40
1.0
  9
$ATTMODE
 70
     1
  9
$TEXTSIZE
 40
0.2
  9
$TRACEWID
 40
0.05
  9
$TEXTSTYLE
  7
Standard
  9
$CLAYER
  8
0
  9
$CELTYPE
  6
ByLayer
  9
$CECOLOR
 62
   256
  9
$CELTSCALE
 40
1.0
  9
$DISPSILH
 70
     0
  9
$DIMSCALE
 40
1.0
  9
$DIMASZ
 40
1.799999999999999
  9
$DIMEXO
 40
0.0625
  9
$DIMDLI
 40
0.38
  9
$DIMRND
 40
0.0
  9
$DIMDLE
 40
0.0
  9
$DIMEXE
 40
0.18
  9
$DIMTP
 40
0.0
  9
$DIMTM
 40
0.0
  9
$DIMTXT
 40
0.3048000037670135
  9
$DIMCEN
 40
0.09
  9
$DIMTSZ
 40
0.0
  9
$DIMTOL
 70
     0
  9
$DIMLIM
 70
     0
  9
$DIMTIH
 70
     1
  9
$DIMTOH
 70
     1
  9
$DIMSE1
 70
     0
  9
$DIMSE2
 70
     0
  9
$DIMTAD
 70
     0
  9
$DIMZIN
 70
     0
  9
$DIMBLK
  1

  9
$DIMASO
 70
     1
  9
$DIMSHO
 70
     1
  9
$DIMPOST
  1

  9
$DIMAPOST
  1

  9
$DIMALT
 70
     0
  9
$DIMALTD
 70
     2
  9
$DIMALTF
 40
25.4
  9
$DIMLFAC
 40
1.0
  9
$DIMTOFL
 70
     0
  9
$DIMTVP
 40
0.0
  9
$DIMTIX
 70
     0
  9
$DIMSOXD
 70
     0
  9
$DIMSAH
 70
     0
  9
$DIMBLK1
  1

  9
$DIMBLK2
  1

  9
$DIMSTYLE
  2
Standard
  9
$DIMCLRD
 70
     0
  9
$DIMCLRE
 70
     0
  9
$DIMCLRT
 70
     0
  9
$DIMTFAC
 40
1.0
  9
$DIMGAP
 40
0.09
  9
$DIMJUST
 70
     0
  9
$DIMSD1
 70
     0
  9
$DIMSD2
 70
     0
  9
$DIMTOLJ
 70
     1
  9
$DIMTZIN
 70
     0
  9
$DIMALTZ
 70
     0
  9
$DIMALTTZ
 70
     0
  9
$DIMUPT
 70
     0
  9
$DIMDEC
 70
     4
  9
$DIMTDEC
 70
     4
  9
$DIMALTU
 70
     2
  9
$DIMALTTD
 70
     2
  9
$DIMTXSTY
  7
Standard
  9
$DIMAUNIT
 70
     0
  9
$DIMADEC
 70
     0
  9
$DIMALTRND
 40
0.0
  9
$DIMAZIN
 70
     0
  9
$DIMDSEP
 70
    46
  9
$DIMATFIT
 70
     3
  9
$DIMFRAC
 70
     0
  9
$DIMLDRBLK
  1

  9
$DIMLUNIT
 70
     2
  9
$DIMLWD
 70
    -2
  9
$DIMLWE
 70
    -2
  9
$DIMTMOVE
 70
     0
  9
$DIMFXL
 40
1.0
  9
$DIMFXLON
 70
     0
  9
$DIMJOGANG
 40
0.7853981633974483
  9
$DIMTFILL
 70
     0
  9
$DIMTFILLCLR
 70
     0
  9
$DIMARCSYM
 70
     0
  9
$DIMLTYPE
  6

  9
$DIMLTEX1
  6

  9
$DIMLTEX2
  6

  9
$DIMTXTDIRECTION
 70
     0
  9
$LUNITS
 70
     2
  9
$LUPREC
 70
     4
  9
$SKETCHINC
 40
0.1
  9
$FILLETRAD
 40
0.0
  9
$AUNITS
 70
     0
  9
$AUPREC
 70
     0
  9
$MENU
  1
.
  9
$ELEVATION
 40
0.0
  9
$PELEVATION
 40
0.0
  9
$THICKNESS
 40
0.0
  9
$LIMCHECK
 70
     0
  9
$CHAMFERA
 40
0.0
  9
$CHAMFERB
 40
0.0
  9
$CHAMFERC
 40
0.0
  9
$CHAMFERD
 40
0.0
  9
$SKPOLY
 70
     0
  9
$TDCREATE
 40
2458091.641276227
  9
$TDUCREATE
 40
2458091.557942894
  9
$TDUPDATE
 40
2458091.641276227
  9
$TDUUPDATE
 40
2458091.557942894
  9
$TDINDWG
 40
0.0000074421
  9
$TDUSRTIMER
 40
0.0000074421
  9
$USRTIMER
 70
     1
  9
$ANGBASE
 50
0.0
  9
$ANGDIR
 70
     0
  9
$PDMODE
 70
     0
  9
$PDSIZE
 40
0.0
  9
$PLINEWID
 40
0.0
  9
$SPLFRAME
 70
     0
  9
$SPLINETYPE
 70
     6
  9
$SPLINESEGS
 70
     8
  9
$HANDSEED
  5
9B8
  9
$SURFTAB1
 70
     6
  9
$SURFTAB2
 70
     6
  9
$SURFTYPE
 70
     6
  9
$SURFU
 70
     6
  9
$SURFV
 70
     6
  9
$UCSBASE
  2

  9
$UCSNAME
  2

  9
$UCSORG
 10
0.0
 20
0.0
 30
0.0
  9
$UCSXDIR
 10
1.0
 20
0.0
 30
0.0
  9
$UCSYDIR
 10
0.0
 20
1.0
 30
0.0
  9
$UCSORTHOREF
  2

  9
$UCSORTHOVIEW
 70
     0
  9
$UCSORGTOP
 10
0.0
 20
0.0
 30
0.0
  9
$UCSORGBOTTOM
 10
0.0
 20
0.0
 30
0.0
  9
$UCSORGLEFT
 10
0.0
 20
0.0
 30
0.0
  9
$UCSORGRIGHT
 10
0.0
 20
0.0
 30
0.0
  9
$UCSORGFRONT
 10
0.0
 20
0.0
 30
0.0
  9
$UCSORGBACK
 10
0.0
 20
0.0
 30
0.0
  9
$PUCSBASE
  2

  9
$PUCSNAME
  2

  9
$PUCSORG
 10
0.0
 20
0.0
 30
0.0
  9
$PUCSXDIR
 10
1.0
 20
0.0
 30
0.0
  9
$PUCSYDIR
 10
0.0
 20
1.0
 30
0.0
  9
$PUCSORTHOREF
  2

  9
$PUCSORTHOVIEW
 70
     0
  9
$PUCSORGTOP
 10
0.0
 20
0.0
 30
0.0
  9
$PUCSORGBOTTOM
 10
0.0
 20
0.0
 30
0.0
  9
$PUCSORGLEFT
 10
0.0
 20
0.0
 30
0.0
  9
$PUCSORGRIGHT
 10
0.0
 20
0.0
 30
0.0
  9
$PUCSORGFRONT
 10
0.0
 20
0.0
 30
0.0
  9
$PUCSORGBACK
 10
0.0
 20
0.0
 30
0.0
  9
$USERI1
 70
     0
  9
$USERI2
 70
     0
  9
$USERI3
 70
     0
  9
$USERI4
 70
     0
  9
$USERI5
 70
     0
  9
$USERR1
 40
0.0
  9
$USERR2
 40
0.0
  9
$USERR3
 40
0.0
  9
$USERR4
 40
0.0
  9
$USERR5
 40
0.0
  9
$WORLDVIEW
 70
     1
  9
$SHADEDGE
 70
     3
  9
$SHADEDIF
 70
    70
  9
$TILEMODE
 70
     1
  9
$MAXACTVP
 70
    64
  9
$PINSBASE
 10
0.0
 20
0.0
 30
0.0
  9
$PLIMCHECK
 70
     0
  9
$PEXTMIN
 10
0.0
 20
0.0
 30
0.0
  9
$PEXTMAX
 10
840.9999999999998
 20
594.0
 30
0.0
  9
$PLIMMIN
 10
0.0
 20
0.0
  9
$PLIMMAX
 10
840.9999999999998
 20
594.0
  9
$UNITMODE
 70
     0
  9
$VISRETAIN
 70
     1
  9
$PLINEGEN
 70
     0
  9
$PSLTSCALE
 70
     1
  9
$TREEDEPTH
 70
  3020
  9
$CMLSTYLE
  2
Standard
  9
$CMLJUST
 70
     0
  9
$CMLSCALE
 40
1.0
  9
$PROXYGRAPHICS
 70
     1
  9
$MEASUREMENT
 70
     1
  9
$CELWEIGHT
370
    -1
  9
$ENDCAPS
280
     0
  9
$JOINSTYLE
280
     0
  9
$LWDISPLAY
290
     0
  9
$INSUNITS
 70
     4
  9
$HYPERLINKBASE
  1

  9
$STYLESHEET
  1

  9
$XEDIT
290
     1
  9
$CEPSNTYPE
380
     0
  9
$PSTYLEMODE
290
     1
  9
$FINGERPRINTGUID
  2
{01C6DE14-B2DB-4CD2-8AEB-2D2BB64E9C59}
  9
$VERSIONGUID
  2
{3569A48C-9BA8-4FF7-98A7-595ACDD9076C}
  9
$EXTNAMES
290
     1
  9
$PSVPSCALE
 40
0.0
  9
$OLESTARTUP
290
     0
  9
$SORTENTS
280
   127
  9
$INDEXCTL
280
     0
  9
$HIDETEXT
280
     1
  9
$XCLIPFRAME
280
     2
  9
$HALOGAP
280
     0
  9
$OBSCOLOR
 70
   257
  9
$OBSLTYPE
280
     0
  9
$INTERSECTIONDISPLAY
280
     0
  9
$INTERSECTIONCOLOR
 70
   257
  9
$DIMASSOC
280
     1
  9
$PROJECTNAME
  1

  9
$CAMERADISPLAY
290
     0
  9
$LENSLENGTH
 40
50.0
  9
$CAMERAHEIGHT
 40
0.0
  9
$STEPSPERSEC
 40
2.0
  9
$STEPSIZE
 40
6.0
  9
$3DDWFPREC
 40
2.0
  9
$PSOLWIDTH
 40
0.25
  9
$PSOLHEIGHT
 40
4.0
  9
$LOFTANG1
 40
1.570796326794896
  9
$LOFTANG2
 40
1.570796326794896
  9
$LOFTMAG1
 40
0.0
  9
$LOFTMAG2
 40
0.0
  9
$LOFTPARAM
 70
     7
  9
$LOFTNORMALS
280
     1
  9
$LATITUDE
 40
37.795
  9
$LONGITUDE
 40
-122.394
  9
$NORTHDIRECTION
 40
0.0
  9
$TIMEZONE
 70
 -8000
  9
$LIGHTGLYPHDISPLAY
280
     1
  9
$TILEMODELIGHTSYNCH
280
     1
  9
$CMATERIAL
347
11
  9
$SOLIDHIST
280
     0
  9
$SHOWHIST
280
     1
  9
$DWFFRAME
280
     2
  9
$DGNFRAME
280
     0
  9
$REALWORLDSCALE
290
     1
  9
$INTERFERECOLOR
 62
     1
  9
$INTERFEREOBJVS
345
33
  9
$INTERFEREVPVS
346
30
  9
$CSHADOW
280
     0
  9
$SHADOWPLANELOCATION
 40
0.0
  0
ENDSEC
  0
SECTION
  2
CLASSES
  0
CLASS
  1
ACDBDICTIONARYWDFLT
  2
AcDbDictionaryWithDefault
  3
ObjectDBX Classes
 90
        0
 91
        1
280
     0
281
     0
  0
CLASS
  1
MATERIAL
  2
AcDbMaterial
  3
ObjectDBX Classes
 90
     1153
 91
        3
280
     0
281
     0
  0
CLASS
  1
VISUALSTYLE
  2
AcDbVisualStyle
  3
ObjectDBX Classes
 90
     4095
 91
       24
280
     0
281
     0
  0
CLASS
  1
SCALE
  2
AcDbScale
  3
ObjectDBX Classes
 90
     1153
 91
       17
280
     0
281
     0
  0
CLASS
  1
TABLESTYLE
  2
AcDbTableStyle
  3
ObjectDBX Classes
 90
     4095
 91
        1
280
     0
281
     0
  0
CLASS
  1
MLEADERSTYLE
  2
AcDbMLeaderStyle
  3
ACDB_MLEADERSTYLE_CLASS
 90
     4095
 91
        1
280
     0
281
     0
  0
CLASS
  1
ACDBSECTIONVIEWSTYLE
  2
AcDbSectionViewStyle
  3
ObjectDBX Classes
 90
     1025
 91
        1
280
     0
281
     0
  0
CLASS
  1
ACDBDETAILVIEWSTYLE
  2
AcDbDetailViewStyle
  3
ObjectDBX Classes
 90
     1025
 91
        1
280
     0
281
     0
  0
CLASS
  1
DICTIONARYVAR
  2
AcDbDictionaryVar
  3
ObjectDBX Classes
 90
        0
 91
        5
280
     0
281
     0
  0
CLASS
  1
CELLSTYLEMAP
  2
AcDbCellStyleMap
  3
ObjectDBX Classes
 90
     1152
 91
        1
280
     0
281
     0
  0
ENDSEC
  0
SECTION
  2
TABLES
  0
TABLE
  2
VPORT
  5
8
330
0
100
AcDbSymbolTable
 70
     1
  0
VPORT
  5
57
330
8
100
AcDbSymbolTableRecord
100
AcDbViewportTableRecord
  2
*Active
 70
     0
 10
0.0
 20
0.0
 11
1.0
 21
1.0
 12
420.4999999999999
 22
297.0
 13
0.0
 23
0.0
 14
1.0
 24
1.0
 15
0.0
 25
0.0
 16
0.0
 26
0.0
 36
1.0
 17
0.0
 27
0.0
 37
0.0
 40
594.0
 41
1.415824915824915
 42
50.0
 43
0.0
 44
0.0
 50
0.0
 51
0.0
 71
     0
 72
   100
 73
     1
 74
     1
 75
     0
 76
     0
 77
     0
 78
     0
281
     0
 65
     1
110
0.0
120
0.0
130
0.0
111
1.0
121
0.0
131
0.0
112
0.0
122
1.0
132
0.0
 79
     0
146
0.0
 60
     3
 61
     5
292
     1
282
     1
141
0.0
142
0.0
 63
   250
421
  3355443
  0
ENDTAB
  0
TABLE
  2
LTYPE
  5
5
330
0
100
AcDbSymbolTable
 70
    59
  0
LTYPE
  5
5B
330
5
100
AcDbSymbolTableRecord
100
AcDbLinetypeTableRecord
  2
ByBlock
 70
     0
  3

 72
    65
 73
     0
 40
0.0
  0
LTYPE
  5
5C
330
5
100
AcDbSymbolTableRecord
100
AcDbLinetypeTableRecord
  2
ByLayer
 70
     0
  3

 72
    65
 73
     0
 40
0.0
  0
LTYPE
  5
5D
330
5
100
AcDbSymbolTableRecord
100
AcDbLinetypeTableRecord
  2
Continuous
 70
     0
  3
Solid line
 72
    65
 73
     0
 40
0.0
  0
LTYPE
  5
78
330
5
100
AcDbSymbolTableRecord
100
AcDbLinetypeTableRecord
  2
Section_View_Lines
 70
     0
  3
Section View Lines
 72
    65
 73
     4
 40
0.8406
 49
0.6614
 74
     0
 49
-0.0827
 74
     0
 49
0.0138
 74
     0
 49
-0.0827
 74
     0
  0
LTYPE
  5
79
330
5
100
AcDbSymbolTableRecord
100
AcDbLinetypeTableRecord
  2
CHAIN
 70
     0
  3
Chain ____ _ ____ _ ____ _ ____ _ ____ _ ____
 72
    65
 73
     4
 40
0.3543
 49
0.2362
 74
     0
 49
-0.0295
 74
     0
 49
0.0591
 74
     0
 49
-0.0295
 74
     0
  0
LTYPE
  5
7A
330
5
100
AcDbSymbolTableRecord
100
AcDbLinetypeTableRecord
  2
DASH_DOT
 70
     0
  3
Dash dot _._._._._._._._._._._._._._._.
 72
    65
 73
     4
 40
0.182
 49
0.1181
 74
     0
 49
-0.0295
 74
     0
 49
0.0049
 74
     0
 49
-0.0295
 74
     0
  0
LTYPE
  5
7B
330
5
100
AcDbSymbolTableRecord
100
AcDbLinetypeTableRecord
  2
DASH_DOUBLE_DOT
 70
     0
  3
Dash Double Dot __ __ . __ __ . __ __ . __ _
 72
    65
 73
     6
 40
0.2164
 49
0.1181
 74
     0
 49
-0.0295
 74
     0
 49
0.0049
 74
     0
 49
-0.0295
 74
     0
 49
0.0049
 74
     0
 49
-0.0295
 74
     0
  0
LTYPE
  5
7C
330
5
100
AcDbSymbolTableRecord
100
AcDbLinetypeTableRecord
  2
DASH_TRIPLE_DOT
 70
     0
  3
Dash Triple-Dot _ . . . _ . . . _ . . . _
 72
    65
 73
     8
 40
0.2508
 49
0.1181
 74
     0
 49
-0.0295
 74
     0
 49
0.0049
 74
     0
 49
-0.0295
 74
     0
 49
0.0049
 74
     0
 49
-0.0295
 74
     0
 49
0.0049
 74
     0
 49
-0.0295
 74
     0
  0
LTYPE
  5
7D
330
5
100
AcDbSymbolTableRecord
100
AcDbLinetypeTableRecord
  2
DASHED
 70
     0
  3
Dashed __ __ __ __ __ __ __ __ __ __ __ __ __ _
 72
    65
 73
     2
 40
0.2068
 49
0.1655
 74
     0
 49
-0.0413
 74
     0
  0
LTYPE
  5
7E
330
5
100
AcDbSymbolTableRecord
100
AcDbLinetypeTableRecord
  2
DASHED_SPACE
 70
     0
  3
Dashed Space __ __ __ __ __ __ __ __ __ __ __ _
 72
    65
 73
     2
 40
0.2067
 49
0.1654
 74
     0
 49
-0.0413
 74
     0
  0
LTYPE
  5
7F
330
5
100
AcDbSymbolTableRecord
100
AcDbLinetypeTableRecord
  2
DOTTED
 70
     0
  3
Dotted . . . . . . . . . . . . . . . . . . . . 
 72
    65
 73
     2
 40
0.0481
 49
0.0068
 74
     0
 49
-0.0413
 74
     0
  0
LTYPE
  5
80
330
5
100
AcDbSymbolTableRecord
100
AcDbLinetypeTableRecord
  2
DOUBLE_DASH_CHAIN
 70
     0
  3
Double Dash Chain ___ _ _ ___ _ _ ___ _ _ ___ _
 72
    65
 73
     6
 40
1.240299999999999
 49
0.6614
 74
     0
 49
-0.0827
 74
     0
 49
0.1654
 74
     0
 49
-0.0827
 74
     0
 49
0.1654
 74
     0
 49
-0.0827
 74
     0
  0
LTYPE
  5
81
330
5
100
AcDbSymbolTableRecord
100
AcDbLinetypeTableRecord
  2
DOUBLE_DASH_DOT
 70
     0
  3
Double Dash Dot __ __ . __ __ . __ __ . __ _
 72
    65
 73
     6
 40
0.3296
 49
0.1181
 74
     0
 49
-0.0295
 74
     0
 49
0.1181
 74
     0
 49
-0.0295
 74
     0
 49
0.0049
 74
     0
 49
-0.0295
 74
     0
  0
LTYPE
  5
82
330
5
100
AcDbSymbolTableRecord
100
AcDbLinetypeTableRecord
  2
DOUBLE_DASH_DOUBLE_DOT
 70
     0
  3
Double Dash Double Dot _ _ . . _ _ . . _ _
 72
    65
 73
     8
 40
0.364
 49
0.1181
 74
     0
 49
-0.0295
 74
     0
 49
0.1181
 74
     0
 49
-0.0295
 74
     0
 49
0.0049
 74
     0
 49
-0.0295
 74
     0
 49
0.0049
 74
     0
 49
-0.0295
 74
     0
  0
LTYPE
  5
83
330
5
100
AcDbSymbolTableRecord
100
AcDbLinetypeTableRecord
  2
DOUBLE_DASH_TRIPLE_DOT
 70
     0
  3
Double Dash Triple Dot __ __ . . . __ __ . . .
 72
    65
 73
    10
 40
0.3984
 49
0.1181
 74
     0
 49
-0.0295
 74
     0
 49
0.1181
 74
     0
 49
-0.0295
 74
     0
 49
0.0049
 74
     0
 49
-0.0295
 74
     0
 49
0.0049
 74
     0
 49
-0.0295
 74
     0
 49
0.0049
 74
     0
 49
-0.0295
 74
     0
  0
LTYPE
  5
84
330
5
100
AcDbSymbolTableRecord
100
AcDbLinetypeTableRecord
  2
LONG_DASH_DOTTED
 70
     0
  3
Long Dash Dotted ____ . ____ . ____ . ____ . _
 72
    65
 73
     4
 40
0.3001
 49
0.2362
 74
     0
 49
-0.0295
 74
     0
 49
0.0049
 74
     0
 49
-0.0295
 74
     0
  0
LTYPE
  5
85
330
5
100
AcDbSymbolTableRecord
100
AcDbLinetypeTableRecord
  2
LONG_DASH_DOUBLE_DOT
 70
     0
  3
Long Dash Double Dot ____ . . ____ . . ____ . .
 72
    65
 73
     6
 40
0.3345
 49
0.2362
 74
     0
 49
-0.0295
 74
     0
 49
0.0049
 74
     0
 49
-0.0295
 74
     0
 49
0.0049
 74
     0
 49
-0.0295
 74
     0
  0
LTYPE
  5
86
330
5
100
AcDbSymbolTableRecord
100
AcDbLinetypeTableRecord
  2
LONG_DASH_TRIPLE_DOT
 70
     0
  3
Long Dash Triple Dot ____ ... ____ ... ____
 72
    65
 73
     8
 40
0.3689
 49
0.2362
 74
     0
 49
-0.0295
 74
     0
 49
0.0049
 74
     0
 49
-0.0295
 74
     0
 49
0.0049
 74
     0
 49
-0.0295
 74
     0
 49
0.0049
 74
     0
 49
-0.0295
 74
     0
  0
LTYPE
  5
87
330
5
100
AcDbSymbolTableRecord
100
AcDbLinetypeTableRecord
  2
BORDER
 70
     0
  3
Border __ __ . __ __ . __ __ . __ __ . __ __ .
 72
    65
 73
     6
 40
44.45
 49
12.7
 74
     0
 49
-6.349999999999999
 74
     0
 49
12.7
 74
     0
 49
-6.349999999999999
 74
     0
 49
0.0
 74
     0
 49
-6.349999999999999
 74
     0
  0
LTYPE
  5
88
330
5
100
AcDbSymbolTableRecord
100
AcDbLinetypeTableRecord
  2
BORDER2
 70
     0
  3
Border (.5x) __.__.__.__.__.__.__.__.__.__.__.
 72
    65
 73
     6
 40
22.225
 49
6.349999999999999
 74
     0
 49
-3.174999999999999
 74
     0
 49
6.349999999999999
 74
     0
 49
-3.174999999999999
 74
     0
 49
0.0
 74
     0
 49
-3.174999999999999
 74
     0
  0
LTYPE
  5
89
330
5
100
AcDbSymbolTableRecord
100
AcDbLinetypeTableRecord
  2
BORDERX2
 70
     0
  3
Border (2x) ____  ____  .  ____  ____  .  ___
 72
    65
 73
     6
 40
88.9
 49
25.4
 74
     0
 49
-12.7
 74
     0
 49
25.4
 74
     0
 49
-12.7
 74
     0
 49
0.0
 74
     0
 49
-12.7
 74
     0
  0
LTYPE
  5
8A
330
5
100
AcDbSymbolTableRecord
100
AcDbLinetypeTableRecord
  2
CENTER
 70
     0
  3
Center ____ _ ____ _ ____ _ ____ _ ____ _ ____
 72
    65
 73
     4
 40
50.8
 49
31.75
 74
     0
 49
-6.349999999999999
 74
     0
 49
6.349999999999999
 74
     0
 49
-6.349999999999999
 74
     0
  0
LTYPE
  5
8B
330
5
100
AcDbSymbolTableRecord
100
AcDbLinetypeTableRecord
  2
CENTER2
 70
     0
  3
Center (.5x) ___ _ ___ _ ___ _ ___ _ ___ _ ___
 72
    65
 73
     4
 40
28.575
 49
19.05
 74
     0
 49
-3.174999999999999
 74
     0
 49
3.174999999999999
 74
     0
 49
-3.174999999999999
 74
     0
  0
LTYPE
  5
8C
330
5
100
AcDbSymbolTableRecord
100
AcDbLinetypeTableRecord
  2
CENTERX2
 70
     0
  3
Center (2x) ________  __  ________  __  _____
 72
    65
 73
     4
 40
101.6
 49
63.5
 74
     0
 49
-12.7
 74
     0
 49
12.7
 74
     0
 49
-12.7
 74
     0
  0
LTYPE
  5
8D
330
5
100
AcDbSymbolTableRecord
100
AcDbLinetypeTableRecord
  2
DASHDOT2
 70
     0
  3
Dash dot (.5x) _._._._._._._._._._._._._._._.
 72
    65
 73
     4
 40
12.7
 49
6.349999999999999
 74
     0
 49
-3.174999999999999
 74
     0
 49
0.0
 74
     0
 49
-3.174999999999999
 74
     0
  0
LTYPE
  5
8E
330
5
100
AcDbSymbolTableRecord
100
AcDbLinetypeTableRecord
  2
DASHDOTX2
 70
     0
  3
Dash dot (2x) ____  .  ____  .  ____  .  ___
 72
    65
 73
     4
 40
50.8
 49
25.4
 74
     0
 49
-12.7
 74
     0
 49
0.0
 74
     0
 49
-12.7
 74
     0
  0
LTYPE
  5
8F
330
5
100
AcDbSymbolTableRecord
100
AcDbLinetypeTableRecord
  2
DASHED2
 70
     0
  3
Dashed (.5x) _ _ _ _ _ _ _ _ _ _ _ _ _ _ _ _ _
 72
    65
 73
     2
 40
9.524999999999998
 49
6.349999999999999
 74
     0
 49
-3.174999999999999
 74
     0
  0
LTYPE
  5
90
330
5
100
AcDbSymbolTableRecord
100
AcDbLinetypeTableRecord
  2
DASHEDX2
 70
     0
  3
Dashed (2x) ____  ____  ____  ____  ____  ___
 72
    65
 73
     2
 40
38.1
 49
25.4
 74
     0
 49
-12.7
 74
     0
  0
LTYPE
  5
91
330
5
100
AcDbSymbolTableRecord
100
AcDbLinetypeTableRecord
  2
DIVIDE
 70
     0
  3
Divide ____ . . ____ . . ____ . . ____ . . ____
 72
    65
 73
     6
 40
31.75
 49
12.7
 74
     0
 49
-6.349999999999999
 74
     0
 49
0.0
 74
     0
 49
-6.349999999999999
 74
     0
 49
0.0
 74
     0
 49
-6.349999999999999
 74
     0
  0
LTYPE
  5
92
330
5
100
AcDbSymbolTableRecord
100
AcDbLinetypeTableRecord
  2
DIVIDE2
 70
     0
  3
Divide (.5x) __..__..__..__..__..__..__..__.._
 72
    65
 73
     6
 40
15.875
 49
6.349999999999999
 74
     0
 49
-3.174999999999999
 74
     0
 49
0.0
 74
     0
 49
-3.174999999999999
 74
     0
 49
0.0
 74
     0
 49
-3.174999999999999
 74
     0
  0
LTYPE
  5
93
330
5
100
AcDbSymbolTableRecord
100
AcDbLinetypeTableRecord
  2
DIVIDEX2
 70
     0
  3
Divide (2x) ________  .  .  ________  .  .  _
 72
    65
 73
     6
 40
63.49999999999999
 49
25.4
 74
     0
 49
-12.7
 74
     0
 49
0.0
 74
     0
 49
-12.7
 74
     0
 49
0.0
 74
     0
 49
-12.7
 74
     0
  0
LTYPE
  5
94
330
5
100
AcDbSymbolTableRecord
100
AcDbLinetypeTableRecord
  2
DOT
 70
     0
  3
Dot . . . . . . . . . . . . . . . . . . . . . .
 72
    65
 73
     2
 40
6.349999999999999
 49
0.0
 74
     0
 49
-6.349999999999999
 74
     0
  0
LTYPE
  5
95
330
5
100
AcDbSymbolTableRecord
100
AcDbLinetypeTableRecord
  2
DOT2
 70
     0
  3
Dot (.5x) .....................................
 72
    65
 73
     2
 40
3.174999999999999
 49
0.0
 74
     0
 49
-3.174999999999999
 74
     0
  0
LTYPE
  5
96
330
5
100
AcDbSymbolTableRecord
100
AcDbLinetypeTableRecord
  2
DOTX2
 70
     0
  3
Dot (2x) .  .  .  .  .  .  .  .  .  .  .  .  . 
 72
    65
 73
     2
 40
12.7
 49
0.0
 74
     0
 49
-12.7
 74
     0
  0
LTYPE
  5
97
330
5
100
AcDbSymbolTableRecord
100
AcDbLinetypeTableRecord
  2
HIDDEN
 70
     0
  3
Hidden __ __ __ __ __ __ __ __ __ __ __ __ __ _
 72
    65
 73
     2
 40
9.524999999999998
 49
6.349999999999999
 74
     0
 49
-3.174999999999999
 74
     0
  0
LTYPE
  5
98
330
5
100
AcDbSymbolTableRecord
100
AcDbLinetypeTableRecord
  2
HIDDEN2
 70
     0
  3
Hidden (.5x) _ _ _ _ _ _ _ _ _ _ _ _ _ _ _ _ _
 72
    65
 73
     2
 40
4.762499999999999
 49
3.174999999999999
 74
     0
 49
-1.587499999999999
 74
     0
  0
LTYPE
  5
99
330
5
100
AcDbSymbolTableRecord
100
AcDbLinetypeTableRecord
  2
HIDDENX2
 70
     0
  3
Hidden (2x) ____ ____ ____ ____ ____ ____ ____
 72
    65
 73
     2
 40
19.05
 49
12.7
 74
     0
 49
-6.349999999999999
 74
     0
  0
LTYPE
  5
9A
330
5
100
AcDbSymbolTableRecord
100
AcDbLinetypeTableRecord
  2
PHANTOM
 70
     0
  3
Phantom ______  __  __  ______  __  __  ______
 72
    65
 73
     6
 40
63.5
 49
31.75
 74
     0
 49
-6.349999999999999
 74
     0
 49
6.349999999999999
 74
     0
 49
-6.349999999999999
 74
     0
 49
6.349999999999999
 74
     0
 49
-6.349999999999999
 74
     0
  0
LTYPE
  5
9B
330
5
100
AcDbSymbolTableRecord
100
AcDbLinetypeTableRecord
  2
PHANTOM2
 70
     0
  3
Phantom (.5x) ___ _ _ ___ _ _ ___ _ _ ___ _ _
 72
    65
 73
     6
 40
31.75
 49
15.875
 74
     0
 49
-3.174999999999999
 74
     0
 49
3.174999999999999
 74
     0
 49
-3.174999999999999
 74
     0
 49
3.174999999999999
 74
     0
 49
-3.174999999999999
 74
     0
  0
LTYPE
  5
9C
330
5
100
AcDbSymbolTableRecord
100
AcDbLinetypeTableRecord
  2
PHANTOMX2
 70
     0
  3
Phantom (2x) ____________    ____    ____   _
 72
    65
 73
     6
 40
127.0
 49
63.5
 74
     0
 49
-12.7
 74
     0
 49
12.7
 74
     0
 49
-12.7
 74
     0
 49
12.7
 74
     0
 49
-12.7
 74
     0
  0
LTYPE
  5
9D
330
5
100
AcDbSymbolTableRecord
100
AcDbLinetypeTableRecord
  2
ACAD_ISO02W100
 70
     0
  3
ISO dash __ __ __ __ __ __ __ __ __ __ __ __ __
 72
    65
 73
     2
 40
15.0
 49
12.0
 74
     0
 49
-3.0
 74
     0
  0
LTYPE
  5
9E
330
5
100
AcDbSymbolTableRecord
100
AcDbLinetypeTableRecord
  2
ACAD_ISO03W100
 70
     0
  3
ISO dash space __    __    __    __    __    __
 72
    65
 73
     2
 40
30.0
 49
12.0
 74
     0
 49
-18.0
 74
     0
  0
LTYPE
  5
9F
330
5
100
AcDbSymbolTableRecord
100
AcDbLinetypeTableRecord
  2
ACAD_ISO04W100
 70
     0
  3
ISO long-dash dot ____ . ____ . ____ . ____ . _
 72
    65
 73
     4
 40
30.0
 49
24.0
 74
     0
 49
-3.0
 74
     0
 49
0.0
 74
     0
 49
-3.0
 74
     0
  0
LTYPE
  5
A0
330
5
100
AcDbSymbolTableRecord
100
AcDbLinetypeTableRecord
  2
ACAD_ISO05W100
 70
     0
  3
ISO long-dash double-dot ____ .. ____ .. ____ .
 72
    65
 73
     6
 40
33.0
 49
24.0
 74
     0
 49
-3.0
 74
     0
 49
0.0
 74
     0
 49
-3.0
 74
     0
 49
0.0
 74
     0
 49
-3.0
 74
     0
  0
LTYPE
  5
A1
330
5
100
AcDbSymbolTableRecord
100
AcDbLinetypeTableRecord
  2
ACAD_ISO06W100
 70
     0
  3
ISO long-dash triple-dot ____ ... ____ ... ____
 72
    65
 73
     8
 40
36.0
 49
24.0
 74
     0
 49
-3.0
 74
     0
 49
0.0
 74
     0
 49
-3.0
 74
     0
 49
0.0
 74
     0
 49
-3.0
 74
     0
 49
0.0
 74
     0
 49
-3.0
 74
     0
  0
LTYPE
  5
A2
330
5
100
AcDbSymbolTableRecord
100
AcDbLinetypeTableRecord
  2
ACAD_ISO07W100
 70
     0
  3
ISO dot . . . . . . . . . . . . . . . . . . . .
 72
    65
 73
     2
 40
3.0
 49
0.0
 74
     0
 49
-3.0
 74
     0
  0
LTYPE
  5
A3
330
5
100
AcDbSymbolTableRecord
100
AcDbLinetypeTableRecord
  2
ACAD_ISO08W100
 70
     0
  3
ISO long-dash short-dash ____ __ ____ __ ____ _
 72
    65
 73
     4
 40
36.0
 49
24.0
 74
     0
 49
-3.0
 74
     0
 49
6.0
 74
     0
 49
-3.0
 74
     0
  0
LTYPE
  5
A4
330
5
100
AcDbSymbolTableRecord
100
AcDbLinetypeTableRecord
  2
ACAD_ISO09W100
 70
     0
  3
ISO long-dash double-short-dash ____ __ __ ____
 72
    65
 73
     6
 40
45.0
 49
24.0
 74
     0
 49
-3.0
 74
     0
 49
6.0
 74
     0
 49
-3.0
 74
     0
 49
6.0
 74
     0
 49
-3.0
 74
     0
  0
LTYPE
  5
A5
330
5
100
AcDbSymbolTableRecord
100
AcDbLinetypeTableRecord
  2
ACAD_ISO10W100
 70
     0
  3
ISO dash dot __ . __ . __ . __ . __ . __ . __ .
 72
    65
 73
     4
 40
18.0
 49
12.0
 74
     0
 49
-3.0
 74
     0
 49
0.0
 74
     0
 49
-3.0
 74
     0
  0
LTYPE
  5
A6
330
5
100
AcDbSymbolTableRecord
100
AcDbLinetypeTableRecord
  2
ACAD_ISO11W100
 70
     0
  3
ISO double-dash dot __ __ . __ __ . __ __ . __ 
 72
    65
 73
     6
 40
33.0
 49
12.0
 74
     0
 49
-3.0
 74
     0
 49
12.0
 74
     0
 49
-3.0
 74
     0
 49
0.0
 74
     0
 49
-3.0
 74
     0
  0
LTYPE
  5
A7
330
5
100
AcDbSymbolTableRecord
100
AcDbLinetypeTableRecord
  2
ACAD_ISO12W100
 70
     0
  3
ISO dash double-dot __ . . __ . . __ . . __ . .
 72
    65
 73
     6
 40
21.0
 49
12.0
 74
     0
 49
-3.0
 74
     0
 49
0.0
 74
     0
 49
-3.0
 74
     0
 49
0.0
 74
     0
 49
-3.0
 74
     0
  0
LTYPE
  5
A8
330
5
100
AcDbSymbolTableRecord
100
AcDbLinetypeTableRecord
  2
ACAD_ISO13W100
 70
     0
  3
ISO double-dash double-dot __ __ . . __ __ . . 
 72
    65
 73
     8
 40
36.0
 49
12.0
 74
     0
 49
-3.0
 74
     0
 49
12.0
 74
     0
 49
-3.0
 74
     0
 49
0.0
 74
     0
 49
-3.0
 74
     0
 49
0.0
 74
     0
 49
-3.0
 74
     0
  0
LTYPE
  5
A9
330
5
100
AcDbSymbolTableRecord
100
AcDbLinetypeTableRecord
  2
ACAD_ISO14W100
 70
     0
  3
ISO dash triple-dot __ . . . __ . . . __ . . . 
 72
    65
 73
     8
 40
24.0
 49
12.0
 74
     0
 49
-3.0
 74
     0
 49
0.0
 74
     0
 49
-3.0
 74
     0
 49
0.0
 74
     0
 49
-3.0
 74
     0
 49
0.0
 74
     0
 49
-3.0
 74
     0
  0
LTYPE
  5
AA
330
5
100
AcDbSymbolTableRecord
100
AcDbLinetypeTableRecord
  2
ACAD_ISO15W100
 70
     0
  3
ISO double-dash triple-dot __ __ . . . __ __ . 
 72
    65
 73
    10
 40
39.0
 49
12.0
 74
     0
 49
-3.0
 74
     0
 49
12.0
 74
     0
 49
-3.0
 74
     0
 49
0.0
 74
     0
 49
-3.0
 74
     0
 49
0.0
 74
     0
 49
-3.0
 74
     0
 49
0.0
 74
     0
 49
-3.0
 74
     0
  0
LTYPE
  5
AD
330
5
100
AcDbSymbolTableRecord
100
AcDbLinetypeTableRecord
  2
FENCELINE1
 70
     0
  3
Fenceline circle ----0-----0----0-----0----0---
 72
    65
 73
     4
 40
36.83
 49
6.349999999999999
 74
     0
 49
-2.54
 74
     4
 75
   133
340
AC
 46
2.54
 50
0.0
 44
-2.54
 45
0.0
 49
-2.54
 74
     0
 49
25.4
 74
     0
  0
LTYPE
  5
AE
330
5
100
AcDbSymbolTableRecord
100
AcDbLinetypeTableRecord
  2
FENCELINE2
 70
     0
  3
Fenceline square ----[]-----[]----[]-----[]----
 72
    65
 73
     4
 40
36.83
 49
6.349999999999999
 74
     0
 49
-2.54
 74
     4
 75
   132
340
AC
 46
2.54
 50
0.0
 44
-2.54
 45
0.0
 49
-2.54
 74
     0
 49
25.4
 74
     0
  0
LTYPE
  5
AF
330
5
100
AcDbSymbolTableRecord
100
AcDbLinetypeTableRecord
  2
TRACKS
 70
     0
  3
Tracks -|-|-|-|-|-|-|-|-|-|-|-|-|-|-|-|-|-|-|-|
 72
    65
 73
     2
 40
7.62
 49
3.81
 74
     4
 75
   130
340
AC
 46
6.349999999999999
 50
0.0
 44
0.0
 45
0.0
 49
3.81
 74
     0
  0
LTYPE
  5
B0
330
5
100
AcDbSymbolTableRecord
100
AcDbLinetypeTableRecord
  2
BATTING
 70
     0
  3
Batting SSSSSSSSSSSSSSSSSSSSSSSSSSSSSSSSSSSSSSS
 72
    65
 73
     4
 40
10.16254
 49
0.00254
 74
     0
 49
-2.54
 74
     4
 75
   134
340
AC
 46
2.54
 50
0.0
 44
-2.54
 45
0.0
 49
-5.08
 74
     4
 75
   134
340
AC
 46
2.54
 50
180.0
 44
2.54
 45
0.0
 49
-2.54
 74
     0
  0
LTYPE
  5
B1
330
5
100
AcDbSymbolTableRecord
100
AcDbLinetypeTableRecord
  2
HOT_WATER_SUPPLY
 70
     0
  3
Hot water supply ---- HW ---- HW ---- HW ----
 72
    65
 73
     3
 40
22.86
 49
12.7
 74
     0
 49
-5.08
 74
     2
 75
     0
340
55
 46
2.54
 50
0.0
 44
-2.54
 45
-1.27
  9
HW
 49
-5.08
 74
     0
  0
LTYPE
  5
B2
330
5
100
AcDbSymbolTableRecord
100
AcDbLinetypeTableRecord
  2
GAS_LINE
 70
     0
  3
Gas line ----GAS----GAS----GAS----GAS----GAS---
 72
    65
 73
     3
 40
24.13
 49
12.7
 74
     0
 49
-5.08
 74
     2
 75
     0
340
55
 46
2.54
 50
0.0
 44
-2.54
 45
-1.27
  9
GAS
 49
-6.349999999999999
 74
     0
  0
LTYPE
  5
B3
330
5
100
AcDbSymbolTableRecord
100
AcDbLinetypeTableRecord
  2
ZIGZAG
 70
     0
  3
Zig zag /\/\/\/\/\/\/\/\/\/\/\/\/\/\/\/\/\/\/\/
 72
    65
 73
     4
 40
20.32254
 49
0.00254
 74
     0
 49
-5.08
 74
     4
 75
   131
340
AC
 46
5.08
 50
0.0
 44
-5.08
 45
0.0
 49
-10.16
 74
     4
 75
   131
340
AC
 46
5.08
 50
180.0
 44
5.08
 45
0.0
 49
-5.08
 74
     0
  0
ENDTAB
  0
TABLE
  2
LAYER
  5
2
330
0
100
AcDbSymbolTable
 70
    51
  0
LAYER
  5
54
330
2
100
AcDbSymbolTableRecord
100
AcDbLayerTableRecord
  2
0
 70
     0
 62
     7
  6
Continuous
370
    -3
390
F
347
21
  0
LAYER
  5
BA
330
2
100
AcDbSymbolTableRecord
100
AcDbLayerTableRecord
  2
Border (ANSI)
 70
     0
 62
     7
  6
Continuous
370
    70
390
F
347
21
  0
LAYER
  5
C4
330
2
100
AcDbSymbolTableRecord
100
AcDbLayerTableRecord
  2
Dimension (ANSI)
 70
     0
 62
     7
  6
Continuous
370
    25
390
F
347
21
  0
LAYER
  5
C6
330
2
100
AcDbSymbolTableRecord
100
AcDbLayerTableRecord
  2
Hatch (ANSI)
 70
     0
 62
     7
  6
Continuous
370
    18
390
F
347
21
  0
LAYER
  5
D1
330
2
100
AcDbSymbolTableRecord
100
AcDbLayerTableRecord
  2
Section Line (ANSI)
 70
     0
 62
     7
  6
DOUBLE_DASH_CHAIN
370
    70
390
F
347
21
  0
LAYER
  5
D8
330
2
100
AcDbSymbolTableRecord
100
AcDbLayerTableRecord
  2
Title (ISO)
 70
     0
 62
     7
  6
Continuous
370
    50
390
F
347
21
  0
LAYER
  5
DB
330
2
100
AcDbSymbolTableRecord
100
AcDbLayerTableRecord
  2
Visible (ANSI)
 70
     0
 62
     7
  6
Continuous
370
    50
390
F
347
21
  0
LAYER
  5
DD
330
2
100
AcDbSymbolTableRecord
100
AcDbLayerTableRecord
  2
Visible Narrow (ANSI)
 70
     0
 62
     7
  6
Continuous
370
    35
390
F
347
21
  0
LAYER
  5
2A1
330
2
100
AcDbSymbolTableRecord
100
AcDbLayerTableRecord
  2
Defpoints
 70
     0
 62
     7
  6
Continuous
290
     0
370
    -3
390
F
347
21
  0
ENDTAB
  0
TABLE
  2
STYLE
  5
3
330
0
100
AcDbSymbolTable
 70
     7
  0
STYLE
  5
55
330
3
100
AcDbSymbolTableRecord
100
AcDbTextStyleTableRecord
  2
Standard
 70
     0
 40
0.0
 41
1.0
 50
0.0
 71
     0
 42
0.2
  3
tahoma.ttf
  4

1001
ACAD
1000
Tahoma
1071
      256
  0
STYLE
  5
5A
330
3
100
AcDbSymbolTableRecord
100
AcDbTextStyleTableRecord
  2
Annotative
 70
     0
 40
0.0
 41
1.0
 50
0.0
 71
     0
 42
0.2
  3
txt
  4

1001
AcadAnnotative
1000
AnnotativeData
1002
{
1070
     1
1070
     1
1002
}
  0
STYLE
  5
AC
330
3
100
AcDbSymbolTableRecord
100
AcDbTextStyleTableRecord
  2

 70
     1
 40
0.0
 41
1.0
 50
0.0
 71
     0
 42
0.2
  3
ltypeshp.shx
  4

  0
STYLE
  5
E5
330
3
100
AcDbSymbolTableRecord
100
AcDbTextStyleTableRecord
  2
Label Text (ANSI)
 70
     0
 40
0.0
 41
1.0
 50
0.0
 71
     0
 42
0.2
  3
tahoma.ttf
  4

1001
ACAD
1000
Tahoma
1071
      256
  0
STYLE
  5
E6
330
3
100
AcDbSymbolTableRecord
100
AcDbTextStyleTableRecord
  2
Label Text (ISO)
 70
     0
 40
0.0
 41
1.0
 50
0.0
 71
     0
 42
0.2
  3
tahoma.ttf
  4

1001
ACAD
1000
Tahoma
1071
      256
  0
STYLE
  5
E7
330
3
100
AcDbSymbolTableRecord
100
AcDbTextStyleTableRecord
  2
Note Text (ANSI)
 70
     0
 40
0.0
 41
1.0
 50
0.0
 71
     0
 42
0.2
  3
tahoma.ttf
  4

1001
ACAD
1000
Tahoma
1071
      256
  0
STYLE
  5
E8
330
3
100
AcDbSymbolTableRecord
100
AcDbTextStyleTableRecord
  2
Note Text (ISO)
 70
     0
 40
0.0
 41
1.0
 50
0.0
 71
     0
 42
0.2
  3
tahoma.ttf
  4

1001
ACAD
1000
Tahoma
1071
      256
  0
ENDTAB
  0
TABLE
  2
VIEW
  5
6
330
0
100
AcDbSymbolTable
 70
     0
  0
ENDTAB
  0
TABLE
  2
UCS
  5
7
330
0
100
AcDbSymbolTable
 70
     0
  0
ENDTAB
  0
TABLE
  2
APPID
  5
9
330
0
100
AcDbSymbolTable
 70
     3
  0
APPID
  5
56
330
9
100
AcDbSymbolTableRecord
100
AcDbRegAppTableRecord
  2
ACAD
 70
     0
  0
APPID
  5
5E
330
9
100
AcDbSymbolTableRecord
100
AcDbRegAppTableRecord
  2
AcadAnnotative
 70
     0
  0
APPID
  5
196
330
9
100
AcDbSymbolTableRecord
100
AcDbRegAppTableRecord
  2
AcadAnnoPO
 70
     0
  0
ENDTAB
  0
TABLE
  2
DIMSTYLE
  5
A
330
0
100
AcDbSymbolTable
 70
    26
100
AcDbDimStyleTable
 71
     2
340
F1
340
58
  0
DIMSTYLE
105
58
330
A
100
AcDbSymbolTableRecord
100
AcDbDimStyleTableRecord
  2
Standard
 70
     0
340
55
  0
DIMSTYLE
105
59
330
A
100
AcDbSymbolTableRecord
100
AcDbDimStyleTableRecord
  2
Annotative
 70
     0
340
55
1001
AcadAnnotative
1000
AnnotativeData
1002
{
1070
     1
1070
     1
1002
}
  0
DIMSTYLE
105
E9
330
A
100
AcDbSymbolTableRecord
100
AcDbDimStyleTableRecord
  2
Default - Fraction (ANSI)
 70
     0
 41
2.5
 42
1.587499999999999
 43
5.999999999999999
 44
3.174999999999999
 45
0.00000001
 46
10.0
 79
     3
140
3.04800009727478
144
0.0393700787401575
147
0.8
171
     1
176
   256
177
   256
178
   256
272
     2
274
     1
276
     2
277
     5
284
    12
285
     4
286
    12
340
E7
371
    -1
372
    -1
  0
DIMSTYLE
105
EA
330
A
100
AcDbSymbolTableRecord
100
AcDbDimStyleTableRecord
  2
Default - Fraction (ANSI)$7
 70
     0
 41
2.5
 42
1.587499999999999
 43
5.999999999999999
 44
3.174999999999999
 45
0.00000001
 46
10.0
 79
     3
140
3.04800009727478
144
0.0393700787401575
147
0.8
171
     1
176
   256
177
   256
178
   256
272
     2
274
     1
276
     2
277
     5
284
    12
285
     4
286
    12
340
E7
371
    -1
372
    -1
  0
DIMSTYLE
105
EB
330
A
100
AcDbSymbolTableRecord
100
AcDbDimStyleTableRecord
  2
Default - Method 1b (ISO)
 70
     0
 41
2.5
 42
0.0
 43
5.999999999999999
 44
3.174999999999999
 45
0.00000001
 46
10.0
 73
     0
 77
     1
 78
     8
 79
     2
140
2.5
143
0.03937
146
1.399999976158142
147
0.762
171
     3
172
     1
176
   256
177
   256
178
   232
179
     2
271
     2
272
     2
274
     3
278
    44
284
     8
286
     8
340
E8
371
    -1
372
    -1
  0
DIMSTYLE
105
EC
330
A
100
AcDbSymbolTableRecord
100
AcDbDimStyleTableRecord
  2
Default - Method 1b (ISO)$7
 70
     0
 41
2.5
 42
0.0
 43
5.999999999999999
 44
3.174999999999999
 45
0.00000001
 46
10.0
 73
     0
 77
     1
 78
     8
 79
     2
140
2.5
143
0.03937
146
1.399999976158142
147
0.762
171
     3
172
     1
176
   256
177
   256
178
   232
179
     2
271
     2
272
     2
274
     3
278
    44
284
     8
286
     8
340
E8
371
    -1
372
    -1
  0
DIMSTYLE
105
ED
330
A
100
AcDbSymbolTableRecord
100
AcDbDimStyleTableRecord
  2
Default - Method 2a (ISO)
 70
     0
 41
2.5
 42
0.0
 43
5.999999999999999
 44
3.174999999999999
 45
0.00000001
 46
10.0
 77
     1
 78
     8
 79
     2
140
2.5
143
0.03937
146
1.399999976158142
147
0.762
171
     3
172
     1
176
   256
177
   256
178
   232
179
     2
271
     2
272
     2
274
     3
278
    44
284
     8
286
     8
340
E8
371
    -1
372
    -1
  0
DIMSTYLE
105
EE
330
A
100
AcDbSymbolTableRecord
100
AcDbDimStyleTableRecord
  2
Default - Method 2a (ISO)$7
 70
     0
 41
2.5
 42
0.0
 43
5.999999999999999
 44
3.174999999999999
 45
0.00000001
 46
10.0
 77
     1
 78
     8
 79
     2
140
2.5
143
0.03937
146
1.399999976158142
147
0.762
171
     3
172
     1
176
   256
177
   256
178
   232
179
     2
271
     2
272
     2
274
     3
278
    44
284
     8
286
     8
340
E8
371
    -1
372
    -1
  0
DIMSTYLE
105
EF
330
A
100
AcDbSymbolTableRecord
100
AcDbDimStyleTableRecord
  2
Default - Method 2b (ISO)
 70
     0
 41
2.5
 42
0.0
 43
5.999999999999999
 44
3.174999999999999
 45
0.00000001
 46
10.0
 77
     1
 78
     8
 79
     2
140
2.5
143
0.03937
147
0.762
171
     3
172
     1
176
   256
177
   256
178
   232
179
     2
271
     2
272
     1
274
     3
278
    44
284
     8
286
     8
340
E8
371
    -1
372
    -1
  0
DIMSTYLE
105
F0
330
A
100
AcDbSymbolTableRecord
100
AcDbDimStyleTableRecord
  2
Default - Method 2b (ISO)$7
 70
     0
 41
2.5
 42
0.0
 43
5.999999999999999
 44
3.174999999999999
 45
0.00000001
 46
10.0
 77
     1
 78
     8
 79
     2
140
2.5
143
0.03937
147
0.762
171
     3
172
     1
176
   256
177
   256
178
   232
179
     2
271
     2
272
     1
274
     3
278
    44
284
     8
286
     8
340
E8
371
    -1
372
    -1
  0
DIMSTYLE
105
F1
102
{ACAD_REACTORS
330
2A0
330
38B
330
475
330
55F
330
65A
330
755
330
83F
102
}
330
A
100
AcDbSymbolTableRecord
100
AcDbDimStyleTableRecord
  2
Default - mm (ANSI)
 70
     0
 41
2.5
 42
1.600199999999999
 43
5.999999999999999
 44
3.174999999999999
 45
0.00000001
 46
10.0
 73
     0
 78
     4
 79
     1
140
3.04800009727478
143
1.0
147
0.8
171
     1
176
   256
177
   256
178
   256
179
     1
271
     2
272
     2
274
     1
284
     4
285
     4
340
E7
371
    -1
372
    -1
  0
DIMSTYLE
105
F2
330
A
100
AcDbSymbolTableRecord
100
AcDbDimStyleTableRecord
  2
Default - mm (ANSI)$7
 70
     0
 41
2.5
 42
1.600199999999999
 43
5.999999999999999
 44
3.174999999999999
 45
0.00000001
 46
10.0
 73
     0
 78
     4
 79
     1
140
3.04800009727478
143
1.0
147
0.8
171
     1
176
   256
177
   256
178
   256
179
     1
271
     2
272
     2
274
     1
284
     4
285
     4
340
E7
371
    -1
372
    -1
  0
DIMSTYLE
105
F3
330
A
100
AcDbSymbolTableRecord
100
AcDbDimStyleTableRecord
  2
Default - mm [in] (ANSI)
 70
     0
  4
 in
 41
2.5
 42
1.600199999999999
 43
6.349999999999999
 44
3.174999999999999
 45
0.00000001
 46
10.0
 73
     0
 78
     4
 79
     1
140
3.04800009727478
143
0.03937
147
0.8
170
     1
171
     3
176
   256
177
   256
178
   256
179
     1
271
     2
272
     2
274
     3
284
     4
285
     4
286
     4
340
E7
371
    -1
372
    -1
  0
DIMSTYLE
105
F4
330
A
100
AcDbSymbolTableRecord
100
AcDbDimStyleTableRecord
  2
Default - mm [in] (ANSI)$7
 70
     0
  4
 in
 41
2.5
 42
1.600199999999999
 43
6.349999999999999
 44
3.174999999999999
 45
0.00000001
 46
10.0
 73
     0
 78
     4
 79
     1
140
3.04800009727478
143
0.03937
147
0.8
170
     1
171
     3
176
   256
177
   256
178
   256
179
     1
271
     2
272
     2
274
     3
284
     4
285
     4
286
     4
340
E7
371
    -1
372
    -1
  0
DIMSTYLE
105
F5
330
A
100
AcDbSymbolTableRecord
100
AcDbDimStyleTableRecord
  2
Default - mm [in] (ISO)
 70
     0
  4
 in
 41
2.5
 42
0.0
 43
5.999999999999999
 44
3.174999999999999
 45
0.00000001
 46
10.0
 73
     0
 74
     0
 77
     1
 78
     8
 79
     2
140
2.5
143
0.03937
146
1.399999976158142
147
0.762
170
     1
171
     3
172
     1
176
   256
177
   256
178
   232
179
     3
271
     3
272
     2
274
     3
275
     1
278
    44
284
     8
285
     8
286
     8
340
E8
371
    -1
372
    -1
  0
DIMSTYLE
105
F6
330
A
100
AcDbSymbolTableRecord
100
AcDbDimStyleTableRecord
  2
Default - mm [in] (ISO)$7
 70
     0
  4
 in
 41
2.5
 42
0.0
 43
5.999999999999999
 44
3.174999999999999
 45
0.00000001
 46
10.0
 73
     0
 74
     0
 77
     1
 78
     8
 79
     2
140
2.5
143
0.03937
146
1.399999976158142
147
0.762
170
     1
171
     3
172
     1
176
   256
177
   256
178
   232
179
     3
271
     3
272
     2
274
     3
275
     1
278
    44
284
     8
285
     8
286
     8
340
E8
371
    -1
372
    -1
  0
DIMSTYLE
105
F7
330
A
100
AcDbSymbolTableRecord
100
AcDbDimStyleTableRecord
  2
Default (ANSI)
 70
     0
 41
2.5
 42
1.587499999999999
 43
5.999999999999999
 44
3.174999999999999
 45
0.00000001
 46
10.0
 78
     4
 79
     1
140
3.04800009727478
144
0.0393700787401575
147
0.8
171
     1
176
   256
177
   256
178
   256
271
     2
272
     2
274
     1
284
     4
285
     4
340
E7
371
    -1
372
    -1
  0
DIMSTYLE
105
F8
330
A
100
AcDbSymbolTableRecord
100
AcDbDimStyleTableRecord
  2
Default (ANSI)$7
 70
     0
 41
2.5
 42
1.587499999999999
 43
5.999999999999999
 44
3.174999999999999
 45
0.00000001
 46
10.0
 78
     4
 79
     1
140
3.04800009727478
144
0.0393700787401575
147
0.8
171
     1
176
   256
177
   256
178
   256
271
     2
272
     2
274
     1
284
     4
285
     4
340
E7
371
    -1
372
    -1
  0
DIMSTYLE
105
F9
330
A
100
AcDbSymbolTableRecord
100
AcDbDimStyleTableRecord
  2
Default (ISO)
 70
     0
 41
2.5
 42
0.0
 43
5.999999999999999
 44
3.174999999999999
 45
0.00000001
 46
10.0
 73
     0
 74
     0
 77
     1
140
2.5
143
0.03937
146
1.402080059051513
147
0.762
171
     3
172
     1
176
   256
177
   256
178
   232
179
     2
271
     2
272
     2
274
     3
278
    44
340
E8
371
    -1
372
    -1
  0
DIMSTYLE
105
FA
330
A
100
AcDbSymbolTableRecord
100
AcDbDimStyleTableRecord
  2
Default (ISO)$7
 70
     0
 41
2.5
 42
0.0
 43
5.999999999999999
 44
3.174999999999999
 45
0.00000001
 46
10.0
 73
     0
 74
     0
 77
     1
140
2.5
143
0.03937
146
1.402080059051513
147
0.762
171
     3
172
     1
176
   256
177
   256
178
   232
179
     2
271
     2
272
     2
274
     3
278
    44
340
E8
371
    -1
372
    -1
  0
DIMSTYLE
105
FB
330
A
100
AcDbSymbolTableRecord
100
AcDbDimStyleTableRecord
  2
Alternate (ANSI)
 70
     0
 41
2.489200115203857
340
55
342
FC
  0
DIMSTYLE
105
103
330
A
100
AcDbSymbolTableRecord
100
AcDbDimStyleTableRecord
  2
Alternate (ISO)
 70
     0
 41
2.5
340
55
342
FC
  0
DIMSTYLE
105
10F
330
A
100
AcDbSymbolTableRecord
100
AcDbDimStyleTableRecord
  2
Datum (ANSI)
 70
     0
 41
2.489200115203857
340
55
342
FC
  0
DIMSTYLE
105
110
330
A
100
AcDbSymbolTableRecord
100
AcDbDimStyleTableRecord
  2
Datum (ISO)
 70
     0
 41
2.5
340
55
342
FC
  0
DIMSTYLE
105
11F
330
A
100
AcDbSymbolTableRecord
100
AcDbDimStyleTableRecord
  2
Large (ANSI)
 70
     0
 41
4.978400230407714
340
55
342
FC
  0
DIMSTYLE
105
120
330
A
100
AcDbSymbolTableRecord
100
AcDbDimStyleTableRecord
  2
Large (ISO)
 70
     0
 41
5.0
340
55
342
FC
  0
ENDTAB
  0
TABLE
  2
BLOCK_RECORD
  5
1
330
0
100
AcDbSymbolTable
 70
    14
  0
BLOCK_RECORD
  5
70
330
1
100
AcDbSymbolTableRecord
100
AcDbBlockTableRecord
  2
*Model_Space
340
73
 70
     0
280
     1
281
     0
  0
BLOCK_RECORD
  5
6C
330
1
100
AcDbSymbolTableRecord
100
AcDbBlockTableRecord
  2
*Paper_Space
340
6F
 70
     0
280
     1
281
     0
  0
BLOCK_RECORD
  5
74
330
1
100
AcDbSymbolTableRecord
100
AcDbBlockTableRecord
  2
*Paper_Space0
340
77
 70
     0
280
     1
281
     0
  0
BLOCK_RECORD
  5
FC
330
1
100
AcDbSymbolTableRecord
100
AcDbBlockTableRecord
  2
_Closed
340
0
 70
     0
280
     1
281
     0
  0
BLOCK_RECORD
  5
104
330
1
100
AcDbSymbolTableRecord
100
AcDbBlockTableRecord
  2
DatumFilled45
340
0
 70
     0
280
     1
281
     0
  0
BLOCK_RECORD
  5
111
330
1
100
AcDbSymbolTableRecord
100
AcDbBlockTableRecord
  2
Filled-1
340
0
 70
     0
280
     1
281
     0
  0
BLOCK_RECORD
  5
121
330
1
100
AcDbSymbolTableRecord
100
AcDbBlockTableRecord
  2
Borders Default Border
340
0
102
{BLKREFS
331
190
102
}
 70
     0
280
     1
281
     0
  0
BLOCK_RECORD
  5
191
330
1
100
AcDbSymbolTableRecord
100
AcDbBlockTableRecord
  2
Title Blocks ISO
340
0
102
{BLKREFS
331
198
102
}
 70
     0
280
     1
281
     0
  0
BLOCK_RECORD
  5
1E6
330
1
100
AcDbSymbolTableRecord
100
AcDbBlockTableRecord
  2
2dTransSection0
340
0
102
{BLKREFS
331
206
102
}
 70
     0
280
     1
281
     0
  0
BLOCK_RECORD
  5
2A2
330
1
100
AcDbSymbolTableRecord
100
AcDbBlockTableRecord
  2
*D7
340
0
 70
     0
280
     1
281
     0
  0
BLOCK_RECORD
  5
38C
330
1
100
AcDbSymbolTableRecord
100
AcDbBlockTableRecord
  2
*D8
340
0
 70
     0
280
     1
281
     0
  0
BLOCK_RECORD
  5
476
330
1
100
AcDbSymbolTableRecord
100
AcDbBlockTableRecord
  2
*D9
340
0
 70
     0
280
     1
281
     0
  0
BLOCK_RECORD
  5
560
330
1
100
AcDbSymbolTableRecord
100
AcDbBlockTableRecord
  2
*D10
340
0
 70
     0
280
     1
281
     0
  0
BLOCK_RECORD
  5
65B
330
1
100
AcDbSymbolTableRecord
100
AcDbBlockTableRecord
  2
*D11
340
0
 70
     0
280
     1
281
     0
  0
BLOCK_RECORD
  5
756
330
1
100
AcDbSymbolTableRecord
100
AcDbBlockTableRecord
  2
*D12
340
0
 70
     0
280
     1
281
     0
  0
BLOCK_RECORD
  5
840
330
1
100
AcDbSymbolTableRecord
100
AcDbBlockTableRecord
  2
*D13
340
0
 70
     0
280
     1
281
     0
  0
ENDTAB
  0
ENDSEC
  0
SECTION
  2
BLOCKS
  0
BLOCK
  5
71
330
70
100
AcDbEntity
  8
0
100
AcDbBlockBegin
  2
*Model_Space
 70
     0
 10
0.0
 20
0.0
 30
0.0
  3
*Model_Space
  1

  0
ENDBLK
  5
72
330
70
100
AcDbEntity
  8
0
100
AcDbBlockEnd
  0
BLOCK
  5
6D
330
6C
100
AcDbEntity
 67
     1
  8
0
100
AcDbBlockBegin
  2
*Paper_Space
 70
     0
 10
0.0
 20
0.0
 30
0.0
  3
*Paper_Space
  1

  0
ENDBLK
  5
6E
330
6C
100
AcDbEntity
 67
     1
  8
0
100
AcDbBlockEnd
  0
BLOCK
  5
75
330
74
100
AcDbEntity
 67
     1
  8
0
100
AcDbBlockBegin
  2
*Paper_Space0
 70
     0
 10
0.0
 20
0.0
 30
0.0
  3
*Paper_Space0
  1

  0
ENDBLK
  5
76
330
74
100
AcDbEntity
 67
     1
  8
0
100
AcDbBlockEnd
  0
BLOCK
  5
101
330
FC
100
AcDbEntity
  8
0
100
AcDbBlockBegin
  2
_Closed
 70
     0
 10
0.0
 20
0.0
 30
0.0
  3
_Closed
  1

  0
LINE
  5
FD
330
FC
100
AcDbEntity
  8
0
  6
ByBlock
 62
     0
370
    -2
100
AcDbLine
 10
-1.0
 20
0.1666666666666666
 30
0.0
 11
0.0
 21
0.0
 31
0.0
  0
LINE
  5
FE
330
FC
100
AcDbEntity
  8
0
  6
ByBlock
 62
     0
370
    -2
100
AcDbLine
 10
0.0
 20
0.0
 30
0.0
 11
-1.0
 21
-0.1666666666666666
 31
0.0
  0
LINE
  5
FF
330
FC
100
AcDbEntity
  8
0
  6
ByBlock
 62
     0
370
    -2
100
AcDbLine
 10
-1.0
 20
0.1666666666666666
 30
0.0
 11
-1.0
 21
-0.1666666666666666
 31
0.0
  0
LINE
  5
100
330
FC
100
AcDbEntity
  8
0
  6
ByBlock
 62
     0
370
    -2
100
AcDbLine
 10
0.0
 20
0.0
 30
0.0
 11
-1.0
 21
0.0
 31
0.0
  0
ENDBLK
  5
102
330
FC
100
AcDbEntity
  8
0
100
AcDbBlockEnd
  0
BLOCK
  5
105
330
104
100
AcDbEntity
  8
0
100
AcDbBlockBegin
  2
DatumFilled45
 70
     0
 10
0.0
 20
0.0
 30
0.0
  3
DatumFilled45
  1

  0
POLYLINE
  5
107
330
104
100
AcDbEntity
  8
0
 62
     0
100
AcDb2dPolyline
 66
     1
 10
0.0
 20
0.0
 30
0.0
 70
   128
  0
VERTEX
  5
108
330
107
100
AcDbEntity
  8
0
 62
     0
100
AcDbVertex
100
AcDb2dVertex
 10
0.0
 20
1.0
 30
0.0
  0
VERTEX
  5
109
330
107
100
AcDbEntity
  8
0
 62
     0
100
AcDbVertex
100
AcDb2dVertex
 10
0.0
 20
-1.0
 30
0.0
  0
VERTEX
  5
10B
330
107
100
AcDbEntity
  8
0
 62
     0
100
AcDbVertex
100
AcDb2dVertex
 10
-1.0
 20
0.0
 30
0.0
  0
VERTEX
  5
10C
330
107
100
AcDbEntity
  8
0
 62
     0
100
AcDbVertex
100
AcDb2dVertex
 10
0.0
 20
1.0
 30
0.0
  0
SEQEND
  5
10A
330
107
100
AcDbEntity
  8
0
 62
     0
  0
SOLID
  5
10E
330
104
100
AcDbEntity
  8
0
 62
     0
100
AcDbTrace
 10
0.0
 20
1.0
 30
0.0
 11
0.0
 21
-1.0
 31
0.0
 12
-1.0
 22
0.0
 32
0.0
 13
0.0
 23
1.0
 33
0.0
  0
ENDBLK
  5
106
330
104
100
AcDbEntity
  8
0
100
AcDbBlockEnd
  0
BLOCK
  5
112
330
111
100
AcDbEntity
  8
0
100
AcDbBlockBegin
  2
Filled-1
 70
     0
 10
0.0
 20
0.0
 30
0.0
  3
Filled-1
  1

  0
LINE
  5
114
330
111
100
AcDbEntity
  8
0
 62
     0
100
AcDbLine
 10
-1.0
 20
0.0
 30
0.0
 11
0.0
 21
0.0
 31
0.0
  0
POLYLINE
  5
115
330
111
100
AcDbEntity
  8
0
 62
     0
100
AcDb2dPolyline
 66
     1
 10
0.0
 20
0.0
 30
0.0
 70
   128
  0
VERTEX
  5
116
330
115
100
AcDbEntity
  8
0
 62
     0
100
AcDbVertex
100
AcDb2dVertex
 10
-1.0
 20
-0.0994897959183674
 30
0.0
  0
VERTEX
  5
117
330
115
100
AcDbEntity
  8
0
 62
     0
100
AcDbVertex
100
AcDb2dVertex
 10
0.0
 20
0.0
 30
0.0
  0
VERTEX
  5
119
330
115
100
AcDbEntity
  8
0
 62
     0
100
AcDbVertex
100
AcDb2dVertex
 10
-1.0
 20
0.0994897959183674
 30
0.0
  0
VERTEX
  5
11A
330
115
100
AcDbEntity
  8
0
 62
     0
100
AcDbVertex
100
AcDb2dVertex
 10
-1.0
 20
-0.0994897959183674
 30
0.0
  0
SEQEND
  5
118
330
115
100
AcDbEntity
  8
0
 62
     0
  0
SOLID
  5
11B
330
111
100
AcDbEntity
  8
0
 62
     0
100
AcDbTrace
 10
-1.0
 20
-0.0994897959183674
 30
0.0
 11
0.0
 21
0.0
 31
0.0
 12
-1.0
 22
0.0994897959183674
 32
0.0
 13
-1.0
 23
-0.0994897959183674
 33
0.0
  0
LINE
  5
11C
330
111
100
AcDbEntity
  8
0
 62
     0
100
AcDbLine
 10
-1.0
 20
-0.0994897959183674
 30
0.0
 11
0.0
 21
0.0
 31
0.0
  0
LINE
  5
11D
330
111
100
AcDbEntity
  8
0
 62
     0
100
AcDbLine
 10
0.0
 20
0.0
 30
0.0
 11
-1.0
 21
0.0994897959183674
 31
0.0
  0
LINE
  5
11E
330
111
100
AcDbEntity
  8
0
 62
     0
100
AcDbLine
 10
-1.0
 20
0.0994897959183674
 30
0.0
 11
-1.0
 21
-0.0994897959183674
 31
0.0
  0
ENDBLK
  5
113
330
111
100
AcDbEntity
  8
0
100
AcDbBlockEnd
  0
BLOCK
  5
122
330
121
100
AcDbEntity
  8
0
100
AcDbBlockBegin
  2
Borders Default Border
 70
     0
 10
0.0
 20
0.0
 30
0.0
  3
Borders Default Border
  1

  0
POLYLINE
  5
124
330
121
100
AcDbEntity
  8
Border (ANSI)
100
AcDb2dPolyline
 66
     1
 10
0.0
 20
0.0
 30
0.0
 70
   128
  0
VERTEX
  5
125
330
124
100
AcDbEntity
  8
Border (ANSI)
100
AcDbVertex
100
AcDb2dVertex
 10
20.0
 20
20.0
 30
0.0
  0
VERTEX
  5
126
330
124
100
AcDbEntity
  8
Border (ANSI)
100
AcDbVertex
100
AcDb2dVertex
 10
20.0
 20
574.000015258789
 30
0.0
  0
VERTEX
  5
128
330
124
100
AcDbEntity
  8
Border (ANSI)
100
AcDbVertex
100
AcDb2dVertex
 10
820.999984741211
 20
574.000015258789
 30
0.0
  0
VERTEX
  5
129
330
124
100
AcDbEntity
  8
Border (ANSI)
100
AcDbVertex
100
AcDb2dVertex
 10
820.999984741211
 20
20.0
 30
0.0
  0
VERTEX
  5
12A
330
124
100
AcDbEntity
  8
Border (ANSI)
100
AcDbVertex
100
AcDb2dVertex
 10
20.0
 20
20.0
 30
0.0
  0
SEQEND
  5
127
330
124
100
AcDbEntity
  8
Border (ANSI)
  0
POLYLINE
  5
12B
330
121
100
AcDbEntity
  8
Border (ANSI)
100
AcDb2dPolyline
 66
     1
 10
0.0
 20
0.0
 30
0.0
 70
   128
  0
VERTEX
  5
12C
330
12B
100
AcDbEntity
  8
Border (ANSI)
100
AcDbVertex
100
AcDb2dVertex
 10
420.4999923706054
 20
0.0
 30
0.0
  0
VERTEX
  5
12D
330
12B
100
AcDbEntity
  8
Border (ANSI)
100
AcDbVertex
100
AcDb2dVertex
 10
420.4999923706054
 20
20.0
 30
0.0
  0
VERTEX
  5
12F
330
12B
100
AcDbEntity
  8
Border (ANSI)
100
AcDbVertex
100
AcDb2dVertex
 10
414.7264862060547
 20
10.0
 30
0.0
  0
VERTEX
  5
130
330
12B
100
AcDbEntity
  8
Border (ANSI)
100
AcDbVertex
100
AcDb2dVertex
 10
426.2734985351562
 20
10.0
 30
0.0
  0
VERTEX
  5
131
330
12B
100
AcDbEntity
  8
Border (ANSI)
100
AcDbVertex
100
AcDb2dVertex
 10
420.4999923706054
 20
20.0
 30
0.0
  0
SEQEND
  5
12E
330
12B
100
AcDbEntity
  8
Border (ANSI)
  0
POLYLINE
  5
132
330
121
100
AcDbEntity
  8
Border (ANSI)
100
AcDb2dPolyline
 66
     1
 10
0.0
 20
0.0
 30
0.0
 70
   128
  0
VERTEX
  5
133
330
132
100
AcDbEntity
  8
Border (ANSI)
100
AcDbVertex
100
AcDb2dVertex
 10
420.4999923706054
 20
594.0000152587891
 30
0.0
  0
VERTEX
  5
134
330
132
100
AcDbEntity
  8
Border (ANSI)
100
AcDbVertex
100
AcDb2dVertex
 10
420.4999923706054
 20
574.000015258789
 30
0.0
  0
VERTEX
  5
136
330
132
100
AcDbEntity
  8
Border (ANSI)
100
AcDbVertex
100
AcDb2dVertex
 10
414.7264862060547
 20
584.000015258789
 30
0.0
  0
VERTEX
  5
137
330
132
100
AcDbEntity
  8
Border (ANSI)
100
AcDbVertex
100
AcDb2dVertex
 10
426.2734985351562
 20
584.000015258789
 30
0.0
  0
VERTEX
  5
138
330
132
100
AcDbEntity
  8
Border (ANSI)
100
AcDbVertex
100
AcDb2dVertex
 10
420.4999923706054
 20
574.000015258789
 30
0.0
  0
SEQEND
  5
135
330
132
100
AcDbEntity
  8
Border (ANSI)
  0
POLYLINE
  5
139
330
121
100
AcDbEntity
  8
Border (ANSI)
100
AcDb2dPolyline
 66
     1
 10
0.0
 20
0.0
 30
0.0
 70
   128
  0
VERTEX
  5
13A
330
139
100
AcDbEntity
  8
Border (ANSI)
100
AcDbVertex
100
AcDb2dVertex
 10
0.0
 20
297.0000076293946
 30
0.0
  0
VERTEX
  5
13B
330
139
100
AcDbEntity
  8
Border (ANSI)
100
AcDbVertex
100
AcDb2dVertex
 10
20.0
 20
297.0000076293946
 30
0.0
  0
VERTEX
  5
13D
330
139
100
AcDbEntity
  8
Border (ANSI)
100
AcDbVertex
100
AcDb2dVertex
 10
10.0
 20
302.773494720459
 30
0.0
  0
VERTEX
  5
13E
330
139
100
AcDbEntity
  8
Border (ANSI)
100
AcDbVertex
100
AcDb2dVertex
 10
10.0
 20
291.2265014648438
 30
0.0
  0
VERTEX
  5
13F
330
139
100
AcDbEntity
  8
Border (ANSI)
100
AcDbVertex
100
AcDb2dVertex
 10
20.0
 20
297.0000076293946
 30
0.0
  0
SEQEND
  5
13C
330
139
100
AcDbEntity
  8
Border (ANSI)
  0
POLYLINE
  5
140
330
121
100
AcDbEntity
  8
Border (ANSI)
100
AcDb2dPolyline
 66
     1
 10
0.0
 20
0.0
 30
0.0
 70
   128
  0
VERTEX
  5
141
330
140
100
AcDbEntity
  8
Border (ANSI)
100
AcDbVertex
100
AcDb2dVertex
 10
840.9999847412109
 20
297.0000076293946
 30
0.0
  0
VERTEX
  5
142
330
140
100
AcDbEntity
  8
Border (ANSI)
100
AcDbVertex
100
AcDb2dVertex
 10
820.999984741211
 20
297.0000076293946
 30
0.0
  0
VERTEX
  5
144
330
140
100
AcDbEntity
  8
Border (ANSI)
100
AcDbVertex
100
AcDb2dVertex
 10
830.9999847412109
 20
302.773494720459
 30
0.0
  0
VERTEX
  5
145
330
140
100
AcDbEntity
  8
Border (ANSI)
100
AcDbVertex
100
AcDb2dVertex
 10
830.9999847412109
 20
291.2265014648438
 30
0.0
  0
VERTEX
  5
146
330
140
100
AcDbEntity
  8
Border (ANSI)
100
AcDbVertex
100
AcDb2dVertex
 10
820.999984741211
 20
297.0000076293946
 30
0.0
  0
SEQEND
  5
143
330
140
100
AcDbEntity
  8
Border (ANSI)
  0
LINE
  5
147
330
121
100
AcDbEntity
  8
Border (ANSI)
100
AcDbLine
 10
70.08333206176757
 20
20.0
 30
0.0
 11
70.08333206176757
 21
16.55200004577636
 31
0.0
  0
LINE
  5
148
330
121
100
AcDbEntity
  8
Border (ANSI)
100
AcDbLine
 10
70.08333206176757
 20
574.000015258789
 30
0.0
 11
70.08333206176757
 21
577.4480056762695
 31
0.0
  0
LINE
  5
149
330
121
100
AcDbEntity
  8
Border (ANSI)
100
AcDbLine
 10
140.1666641235351
 20
20.0
 30
0.0
 11
140.1666641235351
 21
16.55200004577636
 31
0.0
  0
LINE
  5
14A
330
121
100
AcDbEntity
  8
Border (ANSI)
100
AcDbLine
 10
140.1666641235351
 20
574.000015258789
 30
0.0
 11
140.1666641235351
 21
577.4480056762695
 31
0.0
  0
LINE
  5
14B
330
121
100
AcDbEntity
  8
Border (ANSI)
100
AcDbLine
 10
210.2499961853027
 20
20.0
 30
0.0
 11
210.2499961853027
 21
16.55200004577636
 31
0.0
  0
LINE
  5
14C
330
121
100
AcDbEntity
  8
Border (ANSI)
100
AcDbLine
 10
210.2499961853027
 20
574.000015258789
 30
0.0
 11
210.2499961853027
 21
577.4480056762695
 31
0.0
  0
LINE
  5
14D
330
121
100
AcDbEntity
  8
Border (ANSI)
100
AcDbLine
 10
280.3333282470703
 20
20.0
 30
0.0
 11
280.3333282470703
 21
16.55200004577636
 31
0.0
  0
LINE
  5
14E
330
121
100
AcDbEntity
  8
Border (ANSI)
100
AcDbLine
 10
280.3333282470703
 20
574.000015258789
 30
0.0
 11
280.3333282470703
 21
577.4480056762695
 31
0.0
  0
LINE
  5
14F
330
121
100
AcDbEntity
  8
Border (ANSI)
100
AcDbLine
 10
350.4166793823242
 20
20.0
 30
0.0
 11
350.4166793823242
 21
16.55200004577636
 31
0.0
  0
LINE
  5
150
330
121
100
AcDbEntity
  8
Border (ANSI)
100
AcDbLine
 10
350.4166793823242
 20
574.000015258789
 30
0.0
 11
350.4166793823242
 21
577.4480056762695
 31
0.0
  0
LINE
  5
151
330
121
100
AcDbEntity
  8
Border (ANSI)
100
AcDbLine
 10
490.5833435058593
 20
20.0
 30
0.0
 11
490.5833435058593
 21
16.55200004577636
 31
0.0
  0
LINE
  5
152
330
121
100
AcDbEntity
  8
Border (ANSI)
100
AcDbLine
 10
490.5833435058593
 20
574.000015258789
 30
0.0
 11
490.5833435058593
 21
577.4480056762695
 31
0.0
  0
LINE
  5
153
330
121
100
AcDbEntity
  8
Border (ANSI)
100
AcDbLine
 10
560.6666564941406
 20
20.0
 30
0.0
 11
560.6666564941406
 21
16.55200004577636
 31
0.0
  0
LINE
  5
154
330
121
100
AcDbEntity
  8
Border (ANSI)
100
AcDbLine
 10
560.6666564941406
 20
574.000015258789
 30
0.0
 11
560.6666564941406
 21
577.4480056762695
 31
0.0
  0
LINE
  5
155
330
121
100
AcDbEntity
  8
Border (ANSI)
100
AcDbLine
 10
630.7500076293945
 20
20.0
 30
0.0
 11
630.7500076293945
 21
16.55200004577636
 31
0.0
  0
LINE
  5
156
330
121
100
AcDbEntity
  8
Border (ANSI)
100
AcDbLine
 10
630.7500076293945
 20
574.000015258789
 30
0.0
 11
630.7500076293945
 21
577.4480056762695
 31
0.0
  0
LINE
  5
157
330
121
100
AcDbEntity
  8
Border (ANSI)
100
AcDbLine
 10
700.8333587646484
 20
20.0
 30
0.0
 11
700.8333587646484
 21
16.55200004577636
 31
0.0
  0
LINE
  5
158
330
121
100
AcDbEntity
  8
Border (ANSI)
100
AcDbLine
 10
700.8333587646484
 20
574.000015258789
 30
0.0
 11
700.8333587646484
 21
577.4480056762695
 31
0.0
  0
LINE
  5
159
330
121
100
AcDbEntity
  8
Border (ANSI)
100
AcDbLine
 10
770.9166717529297
 20
20.0
 30
0.0
 11
770.9166717529297
 21
16.55200004577636
 31
0.0
  0
LINE
  5
15A
330
121
100
AcDbEntity
  8
Border (ANSI)
100
AcDbLine
 10
770.9166717529297
 20
574.000015258789
 30
0.0
 11
770.9166717529297
 21
577.4480056762695
 31
0.0
  0
MTEXT
  5
15B
330
121
100
AcDbEntity
  8
Border (ANSI)
100
AcDbMText
 10
34.3540311586227
 20
574.3999999999999
 30
0.0
 40
3.048000037670135
 41
0.0
 46
0.0
 71
     7
 72
     1
  1
1
  7
Note Text (ANSI)
 73
     1
 44
1.0
  0
MTEXT
  5
15D
330
121
100
AcDbEntity
  8
Border (ANSI)
100
AcDbMText
 10
34.3540311586227
 20
16.55199996232986
 30
0.0
 40
3.048000037670135
 41
0.0
 46
0.0
 71
     7
 72
     1
  1
1
  7
Note Text (ANSI)
 73
     1
 44
1.0
  0
MTEXT
  5
15E
330
121
100
AcDbEntity
  8
Border (ANSI)
100
AcDbMText
 10
104.2008390835277
 20
574.3999999999999
 30
0.0
 40
3.048000037670135
 41
0.0
 46
0.0
 71
     7
 72
     1
  1
2
  7
Note Text (ANSI)
 73
     1
 44
1.0
  0
MTEXT
  5
15F
330
121
100
AcDbEntity
  8
Border (ANSI)
100
AcDbMText
 10
104.2008390835277
 20
16.55199996232986
 30
0.0
 40
3.048000037670135
 41
0.0
 46
0.0
 71
     7
 72
     1
  1
2
  7
Note Text (ANSI)
 73
     1
 44
1.0
  0
MTEXT
  5
160
330
121
100
AcDbEntity
  8
Border (ANSI)
100
AcDbMText
 10
174.2597883541365
 20
574.3357795808464
 30
0.0
 40
3.048000037670135
 41
0.0
 46
0.0
 71
     7
 72
     1
  1
3
  7
Note Text (ANSI)
 73
     1
 44
1.0
  0
MTEXT
  5
161
330
121
100
AcDbEntity
  8
Border (ANSI)
100
AcDbMText
 10
174.2597883541365
 20
16.48777954317629
 30
0.0
 40
3.048000037670135
 41
0.0
 46
0.0
 71
     7
 72
     1
  1
3
  7
Note Text (ANSI)
 73
     1
 44
1.0
  0
MTEXT
  5
162
330
121
100
AcDbEntity
  8
Border (ANSI)
100
AcDbMText
 10
244.2285165926644
 20
574.3999999999999
 30
0.0
 40
3.048000037670135
 41
0.0
 46
0.0
 71
     7
 72
     1
  1
4
  7
Note Text (ANSI)
 73
     1
 44
1.0
  0
MTEXT
  5
163
330
121
100
AcDbEntity
  8
Border (ANSI)
100
AcDbMText
 10
244.2285165926644
 20
16.55199996232986
 30
0.0
 40
3.048000037670135
 41
0.0
 46
0.0
 71
     7
 72
     1
  1
4
  7
Note Text (ANSI)
 73
     1
 44
1.0
  0
MTEXT
  5
164
330
121
100
AcDbEntity
  8
Border (ANSI)
100
AcDbMText
 10
314.4825383650697
 20
574.3357795808464
 30
0.0
 40
3.048000037670135
 41
0.0
 46
0.0
 71
     7
 72
     1
  1
5
  7
Note Text (ANSI)
 73
     1
 44
1.0
  0
MTEXT
  5
165
330
121
100
AcDbEntity
  8
Border (ANSI)
100
AcDbMText
 10
314.4825383650697
 20
16.48777954317629
 30
0.0
 40
3.048000037670135
 41
0.0
 46
0.0
 71
     7
 72
     1
  1
5
  7
Note Text (ANSI)
 73
     1
 44
1.0
  0
MTEXT
  5
166
330
121
100
AcDbEntity
  8
Border (ANSI)
100
AcDbMText
 10
384.485404291412
 20
574.3357795808464
 30
0.0
 40
3.048000037670135
 41
0.0
 46
0.0
 71
     7
 72
     1
  1
6
  7
Note Text (ANSI)
 73
     1
 44
1.0
  0
MTEXT
  5
167
330
121
100
AcDbEntity
  8
Border (ANSI)
100
AcDbMText
 10
384.485404291412
 20
16.48777954317629
 30
0.0
 40
3.048000037670135
 41
0.0
 46
0.0
 71
     7
 72
     1
  1
6
  7
Note Text (ANSI)
 73
     1
 44
1.0
  0
MTEXT
  5
168
330
121
100
AcDbEntity
  8
Border (ANSI)
100
AcDbMText
 10
454.5979985000148
 20
574.3999999999999
 30
0.0
 40
3.048000037670135
 41
0.0
 46
0.0
 71
     7
 72
     1
  1
7
  7
Note Text (ANSI)
 73
     1
 44
1.0
  0
MTEXT
  5
169
330
121
100
AcDbEntity
  8
Border (ANSI)
100
AcDbMText
 10
454.5979985000148
 20
16.55199996232986
 30
0.0
 40
3.048000037670135
 41
0.0
 46
0.0
 71
     7
 72
     1
  1
7
  7
Note Text (ANSI)
 73
     1
 44
1.0
  0
MTEXT
  5
16A
330
121
100
AcDbEntity
  8
Border (ANSI)
100
AcDbMText
 10
524.6301253016265
 20
574.3308395478874
 30
0.0
 40
3.048000037670135
 41
0.0
 46
0.0
 71
     7
 72
     1
  1
8
  7
Note Text (ANSI)
 73
     1
 44
1.0
  0
MTEXT
  5
16B
330
121
100
AcDbEntity
  8
Border (ANSI)
100
AcDbMText
 10
524.6301253016265
 20
16.48283951021731
 30
0.0
 40
3.048000037670135
 41
0.0
 46
0.0
 71
     7
 72
     1
  1
8
  7
Note Text (ANSI)
 73
     1
 44
1.0
  0
MTEXT
  5
16C
330
121
100
AcDbEntity
  8
Border (ANSI)
100
AcDbMText
 10
594.7012666035975
 20
574.3407196138053
 30
0.0
 40
3.048000037670135
 41
0.0
 46
0.0
 71
     7
 72
     1
  1
9
  7
Note Text (ANSI)
 73
     1
 44
1.0
  0
MTEXT
  5
16D
330
121
100
AcDbEntity
  8
Border (ANSI)
100
AcDbMText
 10
594.7012666035975
 20
16.49271957613528
 30
0.0
 40
3.048000037670135
 41
0.0
 46
0.0
 71
     7
 72
     1
  1
9
  7
Note Text (ANSI)
 73
     1
 44
1.0
  0
MTEXT
  5
16E
330
121
100
AcDbEntity
  8
Border (ANSI)
100
AcDbMText
 10
663.9604136776295
 20
574.3357795808464
 30
0.0
 40
3.048000037670135
 41
0.0
 46
0.0
 71
     7
 72
     1
  1
10
  7
Note Text (ANSI)
 73
     1
 44
1.0
  0
MTEXT
  5
16F
330
121
100
AcDbEntity
  8
Border (ANSI)
100
AcDbMText
 10
663.9604136776295
 20
16.48777954317629
 30
0.0
 40
3.048000037670135
 41
0.0
 46
0.0
 71
     7
 72
     1
  1
10
  7
Note Text (ANSI)
 73
     1
 44
1.0
  0
MTEXT
  5
170
330
121
100
AcDbEntity
  8
Border (ANSI)
100
AcDbMText
 10
734.0437470109629
 20
574.3999999999999
 30
0.0
 40
3.048000037670135
 41
0.0
 46
0.0
 71
     7
 72
     1
  1
11
  7
Note Text (ANSI)
 73
     1
 44
1.0
  0
MTEXT
  5
171
330
121
100
AcDbEntity
  8
Border (ANSI)
100
AcDbMText
 10
734.0437470109629
 20
16.55199996232986
 30
0.0
 40
3.048000037670135
 41
0.0
 46
0.0
 71
     7
 72
     1
  1
11
  7
Note Text (ANSI)
 73
     1
 44
1.0
  0
MTEXT
  5
172
330
121
100
AcDbEntity
  8
Border (ANSI)
100
AcDbMText
 10
804.127080344296
 20
574.3999999999999
 30
0.0
 40
3.048000037670135
 41
0.0
 46
0.0
 71
     7
 72
     1
  1
12
  7
Note Text (ANSI)
 73
     1
 44
1.0
  0
MTEXT
  5
173
330
121
100
AcDbEntity
  8
Border (ANSI)
100
AcDbMText
 10
804.127080344296
 20
16.55199996232986
 30
0.0
 40
3.048000037670135
 41
0.0
 46
0.0
 71
     7
 72
     1
  1
12
  7
Note Text (ANSI)
 73
     1
 44
1.0
  0
LINE
  5
174
330
121
100
AcDbEntity
  8
Border (ANSI)
100
AcDbLine
 10
20.0
 20
74.25000190734863
 30
0.0
 11
16.55200004577636
 21
74.25000190734863
 31
0.0
  0
LINE
  5
175
330
121
100
AcDbEntity
  8
Border (ANSI)
100
AcDbLine
 10
820.999984741211
 20
74.25000190734863
 30
0.0
 11
824.448013305664
 21
74.25000190734863
 31
0.0
  0
LINE
  5
176
330
121
100
AcDbEntity
  8
Border (ANSI)
100
AcDbLine
 10
20.0
 20
148.5000038146973
 30
0.0
 11
16.55200004577636
 21
148.5000038146973
 31
0.0
  0
LINE
  5
177
330
121
100
AcDbEntity
  8
Border (ANSI)
100
AcDbLine
 10
820.999984741211
 20
148.5000038146973
 30
0.0
 11
824.448013305664
 21
148.5000038146973
 31
0.0
  0
LINE
  5
178
330
121
100
AcDbEntity
  8
Border (ANSI)
100
AcDbLine
 10
20.0
 20
222.7499961853027
 30
0.0
 11
16.55200004577636
 21
222.7499961853027
 31
0.0
  0
LINE
  5
179
330
121
100
AcDbEntity
  8
Border (ANSI)
100
AcDbLine
 10
820.999984741211
 20
222.7499961853027
 30
0.0
 11
824.448013305664
 21
222.7499961853027
 31
0.0
  0
LINE
  5
17A
330
121
100
AcDbEntity
  8
Border (ANSI)
100
AcDbLine
 10
20.0
 20
371.25
 30
0.0
 11
16.55200004577636
 21
371.25
 31
0.0
  0
LINE
  5
17B
330
121
100
AcDbEntity
  8
Border (ANSI)
100
AcDbLine
 10
820.999984741211
 20
371.25
 30
0.0
 11
824.448013305664
 21
371.25
 31
0.0
  0
LINE
  5
17C
330
121
100
AcDbEntity
  8
Border (ANSI)
100
AcDbLine
 10
20.0
 20
445.4999923706054
 30
0.0
 11
16.55200004577636
 21
445.4999923706054
 31
0.0
  0
LINE
  5
17D
330
121
100
AcDbEntity
  8
Border (ANSI)
100
AcDbLine
 10
820.999984741211
 20
445.4999923706054
 30
0.0
 11
824.448013305664
 21
445.4999923706054
 31
0.0
  0
LINE
  5
17E
330
121
100
AcDbEntity
  8
Border (ANSI)
100
AcDbLine
 10
20.0
 20
519.7499847412109
 30
0.0
 11
16.55200004577636
 21
519.7499847412109
 31
0.0
  0
LINE
  5
17F
330
121
100
AcDbEntity
  8
Border (ANSI)
100
AcDbLine
 10
820.999984741211
 20
519.7499847412109
 30
0.0
 11
824.448013305664
 21
519.7499847412109
 31
0.0
  0
MTEXT
  5
180
330
121
100
AcDbEntity
  8
Border (ANSI)
100
AcDbMText
 10
16.77949436009943
 20
555.3509999811649
 30
0.0
 40
3.048000037670135
 41
0.0
 46
0.0
 71
     7
 72
     1
  1
A
  7
Note Text (ANSI)
 73
     1
 44
1.0
  0
MTEXT
  5
181
330
121
100
AcDbEntity
  8
Border (ANSI)
100
AcDbMText
 10
821.6274943977696
 20
555.3509999811649
 30
0.0
 40
3.048000037670135
 41
0.0
 46
0.0
 71
     7
 72
     1
  1
A
  7
Note Text (ANSI)
 73
     1
 44
1.0
  0
MTEXT
  5
182
330
121
100
AcDbEntity
  8
Border (ANSI)
100
AcDbMText
 10
17.14579267448747
 20
481.1009999811649
 30
0.0
 40
3.048000037670135
 41
0.0
 46
0.0
 71
     7
 72
     1
  1
B
  7
Note Text (ANSI)
 73
     1
 44
1.0
  0
MTEXT
  5
183
330
121
100
AcDbEntity
  8
Border (ANSI)
100
AcDbMText
 10
821.9937927121575
 20
481.1009999811649
 30
0.0
 40
3.048000037670135
 41
0.0
 46
0.0
 71
     7
 72
     1
  1
B
  7
Note Text (ANSI)
 73
     1
 44
1.0
  0
MTEXT
  5
184
330
121
100
AcDbEntity
  8
Border (ANSI)
100
AcDbMText
 10
16.95163907886036
 20
406.7966596232727
 30
0.0
 40
3.048000037670135
 41
0.0
 46
0.0
 71
     7
 72
     1
  1
C
  7
Note Text (ANSI)
 73
     1
 44
1.0
  0
MTEXT
  5
185
330
121
100
AcDbEntity
  8
Border (ANSI)
100
AcDbMText
 10
821.7996391165304
 20
406.7966596232727
 30
0.0
 40
3.048000037670135
 41
0.0
 46
0.0
 71
     7
 72
     1
  1
C
  7
Note Text (ANSI)
 73
     1
 44
1.0
  0
MTEXT
  5
186
330
121
100
AcDbEntity
  8
Border (ANSI)
100
AcDbMText
 10
16.95930643028581
 20
332.600999981165
 30
0.0
 40
3.048000037670135
 41
0.0
 46
0.0
 71
     7
 72
     1
  1
D
  7
Note Text (ANSI)
 73
     1
 44
1.0
  0
MTEXT
  5
187
330
121
100
AcDbEntity
  8
Border (ANSI)
100
AcDbMText
 10
821.8073064679559
 20
332.600999981165
 30
0.0
 40
3.048000037670135
 41
0.0
 46
0.0
 71
     7
 72
     1
  1
D
  7
Note Text (ANSI)
 73
     1
 44
1.0
  0
MTEXT
  5
188
330
121
100
AcDbEntity
  8
Border (ANSI)
100
AcDbMText
 10
17.20507306999528
 20
258.350999981165
 30
0.0
 40
3.048000037670135
 41
0.0
 46
0.0
 71
     7
 72
     1
  1
E
  7
Note Text (ANSI)
 73
     1
 44
1.0
  0
MTEXT
  5
189
330
121
100
AcDbEntity
  8
Border (ANSI)
100
AcDbMText
 10
822.0530731076655
 20
258.350999981165
 30
0.0
 40
3.048000037670135
 41
0.0
 46
0.0
 71
     7
 72
     1
  1
E
  7
Note Text (ANSI)
 73
     1
 44
1.0
  0
MTEXT
  5
18A
330
121
100
AcDbEntity
  8
Border (ANSI)
100
AcDbMText
 10
17.28781862205827
 20
184.100999981165
 30
0.0
 40
3.048000037670135
 41
0.0
 46
0.0
 71
     7
 72
     1
  1
F
  7
Note Text (ANSI)
 73
     1
 44
1.0
  0
MTEXT
  5
18B
330
121
100
AcDbEntity
  8
Border (ANSI)
100
AcDbMText
 10
822.1358186597283
 20
184.100999981165
 30
0.0
 40
3.048000037670135
 41
0.0
 46
0.0
 71
     7
 72
     1
  1
F
  7
Note Text (ANSI)
 73
     1
 44
1.0
  0
MTEXT
  5
18C
330
121
100
AcDbEntity
  8
Border (ANSI)
100
AcDbMText
 10
16.81084813952931
 20
109.7917195949704
 30
0.0
 40
3.048000037670135
 41
0.0
 46
0.0
 71
     7
 72
     1
  1
G
  7
Note Text (ANSI)
 73
     1
 44
1.0
  0
MTEXT
  5
18D
330
121
100
AcDbEntity
  8
Border (ANSI)
100
AcDbMText
 10
821.6588481771994
 20
109.7917195949704
 30
0.0
 40
3.048000037670135
 41
0.0
 46
0.0
 71
     7
 72
     1
  1
G
  7
Note Text (ANSI)
 73
     1
 44
1.0
  0
MTEXT
  5
18E
330
121
100
AcDbEntity
  8
Border (ANSI)
100
AcDbMText
 10
16.96548147148454
 20
35.600999981165
 30
0.0
 40
3.048000037670135
 41
0.0
 46
0.0
 71
     7
 72
     1
  1
H
  7
Note Text (ANSI)
 73
     1
 44
1.0
  0
MTEXT
  5
18F
330
121
100
AcDbEntity
  8
Border (ANSI)
100
AcDbMText
 10
821.8134815091547
 20
35.600999981165
 30
0.0
 40
3.048000037670135
 41
0.0
 46
0.0
 71
     7
 72
     1
  1
H
  7
Note Text (ANSI)
 73
     1
 44
1.0
  0
ENDBLK
  5
123
330
121
100
AcDbEntity
  8
0
100
AcDbBlockEnd
  0
BLOCK
  5
192
330
191
100
AcDbEntity
  8
0
100
AcDbBlockBegin
  2
Title Blocks ISO
 70
     2
 10
0.0
 20
0.0
 30
0.0
  3
Title Blocks ISO
  1

  0
ATTDEF
  5
194
102
{ACAD_XDICTIONARY
360
971
102
}
330
191
100
AcDbEntity
  8
Title (ISO)
 62
   232
420
 13238372
100
AcDbText
 10
34.08366271909763
 20
73.13494450671268
 30
0.0
 40
2.5
  1
055200040
  7
Note Text (ISO)
100
AcDbAttributeDefinition
280
     0
  3
PART NUMBER
  2
PART_NUMBER_001
 70
     0
280
     0
  0
ATTDEF
  5
197
102
{ACAD_XDICTIONARY
360
976
102
}
330
191
100
AcDbEntity
  8
Title (ISO)
 62
   232
420
 13238372
100
AcDbText
 10
33.83688029166227
 20
63.33732310670947
 30
0.0
 40
2.5
  1
PLASSON FLANGE(FLAT
  7
Note Text (ISO)
100
AcDbAttributeDefinition
280
     0
  3
DESCRIPTION
  2
DESCRIPTION_001
 70
     0
280
     0
  0
ATTDEF
  5
974
102
{ACAD_XDICTIONARY
360
975
102
}
330
191
100
AcDbEntity
  8
Title (ISO)
 62
   232
420
 13238372
100
AcDbText
 10
33.97959352109614
 20
59.05816485181816
 30
0.0
 40
2.5
  1
GASKET)C 40
  7
Note Text (ISO)
100
AcDbAttributeDefinition
280
     0
  3
DESCRIPTION
  2
DESCRIPTION_002
 70
     0
280
     0
  0
ENDBLK
  5
193
330
191
100
AcDbEntity
  8
0
100
AcDbBlockEnd
  0
BLOCK
  5
1E7
330
1E6
100
AcDbEntity
  8
0
100
AcDbBlockBegin
  2
2dTransSection0
 70
     0
 10
0.0
 20
0.0
 30
0.0
  3
2dTransSection0
  1

  0
LINE
  5
1E9
330
1E6
100
AcDbEntity
  8
Section Line (ANSI)
  6
DOUBLE_DASH_CHAIN
 48
16.04459381103515
100
AcDbLine
 10
345.885978953465
 20
401.4273716077982
 30
0.0
 11
555.185979213465
 21
401.4273716077982
 31
0.0
  0
LINE
  5
1EA
330
1E6
100
AcDbEntity
  8
Section Line (ANSI)
  6
Continuous
100
AcDbLine
 10
345.885978953465
 20
401.4273716077982
 30
0.0
 11
356.1848880680106
 21
401.4273716077982
 31
0.0
  0
LINE
  5
1EB
330
1E6
100
AcDbEntity
  8
Section Line (ANSI)
  6
Continuous
100
AcDbLine
 10
544.8870700989196
 20
401.4273716077982
 30
0.0
 11
555.185979213465
 21
401.4273716077982
 31
0.0
  0
LINE
  5
1EC
330
1E6
100
AcDbEntity
  8
Section Line (ANSI)
  6
Continuous
100
AcDbLine
 10
345.885978953465
 20
406.4273716077982
 30
0.0
 11
345.885978953465
 21
411.4273716077983
 31
0.0
  0
POLYLINE
  5
1ED
330
1E6
100
AcDbEntity
  8
Section Line (ANSI)
  6
Continuous
100
AcDb2dPolyline
 66
     1
 10
0.0
 20
0.0
 30
0.0
 70
   128
  0
VERTEX
  5
1EE
330
1ED
100
AcDbEntity
  8
Section Line (ANSI)
  6
Continuous
100
AcDbVertex
100
AcDb2dVertex
 10
346.8859789586463
 20
406.4273716077982
 30
0.0
  0
VERTEX
  5
1EF
330
1ED
100
AcDbEntity
  8
Section Line (ANSI)
  6
Continuous
100
AcDbVertex
100
AcDb2dVertex
 10
345.8859799123206
 20
411.4273716077983
 30
0.0
  0
VERTEX
  5
1F1
330
1ED
100
AcDbEntity
  8
Section Line (ANSI)
  6
Continuous
100
AcDbVertex
100
AcDb2dVertex
 10
344.8859784818091
 20
406.4273716077982
 30
0.0
  0
VERTEX
  5
1F2
330
1ED
100
AcDbEntity
  8
Section Line (ANSI)
  6
Continuous
100
AcDbVertex
100
AcDb2dVertex
 10
346.8859789586463
 20
406.4273716077982
 30
0.0
  0
SEQEND
  5
1F0
330
1ED
100
AcDbEntity
  8
Section Line (ANSI)
  6
Continuous
  0
SOLID
  5
1F3
330
1E6
100
AcDbEntity
  8
Section Line (ANSI)
100
AcDbTrace
 10
346.8859789586463
 20
406.4273716077982
 30
0.0
 11
345.8859799123206
 21
411.4273716077983
 31
0.0
 12
344.8859784818091
 22
406.4273716077982
 32
0.0
 13
346.8859789586463
 23
406.4273716077982
 33
0.0
  0
LINE
  5
1F4
330
1E6
100
AcDbEntity
  8
Section Line (ANSI)
  6
Continuous
100
AcDbLine
 10
346.8859789534651
 20
406.4273716077982
 30
0.0
 11
345.885978953465
 21
411.4273716077983
 31
0.0
  0
LINE
  5
1F5
330
1E6
100
AcDbEntity
  8
Section Line (ANSI)
  6
Continuous
100
AcDbLine
 10
345.885978953465
 20
411.4273716077983
 30
0.0
 11
344.8859789534651
 21
406.4273716077982
 31
0.0
  0
LINE
  5
1F6
330
1E6
100
AcDbEntity
  8
Section Line (ANSI)
  6
Continuous
100
AcDbLine
 10
344.8859789534651
 20
406.4273716077982
 30
0.0
 11
346.8859789534651
 21
406.4273716077982
 31
0.0
  0
LINE
  5
1F7
330
1E6
100
AcDbEntity
  8
Section Line (ANSI)
  6
Continuous
100
AcDbLine
 10
345.885978953465
 20
401.4273716077982
 30
0.0
 11
345.885978953465
 21
406.4273716077982
 31
0.0
  0
LINE
  5
1F8
330
1E6
100
AcDbEntity
  8
Section Line (ANSI)
  6
Continuous
100
AcDbLine
 10
555.185979213465
 20
406.4273716077982
 30
0.0
 11
555.185979213465
 21
411.4273716077983
 31
0.0
  0
POLYLINE
  5
1F9
330
1E6
100
AcDbEntity
  8
Section Line (ANSI)
  6
Continuous
100
AcDb2dPolyline
 66
     1
 10
0.0
 20
0.0
 30
0.0
 70
   128
  0
VERTEX
  5
1FA
330
1F9
100
AcDbEntity
  8
Section Line (ANSI)
  6
Continuous
100
AcDbVertex
100
AcDb2dVertex
 10
556.1859772420324
 20
406.4273716077982
 30
0.0
  0
VERTEX
  5
1FB
330
1F9
100
AcDbEntity
  8
Section Line (ANSI)
  6
Continuous
100
AcDbVertex
100
AcDb2dVertex
 10
555.1859734273351
 20
411.4273716077983
 30
0.0
  0
VERTEX
  5
1FD
330
1F9
100
AcDbEntity
  8
Section Line (ANSI)
  6
Continuous
100
AcDbVertex
100
AcDb2dVertex
 10
554.1859886861242
 20
406.4273716077982
 30
0.0
  0
VERTEX
  5
1FE
330
1F9
100
AcDbEntity
  8
Section Line (ANSI)
  6
Continuous
100
AcDbVertex
100
AcDb2dVertex
 10
556.1859772420324
 20
406.4273716077982
 30
0.0
  0
SEQEND
  5
1FC
330
1F9
100
AcDbEntity
  8
Section Line (ANSI)
  6
Continuous
  0
SOLID
  5
1FF
330
1E6
100
AcDbEntity
  8
Section Line (ANSI)
100
AcDbTrace
 10
556.1859772420324
 20
406.4273716077982
 30
0.0
 11
555.1859734273351
 21
411.4273716077983
 31
0.0
 12
554.1859886861242
 22
406.4273716077982
 32
0.0
 13
556.1859772420324
 23
406.4273716077982
 33
0.0
  0
LINE
  5
200
330
1E6
100
AcDbEntity
  8
Section Line (ANSI)
  6
Continuous
100
AcDbLine
 10
556.1859792134652
 20
406.4273716077982
 30
0.0
 11
555.185979213465
 21
411.4273716077983
 31
0.0
  0
LINE
  5
201
330
1E6
100
AcDbEntity
  8
Section Line (ANSI)
  6
Continuous
100
AcDbLine
 10
555.185979213465
 20
411.4273716077983
 30
0.0
 11
554.1859792134651
 21
406.4273716077982
 31
0.0
  0
LINE
  5
202
330
1E6
100
AcDbEntity
  8
Section Line (ANSI)
  6
Continuous
100
AcDbLine
 10
554.1859792134651
 20
406.4273716077982
 30
0.0
 11
556.1859792134652
 21
406.4273716077982
 31
0.0
  0
LINE
  5
203
330
1E6
100
AcDbEntity
  8
Section Line (ANSI)
  6
Continuous
100
AcDbLine
 10
555.185979213465
 20
401.4273716077982
 30
0.0
 11
555.185979213465
 21
406.4273716077982
 31
0.0
  0
MTEXT
  5
204
330
1E6
100
AcDbEntity
  8
Section Line (ANSI)
100
AcDbMText
 10
338.5257231155033
 20
404.9273716077983
 30
0.0
 40
4.571999907493591
 41
0.0
 46
0.0
 71
     7
 72
     1
  1
A
  7
Label Text (ANSI)
 73
     1
 44
1.0
  0
MTEXT
  5
205
330
1E6
100
AcDbEntity
  8
Section Line (ANSI)
100
AcDbMText
 10
558.6567183391493
 20
404.9273716077983
 30
0.0
 40
4.571999907493591
 41
0.0
 46
0.0
 71
     7
 72
     1
  1
A
  7
Label Text (ANSI)
 73
     1
 44
1.0
  0
ENDBLK
  5
1E8
330
1E6
100
AcDbEntity
  8
0
100
AcDbBlockEnd
  0
BLOCK
  5
2A3
330
2A2
100
AcDbEntity
  8
0
100
AcDbBlockBegin
  2
*D7
 70
     1
 10
0.0
 20
0.0
 30
0.0
  3
*D7
  1

  0
LINE
  5
381
330
2A2
100
AcDbEntity
  8
Dimension (ANSI)
440
 16777216
100
AcDbLine
 10
-15.5
 20
897.0831333333334
 30
0.0
 11
-15.50000000000001
 21
702.5567411785452
 31
0.0
  0
LINE
  5
382
330
2A2
100
AcDbEntity
  8
Dimension (ANSI)
440
 16777216
100
AcDbLine
 10
-44.5
 20
897.9998
 30
0.0
 11
-44.50000000000001
 21
702.5567411785452
 31
0.0
  0
LINE
  5
383
330
2A2
100
AcDbEntity
  8
Dimension (ANSI)
440
 16777216
100
AcDbLine
 10
-18.00000000000001
 20
705.7317411785454
 30
0.0
 11
-42.00000000000001
 21
705.7317411785454
 31
0.0
  0
LINE
  5
384
330
2A2
100
AcDbEntity
  8
Dimension (ANSI)
440
 16777216
100
AcDbLine
 10
-44.50000000000001
 20
705.7317411785454
 30
0.0
 11
-90.18482190055429
 21
705.7317411785454
 31
0.0
  0
SOLID
  5
385
330
2A2
100
AcDbEntity
  8
Dimension (ANSI)
440
 16777216
100
AcDbTrace
 10
-18.00000000000001
 20
706.1484078452119
 30
0.0
 11
-18.00000000000001
 21
705.3150745118787
 31
0.0
 12
-15.50000000000001
 22
705.7317411785454
 32
0.0
 13
-15.50000000000001
 23
705.7317411785454
 33
0.0
  0
SOLID
  5
386
330
2A2
100
AcDbEntity
  8
Dimension (ANSI)
440
 16777216
100
AcDbTrace
 10
-42.00000000000001
 20
706.1484078452119
 30
0.0
 11
-42.00000000000001
 21
705.3150745118787
 31
0.0
 12
-44.50000000000001
 22
705.7317411785454
 32
0.0
 13
-44.50000000000001
 23
705.7317411785454
 33
0.0
  0
MTEXT
  5
387
330
2A2
100
AcDbEntity
  8
Dimension (ANSI)
440
 16777216
100
AcDbMText
 10
-101.0151780994457
 20
707.31919857288
 30
0.0
 40
3.04800009727478
 41
0.0
 46
0.0
 71
     1
 72
     1
  1
\A1;29.00
  7
Note Text (ANSI)
 73
     1
 44
1.0
  0
POINT
  5
388
330
2A2
100
AcDbEntity
  8
Defpoints
 62
     0
440
 16777216
100
AcDbPoint
 10
-15.5
 20
898.6833333333335
 30
0.0
  0
POINT
  5
389
330
2A2
100
AcDbEntity
  8
Defpoints
 62
     0
440
 16777216
100
AcDbPoint
 10
-44.5
 20
899.5999999999998
 30
0.0
  0
POINT
  5
38A
330
2A2
100
AcDbEntity
  8
Defpoints
 62
     0
440
 16777216
100
AcDbPoint
 10
-44.50000000000001
 20
705.7317411785454
 30
0.0
  0
ENDBLK
  5
2A4
330
2A2
100
AcDbEntity
  8
0
100
AcDbBlockEnd
  0
BLOCK
  5
38D
330
38C
100
AcDbEntity
  8
0
100
AcDbBlockBegin
  2
*D8
 70
     1
 10
0.0
 20
0.0
 30
0.0
  3
*D8
  1

  0
LINE
  5
46B
330
38C
100
AcDbEntity
  8
Dimension (ANSI)
440
 16777216
100
AcDbLine
 10
-44.5
 20
897.9998
 30
0.0
 11
-44.50000000000001
 21
771.2332114227015
 31
0.0
  0
LINE
  5
46C
330
38C
100
AcDbEntity
  8
Dimension (ANSI)
440
 16777216
100
AcDbLine
 10
-18.50000000000001
 20
899.3998000000001
 30
0.0
 11
-18.50000000000001
 21
771.2332114227015
 31
0.0
  0
LINE
  5
46D
330
38C
100
AcDbEntity
  8
Dimension (ANSI)
440
 16777216
100
AcDbLine
 10
-42.00000000000001
 20
774.4082114227015
 30
0.0
 11
-21.00000000000001
 21
774.4082114227015
 31
0.0
  0
LINE
  5
46E
330
38C
100
AcDbEntity
  8
Dimension (ANSI)
440
 16777216
100
AcDbLine
 10
-18.50000000000001
 20
774.4082114227015
 30
0.0
 11
24.68482190055426
 21
774.4082114227015
 31
0.0
  0
SOLID
  5
46F
330
38C
100
AcDbEntity
  8
Dimension (ANSI)
440
 16777216
100
AcDbTrace
 10
-42.00000000000001
 20
774.8248780893681
 30
0.0
 11
-42.00000000000001
 21
773.9915447560348
 31
0.0
 12
-44.50000000000001
 22
774.4082114227015
 32
0.0
 13
-44.50000000000001
 23
774.4082114227015
 33
0.0
  0
SOLID
  5
470
330
38C
100
AcDbEntity
  8
Dimension (ANSI)
440
 16777216
100
AcDbTrace
 10
-21.00000000000001
 20
774.8248780893681
 30
0.0
 11
-21.00000000000001
 21
773.9915447560348
 31
0.0
 12
-18.50000000000001
 22
774.4082114227015
 32
0.0
 13
-18.50000000000001
 23
774.4082114227015
 33
0.0
  0
MTEXT
  5
471
330
38C
100
AcDbEntity
  8
Dimension (ANSI)
440
 16777216
100
AcDbMText
 10
25.48482190055426
 20
775.9956688170362
 30
0.0
 40
3.04800009727478
 41
0.0
 46
0.0
 71
     1
 72
     1
  1
\A1;26.00
  7
Note Text (ANSI)
 73
     1
 44
1.0
  0
POINT
  5
472
330
38C
100
AcDbEntity
  8
Defpoints
 62
     0
440
 16777216
100
AcDbPoint
 10
-44.5
 20
899.5999999999998
 30
0.0
  0
POINT
  5
473
330
38C
100
AcDbEntity
  8
Defpoints
 62
     0
440
 16777216
100
AcDbPoint
 10
-18.50000000000001
 20
901.0
 30
0.0
  0
POINT
  5
474
330
38C
100
AcDbEntity
  8
Defpoints
 62
     0
440
 16777216
100
AcDbPoint
 10
-18.50000000000001
 20
774.4082114227015
 30
0.0
  0
ENDBLK
  5
38E
330
38C
100
AcDbEntity
  8
0
100
AcDbBlockEnd
  0
BLOCK
  5
477
330
476
100
AcDbEntity
  8
0
100
AcDbBlockBegin
  2
*D9
 70
     1
 10
0.0
 20
0.0
 30
0.0
  3
*D9
  1

  0
LINE
  5
555
330
476
100
AcDbEntity
  8
Dimension (ANSI)
440
 16777216
100
AcDbLine
 10
-18.50000000000001
 20
899.3998000000001
 30
0.0
 11
-18.50000000000001
 21
783.5850945601397
 31
0.0
  0
LINE
  5
556
330
476
100
AcDbEntity
  8
Dimension (ANSI)
440
 16777216
100
AcDbLine
 10
-15.5
 20
897.0831333333334
 30
0.0
 11
-15.5
 21
783.5850945601397
 31
0.0
  0
LINE
  5
557
330
476
100
AcDbEntity
  8
Dimension (ANSI)
440
 16777216
100
AcDbLine
 10
-21.00000000000001
 20
786.7600945601396
 30
0.0
 11
-23.50000000000001
 21
786.7600945601396
 31
0.0
  0
LINE
  5
558
330
476
100
AcDbEntity
  8
Dimension (ANSI)
440
 16777216
100
AcDbLine
 10
-13.0
 20
786.7600945601396
 30
0.0
 11
-9.184710963202856
 21
786.7600945601396
 31
0.0
  0
SOLID
  5
559
330
476
100
AcDbEntity
  8
Dimension (ANSI)
440
 16777216
100
AcDbTrace
 10
-21.00000000000001
 20
787.1767612268063
 30
0.0
 11
-21.00000000000001
 21
786.3434278934731
 31
0.0
 12
-18.50000000000001
 22
786.7600945601396
 32
0.0
 13
-18.50000000000001
 23
786.7600945601396
 33
0.0
  0
SOLID
  5
55A
330
476
100
AcDbEntity
  8
Dimension (ANSI)
440
 16777216
100
AcDbTrace
 10
-13.0
 20
787.1767612268063
 30
0.0
 11
-13.0
 21
786.3434278934731
 31
0.0
 12
-15.5
 22
786.7600945601396
 32
0.0
 13
-15.5
 23
786.7600945601396
 33
0.0
  0
MTEXT
  5
55B
330
476
100
AcDbEntity
  8
Dimension (ANSI)
440
 16777216
100
AcDbMText
 10
-8.384710963202858
 20
788.3475519544743
 30
0.0
 40
3.04800009727478
 41
0.0
 46
0.0
 71
     1
 72
     1
  1
\A1;3.00
  7
Note Text (ANSI)
 73
     1
 44
1.0
  0
POINT
  5
55C
330
476
100
AcDbEntity
  8
Defpoints
 62
     0
440
 16777216
100
AcDbPoint
 10
-18.50000000000001
 20
901.0
 30
0.0
  0
POINT
  5
55D
330
476
100
AcDbEntity
  8
Defpoints
 62
     0
440
 16777216
100
AcDbPoint
 10
-15.5
 20
898.6833333333335
 30
0.0
  0
POINT
  5
55E
330
476
100
AcDbEntity
  8
Defpoints
 62
     0
440
 16777216
100
AcDbPoint
 10
-15.5
 20
786.7600945601396
 30
0.0
  0
ENDBLK
  5
478
330
476
100
AcDbEntity
  8
0
100
AcDbBlockEnd
  0
BLOCK
  5
561
330
560
100
AcDbEntity
  8
0
100
AcDbBlockBegin
  2
*D10
 70
     1
 10
0.0
 20
0.0
 30
0.0
  3
*D10
  1

  0
LINE
  5
650
330
560
100
AcDbEntity
  8
Dimension (ANSI)
440
 16777216
100
AcDbLine
 10
-45.7002
 20
940.0
 30
0.0
 11
-58.6382354517957
 21
940.0
 31
0.0
  0
LINE
  5
651
330
560
100
AcDbEntity
  8
Dimension (ANSI)
440
 16777216
100
AcDbLine
 10
-45.7002
 20
900.0
 30
0.0
 11
-58.6382354517957
 21
900.0
 31
0.0
  0
LINE
  5
652
330
560
100
AcDbEntity
  8
Dimension (ANSI)
440
 16777216
100
AcDbLine
 10
-55.4632354517957
 20
937.5
 30
0.0
 11
-55.4632354517957
 21
902.5
 31
0.0
  0
LINE
  5
653
330
560
100
AcDbEntity
  8
Dimension (ANSI)
440
 16777216
100
AcDbLine
 10
-55.4632354517957
 20
900.0
 30
0.0
 11
-55.46323545179572
 21
788.3857999951318
 31
0.0
  0
SOLID
  5
654
330
560
100
AcDbEntity
  8
Dimension (ANSI)
440
 16777216
100
AcDbTrace
 10
-55.87990211846236
 20
937.5
 30
0.0
 11
-55.04656878512903
 21
937.5
 31
0.0
 12
-55.4632354517957
 22
940.0
 32
0.0
 13
-55.4632354517957
 23
940.0
 33
0.0
  0
SOLID
  5
655
330
560
100
AcDbEntity
  8
Dimension (ANSI)
440
 16777216
100
AcDbTrace
 10
-55.87990211846237
 20
902.5
 30
0.0
 11
-55.04656878512903
 21
902.5
 31
0.0
 12
-55.4632354517957
 22
900.0
 32
0.0
 13
-55.4632354517957
 23
900.0
 33
0.0
  0
MTEXT
  5
656
330
560
100
AcDbEntity
  8
Dimension (ANSI)
440
 16777216
100
AcDbMText
 10
-57.04966934039603
 20
777.4142000048682
 30
0.0
 40
3.04800009727478
 41
0.0
 46
0.0
 71
     1
 72
     1
  1
\A1;40.00
  7
Note Text (ANSI)
 11
0.0000000000000001
 21
1.0
 31
0.0
 73
     1
 44
1.0
  0
POINT
  5
657
330
560
100
AcDbEntity
  8
Defpoints
 62
     0
440
 16777216
100
AcDbPoint
 10
-44.1
 20
940.0
 30
0.0
  0
POINT
  5
658
330
560
100
AcDbEntity
  8
Defpoints
 62
     0
440
 16777216
100
AcDbPoint
 10
-44.1
 20
900.0
 30
0.0
  0
POINT
  5
659
330
560
100
AcDbEntity
  8
Defpoints
 62
     0
440
 16777216
100
AcDbPoint
 10
-55.4632354517957
 20
900.0
 30
0.0
  0
ENDBLK
  5
562
330
560
100
AcDbEntity
  8
0
100
AcDbBlockEnd
  0
BLOCK
  5
65C
330
65B
100
AcDbEntity
  8
0
100
AcDbBlockBegin
  2
*D11
 70
     1
 10
0.0
 20
0.0
 30
0.0
  3
*D11
  1

  0
LINE
  5
74B
330
65B
100
AcDbEntity
  8
Dimension (ANSI)
440
 16777216
100
AcDbLine
 10
-45.7002
 20
945.0
 30
0.0
 11
-76.92388454802323
 21
945.0
 31
0.0
  0
LINE
  5
74C
330
65B
100
AcDbEntity
  8
Dimension (ANSI)
440
 16777216
100
AcDbLine
 10
-45.7002
 20
895.0
 30
0.0
 11
-76.92388454802324
 21
895.0
 31
0.0
  0
LINE
  5
74D
330
65B
100
AcDbEntity
  8
Dimension (ANSI)
440
 16777216
100
AcDbLine
 10
-73.74888454802323
 20
942.5
 30
0.0
 11
-73.74888454802324
 21
897.4999999999999
 31
0.0
  0
LINE
  5
74E
330
65B
100
AcDbEntity
  8
Dimension (ANSI)
440
 16777216
100
AcDbLine
 10
-73.74888454802324
 20
895.0
 30
0.0
 11
-73.74888454802327
 21
777.799825513427
 31
0.0
  0
SOLID
  5
74F
330
65B
100
AcDbEntity
  8
Dimension (ANSI)
440
 16777216
100
AcDbTrace
 10
-74.1655512146899
 20
942.5
 30
0.0
 11
-73.33221788135656
 21
942.5
 31
0.0
 12
-73.74888454802323
 22
945.0
 32
0.0
 13
-73.74888454802323
 23
945.0
 33
0.0
  0
SOLID
  5
750
330
65B
100
AcDbEntity
  8
Dimension (ANSI)
440
 16777216
100
AcDbTrace
 10
-74.16555121468991
 20
897.4999999999999
 30
0.0
 11
-73.33221788135657
 21
897.4999999999999
 31
0.0
 12
-73.74888454802324
 22
895.0
 32
0.0
 13
-73.74888454802324
 23
895.0
 33
0.0
  0
MTEXT
  5
751
330
65B
100
AcDbEntity
  8
Dimension (ANSI)
440
 16777216
100
AcDbMText
 10
-75.33531843662356
 20
767.000174486573
 30
0.0
 40
3.04800009727478
 41
0.0
 46
0.0
 71
     1
 72
     1
  1
\A1;50.00
  7
Note Text (ANSI)
 11
0.0000000000000001
 21
1.0
 31
0.0
 73
     1
 44
1.0
  0
POINT
  5
752
330
65B
100
AcDbEntity
  8
Defpoints
 62
     0
440
 16777216
100
AcDbPoint
 10
-44.1
 20
945.0
 30
0.0
  0
POINT
  5
753
330
65B
100
AcDbEntity
  8
Defpoints
 62
     0
440
 16777216
100
AcDbPoint
 10
-44.1
 20
895.0
 30
0.0
  0
POINT
  5
754
330
65B
100
AcDbEntity
  8
Defpoints
 62
     0
440
 16777216
100
AcDbPoint
 10
-73.74888454802324
 20
895.0
 30
0.0
  0
ENDBLK
  5
65D
330
65B
100
AcDbEntity
  8
0
100
AcDbBlockEnd
  0
BLOCK
  5
757
330
756
100
AcDbEntity
  8
0
100
AcDbBlockBegin
  2
*D12
 70
     1
 10
0.0
 20
0.0
 30
0.0
  3
*D12
  1

  0
LINE
  5
835
330
756
100
AcDbEntity
  8
Dimension (ANSI)
440
 16777216
100
AcDbLine
 10
-15.5
 20
942.9168666666665
 30
0.0
 11
-15.5
 21
983.9705959525728
 31
0.0
  0
LINE
  5
836
330
756
100
AcDbEntity
  8
Dimension (ANSI)
440
 16777216
100
AcDbLine
 10
-23.5
 20
951.7001999999999
 30
0.0
 11
-23.49999999999999
 21
983.9705959525728
 31
0.0
  0
LINE
  5
837
330
756
100
AcDbEntity
  8
Dimension (ANSI)
440
 16777216
100
AcDbLine
 10
-18.0
 20
980.7955959525729
 30
0.0
 11
-20.99999999999999
 21
980.7955959525729
 31
0.0
  0
LINE
  5
838
330
756
100
AcDbEntity
  8
Dimension (ANSI)
440
 16777216
100
AcDbLine
 10
-23.49999999999999
 20
980.7955959525729
 30
0.0
 11
-26.0
 21
980.7955959525729
 31
0.0
  0
SOLID
  5
839
330
756
100
AcDbEntity
  8
Dimension (ANSI)
440
 16777216
100
AcDbTrace
 10
-18.0
 20
981.2122626192396
 30
0.0
 11
-18.0
 21
980.3789292859063
 31
0.0
 12
-15.5
 22
980.7955959525729
 32
0.0
 13
-15.5
 23
980.7955959525729
 33
0.0
  0
SOLID
  5
83A
330
756
100
AcDbEntity
  8
Dimension (ANSI)
440
 16777216
100
AcDbTrace
 10
-20.99999999999999
 20
981.2122626192396
 30
0.0
 11
-20.99999999999999
 21
980.3789292859063
 31
0.0
 12
-23.49999999999999
 22
980.7955959525729
 32
0.0
 13
-23.49999999999999
 23
980.7955959525729
 33
0.0
  0
MTEXT
  5
83B
330
756
100
AcDbEntity
  8
Dimension (ANSI)
440
 16777216
100
AcDbMText
 10
-34.6134427777895
 20
982.3891943813151
 30
0.0
 40
3.04800009727478
 41
0.0
 46
0.0
 71
     1
 72
     1
  1
\A1;8.00
  7
Note Text (ANSI)
 73
     1
 44
1.0
  0
POINT
  5
83C
330
756
100
AcDbEntity
  8
Defpoints
 62
     0
440
 16777216
100
AcDbPoint
 10
-15.5
 20
941.3166666666667
 30
0.0
  0
POINT
  5
83D
330
756
100
AcDbEntity
  8
Defpoints
 62
     0
440
 16777216
100
AcDbPoint
 10
-23.5
 20
950.1000000000001
 30
0.0
  0
POINT
  5
83E
330
756
100
AcDbEntity
  8
Defpoints
 62
     0
440
 16777216
100
AcDbPoint
 10
-23.49999999999999
 20
980.7955959525729
 30
0.0
  0
ENDBLK
  5
758
330
756
100
AcDbEntity
  8
0
100
AcDbBlockEnd
  0
BLOCK
  5
841
330
840
100
AcDbEntity
  8
0
100
AcDbBlockBegin
  2
*D13
 70
     1
 10
0.0
 20
0.0
 30
0.0
  3
*D13
  1

  0
LINE
  5
930
330
840
100
AcDbEntity
  8
Dimension (ANSI)
440
 16777216
100
AcDbLine
 10
-14.2998
 20
950.5
 30
0.0
 11
19.27880098768956
 21
950.5
 31
0.0
  0
LINE
  5
931
330
840
100
AcDbEntity
  8
Dimension (ANSI)
440
 16777216
100
AcDbLine
 10
-14.2998
 20
889.4999999999999
 30
0.0
 11
19.27880098768955
 21
889.4999999999999
 31
0.0
  0
LINE
  5
932
330
840
100
AcDbEntity
  8
Dimension (ANSI)
440
 16777216
100
AcDbLine
 10
16.10380098768956
 20
948.0
 30
0.0
 11
16.10380098768956
 21
892.0
 31
0.0
  0
LINE
  5
933
330
840
100
AcDbEntity
  8
Dimension (ANSI)
440
 16777216
100
AcDbLine
 10
16.10380098768956
 20
889.4999999999999
 30
0.0
 11
16.10380098768953
 21
766.8397422370755
 31
0.0
  0
SOLID
  5
934
330
840
100
AcDbEntity
  8
Dimension (ANSI)
440
 16777216
100
AcDbTrace
 10
15.6871343210229
 20
948.0
 30
0.0
 11
16.52046765435623
 21
948.0
 31
0.0
 12
16.10380098768956
 22
950.5
 32
0.0
 13
16.10380098768956
 23
950.5
 33
0.0
  0
SOLID
  5
935
330
840
100
AcDbEntity
  8
Dimension (ANSI)
440
 16777216
100
AcDbTrace
 10
15.68713432102289
 20
892.0
 30
0.0
 11
16.52046765435622
 21
892.0
 31
0.0
 12
16.10380098768956
 22
889.4999999999999
 32
0.0
 13
16.10380098768956
 23
889.4999999999999
 33
0.0
  0
MTEXT
  5
936
330
840
100
AcDbEntity
  8
Dimension (ANSI)
440
 16777216
100
AcDbMText
 10
14.51736709908923
 20
755.9602577629243
 30
0.0
 40
3.04800009727478
 41
0.0
 46
0.0
 71
     1
 72
     1
  1
\A1;61.00
  7
Note Text (ANSI)
 11
0.0000000000000001
 21
1.0
 31
0.0
 73
     1
 44
1.0
  0
POINT
  5
937
330
840
100
AcDbEntity
  8
Defpoints
 62
     0
440
 16777216
100
AcDbPoint
 10
-15.9
 20
950.5
 30
0.0
  0
POINT
  5
938
330
840
100
AcDbEntity
  8
Defpoints
 62
     0
440
 16777216
100
AcDbPoint
 10
-15.9
 20
889.4999999999999
 30
0.0
  0
POINT
  5
939
330
840
100
AcDbEntity
  8
Defpoints
 62
     0
440
 16777216
100
AcDbPoint
 10
16.10380098768956
 20
889.4999999999999
 30
0.0
  0
ENDBLK
  5
842
330
840
100
AcDbEntity
  8
0
100
AcDbBlockEnd
  0
ENDSEC
  0
SECTION
  2
ENTITIES
  0
INSERT
  5
190
330
70
100
AcDbEntity
  8
0
100
AcDbBlockReference
  2
Borders Default Border
 10
0.0
 20
0.0
 30
0.0
  0
INSERT
  5
198
330
70
100
AcDbEntity
  8
0
100
AcDbBlockReference
 66
     1
  2
Title Blocks ISO
 10
821.0
 20
20.0
 30
0.0
  0
ATTRIB
  5
19A
102
{ACAD_XDICTIONARY
360
979
102
}
330
198
100
AcDbEntity
  8
Title (ISO)
 62
   232
420
 13238372
100
AcDbText
 10
855.0836627190975
 20
93.13494450671269
 30
0.0
 40
2.5
  1
055200040
  7
Note Text (ISO)
100
AcDbAttribute
280
     0
  2
PART_NUMBER_001
 70
     0
280
     0
  0
ATTRIB
  5
19B
102
{ACAD_XDICTIONARY
360
97E
102
}
330
198
100
AcDbEntity
  8
Title (ISO)
 62
   232
420
 13238372
100
AcDbText
 10
854.8368802916622
 20
83.33732310670947
 30
0.0
 40
2.5
  1
PLASSON FLANGE(FLAT
  7
Note Text (ISO)
100
AcDbAttribute
280
     0
  2
DESCRIPTION_001
 70
     0
280
     0
  0
ATTRIB
  5
97C
102
{ACAD_XDICTIONARY
360
97D
102
}
330
198
100
AcDbEntity
  8
Title (ISO)
 62
   232
420
 13238372
100
AcDbText
 10
854.979593521096
 20
79.05816485181815
 30
0.0
 40
2.5
  1
GASKET)C 40
  7
Note Text (ISO)
100
AcDbAttribute
280
     0
  2
DESCRIPTION_002
 70
     0
280
     1
  0
SEQEND
  5
199
330
198
100
AcDbEntity
  8
0
  0
LINE
  5
19C
330
70
100
AcDbEntity
  8
Visible (ANSI)
100
AcDbLine
 10
399.0312187886633
 20
431.5273716077983
 30
0.0
 11
399.0312187886633
 21
371.3273716077984
 31
0.0
  0
LINE
  5
19D
330
70
100
AcDbEntity
  8
Visible (ANSI)
100
AcDbLine
 10
370.0312187886633
 20
376.8273716077983
 30
0.0
 11
370.0312187886633
 21
426.0273716077983
 31
0.0
  0
LINE
  5
19E
330
70
100
AcDbEntity
  8
Visible Narrow (ANSI)
100
AcDbLine
 10
398.6312187886633
 20
371.3028772196466
 30
0.0
 11
398.6312187886633
 21
431.55186599595
 31
0.0
  0
LINE
  5
19F
330
70
100
AcDbEntity
  8
Visible Narrow (ANSI)
100
AcDbLine
 10
391.4312187886634
 20
431.55186599595
 30
0.0
 11
391.4312187886634
 21
371.3028772196466
 31
0.0
  0
LINE
  5
1A0
330
70
100
AcDbEntity
  8
Visible (ANSI)
100
AcDbLine
 10
391.0312187886633
 20
371.3273716077984
 30
0.0
 11
391.0312187886633
 21
431.5273716077983
 31
0.0
  0
LINE
  5
1A1
330
70
100
AcDbEntity
  8
Visible Narrow (ANSI)
100
AcDbLine
 10
370.4312187886633
 20
426.1195801226767
 30
0.0
 11
370.4312187886633
 21
376.7351630929198
 31
0.0
  0
ARC
  5
1A2
330
70
100
AcDbEntity
  8
Visible (ANSI)
100
AcDbCircle
 10
398.6312187886633
 20
431.5273716077983
 30
0.0
 40
0.4
100
AcDbArc
 50
0.0
 51
90.0
  0
ARC
  5
1A3
330
70
100
AcDbEntity
  8
Visible (ANSI)
100
AcDbCircle
 10
398.6312187886633
 20
371.3273716077984
 30
0.0
 40
0.4
100
AcDbArc
 50
270.0
 51
0.0
  0
ARC
  5
1A4
330
70
100
AcDbEntity
  8
Visible (ANSI)
100
AcDbCircle
 10
391.4312187886634
 20
431.5273716077983
 30
0.0
 40
0.4
100
AcDbArc
 50
90.0
 51
180.0
  0
ARC
  5
1A5
330
70
100
AcDbEntity
  8
Visible (ANSI)
100
AcDbCircle
 10
391.4312187886634
 20
371.3273716077984
 30
0.0
 40
0.4
100
AcDbArc
 50
180.0
 51
270.0
  0
ARC
  5
1A6
330
70
100
AcDbEntity
  8
Visible (ANSI)
100
AcDbCircle
 10
370.4312187886633
 20
426.0273716077983
 30
0.0
 40
0.4
100
AcDbArc
 50
90.0
 51
180.0
  0
ARC
  5
1A7
330
70
100
AcDbEntity
  8
Visible (ANSI)
100
AcDbCircle
 10
370.4312187886633
 20
376.8273716077983
 30
0.0
 40
0.4
100
AcDbArc
 50
180.0
 51
270.0
  0
LINE
  5
1A8
330
70
100
AcDbEntity
  8
Visible (ANSI)
100
AcDbLine
 10
398.6312187886633
 20
370.9273716077984
 30
0.0
 11
391.4312187886634
 21
370.9273716077984
 31
0.0
  0
LINE
  5
1A9
330
70
100
AcDbEntity
  8
Visible (ANSI)
100
AcDbLine
 10
398.6312187886633
 20
431.9273716077982
 30
0.0
 11
391.4312187886634
 21
431.9273716077982
 31
0.0
  0
LINE
  5
1AA
330
70
100
AcDbEntity
  8
Visible (ANSI)
100
AcDbLine
 10
391.0312187886633
 20
376.4273716077983
 30
0.0
 11
370.4312187886633
 21
376.4273716077983
 31
0.0
  0
LINE
  5
1AB
330
70
100
AcDbEntity
  8
Visible (ANSI)
100
AcDbLine
 10
391.0312187886633
 20
426.4273716077982
 30
0.0
 11
370.4312187886633
 21
426.4273716077982
 31
0.0
  0
CIRCLE
  5
1AC
330
70
100
AcDbEntity
  8
Visible (ANSI)
100
AcDbCircle
 10
782.96374689017
 20
401.4273716077982
 30
0.0
 40
18.99999999999999
  0
CIRCLE
  5
1AD
330
70
100
AcDbEntity
  8
Visible Narrow (ANSI)
100
AcDbCircle
 10
782.9637468901624
 20
401.4273716077982
 30
0.0
 40
20.4
  0
CIRCLE
  5
1AE
330
70
100
AcDbEntity
  8
Visible (ANSI)
100
AcDbCircle
 10
782.9637468901625
 20
401.4273716077982
 30
0.0
 40
20.0
  0
CIRCLE
  5
1AF
330
70
100
AcDbEntity
  8
Visible Narrow (ANSI)
100
AcDbCircle
 10
782.9637468901624
 20
401.4273716077982
 30
0.0
 40
24.6
  0
CIRCLE
  5
1B0
330
70
100
AcDbEntity
  8
Visible (ANSI)
100
AcDbCircle
 10
782.9637468901688
 20
401.4273716077982
 30
0.0
 40
30.50000000000001
  0
CIRCLE
  5
1B1
330
70
100
AcDbEntity
  8
Visible Narrow (ANSI)
100
AcDbCircle
 10
782.9637468901685
 20
401.4273716077982
 30
0.0
 40
30.10000000000001
  0
CIRCLE
  5
1B2
330
70
100
AcDbEntity
  8
Visible (ANSI)
100
AcDbCircle
 10
782.9637468901625
 20
401.4273716077982
 30
0.0
 40
25.0
  0
LINE
  5
1B3
330
70
100
AcDbEntity
  8
Visible (ANSI)
100
AcDbLine
 10
399.0312187888173
 20
950.5823238937718
 30
0.0
 11
399.0312187888173
 21
890.3823238937716
 31
0.0
  0
LINE
  5
1B4
330
70
100
AcDbEntity
  8
Visible (ANSI)
100
AcDbLine
 10
370.0312187888173
 20
895.8823238937718
 30
0.0
 11
370.0312187888173
 21
945.0823238937717
 31
0.0
  0
LINE
  5
1B5
330
70
100
AcDbEntity
  8
Visible Narrow (ANSI)
100
AcDbLine
 10
398.6312187888174
 20
890.3578295056187
 30
0.0
 11
398.6312187888174
 21
950.606818281922
 31
0.0
  0
LINE
  5
1B6
330
70
100
AcDbEntity
  8
Visible Narrow (ANSI)
100
AcDbLine
 10
391.4312187888174
 20
950.606818281922
 30
0.0
 11
391.4312187888174
 21
890.3578295056187
 31
0.0
  0
LINE
  5
1B7
330
70
100
AcDbEntity
  8
Visible (ANSI)
100
AcDbLine
 10
391.0312187888174
 20
890.3823238937716
 30
0.0
 11
391.0312187888174
 21
950.5823238937718
 31
0.0
  0
LINE
  5
1B8
330
70
100
AcDbEntity
  8
Visible Narrow (ANSI)
100
AcDbLine
 10
370.4312187888173
 20
945.1745324086491
 30
0.0
 11
370.4312187888173
 21
895.790115378892
 31
0.0
  0
ARC
  5
1B9
330
70
100
AcDbEntity
  8
Visible (ANSI)
100
AcDbCircle
 10
398.6312187888174
 20
950.5823238937718
 30
0.0
 40
0.4
100
AcDbArc
 50
0.0
 51
90.0
  0
ARC
  5
1BA
330
70
100
AcDbEntity
  8
Visible (ANSI)
100
AcDbCircle
 10
398.6312187888174
 20
890.3823238937716
 30
0.0
 40
0.4
100
AcDbArc
 50
270.0
 51
0.0
  0
ARC
  5
1BB
330
70
100
AcDbEntity
  8
Visible (ANSI)
100
AcDbCircle
 10
391.4312187888174
 20
950.5823238937718
 30
0.0
 40
0.4
100
AcDbArc
 50
90.0
 51
180.0
  0
ARC
  5
1BC
330
70
100
AcDbEntity
  8
Visible (ANSI)
100
AcDbCircle
 10
391.4312187888174
 20
890.3823238937716
 30
0.0
 40
0.4
100
AcDbArc
 50
180.0
 51
270.0
  0
ARC
  5
1BD
330
70
100
AcDbEntity
  8
Visible (ANSI)
100
AcDbCircle
 10
370.4312187888173
 20
945.0823238937717
 30
0.0
 40
0.4
100
AcDbArc
 50
90.0
 51
180.0
  0
ARC
  5
1BE
330
70
100
AcDbEntity
  8
Visible (ANSI)
100
AcDbCircle
 10
370.4312187888173
 20
895.8823238937718
 30
0.0
 40
0.4
100
AcDbArc
 50
180.0
 51
270.0
  0
LINE
  5
1BF
330
70
100
AcDbEntity
  8
Visible (ANSI)
100
AcDbLine
 10
398.6312187888174
 20
889.9823238937717
 30
0.0
 11
391.4312187888174
 21
889.9823238937717
 31
0.0
  0
LINE
  5
1C0
330
70
100
AcDbEntity
  8
Visible (ANSI)
100
AcDbLine
 10
398.6312187888174
 20
950.9823238937718
 30
0.0
 11
391.4312187888174
 21
950.9823238937718
 31
0.0
  0
LINE
  5
1C1
330
70
100
AcDbEntity
  8
Visible (ANSI)
100
AcDbLine
 10
391.0312187888174
 20
895.4823238937718
 30
0.0
 11
370.4312187888173
 21
895.4823238937718
 31
0.0
  0
LINE
  5
1C2
330
70
100
AcDbEntity
  8
Visible (ANSI)
100
AcDbLine
 10
391.0312187888174
 20
945.4823238937718
 30
0.0
 11
370.4312187888173
 21
945.4823238937718
 31
0.0
  0
CIRCLE
  5
1C3
330
70
100
AcDbEntity
  8
Visible (ANSI)
100
AcDbCircle
 10
-28.04145790000228
 20
401.4273716077982
 30
0.0
 40
18.99999999999999
  0
CIRCLE
  5
1C4
330
70
100
AcDbEntity
  8
Visible Narrow (ANSI)
100
AcDbCircle
 10
-28.04145790000216
 20
401.4273716077982
 30
0.0
 40
19.39999999999999
  0
CIRCLE
  5
1C5
330
70
100
AcDbEntity
  8
Visible Narrow (ANSI)
100
AcDbCircle
 10
-28.04145790000216
 20
401.4273716077982
 30
0.0
 40
20.51666666666666
  0
CIRCLE
  5
1C6
330
70
100
AcDbEntity
  8
Visible (ANSI)
100
AcDbCircle
 10
-28.04145790000193
 20
401.4273716077982
 30
0.0
 40
20.91666666666666
  0
CIRCLE
  5
1C7
330
70
100
AcDbEntity
  8
Visible Narrow (ANSI)
100
AcDbCircle
 10
-28.04145790000181
 20
401.4273716077982
 30
0.0
 40
21.31666666666666
  0
CIRCLE
  5
1C8
330
70
100
AcDbEntity
  8
Visible Narrow (ANSI)
100
AcDbCircle
 10
-28.04145790000181
 20
401.4273716077982
 30
0.0
 40
22.43333333333332
  0
CIRCLE
  5
1C9
330
70
100
AcDbEntity
  8
Visible (ANSI)
100
AcDbCircle
 10
-28.04145790000193
 20
401.4273716077982
 30
0.0
 40
28.58333333333334
  0
CIRCLE
  5
1CA
330
70
100
AcDbEntity
  8
Visible Narrow (ANSI)
100
AcDbCircle
 10
-28.04145790000181
 20
401.4273716077982
 30
0.0
 40
28.98333333333333
  0
CIRCLE
  5
1CB
330
70
100
AcDbEntity
  8
Visible Narrow (ANSI)
100
AcDbCircle
 10
-28.04145790000181
 20
401.4273716077982
 30
0.0
 40
30.10000000000001
  0
CIRCLE
  5
1CC
330
70
100
AcDbEntity
  8
Visible Narrow (ANSI)
100
AcDbCircle
 10
-28.04145790000216
 20
401.4273716077982
 30
0.0
 40
28.18333333333333
  0
CIRCLE
  5
1CD
330
70
100
AcDbEntity
  8
Visible Narrow (ANSI)
100
AcDbCircle
 10
-28.04145790000216
 20
401.4273716077982
 30
0.0
 40
27.06666666666667
  0
CIRCLE
  5
1CE
330
70
100
AcDbEntity
  8
Visible (ANSI)
100
AcDbCircle
 10
-28.04145790000193
 20
401.4273716077982
 30
0.0
 40
26.66666666666667
  0
CIRCLE
  5
1CF
330
70
100
AcDbEntity
  8
Visible Narrow (ANSI)
100
AcDbCircle
 10
-28.04145790000181
 20
401.4273716077982
 30
0.0
 40
26.26666666666667
  0
CIRCLE
  5
1D0
330
70
100
AcDbEntity
  8
Visible Narrow (ANSI)
100
AcDbCircle
 10
-28.04145790000181
 20
401.4273716077982
 30
0.0
 40
25.15
  0
CIRCLE
  5
1D1
330
70
100
AcDbEntity
  8
Visible (ANSI)
100
AcDbCircle
 10
-28.04145790000193
 20
401.4273716077982
 30
0.0
 40
22.83333333333332
  0
CIRCLE
  5
1D2
330
70
100
AcDbEntity
  8
Visible Narrow (ANSI)
100
AcDbCircle
 10
-28.04145790000216
 20
401.4273716077982
 30
0.0
 40
23.23333333333332
  0
CIRCLE
  5
1D3
330
70
100
AcDbEntity
  8
Visible Narrow (ANSI)
100
AcDbCircle
 10
-28.04145790000216
 20
401.4273716077982
 30
0.0
 40
24.35
  0
CIRCLE
  5
1D4
330
70
100
AcDbEntity
  8
Visible (ANSI)
100
AcDbCircle
 10
-28.04145790000193
 20
401.4273716077982
 30
0.0
 40
24.75
  0
CIRCLE
  5
1D5
330
70
100
AcDbEntity
  8
Visible (ANSI)
100
AcDbCircle
 10
-28.04145790000193
 20
401.4273716077982
 30
0.0
 40
30.50000000000001
  0
LINE
  5
1D6
330
70
100
AcDbEntity
  8
Visible (ANSI)
100
AcDbLine
 10
399.0312187885204
 20
-49.87121244450754
 30
0.0
 11
399.0312187885204
 21
-110.0712124445075
 31
0.0
  0
LINE
  5
1D7
330
70
100
AcDbEntity
  8
Visible (ANSI)
100
AcDbLine
 10
370.0312187885204
 20
-104.5712124445075
 30
0.0
 11
370.0312187885204
 21
-55.37121244450752
 31
0.0
  0
LINE
  5
1D8
330
70
100
AcDbEntity
  8
Visible Narrow (ANSI)
100
AcDbLine
 10
398.6312187885204
 20
-110.0957068326578
 30
0.0
 11
398.6312187885204
 21
-49.8467180563544
 31
0.0
  0
LINE
  5
1D9
330
70
100
AcDbEntity
  8
Visible Narrow (ANSI)
100
AcDbLine
 10
391.4312187885204
 20
-49.8467180563544
 30
0.0
 11
391.4312187885204
 21
-110.0957068326578
 31
0.0
  0
LINE
  5
1DA
330
70
100
AcDbEntity
  8
Visible (ANSI)
100
AcDbLine
 10
391.0312187885205
 20
-110.0712124445075
 30
0.0
 11
391.0312187885205
 21
-49.87121244450753
 31
0.0
  0
LINE
  5
1DB
330
70
100
AcDbEntity
  8
Visible Narrow (ANSI)
100
AcDbLine
 10
370.4312187885204
 20
-55.27900392962792
 30
0.0
 11
370.4312187885204
 21
-104.6634209593848
 31
0.0
  0
ARC
  5
1DC
330
70
100
AcDbEntity
  8
Visible (ANSI)
100
AcDbCircle
 10
398.6312187885204
 20
-49.87121244450752
 30
0.0
 40
0.4
100
AcDbArc
 50
0.0
 51
90.0
  0
ARC
  5
1DD
330
70
100
AcDbEntity
  8
Visible (ANSI)
100
AcDbCircle
 10
398.6312187885204
 20
-110.0712124445075
 30
0.0
 40
0.4
100
AcDbArc
 50
270.0
 51
0.0
  0
ARC
  5
1DE
330
70
100
AcDbEntity
  8
Visible (ANSI)
100
AcDbCircle
 10
391.4312187885204
 20
-49.87121244450752
 30
0.0
 40
0.4
100
AcDbArc
 50
90.0
 51
180.0
  0
ARC
  5
1DF
330
70
100
AcDbEntity
  8
Visible (ANSI)
100
AcDbCircle
 10
391.4312187885204
 20
-110.0712124445075
 30
0.0
 40
0.4
100
AcDbArc
 50
180.0
 51
270.0
  0
ARC
  5
1E0
330
70
100
AcDbEntity
  8
Visible (ANSI)
100
AcDbCircle
 10
370.4312187885204
 20
-55.37121244450752
 30
0.0
 40
0.4
100
AcDbArc
 50
90.0
 51
180.0
  0
ARC
  5
1E1
330
70
100
AcDbEntity
  8
Visible (ANSI)
100
AcDbCircle
 10
370.4312187885204
 20
-104.5712124445075
 30
0.0
 40
0.4
100
AcDbArc
 50
180.0
 51
270.0
  0
LINE
  5
1E2
330
70
100
AcDbEntity
  8
Visible (ANSI)
100
AcDbLine
 10
398.6312187885204
 20
-110.4712124445075
 30
0.0
 11
391.4312187885204
 21
-110.4712124445075
 31
0.0
  0
LINE
  5
1E3
330
70
100
AcDbEntity
  8
Visible (ANSI)
100
AcDbLine
 10
398.6312187885204
 20
-49.47121244450752
 30
0.0
 11
391.4312187885204
 21
-49.47121244450752
 31
0.0
  0
LINE
  5
1E4
330
70
100
AcDbEntity
  8
Visible (ANSI)
100
AcDbLine
 10
391.0312187885205
 20
-104.9712124445075
 30
0.0
 11
370.4312187885204
 21
-104.9712124445075
 31
0.0
  0
LINE
  5
1E5
330
70
100
AcDbEntity
  8
Visible (ANSI)
100
AcDbLine
 10
391.0312187885205
 20
-54.97121244450752
 30
0.0
 11
370.4312187885204
 21
-54.97121244450752
 31
0.0
  0
INSERT
  5
206
330
70
100
AcDbEntity
  8
Section Line (ANSI)
100
AcDbBlockReference
  2
2dTransSection0
 10
0.0
 20
0.0
 30
0.0
  0
ARC
  5
207
330
70
100
AcDbEntity
  8
Visible (ANSI)
100
AcDbCircle
 10
-44.1
 20
899.5999999999998
 30
0.0
 40
0.4000000000000004
100
AcDbArc
 50
90.0
 51
180.0
  0
LINE
  5
208
330
70
100
AcDbEntity
  8
Visible (ANSI)
100
AcDbLine
 10
-44.5
 20
899.5999999999998
 30
0.0
 11
-44.5
 21
895.4
 31
0.0
  0
ARC
  5
209
330
70
100
AcDbEntity
  8
Visible (ANSI)
100
AcDbCircle
 10
-44.1
 20
895.4
 30
0.0
 40
0.3999999999999986
100
AcDbArc
 50
180.0
 51
270.0
  0
LINE
  5
20A
330
70
100
AcDbEntity
  8
Visible (ANSI)
100
AcDbLine
 10
-44.1
 20
895.0
 30
0.0
 11
-23.5
 21
895.0
 31
0.0
  0
LINE
  5
20B
330
70
100
AcDbEntity
  8
Visible (ANSI)
100
AcDbLine
 10
-23.5
 20
895.0
 30
0.0
 11
-23.5
 21
889.8999999999999
 31
0.0
  0
ARC
  5
20C
330
70
100
AcDbEntity
  8
Visible (ANSI)
100
AcDbCircle
 10
-23.1
 20
889.8999999999999
 30
0.0
 40
0.3999999999999959
100
AcDbArc
 50
180.0
 51
270.0000000000013
  0
LINE
  5
20D
330
70
100
AcDbEntity
  8
Visible (ANSI)
100
AcDbLine
 10
-23.1
 20
889.4999999999999
 30
0.0
 11
-15.9
 21
889.4999999999999
 31
0.0
  0
ARC
  5
20E
330
70
100
AcDbEntity
  8
Visible (ANSI)
100
AcDbCircle
 10
-15.89999999999999
 20
889.8999999999999
 30
0.0
 40
0.3999999999999959
100
AcDbArc
 50
269.9999999999994
 51
0.0
  0
LINE
  5
20F
330
70
100
AcDbEntity
  8
Visible (ANSI)
100
AcDbLine
 10
-15.5
 20
889.8999999999999
 30
0.0
 11
-15.5
 21
891.0166666666667
 31
0.0
  0
ARC
  5
210
330
70
100
AcDbEntity
  8
Visible (ANSI)
100
AcDbCircle
 10
-15.89999999999999
 20
891.0166666666667
 30
0.0
 40
0.3999999999999959
100
AcDbArc
 50
0.0
 51
90.00000000000127
  0
LINE
  5
211
330
70
100
AcDbEntity
  8
Visible (ANSI)
100
AcDbLine
 10
-15.9
 20
891.4166666666666
 30
0.0
 11
-16.3
 21
891.4166666666666
 31
0.0
  0
ARC
  5
212
330
70
100
AcDbEntity
  8
Visible (ANSI)
100
AcDbCircle
 10
-16.3
 20
891.8166666666667
 30
0.0
 40
0.3999999999999959
100
AcDbArc
 50
180.0
 51
270.0000000000006
  0
LINE
  5
213
330
70
100
AcDbEntity
  8
Visible (ANSI)
100
AcDbLine
 10
-16.7
 20
891.8166666666667
 30
0.0
 11
-16.7
 21
892.9333333333334
 31
0.0
  0
ARC
  5
214
330
70
100
AcDbEntity
  8
Visible (ANSI)
100
AcDbCircle
 10
-16.3
 20
892.9333333333334
 30
0.0
 40
0.3999999999999959
100
AcDbArc
 50
89.99999999999872
 51
180.0
  0
LINE
  5
215
330
70
100
AcDbEntity
  8
Visible (ANSI)
100
AcDbLine
 10
-16.3
 20
893.3333333333333
 30
0.0
 11
-15.9
 21
893.3333333333333
 31
0.0
  0
ARC
  5
216
330
70
100
AcDbEntity
  8
Visible (ANSI)
100
AcDbCircle
 10
-15.89999999999999
 20
893.7333333333333
 30
0.0
 40
0.3999999999999959
100
AcDbArc
 50
269.9999999999994
 51
0.0
  0
LINE
  5
217
330
70
100
AcDbEntity
  8
Visible (ANSI)
100
AcDbLine
 10
-15.5
 20
893.7333333333333
 30
0.0
 11
-15.5
 21
894.8500000000001
 31
0.0
  0
ARC
  5
218
330
70
100
AcDbEntity
  8
Visible (ANSI)
100
AcDbCircle
 10
-15.89999999999999
 20
894.8500000000001
 30
0.0
 40
0.3999999999999959
100
AcDbArc
 50
0.0
 51
90.00000000000127
  0
LINE
  5
219
330
70
100
AcDbEntity
  8
Visible (ANSI)
100
AcDbLine
 10
-15.9
 20
895.25
 30
0.0
 11
-16.3
 21
895.25
 31
0.0
  0
ARC
  5
21A
330
70
100
AcDbEntity
  8
Visible (ANSI)
100
AcDbCircle
 10
-16.3
 20
895.65
 30
0.0
 40
0.3999999999999959
100
AcDbArc
 50
180.0
 51
270.0000000000006
  0
LINE
  5
21B
330
70
100
AcDbEntity
  8
Visible (ANSI)
100
AcDbLine
 10
-16.7
 20
895.65
 30
0.0
 11
-16.7
 21
896.7666666666666
 31
0.0
  0
ARC
  5
21C
330
70
100
AcDbEntity
  8
Visible (ANSI)
100
AcDbCircle
 10
-16.3
 20
896.7666666666666
 30
0.0
 40
0.3999999999999959
100
AcDbArc
 50
89.99999999999872
 51
180.0
  0
LINE
  5
21D
330
70
100
AcDbEntity
  8
Visible (ANSI)
100
AcDbLine
 10
-16.3
 20
897.1666666666667
 30
0.0
 11
-15.9
 21
897.1666666666667
 31
0.0
  0
ARC
  5
21E
330
70
100
AcDbEntity
  8
Visible (ANSI)
100
AcDbCircle
 10
-15.89999999999999
 20
897.5666666666667
 30
0.0
 40
0.3999999999999959
100
AcDbArc
 50
269.9999999999994
 51
0.0
  0
LINE
  5
21F
330
70
100
AcDbEntity
  8
Visible (ANSI)
100
AcDbLine
 10
-15.5
 20
897.5666666666667
 30
0.0
 11
-15.5
 21
898.6833333333335
 31
0.0
  0
ARC
  5
220
330
70
100
AcDbEntity
  8
Visible (ANSI)
100
AcDbCircle
 10
-15.89999999999999
 20
898.6833333333335
 30
0.0
 40
0.3999999999999959
100
AcDbArc
 50
0.0
 51
90.00000000000127
  0
LINE
  5
221
330
70
100
AcDbEntity
  8
Visible (ANSI)
100
AcDbLine
 10
-15.9
 20
899.0833333333332
 30
0.0
 11
-16.3
 21
899.0833333333332
 31
0.0
  0
ARC
  5
222
330
70
100
AcDbEntity
  8
Visible (ANSI)
100
AcDbCircle
 10
-16.3
 20
899.4833333333334
 30
0.0
 40
0.3999999999999959
100
AcDbArc
 50
180.0
 51
270.0000000000006
  0
LINE
  5
223
330
70
100
AcDbEntity
  8
Visible (ANSI)
100
AcDbLine
 10
-16.7
 20
899.4833333333334
 30
0.0
 11
-16.7
 21
900.6
 31
0.0
  0
ARC
  5
224
330
70
100
AcDbEntity
  8
Visible (ANSI)
100
AcDbCircle
 10
-17.1
 20
900.6
 30
0.0
 40
0.4000000000000004
100
AcDbArc
 50
0.0
 51
90.0
  0
LINE
  5
225
330
70
100
AcDbEntity
  8
Visible (ANSI)
100
AcDbLine
 10
-17.1
 20
901.0
 30
0.0
 11
-18.50000000000001
 21
901.0
 31
0.0
  0
LINE
  5
226
330
70
100
AcDbEntity
  8
Visible (ANSI)
100
AcDbLine
 10
-18.50000000000001
 20
901.0
 30
0.0
 11
-18.50000000000001
 21
900.0
 31
0.0
  0
LINE
  5
227
330
70
100
AcDbEntity
  8
Visible (ANSI)
100
AcDbLine
 10
-18.50000000000001
 20
900.0
 30
0.0
 11
-44.1
 21
900.0
 31
0.0
  0
ARC
  5
228
330
70
100
AcDbEntity
  8
Visible (ANSI)
100
AcDbCircle
 10
-44.1
 20
940.4000000000001
 30
0.0
 40
0.3999999999999985
100
AcDbArc
 50
180.0
 51
270.0
  0
LINE
  5
229
330
70
100
AcDbEntity
  8
Visible (ANSI)
100
AcDbLine
 10
-44.1
 20
940.0
 30
0.0
 11
-18.50000000000001
 21
940.0
 31
0.0
  0
LINE
  5
22A
330
70
100
AcDbEntity
  8
Visible (ANSI)
100
AcDbLine
 10
-18.50000000000001
 20
940.0
 30
0.0
 11
-18.50000000000001
 21
939.0
 31
0.0
  0
LINE
  5
22B
330
70
100
AcDbEntity
  8
Visible (ANSI)
100
AcDbLine
 10
-18.50000000000001
 20
939.0
 30
0.0
 11
-17.1
 21
939.0
 31
0.0
  0
ARC
  5
22C
330
70
100
AcDbEntity
  8
Visible (ANSI)
100
AcDbCircle
 10
-17.1
 20
939.4
 30
0.0
 40
0.4000000000000004
100
AcDbArc
 50
270.0
 51
0.0
  0
LINE
  5
22D
330
70
100
AcDbEntity
  8
Visible (ANSI)
100
AcDbLine
 10
-16.7
 20
939.4
 30
0.0
 11
-16.7
 21
940.5166666666666
 31
0.0
  0
ARC
  5
22E
330
70
100
AcDbEntity
  8
Visible (ANSI)
100
AcDbCircle
 10
-16.3
 20
940.5166666666666
 30
0.0
 40
0.3999999999999959
100
AcDbArc
 50
89.99999999999872
 51
180.0
  0
LINE
  5
22F
330
70
100
AcDbEntity
  8
Visible (ANSI)
100
AcDbLine
 10
-16.3
 20
940.9166666666667
 30
0.0
 11
-15.9
 21
940.9166666666667
 31
0.0
  0
ARC
  5
230
330
70
100
AcDbEntity
  8
Visible (ANSI)
100
AcDbCircle
 10
-15.89999999999999
 20
941.3166666666667
 30
0.0
 40
0.3999999999999959
100
AcDbArc
 50
269.9999999999994
 51
0.0
  0
LINE
  5
231
330
70
100
AcDbEntity
  8
Visible (ANSI)
100
AcDbLine
 10
-15.5
 20
941.3166666666667
 30
0.0
 11
-15.5
 21
942.4333333333335
 31
0.0
  0
ARC
  5
232
330
70
100
AcDbEntity
  8
Visible (ANSI)
100
AcDbCircle
 10
-15.89999999999999
 20
942.4333333333335
 30
0.0
 40
0.3999999999999959
100
AcDbArc
 50
0.0
 51
90.00000000000127
  0
LINE
  5
233
330
70
100
AcDbEntity
  8
Visible (ANSI)
100
AcDbLine
 10
-15.9
 20
942.8333333333332
 30
0.0
 11
-16.3
 21
942.8333333333332
 31
0.0
  0
ARC
  5
234
330
70
100
AcDbEntity
  8
Visible (ANSI)
100
AcDbCircle
 10
-16.3
 20
943.2333333333334
 30
0.0
 40
0.3999999999999959
100
AcDbArc
 50
180.0
 51
270.0000000000006
  0
LINE
  5
235
330
70
100
AcDbEntity
  8
Visible (ANSI)
100
AcDbLine
 10
-16.7
 20
943.2333333333334
 30
0.0
 11
-16.7
 21
944.35
 31
0.0
  0
ARC
  5
236
330
70
100
AcDbEntity
  8
Visible (ANSI)
100
AcDbCircle
 10
-16.3
 20
944.35
 30
0.0
 40
0.3999999999999959
100
AcDbArc
 50
89.99999999999872
 51
180.0
  0
LINE
  5
237
330
70
100
AcDbEntity
  8
Visible (ANSI)
100
AcDbLine
 10
-16.3
 20
944.7499999999999
 30
0.0
 11
-15.9
 21
944.7499999999999
 31
0.0
  0
ARC
  5
238
330
70
100
AcDbEntity
  8
Visible (ANSI)
100
AcDbCircle
 10
-15.89999999999999
 20
945.1499999999999
 30
0.0
 40
0.3999999999999959
100
AcDbArc
 50
269.9999999999994
 51
0.0
  0
LINE
  5
239
330
70
100
AcDbEntity
  8
Visible (ANSI)
100
AcDbLine
 10
-15.5
 20
945.1499999999999
 30
0.0
 11
-15.5
 21
946.2666666666667
 31
0.0
  0
ARC
  5
23A
330
70
100
AcDbEntity
  8
Visible (ANSI)
100
AcDbCircle
 10
-15.89999999999999
 20
946.2666666666667
 30
0.0
 40
0.3999999999999959
100
AcDbArc
 50
0.0
 51
90.00000000000127
  0
LINE
  5
23B
330
70
100
AcDbEntity
  8
Visible (ANSI)
100
AcDbLine
 10
-15.9
 20
946.6666666666666
 30
0.0
 11
-16.3
 21
946.6666666666666
 31
0.0
  0
ARC
  5
23C
330
70
100
AcDbEntity
  8
Visible (ANSI)
100
AcDbCircle
 10
-16.3
 20
947.0666666666666
 30
0.0
 40
0.3999999999999959
100
AcDbArc
 50
180.0
 51
270.0000000000006
  0
LINE
  5
23D
330
70
100
AcDbEntity
  8
Visible (ANSI)
100
AcDbLine
 10
-16.7
 20
947.0666666666666
 30
0.0
 11
-16.7
 21
948.1833333333332
 31
0.0
  0
ARC
  5
23E
330
70
100
AcDbEntity
  8
Visible (ANSI)
100
AcDbCircle
 10
-16.3
 20
948.1833333333332
 30
0.0
 40
0.3999999999999959
100
AcDbArc
 50
89.99999999999872
 51
180.0
  0
LINE
  5
23F
330
70
100
AcDbEntity
  8
Visible (ANSI)
100
AcDbLine
 10
-16.3
 20
948.5833333333333
 30
0.0
 11
-15.9
 21
948.5833333333333
 31
0.0
  0
ARC
  5
240
330
70
100
AcDbEntity
  8
Visible (ANSI)
100
AcDbCircle
 10
-15.89999999999999
 20
948.9833333333333
 30
0.0
 40
0.3999999999999959
100
AcDbArc
 50
269.9999999999994
 51
0.0
  0
LINE
  5
241
330
70
100
AcDbEntity
  8
Visible (ANSI)
100
AcDbLine
 10
-15.5
 20
948.9833333333333
 30
0.0
 11
-15.5
 21
950.1000000000001
 31
0.0
  0
ARC
  5
242
330
70
100
AcDbEntity
  8
Visible (ANSI)
100
AcDbCircle
 10
-15.89999999999999
 20
950.1000000000001
 30
0.0
 40
0.3999999999999959
100
AcDbArc
 50
0.0
 51
90.00000000000127
  0
LINE
  5
243
330
70
100
AcDbEntity
  8
Visible (ANSI)
100
AcDbLine
 10
-15.9
 20
950.5
 30
0.0
 11
-23.1
 21
950.5
 31
0.0
  0
ARC
  5
244
330
70
100
AcDbEntity
  8
Visible (ANSI)
100
AcDbCircle
 10
-23.1
 20
950.1000000000001
 30
0.0
 40
0.3999999999999959
100
AcDbArc
 50
89.99999999999936
 51
180.0
  0
LINE
  5
245
330
70
100
AcDbEntity
  8
Visible (ANSI)
100
AcDbLine
 10
-23.5
 20
950.1000000000001
 30
0.0
 11
-23.5
 21
945.0
 31
0.0
  0
LINE
  5
246
330
70
100
AcDbEntity
  8
Visible (ANSI)
100
AcDbLine
 10
-23.5
 20
945.0
 30
0.0
 11
-44.1
 21
945.0
 31
0.0
  0
ARC
  5
247
330
70
100
AcDbEntity
  8
Visible (ANSI)
100
AcDbCircle
 10
-44.1
 20
944.5999999999999
 30
0.0
 40
0.4000000000000004
100
AcDbArc
 50
90.0
 51
180.0
  0
LINE
  5
248
330
70
100
AcDbEntity
  8
Visible (ANSI)
100
AcDbLine
 10
-44.5
 20
944.5999999999999
 30
0.0
 11
-44.5
 21
940.4000000000001
 31
0.0
  0
LINE
  5
249
330
70
100
AcDbEntity
  8
Visible Narrow (ANSI)
100
AcDbLine
 10
-15.9
 20
944.7451453368847
 30
0.0
 11
-15.9
 21
943.0179959222853
 31
0.0
  0
LINE
  5
24A
330
70
100
AcDbEntity
  8
Visible Narrow (ANSI)
100
AcDbLine
 10
-15.9
 20
896.9820040777147
 30
0.0
 11
-15.9
 21
895.2548546631152
 31
0.0
  0
LINE
  5
24B
330
70
100
AcDbEntity
  8
Visible (ANSI)
100
AcDbLine
 10
-15.5
 20
894.8500000000001
 30
0.0
 11
-15.5
 21
897.5666666666667
 31
0.0
  0
LINE
  5
24C
330
70
100
AcDbEntity
  8
Visible (ANSI)
100
AcDbLine
 10
-15.5
 20
942.4333333333333
 30
0.0
 11
-15.5
 21
945.1499999999999
 31
0.0
  0
LINE
  5
24D
330
70
100
AcDbEntity
  8
Visible Narrow (ANSI)
100
AcDbLine
 10
-16.3
 20
895.2548546631151
 30
0.0
 11
-16.3
 21
896.9820040777147
 31
0.0
  0
LINE
  5
24E
330
70
100
AcDbEntity
  8
Visible Narrow (ANSI)
100
AcDbLine
 10
-16.3
 20
943.0179959222853
 30
0.0
 11
-16.3
 21
944.7451453368847
 31
0.0
  0
LINE
  5
24F
330
70
100
AcDbEntity
  8
Visible (ANSI)
100
AcDbLine
 10
-15.5
 20
898.6833333333335
 30
0.0
 11
-15.5
 21
941.3166666666667
 31
0.0
  0
LINE
  5
250
330
70
100
AcDbEntity
  8
Visible Narrow (ANSI)
100
AcDbLine
 10
-15.9
 20
940.6591477907817
 30
0.0
 11
-15.9
 21
899.3408522092183
 31
0.0
  0
LINE
  5
251
330
70
100
AcDbEntity
  8
Visible Narrow (ANSI)
100
AcDbLine
 10
-16.3
 20
899.3408522092183
 30
0.0
 11
-16.3
 21
940.6591477907817
 31
0.0
  0
LINE
  5
252
330
70
100
AcDbEntity
  8
Visible (ANSI)
100
AcDbLine
 10
-16.7
 20
900.6
 30
0.0
 11
-16.7
 21
939.4
 31
0.0
  0
LINE
  5
253
330
70
100
AcDbEntity
  8
Visible Narrow (ANSI)
100
AcDbLine
 10
-17.1
 20
938.7660784713075
 30
0.0
 11
-17.1
 21
901.2339215286925
 31
0.0
  0
LINE
  5
254
330
70
100
AcDbEntity
  8
Visible Narrow (ANSI)
100
AcDbLine
 10
-44.1
 20
900.2462331880973
 30
0.0
 11
-44.1
 21
939.7537668119026
 31
0.0
  0
LINE
  5
255
330
70
100
AcDbEntity
  8
Visible (ANSI)
100
AcDbLine
 10
-44.5
 20
940.4000000000001
 30
0.0
 11
-44.5
 21
899.5999999999998
 31
0.0
  0
LINE
  5
256
330
70
100
AcDbEntity
  8
Visible Narrow (ANSI)
100
AcDbLine
 10
-15.9
 20
948.5784872737088
 30
0.0
 11
-15.9
 21
946.8516301814748
 31
0.0
  0
LINE
  5
257
330
70
100
AcDbEntity
  8
Visible Narrow (ANSI)
100
AcDbLine
 10
-15.9
 20
893.148369818525
 30
0.0
 11
-15.9
 21
891.4215127262911
 31
0.0
  0
LINE
  5
258
330
70
100
AcDbEntity
  8
Visible (ANSI)
100
AcDbLine
 10
-15.5
 20
891.0166666666667
 30
0.0
 11
-15.5
 21
893.7333333333333
 31
0.0
  0
LINE
  5
259
330
70
100
AcDbEntity
  8
Visible (ANSI)
100
AcDbLine
 10
-15.5
 20
946.2666666666667
 30
0.0
 11
-15.5
 21
948.9833333333333
 31
0.0
  0
LINE
  5
25A
330
70
100
AcDbEntity
  8
Visible Narrow (ANSI)
100
AcDbLine
 10
-16.3
 20
891.4215127262909
 30
0.0
 11
-16.3
 21
893.148369818525
 31
0.0
  0
LINE
  5
25B
330
70
100
AcDbEntity
  8
Visible Narrow (ANSI)
100
AcDbLine
 10
-16.3
 20
946.851630181475
 30
0.0
 11
-16.3
 21
948.5784872737088
 31
0.0
  0
LINE
  5
25C
330
70
100
AcDbEntity
  8
Visible (ANSI)
100
AcDbLine
 10
-18.50000000000001
 20
939.0
 30
0.0
 11
-18.50000000000001
 21
901.0
 31
0.0
  0
HATCH
  5
29F
330
70
100
AcDbEntity
  8
Hatch (ANSI)
100
AcDbHatch
 10
0.0
 20
0.0
 30
0.0
210
0.0
220
0.0
230
1.0
  2
ANSI31
 70
     0
 71
     0
 91
        2
 92
        1
 93
       33
 72
     3
 10
-44.1
 20
940.4000000000001
 11
-0.3999999999999985
 21
0.0
 40
1.0
 50
0.0
 51
90.00000000000031
 73
     1
 72
     1
 10
-44.1
 20
940.0
 11
-18.50000000000001
 21
940.0
 72
     1
 10
-18.50000000000001
 20
940.0
 11
-18.50000000000001
 21
939.0
 72
     1
 10
-18.50000000000001
 20
939.0
 11
-17.1
 21
939.0
 72
     3
 10
-17.1
 20
939.4
 11
0.0
 21
-0.4000000000000004
 40
1.0
 50
0.0
 51
90.0
 73
     1
 72
     1
 10
-16.7
 20
939.4
 11
-16.7
 21
940.5166666666666
 72
     3
 10
-16.3
 20
940.5166666666666
 11
-0.3999999999999959
 21
-0.0000000000000044
 40
1.0
 50
0.0
 51
90.00000000000126
 73
     0
 72
     1
 10
-16.3
 20
940.9166666666667
 11
-15.9
 21
940.9166666666667
 72
     3
 10
-15.89999999999999
 20
941.3166666666667
 11
-0.0000000000000044
 21
-0.3999999999999959
 40
1.0
 50
0.0
 51
90.00000000000126
 73
     1
 72
     1
 10
-15.5
 20
941.3166666666667
 11
-15.5
 21
942.4333333333333
 72
     3
 10
-15.89999999999999
 20
942.4333333333335
 11
0.3999999999999959
 21
-0.0000000000000044
 40
1.0
 50
0.0
 51
90.00000000000126
 73
     1
 72
     1
 10
-15.9
 20
942.8333333333332
 11
-16.3
 21
942.8333333333332
 72
     3
 10
-16.3
 20
943.2333333333334
 11
0.0000000000000044
 21
-0.3999999999999959
 40
1.0
 50
0.0
 51
90.00000000000126
 73
     0
 72
     1
 10
-16.7
 20
943.2333333333334
 11
-16.7
 21
944.35
 72
     3
 10
-16.3
 20
944.35
 11
-0.3999999999999959
 21
-0.0000000000000044
 40
1.0
 50
0.0
 51
90.00000000000126
 73
     0
 72
     1
 10
-16.3
 20
944.7499999999999
 11
-15.9
 21
944.7499999999999
 72
     3
 10
-15.89999999999999
 20
945.1499999999999
 11
-0.0000000000000044
 21
-0.3999999999999959
 40
1.0
 50
0.0
 51
90.00000000000126
 73
     1
 72
     1
 10
-15.5
 20
945.1499999999999
 11
-15.5
 21
946.2666666666667
 72
     3
 10
-15.89999999999999
 20
946.2666666666667
 11
0.3999999999999959
 21
-0.0000000000000044
 40
1.0
 50
0.0
 51
90.00000000000126
 73
     1
 72
     1
 10
-15.9
 20
946.6666666666666
 11
-16.3
 21
946.6666666666666
 72
     3
 10
-16.3
 20
947.0666666666666
 11
0.0000000000000044
 21
-0.3999999999999959
 40
1.0
 50
0.0
 51
90.00000000000126
 73
     0
 72
     1
 10
-16.7
 20
947.0666666666666
 11
-16.7
 21
948.1833333333332
 72
     3
 10
-16.3
 20
948.1833333333332
 11
-0.3999999999999959
 21
-0.0000000000000044
 40
1.0
 50
0.0
 51
90.00000000000126
 73
     0
 72
     1
 10
-16.3
 20
948.5833333333333
 11
-15.9
 21
948.5833333333333
 72
     3
 10
-15.89999999999999
 20
948.9833333333333
 11
-0.0000000000000044
 21
-0.3999999999999959
 40
1.0
 50
0.0
 51
90.00000000000126
 73
     1
 72
     1
 10
-15.5
 20
948.9833333333333
 11
-15.5
 21
950.1000000000001
 72
     3
 10
-15.89999999999999
 20
950.1000000000001
 11
0.3999999999999959
 21
-0.0000000000000044
 40
1.0
 50
0.0
 51
90.00000000000126
 73
     1
 72
     1
 10
-15.9
 20
950.5
 11
-23.1
 21
950.5
 72
     3
 10
-23.1
 20
950.1000000000001
 11
0.0000000000000044
 21
0.3999999999999959
 40
1.0
 50
0.0
 51
90.00000000000126
 73
     1
 72
     1
 10
-23.5
 20
950.1000000000001
 11
-23.5
 21
945.0
 72
     1
 10
-23.5
 20
945.0
 11
-44.1
 21
945.0
 72
     3
 10
-44.1
 20
944.5999999999999
 11
0.0000000000000014
 21
0.4000000000000004
 40
1.0
 50
0.0
 51
90.00000000000019
 73
     1
 72
     1
 10
-44.5
 20
944.5999999999999
 11
-44.5
 21
940.3999999999998
 97
        0
 92
        1
 93
       33
 72
     3
 10
-44.1
 20
899.5999999999998
 11
0.0000000000000015
 21
0.4000000000000004
 40
1.0
 50
0.0
 51
90.00000000000019
 73
     1
 72
     1
 10
-44.5
 20
899.5999999999998
 11
-44.5
 21
895.3999999999998
 72
     3
 10
-44.1
 20
895.4
 11
-0.3999999999999986
 21
0.0
 40
1.0
 50
0.0
 51
90.00000000000031
 73
     1
 72
     1
 10
-44.1
 20
895.0
 11
-23.5
 21
895.0
 72
     1
 10
-23.5
 20
895.0
 11
-23.5
 21
889.8999999999999
 72
     3
 10
-23.1
 20
889.8999999999999
 11
-0.3999999999999959
 21
0.0000000000000044
 40
1.0
 50
0.0
 51
90.00000000000126
 73
     1
 72
     1
 10
-23.1
 20
889.4999999999999
 11
-15.9
 21
889.4999999999999
 72
     3
 10
-15.89999999999999
 20
889.8999999999999
 11
-0.0000000000000044
 21
-0.3999999999999959
 40
1.0
 50
0.0
 51
90.00000000000126
 73
     1
 72
     1
 10
-15.5
 20
889.8999999999999
 11
-15.5
 21
891.0166666666667
 72
     3
 10
-15.89999999999999
 20
891.0166666666667
 11
0.3999999999999959
 21
-0.0000000000000044
 40
1.0
 50
0.0
 51
90.00000000000126
 73
     1
 72
     1
 10
-15.9
 20
891.4166666666666
 11
-16.3
 21
891.4166666666666
 72
     3
 10
-16.3
 20
891.8166666666667
 11
0.0000000000000044
 21
-0.3999999999999959
 40
1.0
 50
0.0
 51
90.00000000000126
 73
     0
 72
     1
 10
-16.7
 20
891.8166666666667
 11
-16.7
 21
892.9333333333334
 72
     3
 10
-16.3
 20
892.9333333333334
 11
-0.3999999999999959
 21
-0.0000000000000044
 40
1.0
 50
0.0
 51
90.00000000000126
 73
     0
 72
     1
 10
-16.3
 20
893.3333333333333
 11
-15.9
 21
893.3333333333333
 72
     3
 10
-15.89999999999999
 20
893.7333333333333
 11
-0.0000000000000044
 21
-0.3999999999999959
 40
1.0
 50
0.0
 51
90.00000000000126
 73
     1
 72
     1
 10
-15.5
 20
893.7333333333333
 11
-15.5
 21
894.8500000000001
 72
     3
 10
-15.89999999999999
 20
894.8500000000001
 11
0.3999999999999959
 21
-0.0000000000000044
 40
1.0
 50
0.0
 51
90.00000000000126
 73
     1
 72
     1
 10
-15.9
 20
895.25
 11
-16.3
 21
895.25
 72
     3
 10
-16.3
 20
895.65
 11
0.0000000000000044
 21
-0.3999999999999959
 40
1.0
 50
0.0
 51
90.00000000000126
 73
     0
 72
     1
 10
-16.7
 20
895.65
 11
-16.7
 21
896.7666666666666
 72
     3
 10
-16.3
 20
896.7666666666666
 11
-0.3999999999999959
 21
-0.0000000000000044
 40
1.0
 50
0.0
 51
90.00000000000126
 73
     0
 72
     1
 10
-16.3
 20
897.1666666666667
 11
-15.9
 21
897.1666666666667
 72
     3
 10
-15.89999999999999
 20
897.5666666666667
 11
-0.0000000000000044
 21
-0.3999999999999959
 40
1.0
 50
0.0
 51
90.00000000000126
 73
     1
 72
     1
 10
-15.5
 20
897.5666666666667
 11
-15.5
 21
898.6833333333333
 72
     3
 10
-15.89999999999999
 20
898.6833333333335
 11
0.3999999999999959
 21
-0.0000000000000044
 40
1.0
 50
0.0
 51
90.00000000000126
 73
     1
 72
     1
 10
-15.9
 20
899.0833333333332
 11
-16.3
 21
899.0833333333332
 72
     3
 10
-16.3
 20
899.4833333333334
 11
0.0000000000000044
 21
-0.3999999999999959
 40
1.0
 50
0.0
 51
90.00000000000126
 73
     0
 72
     1
 10
-16.7
 20
899.4833333333334
 11
-16.7
 21
900.6
 72
     3
 10
-17.1
 20
900.6
 11
0.4000000000000004
 21
0.0
 40
1.0
 50
0.0
 51
90.0
 73
     1
 72
     1
 10
-17.1
 20
901.0
 11
-18.50000000000001
 21
901.0
 72
     1
 10
-18.50000000000001
 20
901.0
 11
-18.50000000000001
 21
900.0
 72
     1
 10
-18.50000000000001
 20
900.0
 11
-44.1
 21
900.0
 97
        0
 75
     0
 76
     1
 52
0.0
 41
25.4
 77
     0
 78
     1
 53
45.0
 43
0.0
 44
0.0
 45
-2.245064030267288
 46
2.245064030267288
 79
     0
 98
        1
 10
-30.0
 20
920.0
  0
DIMENSION
  5
2A0
330
70
100
AcDbEntity
  8
Dimension (ANSI)
100
AcDbDimension
280
     0
  2
*D7
 10
-44.50000000000001
 20
705.7317411785454
 30
0.0
 11
-96.00000000000001
 21
705.7317411785454
 31
0.0
 70
   160
  1
<>
 42
29.0
 73
     0
 74
     0
 75
     0
  3
Default - mm (ANSI)
100
AcDbAlignedDimension
 13
-15.5
 23
898.6833333333335
 33
0.0
 14
-44.5
 24
899.5999999999998
 34
0.0
 50
180.0
100
AcDbRotatedDimension
1001
ACAD
1000
DSTYLE
1002
{
1070
   289
1070
     2
1070
    74
1070
     0
1070
   271
1070
     2
1070
   272
1070
     2
1070
    48
1040
0.0
1070
    47
1040
0.0
1002
}
  0
DIMENSION
  5
38B
330
70
100
AcDbEntity
  8
Dimension (ANSI)
100
AcDbDimension
280
     0
  2
*D8
 10
-18.50000000000001
 20
774.4082114227015
 30
0.0
 11
30.49999999999998
 21
774.4082114227015
 31
0.0
 70
   160
  1
<>
 42
26.0
 73
     0
 74
     0
 75
     0
  3
Default - mm (ANSI)
100
AcDbAlignedDimension
 13
-44.5
 23
899.5999999999998
 33
0.0
 14
-18.50000000000001
 24
901.0
 34
0.0
100
AcDbRotatedDimension
1001
ACAD
1000
DSTYLE
1002
{
1070
   289
1070
     2
1070
    74
1070
     0
1070
   271
1070
     2
1070
   272
1070
     2
1070
    48
1040
0.0
1070
    47
1040
0.0
1002
}
  0
DIMENSION
  5
475
330
70
100
AcDbEntity
  8
Dimension (ANSI)
100
AcDbDimension
280
     0
  2
*D9
 10
-15.5
 20
786.7600945601396
 30
0.0
 11
-4.501530206203461
 21
786.7600945601396
 31
0.0
 70
   160
  1
<>
 42
3.000000000000008
 73
     0
 74
     0
 75
     0
  3
Default - mm (ANSI)
100
AcDbAlignedDimension
 13
-18.50000000000001
 23
901.0
 33
0.0
 14
-15.5
 24
898.6833333333335
 34
0.0
100
AcDbRotatedDimension
1001
ACAD
1000
DSTYLE
1002
{
1070
   289
1070
     1
1070
    74
1070
     0
1070
   271
1070
     2
1070
   272
1070
     2
1070
    48
1040
0.0
1070
    47
1040
0.0
1002
}
  0
DIMENSION
  5
55F
330
70
100
AcDbEntity
  8
Dimension (ANSI)
100
AcDbDimension
280
     0
  2
*D10
 10
-55.4632354517957
 20
900.0
 30
0.0
 11
-55.46323545179586
 21
782.5
 31
0.0
 70
   160
  1
<>
 42
40.0
 73
     0
 74
     0
 75
     0
  3
Default - mm (ANSI)
100
AcDbAlignedDimension
 13
-44.1
 23
940.0
 33
0.0
 14
-44.1
 24
900.0
 34
0.0
 50
270.0
100
AcDbRotatedDimension
1001
ACAD
1000
DSTYLE
1002
{
1070
   289
1070
     2
1070
    74
1070
     0
1070
   271
1070
     2
1070
   272
1070
     2
1070
    48
1040
0.0
1070
    47
1040
0.0
1002
}
  0
DIMENSION
  5
65A
330
70
100
AcDbEntity
  8
Dimension (ANSI)
100
AcDbDimension
280
     0
  2
*D11
 10
-73.74888454802324
 20
895.0
 30
0.0
 11
-73.7488845480234
 21
772.0
 31
0.0
 70
   160
  1
<>
 42
50.0
 73
     0
 74
     0
 75
     0
  3
Default - mm (ANSI)
100
AcDbAlignedDimension
 13
-44.1
 23
945.0
 33
0.0
 14
-44.1
 24
895.0
 34
0.0
 50
90.0
100
AcDbRotatedDimension
1001
ACAD
1000
DSTYLE
1002
{
1070
   289
1070
     2
1070
    74
1070
     0
1070
   271
1070
     2
1070
   272
1070
     2
1070
    48
1040
0.0
1070
    47
1040
0.0
1002
}
  0
DIMENSION
  5
755
330
70
100
AcDbEntity
  8
Dimension (ANSI)
100
AcDbDimension
280
     0
  2
*D12
 10
-23.49999999999999
 20
980.7955959525729
 30
0.0
 11
-30.70672138889475
 21
980.7955959525729
 31
0.0
 70
   160
  1
<>
 42
7.999999999999998
 73
     0
 74
     0
 75
     0
  3
Default - mm (ANSI)
100
AcDbAlignedDimension
 13
-15.5
 23
941.3166666666667
 33
0.0
 14
-23.5
 24
950.1000000000001
 34
0.0
 50
180.0
100
AcDbRotatedDimension
1001
ACAD
1000
DSTYLE
1002
{
1070
   289
1070
     2
1070
    74
1070
     0
1070
   271
1070
     2
1070
   272
1070
     2
1070
    48
1040
0.0
1070
    47
1040
0.0
1002
}
  0
DIMENSION
  5
83F
330
70
100
AcDbEntity
  8
Dimension (ANSI)
100
AcDbDimension
280
     0
  2
*D13
 10
16.10380098768956
 20
889.4999999999999
 30
0.0
 11
16.1038009876894
 21
761.0
 31
0.0
 70
   160
  1
<>
 42
61.0
 73
     0
 74
     0
 75
     0
  3
Default - mm (ANSI)
100
AcDbAlignedDimension
 13
-15.9
 23
950.5
 33
0.0
 14
-15.9
 24
889.4999999999999
 34
0.0
 50
90.0
100
AcDbRotatedDimension
1001
ACAD
1000
DSTYLE
1002
{
1070
   289
1070
     2
1070
    74
1070
     0
1070
   271
1070
     2
1070
   272
1070
     2
1070
    48
1040
0.0
1070
    47
1040
0.0
1002
}
  0
ELLIPSE
  5
93A
330
70
100
AcDbEntity
  8
Visible Narrow (ANSI)
100
AcDbEllipse
 10
738.3865652454703
 20
887.1212508624834
 30
0.0
 11
9.481612020099467
 21
16.46508528676075
 31
0.0
210
0.0
220
0.0
230
1.0
 40
0.578093115915639
 41
3.141592653589811
 42
6.283185307179604
  0
ELLIPSE
  5
93B
330
70
100
AcDbEntity
  8
Visible Narrow (ANSI)
100
AcDbEllipse
 10
738.669407957945
 20
886.9583725769665
 30
0.0
 11
-9.681224904733134
 21
-16.81171866121888
 31
0.0
210
0.0
220
0.0
230
0.9999999999999998
 40
0.578093115915639
 41
0.0
 42
6.283185307179586
  0
ELLIPSE
  5
93C
330
70
100
AcDbEntity
  8
Visible Narrow (ANSI)
100
AcDbEllipse
 10
738.669407957945
 20
886.9583725769665
 30
0.0
 11
10.23847754100213
 21
17.77940349824779
 31
0.0
210
0.0
220
0.0
230
0.9999999999999998
 40
0.578093115915639
 41
2.847535091581274
 42
6.577242869188099
  0
ELLIPSE
  5
93D
330
70
100
AcDbEntity
  8
Visible Narrow (ANSI)
100
AcDbEllipse
 10
738.9522506704196
 20
886.7954942914497
 30
0.0
 11
-10.4380904256358
 21
-18.12603687270591
 31
0.0
210
0.0
220
0.0
230
0.9999999999999998
 40
0.578093115915639
 41
0.0136277566409541
 42
3.127964896948849
  0
ELLIPSE
  5
93E
330
70
100
AcDbEntity
  8
Visible Narrow (ANSI)
100
AcDbEllipse
 10
739.2350933828943
 20
886.6326160059328
 30
0.0
 11
10.4380904256358
 21
18.12603687270591
 31
0.0
210
0.0
220
0.0
230
0.9999999999999998
 40
0.578093115915639
 41
3.141592653589794
 42
6.283185307179588
  0
ELLIPSE
  5
93F
330
70
100
AcDbEntity
  8
Visible Narrow (ANSI)
100
AcDbEllipse
 10
739.5179360953691
 20
886.4697377204159
 30
0.0
 11
-10.63770331026948
 21
-18.47267024716404
 31
0.0
210
0.0
220
0.0
230
1.0
 40
0.578093115915639
 41
0.0
 42
6.283185307179586
  0
ELLIPSE
  5
940
330
70
100
AcDbEntity
  8
Visible Narrow (ANSI)
100
AcDbEllipse
 10
739.5179360953691
 20
886.4697377204159
 30
0.0
 11
-11.19495594653964
 21
-19.44035508419229
 31
0.0
210
0.0
220
0.0
230
1.0
 40
0.578093115915639
 41
0.0
 42
6.283185307179586
  0
ELLIPSE
  5
941
330
70
100
AcDbEntity
  8
Visible Narrow (ANSI)
100
AcDbEllipse
 10
739.2350933828943
 20
886.6326160059328
 30
0.0
 11
14.2640040477812
 21
24.76984321648659
 31
0.0
210
0.0
220
0.0
230
1.0
 40
0.578093115915639
 41
3.141592653589792
 42
6.283185307179585
  0
ELLIPSE
  5
942
330
70
100
AcDbEntity
  8
Visible Narrow (ANSI)
100
AcDbEllipse
 10
739.5179360953691
 20
886.4697377204159
 30
0.0
 11
-14.46361693241488
 21
-25.1164765909447
 31
0.0
210
0.0
220
0.0
230
0.9999999999999998
 40
0.578093115915639
 41
0.0
 42
6.283185307179586
  0
ELLIPSE
  5
943
330
70
100
AcDbEntity
  8
Visible Narrow (ANSI)
100
AcDbEllipse
 10
738.9522506704196
 20
886.7954942914497
 30
0.0
 11
-14.26400404778121
 21
-24.76984321648657
 31
0.0
210
0.0
220
0.0
230
1.0
 40
0.5780931159156392
 41
0.0099462685404879
 42
3.131646385049301
  0
ELLIPSE
  5
944
330
70
100
AcDbEntity
  8
Visible Narrow (ANSI)
100
AcDbEllipse
 10
739.5179360953691
 20
886.4697377204159
 30
0.0
 11
-15.02086956868545
 21
-26.08416142797274
 31
0.0
210
0.0
220
0.0
230
1.0
 40
0.578093115915639
 41
0.0
 42
6.283185307179586
  0
ELLIPSE
  5
945
330
70
100
AcDbEntity
  8
Visible Narrow (ANSI)
100
AcDbEllipse
 10
738.669407957945
 20
886.9583725769665
 30
0.0
 11
14.06439116314753
 21
24.42320984202845
 31
0.0
210
0.0
220
0.0
230
0.9999999999999998
 40
0.578093115915639
 41
2.838964236837292
 42
6.58581372393209
  0
ELLIPSE
  5
946
330
70
100
AcDbEntity
  8
Visible Narrow (ANSI)
100
AcDbEllipse
 10
738.669407957945
 20
886.9583725769665
 30
0.0
 11
13.50713852687853
 21
23.45552500499954
 31
0.0
210
0.0
220
0.0
230
1.0
 40
0.5780931159156389
 41
5.933843689940484
 42
9.77411957800848
  0
ELLIPSE
  5
947
330
70
100
AcDbEntity
  8
Visible Narrow (ANSI)
100
AcDbEllipse
 10
738.9522506704196
 20
886.7954942914497
 30
0.0
 11
-13.30752564224486
 21
-23.10889163054142
 31
0.0
210
0.0
220
0.0
230
1.0
 40
0.5780931159156389
 41
3.141592653589795
 42
6.283185307179588
  0
ELLIPSE
  5
948
330
70
100
AcDbEntity
  8
Visible Narrow (ANSI)
100
AcDbEllipse
 10
739.2350933828943
 20
886.6326160059328
 30
0.0
 11
13.30752564224486
 21
23.10889163054142
 31
0.0
210
0.0
220
0.0
230
0.9999999999999998
 40
0.5780931159156389
 41
0.0000000000000027
 42
3.141592638688638
  0
ELLIPSE
  5
949
330
70
100
AcDbEntity
  8
Visible Narrow (ANSI)
100
AcDbEllipse
 10
739.5179360953691
 20
886.4697377204159
 30
0.0
 11
-13.10791275761254
 21
-22.76225825608251
 31
0.0
210
0.0
220
0.0
230
1.0
 40
0.5780931159156392
 41
0.0
 42
6.283185307179586
  0
ELLIPSE
  5
94A
330
70
100
AcDbEntity
  8
Visible Narrow (ANSI)
100
AcDbEllipse
 10
739.5179360953691
 20
886.4697377204159
 30
0.0
 11
-12.55066012134218
 21
-21.79457341905437
 31
0.0
210
0.0
220
0.0
230
0.9999999999999998
 40
0.5780931159156389
 41
0.0
 42
6.283185307179586
  0
ELLIPSE
  5
94B
330
70
100
AcDbEntity
  8
Visible Narrow (ANSI)
100
AcDbEllipse
 10
719.2946821534306
 20
898.115535134875
 30
0.0
 11
9.980644231683669
 21
17.3316687229061
 31
0.0
210
0.0
220
0.0
230
1.0
 40
0.578093115915639
 41
4.541150477461663
 42
4.883627483307694
  0
ELLIPSE
  5
94C
330
70
100
AcDbEntity
  8
Visible Narrow (ANSI)
100
AcDbEllipse
 10
739.2350933828943
 20
886.6326160059328
 30
0.0
 11
11.39456883117216
 21
19.78698845865108
 31
0.0
210
0.0
220
0.0
230
1.0
 40
0.578093115915639
 41
0.0
 42
3.141592653589793
  0
ELLIPSE
  5
94D
330
70
100
AcDbEntity
  8
Visible Narrow (ANSI)
100
AcDbEllipse
 10
738.9522506704196
 20
886.7954942914497
 30
0.0
 11
-11.39456883117216
 21
-19.78698845865108
 31
0.0
210
0.0
220
0.0
230
1.0
 40
0.578093115915639
 41
3.141592653589793
 42
6.283185307179586
  0
ELLIPSE
  5
94E
330
70
100
AcDbEntity
  8
Visible Narrow (ANSI)
100
AcDbEllipse
 10
738.669407957945
 20
886.9583725769665
 30
0.0
 11
11.59418171580582
 21
20.1336218331092
 31
0.0
210
0.0
220
0.0
230
0.9999999999999998
 40
0.578093115915639
 41
5.929920358221146
 42
9.778042909727805
  0
ELLIPSE
  5
94F
330
70
100
AcDbEntity
  8
Visible Narrow (ANSI)
100
AcDbEllipse
 10
738.669407957945
 20
886.9583725769665
 30
0.0
 11
12.15143435207483
 21
21.10130667013813
 31
0.0
210
0.0
220
0.0
230
1.0
 40
0.578093115915639
 41
2.842574300400961
 42
6.582203660368399
  0
ELLIPSE
  5
950
330
70
100
AcDbEntity
  8
Visible Narrow (ANSI)
100
AcDbEllipse
 10
738.9522506704196
 20
886.7954942914497
 30
0.0
 11
-12.3510472367085
 21
-21.44794004459624
 31
0.0
210
0.0
220
0.0
230
0.9999999999999998
 40
0.578093115915639
 41
0.0114995236442313
 42
3.130093129945559
  0
ELLIPSE
  5
951
330
70
100
AcDbEntity
  8
Visible Narrow (ANSI)
100
AcDbEllipse
 10
739.2350933828943
 20
886.6326160059328
 30
0.0
 11
12.35104723670851
 21
21.44794004459626
 31
0.0
210
0.0
220
0.0
230
1.0
 40
0.5780931159156389
 41
3.141592653589789
 42
6.283185307179582
  0
ELLIPSE
  5
952
330
70
100
AcDbEntity
  8
Visible Narrow (ANSI)
100
AcDbEllipse
 10
739.2350933828943
 20
886.6326160059328
 30
0.0
 11
15.22048245331756
 21
26.43079480243175
 31
0.0
210
0.0
220
0.0
230
1.0
 40
0.578093115915639
 41
0.0
 42
3.141592653589791
  0
ELLIPSE
  5
953
330
70
100
AcDbEntity
  8
Visible Narrow (ANSI)
100
AcDbEllipse
 10
734.1439245583504
 20
889.564425145237
 30
0.0
 11
-15.22048245331757
 21
-26.43079480243176
 31
0.0
210
0.0
220
0.0
230
0.9999999999999998
 40
0.5780931159156388
 41
3.141592653589791
 42
6.283185307179584
  0
ELLIPSE
  5
954
330
70
100
AcDbEntity
  8
Visible Narrow (ANSI)
100
AcDbEllipse
 10
719.2946821534308
 20
898.1155351348748
 30
0.0
 11
-12.47580528960456
 21
-21.66458590363257
 31
0.0
210
0.0
220
0.0
230
0.9999999999999998
 40
0.578093115915639
 41
3.141592653589796
 42
6.283185307179589
  0
SPLINE
  5
955
330
70
100
AcDbEntity
  8
Visible (ANSI)
100
AcDbSpline
210
0.0
220
0.0
230
1.0
 70
     8
 71
     3
 72
    26
 73
    22
 74
     0
 42
0.000000001
 43
0.0000000001
 40
5.495853435358807
 40
5.495853435358807
 40
5.495853435358807
 40
5.495853435358807
 40
5.830010242480473
 40
5.830010242480473
 40
6.152952671919742
 40
6.152952671919742
 40
6.469701297607894
 40
6.469701297607894
 40
6.78635195560656
 40
6.78635195560656
 40
7.10359833113797
 40
7.10359833113797
 40
7.42104006781464
 40
7.42104006781464
 40
7.738171411535379
 40
7.738171411535379
 40
8.054690288578713
 40
8.054690288578713
 40
8.371990608074343
 40
8.371990608074343
 40
8.637446088948601
 40
8.637446088948601
 40
8.637446088948601
 40
8.637446088948601
 10
728.9049532253709
 20
870.6561655757226
 30
0.0
 10
727.8892141386613
 20
871.2410908139522
 30
0.0
 10
727.0410777585571
 20
872.121786360819
 30
0.0
 10
725.7862221552304
 20
874.3784550498769
 30
0.0
 10
725.3685858345915
 20
875.7369359157669
 30
0.0
 10
724.9989042856464
 20
878.7874533100273
 30
0.0
 10
725.0382155902823
 20
880.4711080918471
 30
0.0
 10
725.5661708878982
 20
884.0098185036328
 30
0.0
 10
726.0543953666882
 20
885.8640975507642
 30
0.0
 10
727.4340739356928
 20
889.5566820582029
 30
0.0
 10
728.3259954597359
 20
891.3943363173665
 30
0.0
 10
730.4234007298478
 20
894.8630016225882
 30
0.0
 10
731.6287308227524
 20
896.4932936717309
 30
0.0
 10
734.2270861756269
 20
899.3780785395298
 30
0.0
 10
735.619530449648
 20
900.6323762972938
 30
0.0
 10
738.4439225863617
 20
902.6387163793097
 30
0.0
 10
739.8752210785978
 20
903.3910993856386
 30
0.0
 10
742.6289540177795
 20
904.3291255266776
 30
0.0
 10
743.9494618754196
 20
904.5131444145528
 30
0.0
 10
746.1467963942699
 20
904.3306047451917
 30
0.0
 10
747.0612701430491
 20
904.0510030573559
 30
0.0
 10
747.8681772655697
 20
903.5863361492443
 30
0.0
  0
SPLINE
  5
956
330
70
100
AcDbEntity
  8
Visible (ANSI)
100
AcDbSpline
210
0.0
220
0.0
230
1.0
 70
     8
 71
     3
 72
    26
 73
    22
 74
     0
 42
0.000000001
 43
0.0000000001
 40
5.495853435358807
 40
5.495853435358807
 40
5.495853435358807
 40
5.495853435358807
 40
5.828649404966204
 40
5.828649404966204
 40
6.151384836485854
 40
6.151384836485854
 40
6.468443240987887
 40
6.468443240987887
 40
6.785395953691172
 40
6.785395953691172
 40
7.102890239189878
 40
7.102890239189878
 40
7.420563372985546
 40
7.420563372985546
 40
7.737955116219567
 40
7.737955116219567
 40
8.054791292501118
 40
8.054791292501118
 40
8.372348229145178
 40
8.372348229145178
 40
8.637446088948601
 40
8.637446088948601
 40
8.637446088948601
 40
8.637446088948601
 10
728.7970029572585
 20
868.5065791332267
 30
0.0
 10
727.6788852221533
 20
869.1504603140662
 30
0.0
 10
726.7448549266458
 20
870.1186068652768
 30
0.0
 10
725.3596012881078
 20
872.5984382606748
 30
0.0
 10
724.8975750500976
 20
874.0929125264003
 30
0.0
 10
724.485450631304
 20
877.4498846262783
 30
0.0
 10
724.5266376641484
 20
879.3039027425834
 30
0.0
 10
725.1043250452245
 20
883.2005509687043
 30
0.0
 10
725.6403694693836
 20
885.2423302392354
 30
0.0
 10
727.1568047830742
 20
889.3081529309704
 30
0.0
 10
728.1376395430373
 20
891.3314806292074
 30
0.0
 10
730.4449846675486
 20
895.1508753594991
 30
0.0
 10
731.7713064529325
 20
896.9461617944771
 30
0.0
 10
734.6314849714319
 20
900.1235454294443
 30
0.0
 10
736.1647151921357
 20
901.5053952620711
 30
0.0
 10
739.2762204131949
 20
903.716478159114
 30
0.0
 10
740.8537938806232
 20
904.546012757761
 30
0.0
 10
743.8907848076815
 20
905.5801579943956
 30
0.0
 10
745.3482216761091
 20
905.7831062227279
 30
0.0
 10
747.7733135680214
 20
905.5803173307888
 30
0.0
 10
748.7825161152454
 20
905.2715542915061
 30
0.0
 10
749.6731838085302
 20
904.7586528786387
 30
0.0
  0
SPLINE
  5
957
330
70
100
AcDbEntity
  8
Visible (ANSI)
100
AcDbSpline
210
0.0
220
0.0
230
1.0
 70
     8
 71
     3
 72
    26
 73
    22
 74
     0
 42
0.000000001
 43
0.0000000001
 40
5.495853435358807
 40
5.495853435358807
 40
5.495853435358807
 40
5.495853435358807
 40
5.825095287307934
 40
5.825095287307934
 40
6.147216755639508
 40
6.147216755639508
 40
6.465088332007251
 40
6.465088332007251
 40
6.782849020046348
 40
6.782849020046348
 40
7.101006760577708
 40
7.101006760577708
 40
7.419298087948299
 40
7.419298087948299
 40
7.737384598261693
 40
7.737384598261693
 40
8.055066110109493
 40
8.055066110109493
 40
8.373296588732076
 40
8.373296588732076
 40
8.637446088948601
 40
8.637446088948601
 40
8.637446088948601
 40
8.637446088948601
 10
724.9710893351131
 20
861.8627727894461
 30
0.0
 10
723.4434019739729
 20
862.7425094318059
 30
0.0
 10
722.1657310865908
 20
864.0606046499277
 30
0.0
 10
720.2590799130785
 20
867.4334710791196
 30
0.0
 10
719.6196295452534
 20
869.4717026586834
 30
0.0
 10
719.0377293940457
 20
874.0541707697202
 30
0.0
 10
719.086391614437
 20
876.5896055483757
 30
0.0
 10
719.8629363621433
 20
881.9179918011569
 30
0.0
 10
720.5902522212102
 20
884.7098106368024
 30
0.0
 10
722.6537109878718
 20
890.2686427589774
 30
0.0
 10
723.9902029566067
 20
893.034681684365
 30
0.0
 10
727.1373138747057
 20
898.2570074079722
 30
0.0
 10
728.9476024285066
 20
900.7122680288794
 30
0.0
 10
732.8550694139282
 20
905.0600330324236
 30
0.0
 10
734.9514392447464
 20
906.9520827233167
 30
0.0
 10
739.2113969887362
 20
909.9821217714923
 30
0.0
 10
741.3740777372552
 20
911.1202606968475
 30
0.0
 10
745.544099649598
 20
912.5388416122827
 30
0.0
 10
747.5492512279812
 20
912.8174965975516
 30
0.0
 10
750.8853810370947
 20
912.533674939592
 30
0.0
 10
752.2734396033265
 20
912.1082686237024
 30
0.0
 10
753.4990974306755
 20
911.4024592224193
 30
0.0
  0
SPLINE
  5
958
330
70
100
AcDbEntity
  8
Visible (ANSI)
100
AcDbSpline
210
0.0
220
0.0
230
1.0
 70
     8
 71
     3
 72
    26
 73
    22
 74
     0
 42
0.000000001
 43
0.0000000001
 40
2.354260781769015
 40
2.354260781769015
 40
2.354260781769015
 40
2.354260781769015
 40
2.665044891993799
 40
2.665044891993799
 40
2.982114849595311
 40
2.982114849595311
 40
3.304215014883679
 40
3.304215014883679
 40
3.626669308700176
 40
3.626669308700176
 40
3.948697575795019
 40
3.948697575795019
 40
4.270565997572112
 40
4.270565997572112
 40
4.592646984017042
 40
4.592646984017042
 40
4.915151417099339
 40
4.915151417099339
 40
5.236929417600855
 40
5.236929417600855
 40
5.495853435358807
 40
5.495853435358807
 40
5.495853435358807
 40
5.495853435358807
 10
752.5426190251391
 20
909.7415076364741
 30
0.0
 10
753.9679080969516
 20
908.9207382471846
 30
0.0
 10
755.168163529644
 20
907.713502144697
 30
0.0
 10
757.0141214935529
 20
904.6421832561721
 30
0.0
 10
757.6500325799375
 20
902.7666913562383
 30
0.0
 10
758.2915058724069
 20
898.5250151492783
 30
0.0
 10
758.2870143223921
 20
896.1512252009415
 30
0.0
 10
757.6325831807489
 20
891.1626826613185
 30
0.0
 10
756.9818285561969
 20
888.5483828286687
 30
0.0
 10
755.1034554769909
 20
883.3463639297976
 30
0.0
 10
753.8768653000418
 20
880.7595471165196
 30
0.0
 10
750.9721473408609
 20
875.8711604565673
 30
0.0
 10
749.2947659758698
 20
873.5703141438012
 30
0.0
 10
745.6550946259885
 20
869.4838777678022
 30
0.0
 10
743.6933096339213
 20
867.699278225564
 30
0.0
 10
739.6769199671707
 20
864.8276751148696
 30
0.0
 10
737.622815005691
 20
863.7417900696229
 30
0.0
 10
733.6277041003704
 20
862.3907868071423
 30
0.0
 10
731.6858817276504
 20
862.1240185073643
 30
0.0
 10
728.4560959710397
 20
862.4247605556503
 30
0.0
 10
727.1150208979981
 20
862.8399155803604
 30
0.0
 10
725.9275677406495
 20
863.5237243753913
 30
0.0
  0
SPLINE
  5
959
330
70
100
AcDbEntity
  8
Visible (ANSI)
100
AcDbSpline
210
0.0
220
0.0
230
1.0
 70
     8
 71
     3
 72
    10
 73
     6
 74
     0
 42
0.000000001
 43
0.0000000001
 40
3.803391331225816
 40
3.803391331225816
 40
3.803391331225816
 40
3.803391331225816
 40
3.961619313182687
 40
3.961619313182687
 40
4.046722885902005
 40
4.046722885902005
 40
4.046722885902005
 40
4.046722885902005
 10
730.3145318246842
 20
894.5941202809722
 30
0.0
 10
729.8523636605176
 20
893.6420207566584
 30
0.0
 10
729.3430554781687
 20
892.7049985890592
 30
0.0
 10
728.4972907022047
 20
891.3055758298728
 30
0.0
 10
728.1897494164281
 20
890.8239498606929
 30
0.0
 10
727.8716092904154
 20
890.3519167621594
 30
0.0
  0
SPLINE
  5
95A
330
70
100
AcDbEntity
  8
Visible (ANSI)
100
AcDbSpline
210
0.0
220
0.0
230
1.0
 70
     8
 71
     3
 72
    26
 73
    22
 74
     0
 42
0.000000001
 43
0.0000000001
 40
2.354260781769015
 40
2.354260781769015
 40
2.354260781769015
 40
2.354260781769015
 40
2.663563459991452
 40
2.663563459991452
 40
2.980081991095954
 40
2.980081991095954
 40
3.302512966682868
 40
3.302512966682868
 40
3.625384463464153
 40
3.625384463464153
 40
3.947758802203143
 40
3.947758802203143
 40
4.269944748383203
 40
4.269944748383203
 40
4.59237820458499
 40
4.59237820458499
 40
4.915304994091632
 40
4.915304994091632
 40
5.237368723437287
 40
5.237368723437287
 40
5.495853435358807
 40
5.495853435358807
 40
5.495853435358807
 40
5.495853435358807
 10
750.6296622140665
 20
906.4196044645838
 30
0.0
 10
751.8501654858
 20
905.7167633744652
 30
0.0
 10
752.878589022976
 20
904.6845205511925
 30
0.0
 10
754.4638630052088
 20
902.0597968825908
 30
0.0
 10
755.0110794584181
 20
900.4561285129643
 30
0.0
 10
755.5676435779452
 20
896.8271303310871
 30
0.0
 10
755.566885804766
 20
894.7940811744794
 30
0.0
 10
755.011895487824
 20
890.5214474292378
 30
0.0
 10
754.4567819555903
 20
888.2821711805984
 30
0.0
 10
752.8519306318043
 20
883.8266588106682
 30
0.0
 10
751.8031722529181
 20
881.6111955146499
 30
0.0
 10
749.3183420612833
 20
877.4242689555881
 30
0.0
 10
747.882945787092
 20
875.4534065092222
 30
0.0
 10
744.7669207483754
 20
871.9521536142048
 30
0.0
 10
743.0867060650661
 20
870.4226500179359
 30
0.0
 10
739.6445430001971
 20
867.9605172106816
 30
0.0
 10
737.8829917267524
 20
867.0289300397389
 30
0.0
 10
734.454401941969
 20
865.8701384516611
 30
0.0
 10
732.7864462703023
 20
865.6412191841367
 30
0.0
 10
730.0121705412018
 20
865.9014276746876
 30
0.0
 10
728.860500965785
 20
866.2582621945146
 30
0.0
 10
727.8405245517221
 20
866.8456275472816
 30
0.0
  0
SPLINE
  5
95B
330
70
100
AcDbEntity
  8
Visible (ANSI)
100
AcDbSpline
210
0.0
220
0.0
230
1.0
 70
     8
 71
     3
 72
    26
 73
    22
 74
     0
 42
0.000000001
 43
0.0000000001
 40
5.495853435358807
 40
5.495853435358807
 40
5.495853435358807
 40
5.495853435358807
 40
5.826585841614575
 40
5.826585841614575
 40
6.1489778962297
 40
6.1489778962297
 40
6.466507788703005
 40
6.466507788703005
 40
6.783926204988561
 40
6.783926204988561
 40
7.101802833540946
 40
7.101802833540946
 40
7.419832415338079
 40
7.419832415338079
 40
7.737624919614622
 40
7.737624919614622
 40
8.054948931846562
 40
8.054948931846562
 40
8.372896373642042
 40
8.372896373642042
 40
8.637446088948601
 40
8.637446088948601
 40
8.637446088948601
 40
8.637446088948601
 10
726.8840461461857
 20
865.1846759613365
 30
0.0
 10
725.5611520489368
 20
865.9464800064014
 30
0.0
 10
724.4553112544131
 20
867.0895789261228
 30
0.0
 10
722.8093290208785
 20
870.0158700899834
 30
0.0
 10
722.2585700676366
 20
871.7822557833619
 30
0.0
 10
721.761558312316
 20
875.7520248948944
 30
0.0
 10
721.8064872462808
 20
877.9467573723275
 30
0.0
 10
722.4836145074582
 20
882.5592771259744
 30
0.0
 10
723.1152960577548
 20
884.976070278245
 30
0.0
 10
724.9052438693531
 20
889.7883889724841
 30
0.0
 10
726.0639066685273
 20
892.1830695559421
 30
0.0
 10
728.7911338556623
 20
896.703927611797
 30
0.0
 10
730.3594390812908
 20
898.8292015717613
 30
0.0
 10
733.7432625510175
 20
902.591777796904
 30
0.0
 10
735.5580632372358
 20
904.2287287404493
 30
0.0
 10
739.2437946941657
 20
906.8492917934474
 30
0.0
 10
741.1139206540642
 20
907.8331287372618
 30
0.0
 10
744.7174272436813
 20
909.0594978400075
 30
0.0
 10
746.4487217409393
 20
909.30030094475
 30
0.0
 10
749.3293309426696
 20
909.0570008612605
 30
0.0
 10
750.5279701767062
 20
908.6899158817077
 30
0.0
 10
751.5861406196028
 20
908.0805560505289
 30
0.0
  0
SPLINE
  5
95C
330
70
100
AcDbEntity
  8
Visible (ANSI)
100
AcDbSpline
210
0.0
220
0.0
230
1.0
 70
     8
 71
     3
 72
    26
 73
    22
 74
     0
 42
0.000000001
 43
0.0000000001
 40
2.354260781769015
 40
2.354260781769015
 40
2.354260781769015
 40
2.354260781769015
 40
2.666166001322165
 40
2.666166001322165
 40
2.983638147489049
 40
2.983638147489049
 40
3.305486289088218
 40
3.305486289088218
 40
3.627629195217334
 40
3.627629195217334
 40
3.949399437235975
 40
3.949399437235975
 40
4.271030881593234
 40
4.271030881593234
 40
4.592848587226049
 40
4.592848587226049
 40
4.915037183813875
 40
4.915037183813875
 40
5.23659881987511
 40
5.23659881987511
 40
5.495853435358807
 40
5.495853435358807
 40
5.495853435358807
 40
5.495853435358807
 10
754.4555758362118
 20
913.0634108083643
 30
0.0
 10
756.0856641767677
 20
912.124705363816
 30
0.0
 10
757.4577632381692
 20
910.7424470236979
 30
0.0
 10
759.5643616890954
 20
907.2244673038246
 30
0.0
 10
760.2889399575968
 20
905.0771856399013
 30
0.0
 10
761.0153156972326
 20
900.2228864066024
 30
0.0
 10
761.0070961433635
 20
897.5083773871205
 30
0.0
 10
760.2532471201739
 20
891.8039446998125
 30
0.0
 10
759.5068557615418
 20
888.8146130270783
 30
0.0
 10
757.3549660169176
 20
882.8660739909553
 30
0.0
 10
755.9505443608454
 20
879.9078984051478
 30
0.0
 10
752.6259391767432
 20
874.3180460267053
 30
0.0
 10
750.7065734867981
 20
871.6872153070731
 30
0.0
 10
746.543257825146
 20
867.0155957653987
 30
0.0
 10
744.2999038039931
 20
864.9759006533781
 30
0.0
 10
739.7092876084286
 20
861.6948275823043
 30
0.0
 10
737.3626270728545
 20
860.4546432743664
 30
0.0
 10
732.8009973043539
 20
858.9114357182928
 30
0.0
 10
730.5853120290121
 20
858.6068191353465
 30
0.0
 10
726.9000099265268
 20
858.948096789531
 30
0.0
 10
725.3695351162918
 20
859.4215722566334
 30
0.0
 10
724.0146109295767
 20
860.2018212035011
 30
0.0
  0
SPLINE
  5
95D
330
70
100
AcDbEntity
  8
Visible (ANSI)
100
AcDbSpline
210
0.0
220
0.0
230
1.0
 70
     8
 71
     3
 72
    26
 73
    22
 74
     0
 42
0.000000001
 43
0.0000000001
 40
5.495853435358807
 40
5.495853435358807
 40
5.495853435358807
 40
5.495853435358807
 40
5.807758654911959
 40
5.807758654911959
 40
6.125230801078842
 40
6.125230801078842
 40
6.447078942678011
 40
6.447078942678011
 40
6.769221848807127
 40
6.769221848807127
 40
7.090992090825769
 40
7.090992090825769
 40
7.412623535183027
 40
7.412623535183027
 40
7.734441240815842
 40
7.734441240815842
 40
8.056629837403669
 40
8.056629837403669
 40
8.378191473464903
 40
8.378191473464903
 40
8.637446088948601
 40
8.637446088948601
 40
8.637446088948601
 40
8.637446088948601
 10
718.9234421050327
 20
863.1336303428055
 30
0.0
 10
717.293353764477
 20
864.0723357873538
 30
0.0
 10
715.9212547030755
 20
865.4545941274719
 30
0.0
 10
713.8146562521492
 20
868.9725738473452
 30
0.0
 10
713.090077983648
 20
871.1198555112686
 30
0.0
 10
712.3637022440121
 20
875.9741547445674
 30
0.0
 10
712.3719217978812
 20
878.6886637640494
 30
0.0
 10
713.1257708210707
 20
884.3930964513573
 30
0.0
 10
713.8721621797028
 20
887.3824281240915
 30
0.0
 10
716.024051924327
 20
893.3309671602145
 30
0.0
 10
717.4284735803992
 20
896.289142746022
 30
0.0
 10
720.7530787645015
 20
901.8789951244645
 30
0.0
 10
722.6724444544465
 20
904.5098258440969
 30
0.0
 10
726.8357601160987
 20
909.1814453857711
 30
0.0
 10
729.0791141372515
 20
911.2211404977918
 30
0.0
 10
733.6697303328161
 20
914.5022135688655
 30
0.0
 10
736.0163908683903
 20
915.7423978768035
 30
0.0
 10
740.5780206368908
 20
917.285605432877
 30
0.0
 10
742.7937059122328
 20
917.5902220158233
 30
0.0
 10
746.479008014718
 20
917.2489443616388
 30
0.0
 10
748.0094828249527
 20
916.7754688945365
 30
0.0
 10
749.364407011668
 20
915.9952199476688
 30
0.0
  0
SPLINE
  5
95E
330
70
100
AcDbEntity
  8
Visible (ANSI)
100
AcDbSpline
210
0.0
220
0.0
230
1.0
 70
     8
 71
     3
 72
    26
 73
    22
 74
     0
 42
0.000000001
 43
0.0000000001
 40
5.495853435358807
 40
5.495853435358807
 40
5.495853435358807
 40
5.495853435358807
 40
5.806047073683512
 40
5.806047073683512
 40
6.122899979318936
 40
6.122899979318936
 40
6.445132319646351
 40
6.445132319646351
 40
6.767752113831234
 40
6.767752113831234
 40
7.08991761298585
 40
7.08991761298585
 40
7.411911989946241
 40
7.411911989946241
 40
7.7341328345276
 40
7.7341328345276
 40
8.056804921433174
 40
8.056804921433174
 40
8.378696837036702
 40
8.378696837036702
 40
8.637446088948601
 40
8.637446088948601
 40
8.637446088948601
 40
8.637446088948601
 10
706.8188768638263
 20
876.4509492312424
 30
0.0
 10
705.4826271152437
 20
877.2204442844019
 30
0.0
 10
704.3570829485909
 20
878.3515920337432
 30
0.0
 10
702.6244593544965
 20
881.228729330121
 30
0.0
 10
702.0271070633652
 20
882.9860420512547
 30
0.0
 10
701.4225497486677
 20
886.9613446352747
 30
0.0
 10
701.4254187689614
 20
889.1869897232455
 30
0.0
 10
702.0366182179895
 20
893.8642704303541
 30
0.0
 10
702.645790416455
 20
896.315515299319
 30
0.0
 10
704.4052417644718
 20
901.1929641058843
 30
0.0
 10
705.5545138170965
 20
903.6183220777791
 30
0.0
 10
708.2766719593794
 20
908.2017252386311
 30
0.0
 10
709.848842529982
 20
910.3591002223991
 30
0.0
 10
713.2608418696823
 20
914.1911090425967
 30
0.0
 10
715.1002051798912
 20
915.8647973593689
 30
0.0
 10
718.8669311175808
 20
918.5583699542542
 30
0.0
 10
720.7938385412348
 20
919.577168758543
 30
0.0
 10
724.5426362664716
 20
920.8446028382619
 30
0.0
 10
726.3653867487066
 20
921.0949151493482
 30
0.0
 10
729.3971237253333
 20
920.8117966765964
 30
0.0
 10
730.6558494231181
 20
920.4219983846396
 30
0.0
 10
731.7704874430353
 20
919.7801210385074
 30
0.0
  0
ELLIPSE
  5
95F
330
70
100
AcDbEntity
  8
Visible (ANSI)
100
AcDbEllipse
 10
737.396615751809
 20
887.6913248617928
 30
0.0
 11
9.481612020099456
 21
16.46508528676075
 31
0.0
210
0.0
220
0.0
230
1.0
 40
0.5780931159156389
 41
3.19417522120322
 42
6.230602739566156
  0
LINE
  5
960
330
70
100
AcDbEntity
  8
Visible (ANSI)
100
AcDbLine
 10
725.9275677406495
 20
863.5237243753913
 30
0.0
 11
725.6447250281747
 21
863.6866026609082
 31
0.0
  0
LINE
  5
961
330
70
100
AcDbEntity
  8
Visible (ANSI)
100
AcDbLine
 10
752.5426190251391
 20
909.7415076364741
 30
0.0
 11
752.2597763126646
 21
909.9043859219911
 31
0.0
  0
LINE
  5
962
330
70
100
AcDbEntity
  8
Visible (ANSI)
100
AcDbLine
 10
727.8405245517221
 20
866.8456275472816
 30
0.0
 11
727.5576818392476
 21
867.0085058327986
 31
0.0
  0
LINE
  5
963
330
70
100
AcDbEntity
  8
Visible (ANSI)
100
AcDbLine
 10
750.6296622140665
 20
906.4196044645838
 30
0.0
 11
750.3468195015918
 21
906.5824827501007
 31
0.0
  0
LINE
  5
964
330
70
100
AcDbEntity
  8
Visible (ANSI)
100
AcDbLine
 10
724.0146109295767
 20
860.2018212035011
 30
0.0
 11
718.9234421050327
 21
863.1336303428055
 31
0.0
  0
LINE
  5
965
330
70
100
AcDbEntity
  8
Visible (ANSI)
100
AcDbLine
 10
754.4555758362118
 20
913.0634108083643
 30
0.0
 11
749.364407011668
 21
915.9952199476688
 31
0.0
  0
LINE
  5
966
330
70
100
AcDbEntity
  8
Visible (ANSI)
100
AcDbLine
 10
712.8157323057921
 20
872.9975898558699
 30
0.0
 11
706.8188768638263
 21
876.4509492312424
 31
0.0
  0
LINE
  5
967
330
70
100
AcDbEntity
  8
Visible (ANSI)
100
AcDbLine
 10
737.7673428850012
 20
916.3267616631349
 30
0.0
 11
731.7704874430353
 21
919.7801210385074
 31
0.0
  0
ENDSEC
  0
SECTION
  2
OBJECTS
  0
DICTIONARY
  5
C
330
0
100
AcDbDictionary
281
     1
  3
ACAD_CIP_PREVIOUS_PRODUCT_INFO
350
968
  3
ACAD_COLOR
350
63
  3
ACAD_DETAILVIEWSTYLE
350
6A
  3
ACAD_GROUP
350
D
  3
ACAD_LAYOUT
350
62
  3
ACAD_MATERIAL
350
10
  3
ACAD_MLEADERSTYLE
350
66
  3
ACAD_MLINESTYLE
350
5F
  3
ACAD_PLOTSETTINGS
350
61
  3
ACAD_PLOTSTYLENAME
350
E
  3
ACAD_SCALELIST
350
42
  3
ACAD_SECTIONVIEWSTYLE
350
68
  3
ACAD_TABLESTYLE
350
64
  3
ACAD_VISUALSTYLE
350
29
  3
ACDB_RECOMPOSE_DATA
350
981
  3
AcDbVariableDictionary
350
969
  0
DICTIONARY
  5
971
330
194
100
AcDbDictionary
280
     1
281
     1
  3
ACAD_MLATT
360
973
  3
ACAD_XREC_ROUNDTRIP
360
972
  0
DICTIONARY
  5
976
330
197
100
AcDbDictionary
280
     1
281
     1
  3
ACAD_MLATT
360
978
  3
ACAD_XREC_ROUNDTRIP
360
977
  0
DICTIONARY
  5
975
330
974
100
AcDbDictionary
280
     1
281
     1
  0
DICTIONARY
  5
979
330
19A
100
AcDbDictionary
280
     1
281
     1
  3
ACAD_MLATT
360
97B
  3
ACAD_XREC_ROUNDTRIP
360
97A
  0
DICTIONARY
  5
97E
330
19B
100
AcDbDictionary
280
     1
281
     1
  3
ACAD_MLATT
360
980
  3
ACAD_XREC_ROUNDTRIP
360
97F
  0
DICTIONARY
  5
97D
330
97C
100
AcDbDictionary
280
     1
281
     1
  0
XRECORD
  5
968
102
{ACAD_REACTORS
330
C
102
}
330
C
100
AcDbXrecord
280
     1
300
INVPROSA
300
2015
300
INVPROSA_F_S
  0
DICTIONARY
  5
63
102
{ACAD_REACTORS
330
C
102
}
330
C
100
AcDbDictionary
281
     1
  0
DICTIONARY
  5
6A
102
{ACAD_REACTORS
330
C
102
}
330
C
100
AcDbDictionary
281
     1
  3
Imperial24
350
6B
  0
DICTIONARY
  5
D
102
{ACAD_REACTORS
330
C
102
}
330
C
100
AcDbDictionary
281
     1
  0
DICTIONARY
  5
62
102
{ACAD_REACTORS
330
C
102
}
330
C
100
AcDbDictionary
281
     1
  3
Layout1
350
6F
  3
Layout2
350
77
  3
Model
350
73
  0
DICTIONARY
  5
10
102
{ACAD_REACTORS
330
C
102
}
330
C
100
AcDbDictionary
281
     1
  3
ByBlock
350
19
  3
ByLayer
350
11
  3
Global
350
21
  0
DICTIONARY
  5
66
102
{ACAD_REACTORS
330
C
102
}
330
C
100
AcDbDictionary
281
     1
  3
Standard
350
67
  0
DICTIONARY
  5
5F
102
{ACAD_REACTORS
330
C
102
}
330
C
100
AcDbDictionary
281
     1
  3
Standard
350
60
  0
DICTIONARY
  5
61
102
{ACAD_REACTORS
330
C
102
}
330
C
100
AcDbDictionary
281
     1
  0
ACDBDICTIONARYWDFLT
  5
E
102
{ACAD_REACTORS
330
C
102
}
330
C
100
AcDbDictionary
281
     1
  3
Normal
350
F
100
AcDbDictionaryWithDefault
340
F
  0
DICTIONARY
  5
42
102
{ACAD_REACTORS
330
C
102
}
330
C
100
AcDbDictionary
281
     1
  3
A0
350
43
  3
A1
350
44
  3
A2
350
45
  3
A3
350
46
  3
A4
350
47
  3
A5
350
48
  3
A6
350
49
  3
A7
350
4A
  3
A8
350
4B
  3
A9
350
4C
  3
B0
350
4D
  3
B1
350
4E
  3
B2
350
4F
  3
B3
350
50
  3
B4
350
51
  3
B5
350
52
  3
B6
350
53
  0
DICTIONARY
  5
68
102
{ACAD_REACTORS
330
C
102
}
330
C
100
AcDbDictionary
281
     1
  3
Imperial24
350
69
  0
DICTIONARY
  5
64
102
{ACAD_REACTORS
330
C
102
}
330
C
100
AcDbDictionary
281
     1
  3
Standard
350
65
  0
DICTIONARY
  5
29
102
{ACAD_REACTORS
330
C
102
}
330
C
100
AcDbDictionary
281
     1
  3
2dWireframe
350
2F
  3
Basic
350
2E
  3
Brighten
350
35
  3
ColorChange
350
39
  3
Conceptual
350
32
  3
Dim
350
34
  3
EdgeColorOff
350
41
  3
Facepattern
350
38
  3
Flat
350
2A
  3
FlatWithEdges
350
2B
  3
Gouraud
350
2C
  3
GouraudWithEdges
350
2D
  3
Hidden
350
31
  3
JitterOff
350
3F
  3
Linepattern
350
37
  3
OverhangOff
350
40
  3
Realistic
350
33
  3
Shaded
350
3E
  3
Shaded with edges
350
3D
  3
Shades of Gray
350
3A
  3
Sketchy
350
3B
  3
Thicken
350
36
  3
Wireframe
350
30
  3
X-Ray
350
3C
  0
XRECORD
  5
981
102
{ACAD_REACTORS
330
C
102
}
330
C
100
AcDbXrecord
280
     1
 90
        1
330
65
330
194
330
197
330
19A
330
19B
330
2A0
330
38B
330
55F
330
65A
330
755
330
83F
  0
DICTIONARY
  5
969
102
{ACAD_REACTORS
330
C
102
}
330
C
100
AcDbDictionary
281
     1
  3
CANNOSCALE
350
96E
  3
CMLEADERSTYLE
350
96B
  3
CTABLESTYLE
350
96A
  3
CVIEWDETAILSTYLE
350
96C
  3
CVIEWSECTIONSTYLE
350
96D
  0
XRECORD
  5
973
102
{ACAD_REACTORS
330
971
102
}
330
971
100
AcDbXrecord
280
     1
 70
     4
 70
     0
 70
     0
 40
1.0
  2
PART_NUMBER
  1
Embedded Object
 10
34.22301799019188
 20
75.68699284482417
 30
0.0
 40
2.5
 41
181.6575261045072
 46
0.0
 71
     1
 72
     5
  1
055200040
  7
Note Text (ISO)
 73
     1
 44
1.0
  0
XRECORD
  5
972
102
{ACAD_REACTORS
330
971
102
}
330
971
100
AcDbXrecord
280
     1
102
ACAD_MATT_HEIGHT
140
2.5
  0
XRECORD
  5
978
102
{ACAD_REACTORS
330
976
102
}
330
976
100
AcDbXrecord
280
     1
 70
     4
 70
     0
 70
     1
340
974
 40
1.0
  2
DESCRIPTION
  1
Embedded Object
 10
34.09040614630361
 20
65.94981469493413
 30
0.0
 40
2.5
 41
50.87075514884978
 46
0.0
 71
     1
 72
     5
  1
PLASSON FLANGE(FLAT GASKET)C 40
  7
Note Text (ISO)
 73
     1
 44
1.0
  0
XRECORD
  5
977
102
{ACAD_REACTORS
330
976
102
}
330
976
100
AcDbXrecord
280
     1
102
ACAD_MATT_HEIGHT
140
2.5
  0
XRECORD
  5
97B
102
{ACAD_REACTORS
330
979
102
}
330
979
100
AcDbXrecord
280
     1
 70
     2
 70
     0
 70
     0
 40
1.0
  2
PART_NUMBER
  1
Embedded Object
 10
855.2230179901917
 20
95.68699284482418
 30
0.0
 40
2.5
 41
181.6575261045072
 46
0.0
 71
     1
 72
     5
  1
055200040
  7
Note Text (ISO)
 73
     1
 44
1.0
  0
XRECORD
  5
97A
102
{ACAD_REACTORS
330
979
102
}
330
979
100
AcDbXrecord
280
     1
102
ACAD_MATT_HEIGHT
140
2.5
  0
XRECORD
  5
980
102
{ACAD_REACTORS
330
97E
102
}
330
97E
100
AcDbXrecord
280
     1
 70
     2
 70
     0
 70
     1
340
97C
 40
1.0
  2
DESCRIPTION
  1
Embedded Object
 10
855.0904061463034
 20
85.94981469493413
 30
0.0
 40
2.5
 41
50.87075514884978
 46
0.0
 71
     1
 72
     5
  1
PLASSON FLANGE(FLAT GASKET)C 40
  7
Note Text (ISO)
 73
     1
 44
1.0
  0
XRECORD
  5
97F
102
{ACAD_REACTORS
330
97E
102
}
330
97E
100
AcDbXrecord
280
     1
102
ACAD_MATT_HEIGHT
140
2.5
  0
ACDBDETAILVIEWSTYLE
  5
6B
102
{ACAD_XDICTIONARY
360
9B6
102
}
102
{ACAD_REACTORS
330
6A
102
}
330
6A
100
AcDbModelDocViewStyle
 70
     0
  3
Imperial24
290
     0
100
AcDbDetailViewStyle
 70
     0
 71
     0
 90
        3
 71
     1
340
55
 62
   256
 40
0.24
340
0
 62
   256
 40
0.24
300

 40
0.36
280
     3
 71
     2
340
5D
 90
       25
 62
   256
 71
     3
340
55
 62
   256
 40
0.24
 90
        1
 40
0.75
 90
        1
300
%<\AcVar ViewType \f "%tc1">% %<\AcVar ViewDetailId>%\PSCALE %<\AcVar ViewScale \f "%sn">%
 71
     4
340
5D
 90
       25
 62
   256
340
5D
 90
       25
 62
   256
280
     0
  0
LAYOUT
  5
6F
102
{ACAD_REACTORS
330
62
102
}
330
62
100
AcDbPlotSettings
  1

  2

  4

  6

 40
0.0
 41
0.0
 42
0.0
 43
0.0
 44
0.0
 45
0.0
 46
0.0
 47
0.0
 48
0.0
 49
0.0
140
0.0
141
0.0
142
1.0
143
1.0
 70
   688
 72
     0
 73
     0
 74
     5
  7

 75
    16
147
1.0
 76
     0
 77
     2
 78
   300
148
0.0
149
0.0
100
AcDbLayout
  1
Layout1
 70
     1
 71
     1
 10
0.0
 20
0.0
 11
12.0
 21
9.0
 12
0.0
 22
0.0
 32
0.0
 14
0.0
 24
0.0
 34
0.0
 15
0.0
 25
0.0
 35
0.0
146
0.0
 13
0.0
 23
0.0
 33
0.0
 16
1.0
 26
0.0
 36
0.0
 17
0.0
 27
1.0
 37
0.0
 76
     0
330
6C
  0
LAYOUT
  5
77
102
{ACAD_REACTORS
330
62
102
}
330
62
100
AcDbPlotSettings
  1

  2

  4

  6

 40
0.0
 41
0.0
 42
0.0
 43
0.0
 44
0.0
 45
0.0
 46
0.0
 47
0.0
 48
0.0
 49
0.0
140
0.0
141
0.0
142
1.0
143
1.0
 70
   688
 72
     0
 73
     0
 74
     5
  7

 75
    16
147
1.0
 76
     0
 77
     2
 78
   300
148
0.0
149
0.0
100
AcDbLayout
  1
Layout2
 70
     1
 71
     2
 10
0.0
 20
0.0
 11
12.0
 21
9.0
 12
0.0
 22
0.0
 32
0.0
 14
0.0
 24
0.0
 34
0.0
 15
0.0
 25
0.0
 35
0.0
146
0.0
 13
0.0
 23
0.0
 33
0.0
 16
1.0
 26
0.0
 36
0.0
 17
0.0
 27
1.0
 37
0.0
 76
     0
330
74
  0
LAYOUT
  5
73
102
{ACAD_REACTORS
330
62
102
}
330
62
100
AcDbPlotSettings
  1

  2

  4

  6

 40
0.0
 41
0.0
 42
0.0
 43
0.0
 44
0.0
 45
0.0
 46
0.0
 47
0.0
 48
0.0
 49
0.0
140
0.0
141
0.0
142
1.0
143
1.0
 70
  1712
 72
     0
 73
     0
 74
     0
  7

 75
     0
147
1.0
 76
     0
 77
     2
 78
   300
148
0.0
149
0.0
100
AcDbLayout
  1
Model
 70
     1
 71
     0
 10
0.0
 20
0.0
 11
12.0
 21
9.0
 12
0.0
 22
0.0
 32
0.0
 14
0.0
 24
0.0
 34
0.0
 15
0.0
 25
0.0
 35
0.0
146
0.0
 13
0.0
 23
0.0
 33
0.0
 16
1.0
 26
0.0
 36
0.0
 17
0.0
 27
1.0
 37
0.0
 76
     0
330
70
  0
MATERIAL
  5
19
102
{ACAD_XDICTIONARY
360
1A
102
}
102
{ACAD_REACTORS
330
10
102
}
330
10
100
AcDbMaterial
  1
ByBlock
 72
     0
 43
0.0208333333333333
 43
0.0
 43
0.0
 43
0.0
 43
0.0
 43
0.0208333333333333
 43
0.0
 43
0.0
 43
0.0
 43
0.0
 43
1.0
 43
0.0
 43
0.0
 43
0.0
 43
0.0
 43
1.0
 77
     0
 47
0.0208333333333333
 47
0.0
 47
0.0
 47
0.0
 47
0.0
 47
0.0208333333333333
 47
0.0
 47
0.0
 47
0.0
 47
0.0
 47
1.0
 47
0.0
 47
0.0
 47
0.0
 47
0.0
 47
1.0
171
     0
 49
0.0208333333333333
 49
0.0
 49
0.0
 49
0.0
 49
0.0
 49
0.0208333333333333
 49
0.0
 49
0.0
 49
0.0
 49
0.0
 49
1.0
 49
0.0
 49
0.0
 49
0.0
 49
0.0
 49
1.0
175
     0
142
0.0208333333333333
142
0.0
142
0.0
142
0.0
142
0.0
142
0.0208333333333333
142
0.0
142
0.0
142
0.0
142
0.0
142
1.0
142
0.0
142
0.0
142
0.0
142
0.0
142
1.0
179
     0
144
0.0208333333333333
144
0.0
144
0.0
144
0.0
144
0.0
144
0.0208333333333333
144
0.0
144
0.0
144
0.0
144
0.0
144
1.0
144
0.0
144
0.0
144
0.0
144
0.0
144
1.0
147
0.0208333333333333
147
0.0
147
0.0
147
0.0
147
0.0
147
0.0208333333333333
147
0.0
147
0.0
147
0.0
147
0.0
147
1.0
147
0.0
147
0.0
147
0.0
147
0.0
147
1.0
  0
MATERIAL
  5
11
102
{ACAD_XDICTIONARY
360
12
102
}
102
{ACAD_REACTORS
330
10
102
}
330
10
100
AcDbMaterial
  1
ByLayer
 72
     0
 43
0.0208333333333333
 43
0.0
 43
0.0
 43
0.0
 43
0.0
 43
0.0208333333333333
 43
0.0
 43
0.0
 43
0.0
 43
0.0
 43
1.0
 43
0.0
 43
0.0
 43
0.0
 43
0.0
 43
1.0
 77
     0
 47
0.0208333333333333
 47
0.0
 47
0.0
 47
0.0
 47
0.0
 47
0.0208333333333333
 47
0.0
 47
0.0
 47
0.0
 47
0.0
 47
1.0
 47
0.0
 47
0.0
 47
0.0
 47
0.0
 47
1.0
171
     0
 49
0.0208333333333333
 49
0.0
 49
0.0
 49
0.0
 49
0.0
 49
0.0208333333333333
 49
0.0
 49
0.0
 49
0.0
 49
0.0
 49
1.0
 49
0.0
 49
0.0
 49
0.0
 49
0.0
 49
1.0
175
     0
142
0.0208333333333333
142
0.0
142
0.0
142
0.0
142
0.0
142
0.0208333333333333
142
0.0
142
0.0
142
0.0
142
0.0
142
1.0
142
0.0
142
0.0
142
0.0
142
0.0
142
1.0
179
     0
144
0.0208333333333333
144
0.0
144
0.0
144
0.0
144
0.0
144
0.0208333333333333
144
0.0
144
0.0
144
0.0
144
0.0
144
1.0
144
0.0
144
0.0
144
0.0
144
0.0
144
1.0
147
0.0208333333333333
147
0.0
147
0.0
147
0.0
147
0.0
147
0.0208333333333333
147
0.0
147
0.0
147
0.0
147
0.0
147
1.0
147
0.0
147
0.0
147
0.0
147
0.0
147
1.0
  0
MATERIAL
  5
21
102
{ACAD_XDICTIONARY
360
22
102
}
102
{ACAD_REACTORS
330
10
102
}
330
10
100
AcDbMaterial
  1
Global
 72
     0
 43
0.0208333333333333
 43
0.0
 43
0.0
 43
0.0
 43
0.0
 43
0.0208333333333333
 43
0.0
 43
0.0
 43
0.0
 43
0.0
 43
1.0
 43
0.0
 43
0.0
 43
0.0
 43
0.0
 43
1.0
 77
     0
 47
0.0208333333333333
 47
0.0
 47
0.0
 47
0.0
 47
0.0
 47
0.0208333333333333
 47
0.0
 47
0.0
 47
0.0
 47
0.0
 47
1.0
 47
0.0
 47
0.0
 47
0.0
 47
0.0
 47
1.0
171
     0
 49
0.0208333333333333
 49
0.0
 49
0.0
 49
0.0
 49
0.0
 49
0.0208333333333333
 49
0.0
 49
0.0
 49
0.0
 49
0.0
 49
1.0
 49
0.0
 49
0.0
 49
0.0
 49
0.0
 49
1.0
175
     0
142
0.0208333333333333
142
0.0
142
0.0
142
0.0
142
0.0
142
0.0208333333333333
142
0.0
142
0.0
142
0.0
142
0.0
142
1.0
142
0.0
142
0.0
142
0.0
142
0.0
142
1.0
179
     0
144
0.0208333333333333
144
0.0
144
0.0
144
0.0
144
0.0
144
0.0208333333333333
144
0.0
144
0.0
144
0.0
144
0.0
144
1.0
144
0.0
144
0.0
144
0.0
144
0.0
144
1.0
147
0.0208333333333333
147
0.0
147
0.0
147
0.0
147
0.0
147
0.0208333333333333
147
0.0
147
0.0
147
0.0
147
0.0
147
1.0
147
0.0
147
0.0
147
0.0
147
0.0
147
1.0
  0
MLEADERSTYLE
  5
67
102
{ACAD_XDICTIONARY
360
9B2
102
}
102
{ACAD_REACTORS
330
66
102
}
330
66
100
AcDbMLeaderStyle
179
     2
170
     2
171
     1
172
     0
 90
        2
 40
0.0
 41
0.0
173
     1
 91
-1056964608
340
5B
 92
       -2
290
     1
 42
0.09
291
     1
 43
0.36
  3
Standard
 44
0.18
300

342
55
174
     1
178
     6
175
     1
176
     0
 93
-1056964608
 45
0.18
292
     0
297
     0
 46
0.18
 94
-1056964608
 47
1.0
 49
1.0
140
1.0
293
     1
141
0.0
294
     1
177
     0
142
1.0
295
     0
296
     0
143
0.125
271
     0
272
     9
273
     9
  0
MLINESTYLE
  5
60
102
{ACAD_REACTORS
330
5F
102
}
330
5F
100
AcDbMlineStyle
  2
STANDARD
 70
     0
  3

 62
   256
 51
90.0
 52
90.0
 71
     2
 49
0.5
 62
   256
  6
BYLAYER
 49
-0.5
 62
   256
  6
BYLAYER
  0
ACDBPLACEHOLDER
  5
F
102
{ACAD_REACTORS
330
E
102
}
330
E
  0
SCALE
  5
43
102
{ACAD_REACTORS
330
42
102
}
330
42
100
AcDbScale
 70
     0
300
1:1
140
1.0
141
1.0
290
     1
  0
SCALE
  5
44
102
{ACAD_REACTORS
330
42
102
}
330
42
100
AcDbScale
 70
     0
300
1/128" = 1'-0"
140
0.0078125
141
12.0
290
     0
  0
SCALE
  5
45
102
{ACAD_REACTORS
330
42
102
}
330
42
100
AcDbScale
 70
     0
300
1/64" = 1'-0"
140
0.015625
141
12.0
290
     0
  0
SCALE
  5
46
102
{ACAD_REACTORS
330
42
102
}
330
42
100
AcDbScale
 70
     0
300
1/32" = 1'-0"
140
0.03125
141
12.0
290
     0
  0
SCALE
  5
47
102
{ACAD_REACTORS
330
42
102
}
330
42
100
AcDbScale
 70
     0
300
1/16" = 1'-0"
140
0.0625
141
12.0
290
     0
  0
SCALE
  5
48
102
{ACAD_REACTORS
330
42
102
}
330
42
100
AcDbScale
 70
     0
300
3/32" = 1'-0"
140
0.09375
141
12.0
290
     0
  0
SCALE
  5
49
102
{ACAD_REACTORS
330
42
102
}
330
42
100
AcDbScale
 70
     0
300
1/8" = 1'-0"
140
0.125
141
12.0
290
     0
  0
SCALE
  5
4A
102
{ACAD_REACTORS
330
42
102
}
330
42
100
AcDbScale
 70
     0
300
3/16" = 1'-0"
140
0.1875
141
12.0
290
     0
  0
SCALE
  5
4B
102
{ACAD_REACTORS
330
42
102
}
330
42
100
AcDbScale
 70
     0
300
1/4" = 1'-0"
140
0.25
141
12.0
290
     0
  0
SCALE
  5
4C
102
{ACAD_REACTORS
330
42
102
}
330
42
100
AcDbScale
 70
     0
300
3/8" = 1'-0"
140
0.375
141
12.0
290
     0
  0
SCALE
  5
4D
102
{ACAD_REACTORS
330
42
102
}
330
42
100
AcDbScale
 70
     0
300
1/2" = 1'-0"
140
0.5
141
12.0
290
     0
  0
SCALE
  5
4E
102
{ACAD_REACTORS
330
42
102
}
330
42
100
AcDbScale
 70
     0
300
3/4" = 1'-0"
140
0.75
141
12.0
290
     0
  0
SCALE
  5
4F
102
{ACAD_REACTORS
330
42
102
}
330
42
100
AcDbScale
 70
     0
300
1" = 1'-0"
140
1.0
141
12.0
290
     0
  0
SCALE
  5
50
102
{ACAD_REACTORS
330
42
102
}
330
42
100
AcDbScale
 70
     0
300
1-1/2" = 1'-0"
140
1.5
141
12.0
290
     0
  0
SCALE
  5
51
102
{ACAD_REACTORS
330
42
102
}
330
42
100
AcDbScale
 70
     0
300
3" = 1'-0"
140
3.0
141
12.0
290
     0
  0
SCALE
  5
52
102
{ACAD_REACTORS
330
42
102
}
330
42
100
AcDbScale
 70
     0
300
6" = 1'-0"
140
6.0
141
12.0
290
     0
  0
SCALE
  5
53
102
{ACAD_REACTORS
330
42
102
}
330
42
100
AcDbScale
 70
     0
300
1'-0" = 1'-0"
140
12.0
141
12.0
290
     0
  0
ACDBSECTIONVIEWSTYLE
  5
69
102
{ACAD_XDICTIONARY
360
9B4
102
}
102
{ACAD_REACTORS
330
68
102
}
330
68
100
AcDbModelDocViewStyle
 70
     0
  3
Imperial24
290
     0
100
AcDbSectionViewStyle
 70
     0
 71
     0
 90
       78
 71
     1
340
55
 62
   256
 40
0.24
340
0
340
0
 62
   256
 40
0.24
300
I, O, Q, S, X, Z
 40
0.48
 90
        3
 40
0.18
 90
        1
 71
     2
340
5D
 90
       25
 62
   256
340
5D
 90
       50
 62
   256
 40
0.24
 40
0.0
 40
0.24
 71
     3
340
55
 62
   256
 40
0.24
 90
        1
 40
0.75
 90
        1
300
%<\AcVar ViewType \f "%tc1">% %<\AcVar ViewSectionStartId>%-%<\AcVar ViewSectionEndId>%\PSCALE %<\AcVar ViewScale \f "%sn">%
 71
     4
 62
   256
 62
   257
300
ANSI31
 40
1.0
 90
        0
290
     0
290
     0
 90
        6
 40
0.0
 40
1.570796326794896
 40
0.2617993877991494
 40
1.308996938995747
 40
-0.2617993877991494
 40
1.832595714594046
  0
TABLESTYLE
  5
65
102
{ACAD_XDICTIONARY
360
96F
102
}
102
{ACAD_REACTORS
330
64
102
}
330
64
100
AcDbTableStyle
280
     0
  3
Standard
 70
     0
 71
     0
 40
0.06
 41
0.06
280
     0
281
     0
  7
Standard
140
0.18
170
     2
 62
     0
 63
     7
283
     0
 90
      512
 91
        0
  1

274
    -2
284
     1
 64
     0
275
    -2
285
     1
 65
     0
276
    -2
286
     1
 66
     0
277
    -2
287
     1
 67
     0
278
    -2
288
     1
 68
     0
279
    -2
289
     1
 69
     0
  7
Standard
140
0.25
170
     5
 62
     0
 63
     7
283
     0
 90
      512
 91
        0
  1

274
    -2
284
     1
 64
     0
275
    -2
285
     1
 65
     0
276
    -2
286
     1
 66
     0
277
    -2
287
     1
 67
     0
278
    -2
288
     1
 68
     0
279
    -2
289
     1
 69
     0
  7
Standard
140
0.18
170
     5
 62
     0
 63
     7
283
     0
 90
      512
 91
        0
  1

274
    -2
284
     1
 64
     0
275
    -2
285
     1
 65
     0
276
    -2
286
     1
 66
     0
277
    -2
287
     1
 67
     0
278
    -2
288
     1
 68
     0
279
    -2
289
     1
 69
     0
  0
VISUALSTYLE
  5
2F
102
{ACAD_XDICTIONARY
360
98C
102
}
102
{ACAD_REACTORS
330
29
102
}
330
29
100
AcDbVisualStyle
  2
2dWireframe
 70
     4
177
     2
291
     0
 71
     0
176
     1
 72
     2
176
     1
 73
     0
176
     1
 90
        0
176
     1
 40
0.6
176
     1
 41
30.0
176
     1
 63
     7
421
 16777215
176
     1
 74
     1
176
     1
 91
        4
176
     1
 64
     7
176
     1
 65
   257
176
     1
 75
     1
176
     1
175
     1
176
     1
 42
1.0
176
     1
 92
        0
176
     1
 66
   257
176
     1
 43
1.0
176
     1
 76
     1
176
     1
 77
     6
176
     1
 78
     2
176
     1
 67
     7
176
     1
 79
     5
176
     1
170
     0
176
     1
171
     0
176
     1
290
     0
176
     1
 93
        1
176
     1
 44
0.0
176
     1
173
     0
176
     1
1001
ACAD
1000
AcDbSavedByObjectVersion
1070
     0
  0
VISUALSTYLE
  5
2E
102
{ACAD_XDICTIONARY
360
98A
102
}
102
{ACAD_REACTORS
330
29
102
}
330
29
100
AcDbVisualStyle
  2
Basic
 70
     7
177
     2
291
     1
 71
     1
176
     1
 72
     0
176
     1
 73
     1
176
     1
 90
        0
176
     1
 40
0.6
176
     1
 41
30.0
176
     1
 63
     7
421
 16777215
176
     1
 74
     0
176
     1
 91
        4
176
     1
 64
     7
176
     1
 65
   257
176
     1
 75
     1
176
     1
175
     1
176
     1
 42
1.0
176
     1
 92
        8
176
     1
 66
     7
176
     1
 43
1.0
176
     1
 76
     1
176
     1
 77
     6
176
     1
 78
     2
176
     1
 67
     7
176
     1
 79
     5
176
     1
170
     0
176
     1
171
     0
176
     1
290
     0
176
     1
 93
        1
176
     1
 44
0.0
176
     1
173
     0
176
     1
1001
ACAD
1000
AcDbSavedByObjectVersion
1070
     0
  0
VISUALSTYLE
  5
35
102
{ACAD_XDICTIONARY
360
998
102
}
102
{ACAD_REACTORS
330
29
102
}
330
29
100
AcDbVisualStyle
  2
Brighten
 70
    12
177
     2
291
     1
 71
     2
176
     1
 72
     2
176
     1
 73
     0
176
     1
 90
        0
176
     1
 40
0.6
176
     1
 41
30.0
176
     1
 63
     7
421
 16777215
176
     1
 74
     1
176
     1
 91
        4
176
     1
 64
     7
176
     1
 65
   257
176
     1
 75
     1
176
     1
175
     1
176
     1
 42
1.0
176
     1
 92
        8
176
     1
 66
     7
176
     1
 43
1.0
176
     1
 76
     1
176
     1
 77
     6
176
     1
 78
     2
176
     1
 67
     7
176
     1
 79
     5
176
     1
170
     0
176
     1
171
     0
176
     1
290
     0
176
     1
 93
        1
176
     1
 44
50.0
176
     1
173
     0
176
     1
1001
ACAD
1000
AcDbSavedByObjectVersion
1070
     0
  0
VISUALSTYLE
  5
39
102
{ACAD_XDICTIONARY
360
9A0
102
}
102
{ACAD_REACTORS
330
29
102
}
330
29
100
AcDbVisualStyle
  2
ColorChange
 70
    16
177
     2
291
     1
 71
     2
176
     1
 72
     2
176
     1
 73
     3
176
     1
 90
        0
176
     1
 40
0.6
176
     1
 41
30.0
176
     1
 63
     8
421
  8421504
176
     1
 74
     1
176
     1
 91
        4
176
     1
 64
     7
176
     1
 65
   257
176
     1
 75
     1
176
     1
175
     1
176
     1
 42
1.0
176
     1
 92
        8
176
     1
 66
     8
424
  8421504
176
     1
 43
1.0
176
     1
 76
     1
176
     1
 77
     6
176
     1
 78
     2
176
     1
 67
     7
176
     1
 79
     5
176
     1
170
     0
176
     1
171
     0
176
     1
290
     0
176
     1
 93
        1
176
     1
 44
0.0
176
     1
173
     0
176
     1
1001
ACAD
1000
AcDbSavedByObjectVersion
1070
     0
  0
VISUALSTYLE
  5
32
102
{ACAD_XDICTIONARY
360
992
102
}
102
{ACAD_REACTORS
330
29
102
}
330
29
100
AcDbVisualStyle
  2
Conceptual
 70
     9
177
     2
291
     0
 71
     3
176
     1
 72
     2
176
     1
 73
     0
176
     1
 90
        0
176
     1
 40
0.6
176
     1
 41
30.0
176
     1
 63
     7
421
 16777215
176
     1
 74
     2
176
     1
 91
        2
176
     1
 64
     7
176
     1
 65
   257
176
     1
 75
     1
176
     1
175
     1
176
     1
 42
179.0
176
     1
 92
        8
176
     1
 66
     7
176
     1
 43
1.0
176
     1
 76
     1
176
     1
 77
     6
176
     1
 78
     2
176
     1
 67
     7
176
     1
 79
     3
176
     1
170
     0
176
     1
171
     0
176
     1
290
     0
176
     1
 93
        1
176
     1
 44
0.0
176
     1
173
     0
176
     1
1001
ACAD
1000
AcDbSavedByObjectVersion
1070
     0
  0
VISUALSTYLE
  5
34
102
{ACAD_XDICTIONARY
360
996
102
}
102
{ACAD_REACTORS
330
29
102
}
330
29
100
AcDbVisualStyle
  2
Dim
 70
    11
177
     2
291
     1
 71
     2
176
     1
 72
     2
176
     1
 73
     0
176
     1
 90
        0
176
     1
 40
0.6
176
     1
 41
30.0
176
     1
 63
     7
421
 16777215
176
     1
 74
     1
176
     1
 91
        4
176
     1
 64
     7
176
     1
 65
   257
176
     1
 75
     1
176
     1
175
     1
176
     1
 42
1.0
176
     1
 92
        8
176
     1
 66
     7
176
     1
 43
1.0
176
     1
 76
     1
176
     1
 77
     6
176
     1
 78
     2
176
     1
 67
     7
176
     1
 79
     5
176
     1
170
     0
176
     1
171
     0
176
     1
290
     0
176
     1
 93
        1
176
     1
 44
-50.0
176
     1
173
     0
176
     1
1001
ACAD
1000
AcDbSavedByObjectVersion
1070
     0
  0
VISUALSTYLE
  5
41
102
{ACAD_XDICTIONARY
360
9B0
102
}
102
{ACAD_REACTORS
330
29
102
}
330
29
100
AcDbVisualStyle
  2
EdgeColorOff
 70
    22
177
     2
291
     1
 71
     2
176
     0
 72
     2
176
     0
 73
     0
176
     0
 90
        0
176
     0
 40
0.6
176
     0
 41
30.0
176
     0
 63
     7
421
 16777215
176
     0
 74
     1
176
     0
 91
        4
176
     0
 64
     7
176
     0
 65
   257
176
     0
 75
     1
176
     0
175
     1
176
     0
 42
1.0
176
     0
 92
        8
176
     2
 66
     7
176
     0
 43
1.0
176
     0
 76
     1
176
     0
 77
     6
176
     0
 78
     2
176
     0
 67
     7
176
     0
 79
     5
176
     0
170
     0
176
     0
171
     0
176
     0
290
     0
176
     0
 93
        1
176
     0
 44
0.0
176
     0
173
     0
176
     0
1001
ACAD
1000
AcDbSavedByObjectVersion
1070
     0
  0
VISUALSTYLE
  5
38
102
{ACAD_XDICTIONARY
360
99E
102
}
102
{ACAD_REACTORS
330
29
102
}
330
29
100
AcDbVisualStyle
  2
Facepattern
 70
    15
177
     2
291
     1
 71
     2
176
     1
 72
     2
176
     1
 73
     0
176
     1
 90
        0
176
     1
 40
0.6
176
     1
 41
30.0
176
     1
 63
     7
421
 16777215
176
     1
 74
     1
176
     1
 91
        4
176
     1
 64
     7
176
     1
 65
   257
176
     1
 75
     1
176
     1
175
     1
176
     1
 42
1.0
176
     1
 92
        8
176
     1
 66
     7
176
     1
 43
1.0
176
     1
 76
     1
176
     1
 77
     6
176
     1
 78
     2
176
     1
 67
     7
176
     1
 79
     5
176
     1
170
     0
176
     1
171
     0
176
     1
290
     0
176
     1
 93
        1
176
     1
 44
0.0
176
     1
173
     0
176
     1
1001
ACAD
1000
AcDbSavedByObjectVersion
1070
     0
  0
VISUALSTYLE
  5
2A
102
{ACAD_XDICTIONARY
360
982
102
}
102
{ACAD_REACTORS
330
29
102
}
330
29
100
AcDbVisualStyle
  2
Flat
 70
     0
177
     2
291
     1
 71
     2
176
     1
 72
     1
176
     1
 73
     1
176
     1
 90
        2
176
     1
 40
0.6
176
     1
 41
30.0
176
     1
 63
     7
421
 16777215
176
     1
 74
     0
176
     1
 91
        0
176
     1
 64
     7
176
     1
 65
   257
176
     1
 75
     1
176
     1
175
     1
176
     1
 42
1.0
176
     1
 92
        8
176
     1
 66
     7
176
     1
 43
1.0
176
     1
 76
     1
176
     1
 77
     6
176
     1
 78
     2
176
     1
 67
     7
176
     1
 79
     5
176
     1
170
     0
176
     1
171
     0
176
     1
290
     0
176
     1
 93
       13
176
     1
 44
0.0
176
     1
173
     0
176
     1
1001
ACAD
1000
AcDbSavedByObjectVersion
1070
     0
  0
VISUALSTYLE
  5
2B
102
{ACAD_XDICTIONARY
360
984
102
}
102
{ACAD_REACTORS
330
29
102
}
330
29
100
AcDbVisualStyle
  2
FlatWithEdges
 70
     1
177
     2
291
     1
 71
     2
176
     1
 72
     1
176
     1
 73
     1
176
     1
 90
        2
176
     1
 40
0.6
176
     1
 41
30.0
176
     1
 63
     7
421
 16777215
176
     1
 74
     1
176
     1
 91
        0
176
     1
 64
     7
176
     1
 65
   257
176
     1
 75
     1
176
     1
175
     1
176
     1
 42
1.0
176
     1
 92
        0
176
     1
 66
   257
176
     1
 43
1.0
176
     1
 76
     1
176
     1
 77
     6
176
     1
 78
     2
176
     1
 67
     7
176
     1
 79
     5
176
     1
170
     0
176
     1
171
     0
176
     1
290
     0
176
     1
 93
       13
176
     1
 44
0.0
176
     1
173
     0
176
     1
1001
ACAD
1000
AcDbSavedByObjectVersion
1070
     0
  0
VISUALSTYLE
  5
2C
102
{ACAD_XDICTIONARY
360
986
102
}
102
{ACAD_REACTORS
330
29
102
}
330
29
100
AcDbVisualStyle
  2
Gouraud
 70
     2
177
     2
291
     1
 71
     2
176
     1
 72
     2
176
     1
 73
     1
176
     1
 90
        2
176
     1
 40
0.6
176
     1
 41
30.0
176
     1
 63
     7
421
 16777215
176
     1
 74
     0
176
     1
 91
        0
176
     1
 64
     7
176
     1
 65
   257
176
     1
 75
     1
176
     1
175
     1
176
     1
 42
1.0
176
     1
 92
        0
176
     1
 66
     7
176
     1
 43
1.0
176
     1
 76
     1
176
     1
 77
     6
176
     1
 78
     2
176
     1
 67
     7
176
     1
 79
     5
176
     1
170
     0
176
     1
171
     0
176
     1
290
     0
176
     1
 93
       13
176
     1
 44
0.0
176
     1
173
     0
176
     1
1001
ACAD
1000
AcDbSavedByObjectVersion
1070
     0
  0
VISUALSTYLE
  5
2D
102
{ACAD_XDICTIONARY
360
988
102
}
102
{ACAD_REACTORS
330
29
102
}
330
29
100
AcDbVisualStyle
  2
GouraudWithEdges
 70
     3
177
     2
291
     1
 71
     2
176
     1
 72
     2
176
     1
 73
     1
176
     1
 90
        2
176
     1
 40
0.6
176
     1
 41
30.0
176
     1
 63
     7
421
 16777215
176
     1
 74
     1
176
     1
 91
        0
176
     1
 64
     7
176
     1
 65
   257
176
     1
 75
     1
176
     1
175
     1
176
     1
 42
1.0
176
     1
 92
        0
176
     1
 66
   257
176
     1
 43
1.0
176
     1
 76
     1
176
     1
 77
     6
176
     1
 78
     2
176
     1
 67
     7
176
     1
 79
     5
176
     1
170
     0
176
     1
171
     0
176
     1
290
     0
176
     1
 93
       13
176
     1
 44
0.0
176
     1
173
     0
176
     1
1001
ACAD
1000
AcDbSavedByObjectVersion
1070
     0
  0
VISUALSTYLE
  5
31
102
{ACAD_XDICTIONARY
360
990
102
}
102
{ACAD_REACTORS
330
29
102
}
330
29
100
AcDbVisualStyle
  2
Hidden
 70
     6
177
     2
291
     0
 71
     1
176
     1
 72
     2
176
     1
 73
     2
176
     1
 90
        0
176
     1
 40
0.6
176
     1
 41
30.0
176
     1
 63
     7
421
 16777215
176
     1
 74
     2
176
     1
 91
        2
176
     1
 64
     7
176
     1
 65
   257
176
     1
 75
     2
176
     1
175
     1
176
     1
 42
40.0
176
     1
 92
        0
176
     1
 66
   257
176
     1
 43
1.0
176
     1
 76
     1
176
     1
 77
     6
176
     1
 78
     2
176
     1
 67
     7
176
     1
 79
     3
176
     1
170
     0
176
     1
171
     0
176
     1
290
     0
176
     1
 93
        1
176
     1
 44
0.0
176
     1
173
     0
176
     1
1001
ACAD
1000
AcDbSavedByObjectVersion
1070
     0
  0
VISUALSTYLE
  5
3F
102
{ACAD_XDICTIONARY
360
9AC
102
}
102
{ACAD_REACTORS
330
29
102
}
330
29
100
AcDbVisualStyle
  2
JitterOff
 70
    20
177
     2
291
     1
 71
     2
176
     0
 72
     2
176
     0
 73
     0
176
     0
 90
        0
176
     0
 40
0.6
176
     0
 41
30.0
176
     0
 63
     7
421
 16777215
176
     0
 74
     1
176
     0
 91
        4
176
     0
 64
     7
176
     0
 65
   257
176
     0
 75
     1
176
     0
175
     1
176
     0
 42
1.0
176
     0
 92
       10
176
     2
 66
     7
176
     0
 43
1.0
176
     0
 76
     1
176
     0
 77
     6
176
     0
 78
     2
176
     0
 67
     7
176
     0
 79
     5
176
     0
170
     0
176
     0
171
     0
176
     0
290
     0
176
     0
 93
        1
176
     0
 44
0.0
176
     0
173
     0
176
     0
1001
ACAD
1000
AcDbSavedByObjectVersion
1070
     0
  0
VISUALSTYLE
  5
37
102
{ACAD_XDICTIONARY
360
99C
102
}
102
{ACAD_REACTORS
330
29
102
}
330
29
100
AcDbVisualStyle
  2
Linepattern
 70
    14
177
     2
291
     1
 71
     2
176
     1
 72
     2
176
     1
 73
     0
176
     1
 90
        0
176
     1
 40
0.6
176
     1
 41
30.0
176
     1
 63
     7
421
 16777215
176
     1
 74
     1
176
     1
 91
        4
176
     1
 64
     7
176
     1
 65
   257
176
     1
 75
     7
176
     1
175
     7
176
     1
 42
1.0
176
     1
 92
        8
176
     1
 66
     7
176
     1
 43
1.0
176
     1
 76
     1
176
     1
 77
     6
176
     1
 78
     2
176
     1
 67
     7
176
     1
 79
     5
176
     1
170
     0
176
     1
171
     0
176
     1
290
     0
176
     1
 93
        1
176
     1
 44
0.0
176
     1
173
     0
176
     1
1001
ACAD
1000
AcDbSavedByObjectVersion
1070
     0
  0
VISUALSTYLE
  5
40
102
{ACAD_XDICTIONARY
360
9AE
102
}
102
{ACAD_REACTORS
330
29
102
}
330
29
100
AcDbVisualStyle
  2
OverhangOff
 70
    21
177
     2
291
     1
 71
     2
176
     0
 72
     2
176
     0
 73
     0
176
     0
 90
        0
176
     0
 40
0.6
176
     0
 41
30.0
176
     0
 63
     7
421
 16777215
176
     0
 74
     1
176
     0
 91
        4
176
     0
 64
     7
176
     0
 65
   257
176
     0
 75
     1
176
     0
175
     1
176
     0
 42
1.0
176
     0
 92
        9
176
     2
 66
     7
176
     0
 43
1.0
176
     0
 76
     1
176
     0
 77
     6
176
     0
 78
     2
176
     0
 67
     7
176
     0
 79
     5
176
     0
170
     0
176
     0
171
     0
176
     0
290
     0
176
     0
 93
        1
176
     0
 44
0.0
176
     0
173
     0
176
     0
1001
ACAD
1000
AcDbSavedByObjectVersion
1070
     0
  0
VISUALSTYLE
  5
33
102
{ACAD_XDICTIONARY
360
994
102
}
102
{ACAD_REACTORS
330
29
102
}
330
29
100
AcDbVisualStyle
  2
Realistic
 70
     8
177
     2
291
     0
 71
     2
176
     1
 72
     3
176
     1
 73
     0
176
     1
 90
        2
176
     1
 40
0.6
176
     1
 41
30.0
176
     1
 63
     7
421
 16777215
176
     1
 74
     0
176
     1
 91
        0
176
     1
 64
     7
176
     1
 65
   257
176
     1
 75
     1
176
     1
175
     1
176
     1
 42
1.0
176
     1
 92
        8
176
     1
 66
   257
176
     1
 43
1.0
176
     1
 76
     1
176
     1
 77
     6
176
     1
 78
     2
176
     1
 67
     7
176
     1
 79
     3
176
     1
170
     0
176
     1
171
     0
176
     1
290
     0
176
     1
 93
       13
176
     1
 44
0.0
176
     1
173
     0
176
     1
1001
ACAD
1000
AcDbSavedByObjectVersion
1070
     0
  0
VISUALSTYLE
  5
3E
102
{ACAD_XDICTIONARY
360
9AA
102
}
102
{ACAD_REACTORS
330
29
102
}
330
29
100
AcDbVisualStyle
  2
Shaded
 70
    27
177
     2
291
     0
 71
     2
176
     1
 72
     2
176
     1
 73
     1
176
     1
 90
        2
176
     1
 40
0.6
176
     1
 41
30.0
176
     1
 63
     7
421
 16777215
176
     1
 74
     0
176
     1
 91
        4
176
     1
 64
     7
176
     1
 65
   257
176
     1
 75
     1
176
     1
175
     1
176
     1
 42
1.0
176
     1
 92
        8
176
     1
 66
   257
176
     1
 43
1.0
176
     1
 76
     1
176
     1
 77
     6
176
     1
 78
     2
176
     1
 67
     8
425
  7895160
176
     1
 79
     3
176
     1
170
     0
176
     1
171
     0
176
     1
290
     0
176
     1
 93
        5
176
     1
 44
0.0
176
     1
173
     0
176
     1
1001
ACAD
1000
AcDbSavedByObjectVersion
1070
     0
  0
VISUALSTYLE
  5
3D
102
{ACAD_XDICTIONARY
360
9A8
102
}
102
{ACAD_REACTORS
330
29
102
}
330
29
100
AcDbVisualStyle
  2
Shaded with edges
 70
    26
177
     2
291
     0
 71
     2
176
     1
 72
     2
176
     1
 73
     1
176
     1
 90
        2
176
     1
 40
0.6
176
     1
 41
30.0
176
     1
 63
     7
421
 16777215
176
     1
 74
     1
176
     1
 91
       10
176
     1
 64
     7
176
     1
 65
   257
176
     1
 75
     2
176
     1
175
     1
176
     1
 42
1.0
176
     1
 92
        8
176
     1
 66
   257
176
     1
 43
1.0
176
     1
 76
     1
176
     1
 77
     6
176
     1
 78
     2
176
     1
 67
     7
176
     1
 79
     3
176
     1
170
     0
176
     1
171
     0
176
     1
290
     0
176
     1
 93
        5
176
     1
 44
0.0
176
     1
173
     0
176
     1
1001
ACAD
1000
AcDbSavedByObjectVersion
1070
     0
  0
VISUALSTYLE
  5
3A
102
{ACAD_XDICTIONARY
360
9A2
102
}
102
{ACAD_REACTORS
330
29
102
}
330
29
100
AcDbVisualStyle
  2
Shades of Gray
 70
    23
177
     2
291
     0
 71
     2
176
     1
 72
     2
176
     1
 73
     3
176
     1
 90
        0
176
     1
 40
0.6
176
     1
 41
30.0
176
     1
 63
     7
421
 16777215
176
     1
 74
     2
176
     1
 91
        2
176
     1
 64
     7
176
     1
 65
     7
176
     1
 75
     1
176
     1
175
     1
176
     1
 42
40.0
176
     1
 92
        8
176
     1
 66
     7
176
     1
 43
1.0
176
     1
 76
     1
176
     1
 77
     6
176
     1
 78
     2
176
     1
 67
     7
176
     1
 79
     3
176
     1
170
     0
176
     1
171
     0
176
     1
290
     0
176
     1
 93
        1
176
     1
 44
0.0
176
     1
173
     0
176
     1
1001
ACAD
1000
AcDbSavedByObjectVersion
1070
     0
  0
VISUALSTYLE
  5
3B
102
{ACAD_XDICTIONARY
360
9A4
102
}
102
{ACAD_REACTORS
330
29
102
}
330
29
100
AcDbVisualStyle
  2
Sketchy
 70
    24
177
     2
291
     0
 71
     1
176
     1
 72
     2
176
     1
 73
     2
176
     1
 90
        0
176
     1
 40
0.6
176
     1
 41
30.0
176
     1
 63
     7
421
 16777215
176
     1
 74
     2
176
     1
 91
        2
176
     1
 64
     7
176
     1
 65
     7
176
     1
 75
     1
176
     1
175
     1
176
     1
 42
40.0
176
     1
 92
       11
176
     1
 66
     7
176
     1
 43
1.0
176
     1
 76
     1
176
     1
 77
     6
176
     1
 78
     2
176
     1
 67
     7
176
     1
 79
     6
176
     1
170
     0
176
     1
171
     0
176
     1
290
     0
176
     1
 93
        1
176
     1
 44
0.0
176
     1
173
     0
176
     1
1001
ACAD
1000
AcDbSavedByObjectVersion
1070
     0
  0
VISUALSTYLE
  5
36
102
{ACAD_XDICTIONARY
360
99A
102
}
102
{ACAD_REACTORS
330
29
102
}
330
29
100
AcDbVisualStyle
  2
Thicken
 70
    13
177
     2
291
     1
 71
     2
176
     1
 72
     2
176
     1
 73
     0
176
     1
 90
        0
176
     1
 40
0.6
176
     1
 41
30.0
176
     1
 63
     7
421
 16777215
176
     1
 74
     1
176
     1
 91
        4
176
     1
 64
     7
176
     1
 65
   257
176
     1
 75
     1
176
     1
175
     1
176
     1
 42
1.0
176
     1
 92
       12
176
     1
 66
     7
176
     1
 43
1.0
176
     1
 76
     1
176
     1
 77
     6
176
     1
 78
     2
176
     1
 67
     7
176
     1
 79
     5
176
     1
170
     0
176
     1
171
     0
176
     1
290
     0
176
     1
 93
        1
176
     1
 44
0.0
176
     1
173
     0
176
     1
1001
ACAD
1000
AcDbSavedByObjectVersion
1070
     0
  0
VISUALSTYLE
  5
30
102
{ACAD_XDICTIONARY
360
98E
102
}
102
{ACAD_REACTORS
330
29
102
}
330
29
100
AcDbVisualStyle
  2
Wireframe
 70
     5
177
     2
291
     0
 71
     0
176
     1
 72
     2
176
     1
 73
     0
176
     1
 90
        0
176
     1
 40
0.6
176
     1
 41
30.0
176
     1
 63
     7
421
 16777215
176
     1
 74
     1
176
     1
 91
        4
176
     1
 64
     7
176
     1
 65
   257
176
     1
 75
     1
176
     1
175
     1
176
     1
 42
1.0
176
     1
 92
        0
176
     1
 66
   257
176
     1
 43
1.0
176
     1
 76
     1
176
     1
 77
     6
176
     1
 78
     2
176
     1
 67
     7
176
     1
 79
     3
176
     1
170
     0
176
     1
171
     0
176
     1
290
     0
176
     1
 93
        1
176
     1
 44
0.0
176
     1
173
     0
176
     1
1001
ACAD
1000
AcDbSavedByObjectVersion
1070
     0
  0
VISUALSTYLE
  5
3C
102
{ACAD_XDICTIONARY
360
9A6
102
}
102
{ACAD_REACTORS
330
29
102
}
330
29
100
AcDbVisualStyle
  2
X-Ray
 70
    25
177
     2
291
     0
 71
     2
176
     1
 72
     2
176
     1
 73
     1
176
     1
 90
        1
176
     1
 40
0.5
176
     1
 41
30.0
176
     1
 63
     7
421
 16777215
176
     1
 74
     1
176
     1
 91
        0
176
     1
 64
     7
176
     1
 65
   257
176
     1
 75
     1
176
     1
175
     1
176
     1
 42
1.0
176
     1
 92
        8
176
     1
 66
     7
176
     1
 43
1.0
176
     1
 76
     1
176
     1
 77
     6
176
     1
 78
     2
176
     1
 67
     7
176
     1
 79
     3
176
     1
170
     0
176
     1
171
     0
176
     1
290
     0
176
     1
 93
       13
176
     1
 44
0.0
176
     1
173
     0
176
     1
1001
ACAD
1000
AcDbSavedByObjectVersion
1070
     0
  0
DICTIONARYVAR
  5
96E
102
{ACAD_REACTORS
330
969
102
}
330
969
100
DictionaryVariables
280
     0
  1
1:1
  0
DICTIONARYVAR
  5
96B
102
{ACAD_REACTORS
330
969
102
}
330
969
100
DictionaryVariables
280
     0
  1
STANDARD
  0
DICTIONARYVAR
  5
96A
102
{ACAD_REACTORS
330
969
102
}
330
969
100
DictionaryVariables
280
     0
  1
STANDARD
  0
DICTIONARYVAR
  5
96C
102
{ACAD_REACTORS
330
969
102
}
330
969
100
DictionaryVariables
280
     0
  1
Imperial24
  0
DICTIONARYVAR
  5
96D
102
{ACAD_REACTORS
330
969
102
}
330
969
100
DictionaryVariables
280
     0
  1
Imperial24
  0
DICTIONARY
  5
9B6
330
6B
100
AcDbDictionary
280
     1
281
     1
  3
ACAD_XREC_ROUNDTRIP
360
9B7
  0
DICTIONARY
  5
1A
330
19
100
AcDbDictionary
280
     1
281
     1
  3
BUMPTILE
360
1C
  3
DIFFUSETILE
360
1B
  3
OPACITYTILE
360
1F
  3
REFLECTIONTILE
360
1E
  3
REFRACTIONTILE
360
20
  3
SPECULARTILE
360
1D
  0
DICTIONARY
  5
12
330
11
100
AcDbDictionary
280
     1
281
     1
  3
BUMPTILE
360
14
  3
DIFFUSETILE
360
13
  3
FBXASSET
360
10D
  3
OPACITYTILE
360
17
  3
REFLECTIONTILE
360
16
  3
REFRACTIONTILE
360
18
  3
SPECULARTILE
360
15
  0
DICTIONARY
  5
22
330
21
100
AcDbDictionary
280
     1
281
     1
  3
BUMPTILE
360
24
  3
DIFFUSETILE
360
23
  3
OPACITYTILE
360
27
  3
REFLECTIONTILE
360
26
  3
REFRACTIONTILE
360
28
  3
SPECULARTILE
360
25
  0
DICTIONARY
  5
9B2
330
67
100
AcDbDictionary
280
     1
281
     1
  3
ACAD_XREC_ROUNDTRIP
360
9B3
  0
DICTIONARY
  5
9B4
330
69
100
AcDbDictionary
280
     1
281
     1
  3
ACAD_XREC_ROUNDTRIP
360
9B5
  0
DICTIONARY
  5
96F
330
65
100
AcDbDictionary
280
     1
281
     1
  3
ACAD_ROUNDTRIP_2008_TABLESTYLE_CELLSTYLEMAP
360
970
  0
DICTIONARY
  5
98C
330
2F
100
AcDbDictionary
280
     1
281
     1
  3
ACAD_XREC_ROUNDTRIP
360
98D
  0
DICTIONARY
  5
98A
330
2E
100
AcDbDictionary
280
     1
281
     1
  3
ACAD_XREC_ROUNDTRIP
360
98B
  0
DICTIONARY
  5
998
330
35
100
AcDbDictionary
280
     1
281
     1
  3
ACAD_XREC_ROUNDTRIP
360
999
  0
DICTIONARY
  5
9A0
330
39
100
AcDbDictionary
280
     1
281
     1
  3
ACAD_XREC_ROUNDTRIP
360
9A1
  0
DICTIONARY
  5
992
330
32
100
AcDbDictionary
280
     1
281
     1
  3
ACAD_XREC_ROUNDTRIP
360
993
  0
DICTIONARY
  5
996
330
34
100
AcDbDictionary
280
     1
281
     1
  3
ACAD_XREC_ROUNDTRIP
360
997
  0
DICTIONARY
  5
9B0
330
41
100
AcDbDictionary
280
     1
281
     1
  3
ACAD_XREC_ROUNDTRIP
360
9B1
  0
DICTIONARY
  5
99E
330
38
100
AcDbDictionary
280
     1
281
     1
  3
ACAD_XREC_ROUNDTRIP
360
99F
  0
DICTIONARY
  5
982
330
2A
100
AcDbDictionary
280
     1
281
     1
  3
ACAD_XREC_ROUNDTRIP
360
983
  0
DICTIONARY
  5
984
330
2B
100
AcDbDictionary
280
     1
281
     1
  3
ACAD_XREC_ROUNDTRIP
360
985
  0
DICTIONARY
  5
986
330
2C
100
AcDbDictionary
280
     1
281
     1
  3
ACAD_XREC_ROUNDTRIP
360
987
  0
DICTIONARY
  5
988
330
2D
100
AcDbDictionary
280
     1
281
     1
  3
ACAD_XREC_ROUNDTRIP
360
989
  0
DICTIONARY
  5
990
330
31
100
AcDbDictionary
280
     1
281
     1
  3
ACAD_XREC_ROUNDTRIP
360
991
  0
DICTIONARY
  5
9AC
330
3F
100
AcDbDictionary
280
     1
281
     1
  3
ACAD_XREC_ROUNDTRIP
360
9AD
  0
DICTIONARY
  5
99C
330
37
100
AcDbDictionary
280
     1
281
     1
  3
ACAD_XREC_ROUNDTRIP
360
99D
  0
DICTIONARY
  5
9AE
330
40
100
AcDbDictionary
280
     1
281
     1
  3
ACAD_XREC_ROUNDTRIP
360
9AF
  0
DICTIONARY
  5
994
330
33
100
AcDbDictionary
280
     1
281
     1
  3
ACAD_XREC_ROUNDTRIP
360
995
  0
DICTIONARY
  5
9AA
330
3E
100
AcDbDictionary
280
     1
281
     1
  3
ACAD_XREC_ROUNDTRIP
360
9AB
  0
DICTIONARY
  5
9A8
330
3D
100
AcDbDictionary
280
     1
281
     1
  3
ACAD_XREC_ROUNDTRIP
360
9A9
  0
DICTIONARY
  5
9A2
330
3A
100
AcDbDictionary
280
     1
281
     1
  3
ACAD_XREC_ROUNDTRIP
360
9A3
  0
DICTIONARY
  5
9A4
330
3B
100
AcDbDictionary
280
     1
281
     1
  3
ACAD_XREC_ROUNDTRIP
360
9A5
  0
DICTIONARY
  5
99A
330
36
100
AcDbDictionary
280
     1
281
     1
  3
ACAD_XREC_ROUNDTRIP
360
99B
  0
DICTIONARY
  5
98E
330
30
100
AcDbDictionary
280
     1
281
     1
  3
ACAD_XREC_ROUNDTRIP
360
98F
  0
DICTIONARY
  5
9A6
330
3C
100
AcDbDictionary
280
     1
281
     1
  3
ACAD_XREC_ROUNDTRIP
360
9A7
  0
XRECORD
  5
9B7
102
{ACAD_REACTORS
330
9B6
102
}
330
9B6
100
AcDbXrecord
280
     1
102
DISPLAYNAME
  1
Imperial24
102
FLAGS
 90
        0
  0
XRECORD
  5
1C
102
{ACAD_REACTORS
330
1A
102
}
330
1A
100
AcDbXrecord
280
     1
270
     1
271
     1
  0
XRECORD
  5
1B
102
{ACAD_REACTORS
330
1A
102
}
330
1A
100
AcDbXrecord
280
     1
270
     1
271
     1
  0
XRECORD
  5
1F
102
{ACAD_REACTORS
330
1A
102
}
330
1A
100
AcDbXrecord
280
     1
270
     1
271
     1
  0
XRECORD
  5
1E
102
{ACAD_REACTORS
330
1A
102
}
330
1A
100
AcDbXrecord
280
     1
270
     1
271
     1
  0
XRECORD
  5
20
102
{ACAD_REACTORS
330
1A
102
}
330
1A
100
AcDbXrecord
280
     1
270
     1
271
     1
  0
XRECORD
  5
1D
102
{ACAD_REACTORS
330
1A
102
}
330
1A
100
AcDbXrecord
280
     1
270
     1
271
     1
  0
XRECORD
  5
14
102
{ACAD_REACTORS
330
12
102
}
330
12
100
AcDbXrecord
280
     1
270
     1
271
     1
  0
XRECORD
  5
13
102
{ACAD_REACTORS
330
12
102
}
330
12
100
AcDbXrecord
280
     1
270
     1
271
     1
  0
XRECORD
  5
10D
102
{ACAD_REACTORS
330
12
102
}
330
12
100
AcDbXrecord
280
     1
 70
     1
 90
1959938040
 71
     1
  1
CC6FA605-1866-4CDB-B15C-842EA6D93010
311
504B0304140006080800ED7A834B474E0CBCDB000000200100004F00000043453043443444342D443530382D343031332D384344372D4439463041393742433446462F4173736574446174612F446566696E6974696F6E4974657261746F7250726F706572746965732E62696E454E3D4FC33010352C8881817FC01F3076A8
311
E32655AB2AB19B2EB0D0AD0B3AC2D14672D22A7604DD18F9D770568338E9DDBDFB7EDF8CB19FD188B20BC217F91B8A6BECB06FEA4DBDC716D81555CAD3239CB08F746C5E128DA9C577185C886B4F8DAFD139E8F030F8DBFFD1BB1602DD03771F97AE097F051F2FECCEDFA2808FB3A64FA20CDE8EB325788F6121CC4A1AABAC
311
E2369519573299F0CCD829B779258B7C5A1A5555E219FD61E86BF4C2185D155AA63CC9B4E6CAD89297496A78A61E5685B6F944265284FDD0BE76D03821C528E1E5D8EDF4762E42D3E22F504B0304140006080800ED7A834B697F1EB8EC000000300200004500000043453043443444342D443530382D343031332D38434437
311
2D4439463041393742433446462F4173736574446174612F496E7374616E636550726F706572746965732E62696EEB606060F80F0540260323103700495E20ED9E9A975A94991C9C9C919A9BA802147076367373343330D535B43033D335717671D275323475D6B5303172753473B134363034604768046931363471713532
311
B5D435353131D635313332D475727372D13534373670367376B67474B5042A03DBCBA019D37FE8ABC6157B20CD04146B0062181F4C03F940F0C11EA29A8141C08141002C0426541C106CAC2CA046088033B02A030AC2157C6006F21A8018AAF50194E6010A610250382264E08660284CD9E98021862280A91564B406929A0F
311
F62C401E28B6F88038B83CB1243943D7A928312F25350524432B0000504B0304140006080800ED7A834B88E57597CD3F0000904100006B00000043453043443444342D443530382D343031332D384344372D4439463041393742433446462F5265736F75726365732F43433646413630352D313836362D344344422D423135
311
432D3834324541364439333031302F7468756D626E61696C2F302F67656E657269635F706E67355B773CD4FF1FBF73E71C0E67EF7576C9DEF3EC995D46C6A1EC5046649CBDF79E192942562825CE965D8A868C2842C8DE9FDFD1F7E7F138F7078FCF6B3F5FCFD7EBFDFEC41B196891913091804020321D6D7513FC77D8C507
311
0EC3FFEE51B21F068154CC75D455CC028A3EA68992803810109FDDE5D5CEC5521B28A1B422BF80741695D5B529DA1C2D058AD2388BDA9F476F7C2CADC939304173DBF48A452BF8A700C0C70C3D121C1AA15A5270C22E2B9E28763651F7DA0D12CE11077B2ECD0D560B5E3DE2368B1E65C5E1C87384A4CC5F2D9FB8BE39E9B7
311
7C753783A37998F5CEF1B4FEE553463245C9712270880DF339E0B882A6BA713D865F6F384C842D440934EF264F4A304F8DE4EEFA1E2BF5E2D91F5ADD9613D6E31DDB33ED31DB1D7916CAF091286EA3D31B9CFECB78BB0060245B943C4C040119FF780A74DD308BA9D028678674EB5504ECF284EE814DAED07440BAF649BE4B
311
55DA2890F4D73E2D489A59EE54FDB0A85B59F2F52C4858A02705C4815A792B0C4A996A2023ECB195073E115E3E3647F64243A8338F2000BCB58DA5692C7E7C3D413F963FEDF3CF00FBB0F831A9D51360FECA43819F527B89FA260EB63C5DA676830AA3626A3693B23F1A17A0DFFCE3EE164E31B5365EDF0C89EF64D8E38AB0
311
BA9A1117D7C3A0EC44F44F4023095E80BA610DE336D0F99593A88BFC5306E72DF98F7FD132ED95878DF2964EA7E43071359FD83B2BDF9C6B5BDF768F0F3C0FC351199526F53D9460A34511F75D1B63E488178569472C91A94497807A3FD4A390C6558F26D416365C3656DE6E769DA9D8FC73774E1709812842DD8EF96AED19
311
60F79D21B395CDDFE6F92CB4EB962A4668C76990E2EF29798C8941D67DA50F4A5F947872460F1F6FDB794E8A29FD7AC0C0D6E0714339CE258FB17AE8535221E3464A10F29A0BE5EEECEFC5675926A89F49EB14E5711894F6586DB5754EB4D5DA9C6437EBA57DB97A24F8B8A8DB295FFD73266CF57E82694DF5166DDF93573A
311
FE9C9C5EB05F8FEF8E89E0A8917B0B3724DB7BEBB53252581EFC3E38166BA131A3A5B42FE2AD00A769BBFA4458D2DE7822F8C4F63D0B8E21B285AE13325F3410A435C648C9D91FDEB109E73CEDA7BC796961AF79175E1A3CE4C5E8B0D009B0C9E29EFD98BC8E97554E3D8D838424E270F7685226E5AC268E021EDE3522D583
311
E8F20C0BDE2959EF5BBFEEDAB32FE9A3ED0E39F211A86AA9DEBFC68182EDED132AB8BB794442D2D7EA9F4D8BFF52BC4D55BB165124EE90A42D101E67BBBB292FFB4F66DE5BF2300E44546757DA7CEF8932BFC9F92A0707953491A55C5A5ACEDABD9FA1AEA01BAC3DC5A24E22E7C47213493996EFBC369D086ED9397C9BA6C7
311
F9855C7BD5E15BFC8C53DB3D2A4C5901A57ACD2FBDF4D1676E95338B2C2BCE65FDA4C64F5FEFDC7D9CA5AA1FCF11E193F2FDABF0F4916BF13FB916A224380E6462A9815F2300DC49CC4DF8D055CEF76462F4B7A7ACA7365C2707891370BC1D0AA6203C44CCAB47084FEC057F27FFCD57F89B8B9852459798A675C66BD7CE57
311
2CAF71FF7E6D7ECF7BF62CAB7B3F1107DCD04DC55A3F9961700286141C94A4F771FEB2BCDA2DDEE0CB0BAE402FF1DB0100F8E475DFFFC074DDB4498AB7D186A7654DDB1CB680D703D47CEB4E72F8CB13D86A4AA68116E26387B93FD6738779B34FEDB8E517EDF2BAF28D9BE93A1D3A164320E07D42E514725C29515FF36175
311
4213EDE06B079A2E99EB1CA82A02019EADEEB87B9AF005BD04BBCECB14AACD6B24EFBE482194A97DD32400685FF1FEF1544D1B14EFB1E7F08E6D2CD2AF52DE757F35F5E62332EE88EA26417AD5C3E0E319D68F25414E6D672BD4522B278C57D18F0113921C71D96527E091F00CEB15AE23D24667369BD3CEFA10C7549D9308
311
90BA4366F4EBC55F01F746109F98ABCDD5A3EE06619C6AD78AB33E48E4C9BD21BF7478B385EC05C4F8987E2C1BFA0A60EBEDAA0AE0B015C2720ECE180FB6F2DEFBEB822D96338C9B63822183BBF52FB664A7AE57003AABCE512BF77E7E31BDA2E739AC4C131657DDFE5225E900FB56CC01CDE808FA4A9C9DA16AC679656BB6
311
4796283D89812B8F91136AE18EE5EBBAF47A73BE3C153EB5D4CD491B4BFB4FE690A4CF9ABA08C0D8AA64220C438C96EA6CA80B58FE5761E697B3A292EB9FBDA502FA863E49FE694ADDFFF9D62C520BDD1A22014147A0903A05B9B729F54272EF83931FEEC057BFF8C8055C279EAC5C0011804828734024F6CFA319C9CC6867
311
C727184465CD9BB7ED386AFFD96B294A85E3802FAE47244602D8273615952B98C4F23F7EAE4463D9D638EEE374A20959E0FE519C4CFB0FBFE5DD80C2AA3F9DB961D1BDE57E67C9BB47B77FDD74EE3094F5DBBE3EBC1FBDB7393F5116263009E2EFE1AF9A221B2AE234C902BF70E9F280ED23E73908361565964333A3F01D0B
311
006AF32FB21AA1316744B489D5A198E85299241735BE559675130955C902A8ED761FC0DBE337A9F91919AF5CE32AF902ADF9AB2615E00E8A94586BA1A90839B61832FF1BFB76D2EFADE6DB1BA04CCAD3DA649E7E2A0219F592E22F2AD54847EEA8E42271011E9074F8F3DD9FBA6CDF88FFC9FC7E811AD1CA8F4557CE4AFC7B
311
BEDCF0114A48689F20A584520C74DA8127124B767E2FB91A6B186246727BE63C9445BAE02088D58B8EFDC0F1072407CD9B89A13F6303B4A928F593AD489B58E6869325790ADC406036C591729FE14021F94B7796BB11848D463536A092A26F077F94639F7CEEE2A724C66EC885F4A24F8B8A0AC321F8FD149BA529460FAA34
311
E4663C02D41FDF80BCA222D42F0ABFF8490F4FA74C673807C2051D8E467B47B616072860069A9A303ABA9B319D58404461401B0A0F9BE5E1E151C14BC33B32ABE03DDE91708DFAEB15E7C0D593C86BB7D7EC17BE56E57975F077BFD5525F3A1A361D584A75E08CF29FC7B44B2B3085014F3A5A14517377C3F6B8F37E59514C
311
3B12F8AACDEDDA4DFC49BE5710101534CD6FB6DE15B50F11A09472AABA727F0C49D9CB906B158030065F48EB3625E010CEC1D511D0053474B11E6A4F01C0D6EF1BED3A944FDEC70E0DDCDC756C86545910E0DAE3BE3AA9A404574C2995CD5CAF9549226BC94B4F4F0F5F9086F418F6B32346464610D8BC7391D3C3A3CCF04C
311
FC1FB2A3A3170E369511868F14EEA4E5E438CC73DB1F3248AA94B6B2FF33B222FF3D1E7BF146CAD229770158063BCE4F5391964DF62F7E52A7BE0EEA829C9E13C4C147D6F93FE59E111DAB5E4594D6F3CD1AD375EE039930EFE5AF2BB2D41C83C7DABD8C659BAFBE8FAB392CA634F3D15C1D945DB4588D2B0824A4EC928AAC
311
565557CA2F0DAA588CA5BE30B3A8004F7BF005E96CBF891D7F18112A3619FDF530DC8AA64954258E1811789B5189B49B4EB53F5F89F7D37523894F3EB57B373763C91E502F52CC99EB7BDDF933FC324C4FFC2561DFFA7339FAFDD0A4BFBE6D3A8FF9ED1FC49898139864602458968913181918F719CCF5A68B2EE9C1FF050E
311
34E63107003B8120FA982C21B30A874E4F5E4B38D5A8290C4B8D9BE48A0BE31EA995BDC37AC6DE90BA17D259DEF53605D55922FEB1855D915B659FBEB350EE0DFB2F9F766E1C84CC8964B75D08667445EAB966015F63A18A9E0A325C1B3DC628C0D3CB60F767FA93CC65F25458BD23C3B312716E5F40E5858AC06EBA9AB14F
311
95DB99147B832069201541D09A0D856E12C629CF32683760EE855537D1901988D5EBC156676C7DD51D7207CF3267AF1D76C2AD867315E44618015313A98B19941C696FED3461CAA9B5415F918556D7802EDACEFD6B2E45853A9735DFC9DBF7E440F9319F8B6805A973BCCDC76C069A9144E51F187EDCC12FC31B5DEAAF0A76
311
137199B106EC84ADA6B6EE697D4E6A96E007417F4E880E8B1E89B4BCE9D81EF611E2ED8F0C1A6C25F620FAFAAB656A7C42D464880E8AFAB0E0FC8EA38CA9A8AEEAEE3E4648BA4680270A89743CDD3E6C6CBF34B7B640EFA285ABC7EA0A1E28F3CC963D114A80123EE66D0AF7D5380EB41909B605AB4765B709B80859045815
311
7E69BA1378FEC4B48CAF6A730E3BE3C5EF2DD1A5EAF94B1DDE50CEB55DDFD7EE9A16747FA4B223359FB1FCC69E1194892BABB93A1D5C4E807AC0EA2E30180811E77A2291F6E7F7FAA5E0F60215BC6024E48DE436C511F0628B8CA189982D4D83CCA17D305A7E923C37941CFDFDCD93ACAF735EF5F0E61BBD3E6C41A59B2427
311
90D3A3BAC7064DCD89AA2E37214EC839820949D5CAA31E240D2948E48F690298974A96BA9A8432BC90F5071D6537C9666EA4564796B7AFFFA548077BEEA75F63083435074BA182F3699557397F71548383FDA8CA34D99B981E72835ECDA5DDDC151315173D05A21F651AAF8524E88209E2E7A737ED1045800CE3390050BCFB
311
8BE588DF111617874C62575039CA588EEFDEFEFE319B739DE2EDC147092A262611E159650E787917885EF08F1F51B8F2D8A71D60B58B190FEF9541A1BE94BC19FEA50784DA1419FE4B0FB51B8D36B5FF8E1286FD8AF42B91E59A5F1CC4D60174E764045FD8C57B18209B217F89A62252BD20BE0E63E12B8E8F029FE19E0E8D
311
0870F58721A557082250D5424F7909369376E41666C0EE77CD87CB283F661D5FB6D0DA023CB67320A20DC7BE661E9E1BFE5463085C557DA1FF9BE835733766C3D139F2CF9E2208873AD0EB4814DE9E6BF2CAF81614D4D43906ED1C05A3265CABBFE192770FC2F64F940CB6B17B5F166F133C9AEEAD2641807C3E69515171DD
311
74C4A85311513D6EC9530B3B601B6BA3EBFF3B5C3D2F7D69765141E345F75433953D013ADDF8F6AA7DC3F4A7563FE5C7D367937E2900D7EAD0F9FC9A4A1A9B5BDF1FEF08532660C01C5D6DE22199AA774383E306DAB87E301ABB7D213887F9869D4942D0D71E94B27EDF216A318BD488D45DF84529EF575AF3C3938C0AAA02
311
15B01994153E2054A0B894DA5C784980633AAD48576957CF4AEAEAFADC7C587368551C73DBE1E57C58AC713303A8BFC258BD04B51724459FF9E24C03A81E0E0679CEB9B348C0DC998FEB9C6D6EFA77D247CC8F92D3848599ED89A23218D0636465AD1CEEB7DC140D7426F83491C4E8E8281C2FB35240918FFECE880CA2A42D
311
70E8B20B34DF5221C7DB0CF90ECCB9C745B37A47E9B716FF7A97B7A252C1F3814DC7B1E1A7F72B8751D524EF7CAE45B0C73B3BE7D08ED39781B380DDFC9AA4A4749C9493DB5BAD07A6EA6C092FBD0E85DB004DF06B8C9D3089C5320187E4CE1846158C7EA7DDAE8AD9AFFF21AA3A1026BB06A259845E8232DEE62811A4DA9C
311
EAB3A4887320B76E2AE5615EAB7BDF738CBDD01F1E64064BC13D9EC53576751CA8CACD58B3CEB0E6CA585BD089B2A59B9FC101403387AADBDBE70586B93D64BF3AD4453EF9C3B6A93817E8346991798601344F79A83C51F3D50F7BF2683A3605F51A72449489E0EE6169C749C60B1035651103AEE24D24E51A759C840DD3FC
311
6504DA6FE107510E447B43461C79D22970B75DE5E1BD3007D1AFC619A4A4A69B5626AF5E9B8374E20677F77E2F8E73DF868E8BEC7EBA7B6A75EEF7205E1AB9486CB642741D6E03FF13FCCEDB1C4AC129886268B01CDF4B124AF797CF784F3C6DEC97A17D4B558070A0F1C04DA4FF9BDBF34159AEFE958479824B3F58EBD1E1
311
9088A2AFDE501B6F2052368A3FD0E650A179EFAB1561E1D27527077136E652676C3670F42DCB3352F48F6BC86D2C3B0051727E41A0A4DC6CE2BE9D47F5CAA2935A3C0539AF080665997194ABECD723B08129CC5B6B21D2E7D54CD4D12610E7E9FB8306771A89576C7A982002775ED44F3F744CF21EEBB27A631671D921938A
311
AEE3EB0D19CD1E083727F607823E817BF599DCED5394E37EEBC2E88782E638920CA641EF74D4CDFCDEF06F4278ECB18E31E7E9876F2D783C8BF429C75395F57E98C2B495A3DA077EB3AC3C158608B6B57FE3EA48484D9A480096FCEE0DE880950E7E5A5714131C5C41AAA29FD19AE81AC145FA1B9E85C7169A5AB837B21349
311
3DF7E9AA4B5FBF9CDEB36EBD21EF1181B7CF7366AB2A951D01E37AF4EB835D1BE8C117CFBE7625D2EBCDB0B20C5A4B45CED0BCDE3EE8DA9DA78C2E21DEAAFFD1197E463C33CC6A80FB785669B856EFF7A8CCCA2841B5A5369173320B1170C368B2748D81062EA0296E5E2D95D7667A4A46D98A6FF475C76AAB0A8C8D45E226
311
FAFC9FE0133EA9F60111F99CA81ACE03A1D14C89E8B0D69079C91464FA1D99E651D0EAF606F345C42A8A1AA9BA391031582B96D5B4176A77AADB01F12FD298A75DEEBB2C82F0B8650E880722F8DDD90C56A7A058E5FDEF1AC93545BA27367C76F5D8F9690CB6F8DAE141EDD7971F0FB548A2AE435F224D6E5954CA155512F7
311
332029D5A1230854B79F258EC5FFDB09F5F6343A8EB193229B7F7E79B3E48F8E183860B38C8269D1B53738FF1E0BACF6AADA6D4869E9DE708E79B5DADCC09B1BC76F649731CFAF59A83FD8BAE4C749D66FA87A3810D4D62FFE826FA400C0F325D2BC0F3CA35F5847B82A2ACC7961745C823E4D863D54460AF792CE6F79B5C7
311
A33B25C3AEA6CDE15A919B6367D781E9D44F61BF828672594A3E1D9EDD6DF179A81F27EAC05B936575D73E05C209DDD2115CFB705DF9BBF3C911589B3640735E9E618FC9C36A7326C82B2205E244C55D56FDB9D5DC93CE958D4BF8174D2B3DA54CB3C09F2C2A6DFF73D23B2197355761AD421EC581284A7EF8DE2CE3497C0C
311
804D49B41DFD6A7360844E5BEFFB495CFCDB97A4595911CDBA623274CE852B5E278AF0BEB1770E9D37CD977B2766A7DED0E94B840E1E95E8C77DE5CB6354AF7871427C28ADBEEF7BA0A28E19DE9ACD75F379FE373EAE6DDDAE3834692F9C2B03B4FCA8FCA9ABE8EEEBEBB725B88A7C90941E850682CA04061A7DF0CE82ED49
311
BFAFFD42C309818FAE14755CAAE78B0F73243ECCCAD7DF58FCB9CDFAE7A4D3E6671A613639130D056C8383C8F4FCF4808C331E544DD26E4755D09EA05253B3049A1E32587CC25D72E073E2CD96D04A71BBCB0038FEC3F53D254199C3CDC67CD66640269431860225392B2CB3ECD0B4498AAE78BA1994246AE1EE78F2EDFB79
311
F6C6CB6B5E279C4D373FBC21CB2698C9ACBBEB6A4BB6B39E16AB0E421CCBFC7654D81ED86022F9BB522146F9F4772E2D0E4FA70120C95A85A417BF5078B232F4754363EB1750B2AC2148EB46B1EA72AD9B4D23ADCBC589D70106C3EC2ABEEED84DFE28E718C6C83502C28E9FDD3B09DA0A6F6F7B72B706A31C9E2A331EE70D
311
A56A083D2177BFD63C55B11D8D949FAFCF90B23A1E24B9B5018B9A17E99F2890EC302F330FE7936E2C23F0D237EC8916F5166AB84B62A21BB0B950146962D754F92CC2C8877BED8FC7B7B25726DD19545392570B3A2C66B58F027BEF412E552D12A588C4A3CC5C3193FCB3485EFFF700D0B9EEC077754A33DC1FB9E25AF814
311
628F91DDFECB667D3F7690803F38D13F8AE39353523BB08FC6760144AFA2CE28236F65EDBB3D5F59A57D612B99E3D7E5F8A851666BF9B5A6658EFC96EEB37A378ABB0EB3FDDF1303AF32C41BD1C8560745D7BD81066B0D6313359CF488563D3BA3F8E2185D1FAA3EBA1397C9D0E3DD232180A4DCADB6AF25DB3AC3CC26589C
311
8239E66E81547BC7E2F328F9884764CA37EB5DBE390DFC03A5246B456A7C3684C4377D0EEF9A350680FA9A077E8B2957B489E09AB1AD41316944C2254B5984830F691C93CAA767EECF976FA5647538830B5E63236A6F0365C1E0F3E327F24FE35EDDBD7360B0F7374837409F7A6311BECC12B7026D4FA1AE204FA3F5FE904B
311
1F420C7A9044AE58E403E7C4848E7DA25DC9EDAC79DD756FAA26B9EA83ACE8A214A2612A22AFA19DAE7DBAC5F8CDE1292A485F98DAC731A29FE01A3966E96BCB9FB5A4C8830E1B9AF0C54B87FBE221A097036E5D28D1F869F810C06A9BB0AC0612F69AEBAF893C6E7AD59460208BAB3A6B09CA4F6BDDAB8CF0D1F84B724874
311
98395A70DCD754796E271099A567A55CF242BBED64696378BB6CF25EF0FCDB589F3A82F1116D010A9AB9FA4358809EE0C973A2B4229BAA876A70B03AB49CBA7FBE71DB1832FFD32F9BF2C8E98075CACAFB36921235D0F552B6A67E94E094097A5D7DF681B40623DA535ADA7A9AD8E9A62407D7C9A5AE51D62A17A83A23728D
311
E86BB56115804D3F2675F2C6B87541A0FC497BF0CA86420F558C9859EBE9FAD62747E323E3AADC03FDCDDFE7407B09DA90B44E3185723C5381EAEF589765E2F7A099BA46695BAD60CEF3491B8A171F5F56444F7CE9455312C3498C74173AEA0214EC029833B34B650CBB5A5508D5091665309642791708ECF27CF11DB3D797
311
D6CFE474453BD4BFADB768094B2147814D81C7CBAF8228DCAF5564B5891F5EF6A860EB2E323CB82AB868D8EA048880D63B0DE5341F1B3D53297B928A11E15F25E5148990F710747C3509ED14909C552EBE3973246FCE55D00564D8310BC3EBC5085D08D806799B77D6C57FDF5E55837F9E934F09C03C729271B64F12D0A9F9
311
E938107CAF7BF1EC8CF1BB9B42363D33070F4CACB425E605DDB0A34A12BB936DE286B9887A4E2E558F0886498BFF49C311D96C277CF6A9FC0D75AD0ECC5226D7E0E3572012E56D7FDE4410CEC7A6D0F997F225A2055B8B92E3956E875AE4993CB3D4C9063AF98FD45E1BAB165640A43439A2C9181A7C355B297C0A0CCFFAE1
311
9B6FA3C2BA238A885FBC98B8F6DAF4B94B97304878DF4D8BFF6A4AEDF79E90ED4E68F00CD7299F4E0D83E35601AF0CBEF18C1E870E74758FA91F5131075004DB3CFCF09AE1DABC11957FD9808C92E8A678CE9DBE40DDA0E0D1D505AAFBCBA208232BFB6FB3704E8985E61ADE53DE74152F5C7DE74B1DEDCD37DC3E8FB30D7E
311
BA8B9EFFC3606BF90B8D438279CB7709FC7C00D327F41817EEA71CD9E49FE9C8C9A81C70915D9F0F15958EC5AA4C3BBFAF46986B90F188BDB24B89DE3C6F29EC3E6F66D84856EE96A35E657CA41B41EFD8DBFA16AD6E91439EA92B40B21C053249F51AE50EB0B24C770FFAF40DF12C8436366819C48E36547D4E7B72FE2BBF
311
10828583057814A668BDF183F6B2E58DFB151103E56303E63D00F39C27C4661605DB644D19175D02E3F0241E8FC3458D17AAAADB117CE9EEA690D0DB01E634878C04C2C9310B69FCAB831151E3AD293BEF6E46B0ABCECB50F5939B39C613D41E81FAE8D34CAE3C4566B761D37185FE864AC32FCB71AEF39DAA5BAB88609BB9
311
80CD2F07A8F941653B529567726E2B2A58D079DD57E1E5E31426CF184A04D7B03B985F276D47406AF276FE32E3328BA866EB1FD39BEF57863A317634AA5FE467409B3873F5069EF0D71AF00AD189D17BA1974ECDB2D623E9E14086386A6AAB5807825C37B015BFE892AFD154920EC437EB945D958E18622E1E0FE2FA06557C
311
E4BB9BBD05A2D40E774DA2B65473791E314B7D6C886820B2FCFE4AA272B3B8B15E7344A145E8AF919B5454D89D36D413E87211186BF6F645E5EC94DCCE8E1C799022E4EC9BC86D7A0F2AFB1FC4B2CE48F84B3F49ECE65BAD24CADCC07EFF39AB06BE9E6B27A059938EA7208838455383DDBCFCD967DDE4650EF92A14FF933C
311
975DB20BD7FEEBC4487576485963D757D16340D9599FEB362F775F38CA4185A86F74B629C81B133644A3B18FD056E997E0734F9BE26D11C0AAFC669E2AC9FC41D281F8B2E1C35AE27BCE05F3DA295488096688719D974DF1B5D182DB7792288697F8763CFB43562C1CDEE11C4AABD5C22B6E33F6F389CFC3477C5919DC0D53
311
3F8A7A1846B7ADB60ABDC26C43D0CFC8910B7C15EE22675BD02702ED39DB77A87A192CA7A543E6205B979B9F5A6B512A3CA799E198B2D5797C0AF8D1D872CA455D4D431A7879D4DD76110B5FF7F4176B54477A9EB5E4A5D11214FDA585F0382751D8E2582BA5D2075053298FEB8F1537304E32CB22C2E2B693DC0A760B1DFC
311
A751BDC445AFDCBB12820ED85F6D5298933C7EF1211E9E057684056CDA3FEF3BB6052355E162DF27C59E965A8DDB7F9437EB72CDDA3A090DE65A5B2F50326247B7EC67B73ACC7047FC9B353D6EE990F772207C6EC52B39DC2F3C0754821DAB559F7C1809C7D0DD5B0499D0442E0A6E391B3D5DB46D11E731E6794EC77523FB
311
DAA242ED67F9FA1FB684255671F63C9BCFE6E7E896D51001A6113EF2298BA494E0B0980D1FA5B9D60796554C02256B1E0345FB7C6186B6A19D2DCA270416262845FA4F42DB5D9B0A0B6F07FCA2E56C242522E001E0CEB734AF310FC8BFB57E38E03AACE93B3326A2197891E68452B26A6307FDABFEE0223D3C03C3C73D2D5B
311
C054C8311F12004CAE488E5C29287F8156A2CAA4AD0D7BE6B97264E4139F437CE73ADF52E5134C52B819777C18B323A5924E4F67AFD13B1CDC3A61793A79FAF5C0CEB718E441071E797C6DCCB9EFCF7E4A1E9F3DF3C2F9C9E8294E9586868788C972857FB0556D7A26941A7EEB9B580AD78EC40B85DC906B4120A563CA3B87
311
797ED612D3B035962BB75F6515A393F4CB057F564CDF54F2E5A024514E6A1F901DB80C7E70B1FC05E356A7E72FABF4775B3E3FB8F70A2A8E7B6A94542BB304157978CCC999E707A29CC795E67A59CC546A5D47B368954CA7B6E75EC9E1F6FC73CE3B4F71F8CB1A6B15923D61EAAEB14626AAA9D04A26EB9C66CD1BE86CA31A
311
5D8703DE04CD1EBCE4F5CCB62F93909AD11E55799A781A956ED27D3E738F4538CB04ADABC7DAEF20BC35BA6A90BCC1DC61BA05F20D8832FFB9BC9B15E2DB838A0AFBB7E0C82A562127E0446894F427794C3037186F622BF24DE1B00AA10A23BFA47B2A180D6DA5AD6F7326FEB8C100C2D7142EB2A0B2A9D1008A09BA343D70
311
E054AB69E2A7EDB783CBD92537FAF4A44D1296AC2792729104B3276C276C951D0CF3CF3F1E6B017720A7B8505A5FF9589365979678C36F1BAF759EAF57C60F1FF5FE9DCF5F8E764FF25A2D06CF25117A8FED51884C13B2B750DB0E4F5E3D64124FCF11F0AD8F1CC3B3DA4B38ED22BF1CB2585EE6BFEBBA63FBFD44F9537B9B
311
37BDD6B358720F98A8125AED4349CCFEB0E135F19E208A04CA7E2B10711185D72E381F448036EF57C9F874E54A971CA37A639E986AC0226DC5AA00D5B14FEA9192234B3DE617814FC221C92F33F1D392F297731B567FD98FD91D989379AF567A65B8ADF177591DB90FBEA99BF4ED11B16E50A0AB1DBF1156D034BBE04D69D0
311
8F939D8E92BF525A1DDAFF80ECBC95D8F45D3FDD289FD23F7D8B452F8EBB34EC082DEEE68E18EDDF072060FAD2AB1504DD4879BF67099FC58F6E9DEFBF645D16334A3E9A127C6F1AF6132CF287E433B43A0EE93812B4AA0B194E03EE3FF91EF9C6ED0074A2F6EB18A96A7C9890B1FCDA1F2095E944DB911ED54C60DF16FB74
311
C8CE9BDC7C54C4F14078CF73C2FFF1F1BBCCD7CF64F71407EA1683DBC410D226627F66E509060D5C0AFD611DE681D509DB8DD12FB1265B03C6F5C55FF4C30BD94187FF692B4F152982502F193098A789526A038AB529A52BC0DC4FB6285CBAC10A8B8DB75DCD9BDABBB221E27D1F8DA9F5EE5926A1C8AA9BA9BC09239C6A7F
311
12914EA3B59EFF7AAEC3FFCCE56F1C5C2980AD072793527565E774F4631DB178CEEC691B1F367BEA0CF2907E1D6B854D527065979DDEF002D8B2ACEA7CE21AE297737EDE1D45B31233B73FEA35BCFDD0B09721FDBAF6432681F2FD10C3E9EFB246FD6E854B344ACC9D8A0EEF876A7314B49B6A499FC650B099D650DBFEC763
311
8ADFD245E2B7839DA5AC5F7D5623FC0ECEEC8653FC9B2BDD1AD4D00A566FBA7186DD3C9CD26512551637498CADB950FEC71ADB9A5524285DE328B8EC7EC75D2345AEC6A27C42AF6D9B92155315C80DBFCABBB7DA0FAE425C4FB896B15C9BFAC4FE67DF5A23D30C93DA4D8F36FB15D100050DA6062E22AEC5F4DAC4F6FEEF97
311
AE05DE63C6D38F9E068A20BC5E3B6BCD75320C5090924E7F93640A7735B1A43451C2D91EE62C6238B797349E59890AF3A520DF4A87095F3ABEC2E61F0593416CE46CDCBE0E00E2523FCCD04408588B5B6C9DB6459C786CE378770B54F51DA3A5E1DF2A3349BEAAC234A6CF8993B598B3B25B4B113E353A4D750FA753474943
311
0F3EBF2512E7EA3FD43C6AB9A1F765A58463B306721A15D224FAFE8C6F5E3432D57EE697DA0DD5A9D4866A8BCCAAA9DFF1F06047851408FEC060471D0E3EB86BFAF46E4B5E60311DC3E3CEA147C75CF971BE74689507154FF2D2E92F15CDB2B9182B11459FD8ACAC5A85F174BC94A7F4EE4C4F5CAFA7C02E37BF0BC77B7DCD
311
0C047BC316F562A01A441AFA7931CC84A28CB9F4AA367EB515778F29BFE61195FA671F4352E5E46E3A64773F1F76EE5EB36D7BCE9BCEAD837A4D77F8DB8C92AEEF6711920D7C7D0F76B0FD0EB7AB83724CD35BCA7D36DDDF5FBB7FF6F04A91F3E2BB3B8F1A43CD659639507FF6331C5F697BCC782AE57D757A27D97F1AB9E0
311
AEDB43F92F1B2AACDF5FEC8ADBAF9F814E2027003BA2F9E144B1938A7A04050AE5D953B82C45619165C813A10E76DD6906B3C16438064D14CDA713AEC420034613E1AC7241904A49FBF87409AFB1FCB9B72FE7933A87D8FBEDACECE4EDCF6A4FE9FB94D5DEB74FAB7CFEAE17EE965DF980DCCA2D04134994F9A2E94D2265DA
311
4FE6AA7B7AC15FACAC2B5ABBCD7DFF542C5314FDAB2E1B9D8B65220B8E2B638BE008E8DCA22678C820C5053664D15E89F2D735B51A84955E81A443545E9FF787BE0FA700A76D136C27DA179A7C6E8939E01BE756E19CB292798063D8B97F44E8A27BCF3A614FEB8BE974A718E86F7EC99B53CA35FA24F61F2B07266684623A
311
3D4CF073E511F3A10A8FDAFAF0078C577F4DF9D339FE7862E5FA47CF4344209E5BF76D783B1B48E152AD281B15FCB934DCDA49CEC5706B1EE8B460F435324A5CAD154725E21AB8044B75A557A79F6C807B9340AA3D92503E866F4274412926C8C504E4D5EF8C0E68DD0B028781A6B4054F11CF18941F101C57CCC796773ABC
311
8DED9CD91FE5788806C05E548895354AEAC96546D55B0E94A59F148D061F42AA398D822CDECA4CDE79E13469BDCC44FDC990F366BA5978C15F97ED80CBFD73B0CD9B8B83A4F6845BDFBFAF034019473FB9A63BD55D3A4A7284757071574029A4D016DCCBE95DD679EF3C4880BF169422F8C89B68A988D2B13793CAED4F74DE
311
7486C72DC94DF46B8E93D8E02EFCB1FF9B3BA10C8AE7F653DF94F4AF466CDDCEF5776687F7C4C14B63E4EED1719DC2EC482D7DBCC7AE518CDE3D5FF86D39000EC3673C0044E1D308BF05F74D1B5F033A7D1BE7F74BC55BBE3E4A20F920946CA0271EB17BD2B80E5660ACB8A29A79F5E4BBA49D4D945B6EEF4A7EFEAA65E555
311
5BBB57A7E15D2F83C69F30BBB978D2B39F1F26FC097424D39BB33CA3D87ABF64E307938B685BAD44F71556A30B7E712CA4FE600613C3E554B69ADE949A7CFE214DF1FFF05CB82151EC6FC31950239F94CF7AD39DC473F6EA356E5EC2C4EFA04383CEFE985A127484366FBEE3C0EC4FEA363E4F6632AE781392FD45D67B63FB
311
8DF70E82734F431FD3443172A0E30A83D60982D55FA6A2CF86DBA8382502ACC6CDEF3B907982EED1160E14863FA242F9757347E1544275CCDCF71ECD5F8621CBEA326B8BA884AD7F825781923E66971F04010D574C541D8427A438A37EEF8AF88240EED7362C953F5A81DE2D56109CDE2524EA0F5D2F87308C0C47BD97AD60
311
5878AB8589E17CA83930CB5E0DCCD75853D68B1AB136594926DE426C367428E9334AFAFF90ECE221BB5DC9E5BB53D2CDEF954EAA9CD814F0E5725F1965DD458E5F8487683AD86B9D0076BE3EE91EB1CECC5331A67A3F79D8B27587C12EC2A6A70474749F27B4C0BBAFB94B34189E88DC18964BE4121B9137FD516C7755356E
311
50D6714E31ACD222621EBBCD1CFF81D87479056A9DA0E0B8EA19D24CF937DA89F78E8650CCBDC110AAB6C4E46DCBFD0446BA9E2060E81F314AC2031E88135E5476AC0160EF5C0DD2EEF1B8B5CB2D198BE9A554A9093B5F7D7E4B5407DDFCA1D9C152FD97F55BFFFDFE802954DFEC8995B983E28AC92F1971E28F531DC407A1
311
280EB125F64A72E617EFB27DFBCEDCDA2D6F2BDADA36873EE46B9BE1782998C63DA7182BC383FB6FD15DA472B175D7E8B4FC88F38D6E07FEAA3FA3CBB8F6B449ECF14D2175E5C5CCA3A42ABF24CA6C9395AF74535F4DDB38CB84F56614B0FD32D7E19CA5CF988DB4449C40E23DF2B16772594554579094450F56F253CD25EA
311
7F77366FB1CFE79696C428BB64D5A41E986189427E5E4D7E2DAE3D5BB4972B3DC44EAABDDDD63A2264ECFA5C786EB0EE1FDC5BE34FA0F08376869FD1E61EA06CAE15191135445EE8F0394161C3266A596AA035572BB0C8876180D8B9C77D307DF9DCDF7365ABDA6F3A2366436457A4DFC1F259666569A9E4A79C817BDD5610
311
E5200FCE894A358EC72858D50EF67545DA81C6FACE3D457BAF70367E1E6BDD9A952FB4F56247F58F523B97E640246051A72F79BE42FFA0B3187F63097F91C48B868586F714B0EBD5A00A8412C1236E1298F60C72BE6C96B82B404CADAA304AE9F303176B14BA53FBC2D5E86377E35542019E24D97B96A49B2C0E5006E77959
311
54DEAF5DA58958839043C6C70BD3B1B33B6DC5C31316D8A6923F142E26F6711A2258AF977DDF1F970ECC4F1F2B434B96D81BEB6E89BF3BBB3C7C8CC80505070723D6D7D7D3C8CA27CA164A26024FED94B12A86031867241DA53D929636DA600F050BC40CE48B8BA03D69224720DEE2ED2127390BDF5E6EA64527BBD4C4C63F
311
A76BB801FEEC0E61218EC98A8A86CD8313781617877E66692839B9468CF4DB8E50A73986E558E309C0D6F676F921BE02F1185454DC75B111572FF9D27D85EA14C05AD7271225B391C4275659CA4A43759D0BA44639BE4C30A84DB7F67A41399FB95CBF923B1B1672ABC807C1590557FB18D811983FA97F5E609516D62281D3
311
8B1281F68FC75528C35E4CD7DF0F7DBB5E5DD69C414EBEA2F4A5B241B996BA77AE6C772E367408C633EA3E438B68563EA8BE7667F3A4C4FDEEA52ABD78A2820F443B7914A15F180018D231E64519C56A12F6CA7C8DAE18F06F6B769DBF92329EF6A5D18FBCE600F36BD8E8198DE5CDAA96181F3A756EBA5501CEE58F497EA4
311
F418A2B82565B9BCC611713C0B708CCA1F398B78C5F7D03B3437CC18F13061F55C7BEDADD5ACB1DB0E36D3CE47FF6EA1A563A57E9649EA5D14D1A50EAA457463381C073777EF1600607BAF6428A7DDC079D47A204EF1E1F1F0589FB054D45E02CE623B3823C317C601E589E22B1E88B448524B86A82828E32345EC18AE1721
311
4B42F8C41C6D428016D9BA31DDCB47572561E5A402E5BA4FCE55F78AF7268524AA04130F3A20BA5D1E9F9948EA48FC8F5314FDB35E21898198060034ACE5E3E2BBCA34092518F275190AF65F45867FF0900AA4B81F25427414C372BF51DC29AA855C5428EE1EEDD6B849AD60F6E73475C2D2523F8A2772C840A478DED18A8C
311
5C91B085F255DC4F54EA7AA8947354FD17ECF8FB3B4A0DE7B483CAF3A1165EE05BBA413E5C1FEF3DE1D6B8F2F3F3251C17D9FCAB48A9AAF63AC773A0E413BBC46A9ADF84A566FC920E4D8C52C9769EE3301CADEEEDD92B312E02E2A7E35B7F1E7D203FE5A7D75578B06E99D0E46FFADB8FDA17ED8880390DA29094202D6F64
311
5F76F6F96409CDA05495A96E84B04A00D1A6C6C81D7F3DE9376E828CCF144EE50E364ACCE7237EA0BFB5607ED1AC3CFE73794E5B61739D14DF1743441B1AC98F00ECEDE9E7301FA29755FBEFA68C91EF2B314CF510537EF1ABFC9A762496280B546F5EDAAF8A5B387D469FC9A878A92828C88608453ACEC6094DCA54111E7A
311
D5B2663DFE2DD151B7F123B9F4FEF8EE36AB125FD7AD52A59B1B765B3E3F73E3F73DEA93875004D2AFFE3CDE9493B87A9904DD052028949041A91DC0E1BA47BA714343FD5B25E0A6A09503AFC17C790058A836A324FE31D7893512E28230332F153181C1E018E1124EBE1BA262AA428A518237D1EA7275E48C5C561BD19ED6
311
912EDD8367DA0F31E40EEAE9683DA9257525AEA7B632B97119E17145A90231768A4F3B9120FF32E8319B015E3CBE26F1A754177D8185345817C096B0CE443A955D13AC15E1FB5DEEA0239EC32A3C92241A237B0B02FFCB4F93CF2B02570C8D192E2F2A68CEEB42F12E6F8CEEFF46C251E22B4341C56FB08CCE550E7A9D6F4D
311
6564B9EA52A83D5BF2C6E03FA19D2775E15A8A7ACF30A13C259EE7F5EF2AC3BA354F1500E1A07FC63FB4686E2F12EC69719F9ECF5FE3F35598DF2CE944008CE78F0911BA5BE5D0A34E0098FF038669C26030BA9B300303039852A8F6F496341737CA7E0D2E3AAA36DE0A70AA7D9CA0D54D9AD84B18A44C9E625475E1C97B93
311
BEBB38DCE7D227E67A2D00F531436136355F243D1FC0D712C5765754FA22FCFFAE97919161F46D6E61ACB37D83777B385889770B50765B127768443A5C4D3A4E35A3151111F146B7CA116F918A049F1C272F2CD7976C69A0068773451659A97E0F4A08FE604C3FF6CE7385DB19F4D3ABC8A0D80DA8A42096AC377DB49382B3
311
6E270B6FA7570188B4B7D1DDDDA82ACA487CCA5D38BD3BD039ADBAFA4ACFF27809239B722081E2EB9F145320553D183F28471C388BC8814E5045676767AB58A8E72D1CED2CA731379515D2E533E4CF0B39DFC625F97AC4836831A4DE330E87A8126FA17EBE583D614E71E22A8DBF2825599743E0640037303E8E1B1E8EA4E1
311
ABFA4F62907B5E4E0E5DCFDAB417C36C6848A2B8D15F1E505434C0707E16B1CFC2A1C36A42BBF55734F8F4301DDC2A5110CEE8C0747F69519265012A2174BF4E955ECD4FDE095A3ABC70536B7AD0B9D7892F81287D667C108703C9B66A221E9A0929D030008F77FF6F5D2108EF5706FC87A3069B976F7C9FC3239D13D283CD
311
EA83597461079FEEE049B0F392889898B7D87D31F8D60ED7B56B91823A8E4EDDB36C6172ECEE42BD42B12CD67994FA0F0DFAE9389356F4CD4425A4B8AA55CBF7ECD585C6A2C2316791E43D5C06841ADBB226A87FD61515FFBB0167B74E56BD7F3E90A57A97FEDCBDF483A0D6699A8C0849CAEB4947FAA90D8E332D9DEBD9F4
311
738C37DA0CAF9CF3DAA68BCB67C420459C7A64498D6E848E5CADE92BB6901F607AA331104A67F7CD650EE169B1DAE94D2C31C2F993632259B6957E246EFE4C5481107B07118607700040E5812A2A2A38DA0076875258C753F60E0F2662C748EDD5F3F3686B8FC3BD6FE631ECCAA1E8B1C1E565AD117E54893E79F4672E32F9
311
E46B2A183DFDCF3EECB4D4D077DBEA0DA254D256045109670050129E9B9B1A9E4A11344D61497A992778095151510C4BB7EF2009B63AA4360635312E4CF668B7E0D3D85A8688E2BD83B569439892ADB63461930D428E0DE42E4AC57CE48DA5CC1449530D8BD3D6A0F08DF20C8E8F570F2CFFFCEA286E30969B4654D498A58D
311
9DA782E19FE3F002181838925592C4A1EF0B332D88B61A92C644547BED490D3A42CFFAB70E36D961F694F6307F72FF15A1C79D5B1B5CEFD353D9E2B52566DEC8F8F09CB3E8359C0F68EBBB7898243E34E12A015B2685AB303C04D3A9E00671FF3DFF0A184E4A2ABEB2B666AF5B3A209C73D8EF29DCDB069C9F391EEE9DD0F7
311
4C7BCDE16F8F02E3B8816122BBEB50665775B600549D8BB33A54A6BF940C028118BC6878C79958D6784F9DEAA6E26748386FFAF8D0D0101E2847B6563F5D8DC1D78F787BE00E2C941AE12148D4A81599FE8F68D4DA5CDED75530ADE138240300EE13B0FC13A1687FED6774662C05A2B7DFB186732F0D7A93545D8B0A6390AE
311
5054D9CB582DA846D7A061B3358B45E2B52DDE63E114397EDB7E09233A579155D795BE76102CF277F4DF8B188C4F2879BEAE3C08347124BF9ED23B128259FE107D31E34A652F090B30B39E0D9AF917B76A2806135621A8A60681F16AF216514BBD02711585B5B1AE823F4B2D0369EA5B6BCB863072727FFC871CA6C9AB79A8
311
14D989057E9470A3D238BC87CBB4A0EA49AFE2B86F22E499793CAA9047080450166BDC357524561E258C77CB697F1ABB32562CF87C3B7AA12F911EF19FB3E5C02222E887D08202A60A17151F5E053A86B437771088B4FEE14D652C43E8D939995D34545E12E2FF93D4E366EAD25F10CB7DED141563C3D0C447AF06078A9113
311
5FD4B9611583CB4BF3BD167F2399CEAB0E0100F8FFC305F00F1711717173138B4B48C83022295DE657EFEDD97F238ECA80F528AFB4F8D67AD4E2594B9A3AA86D7487EFC313BA95745C186F0CDD84CC12DC9CB0424B42203D351FD9C0A3AF10CC7F388E0329279087386421F194F4A29464C1DEF7EF8BE515E4A199DCD5B909
311
342598D8FE6A231F71336248D5CEC5454455C7BE383B3BC7B260FED27F703FDC39A170F3827239102F59D4DEE7FEF82EAA1A5E4BA94DCC4CC44E7E2EDE20F24244E4454369D2E87C3F823F193FD4FD27E1C23984B01898D15ABC20711A8A558054951A6AE280096BA36CBA439603B7B0B4C45F248C14B2383B4B5CD8ECECE4
311
FF859AD4A6CA2326D020EF090F4041D28DB66E5256B56232CC52829DE8060BAE6BBF37D4B7469B822454FE93210A3E8D15E69FFCF01123222611C51C4FD0A041A0CFA2471CF6BE38D2B20FA4C3525B5B8B586759475CF80ADFE67A284AC24651E52B8E683D24C2622642F27E7C3C22783BCF63648BC398BD6CD0D9C97E7E7E
311
3EACB6126DB7A6C1FD9F1031302EE67ED96F22B77C7CA0239BB324207559B105E4693EB26EC46182A92C9C0DBD24F29B31C5C5AC1F84300E0E17CEEAC15F5736FA4A98971E2F1423BFCD68D4BBD5F86E74B40A369F39507C88FCDB35D2DD8DEBEA4AF999E23CF2816D204200DF6E611781B9884C1AC8888B4DE39732047295
311
9434323A5A36B22A8E1F721A270DF3BD65E4A31C11FF048AFB0D8B7B6881423793963A23CFCE935FC189ED36FAE35C46DA3574C979E4394BE52084F3081837BE033396D2EBD80F1F691B273F660D2B32FA27A33B1DE4ADA5F0FA4651511102DFA410DDA86E065272CA314D5249DF91B06BB92807B28EFD54F08F7B52525278
311
2CD276DD02E6B0319B13DF87B1F6361AD6B28FC0D711CF445429B9E5A433CD493051C49A9E03DDB1B147D880253514A5DED88009018620EE229101C041950E2D8AA8E1F5F5438E0C0C0C60EEDEE9E3E0C051948C69F84BB7B2A48A1F3C8EB9E6864687F4F4F6F6E2FA87608ADAF9C5E117B7C1A737E710769DA1D15ECE6A84
311
502AA855398712D5FB51BE92E4EF824969CE18278798AC303C2C7980DD2500ADF8FB1E6D6C2FAAFF9987178923334A244758BAA01A9A1B70FA5097D01E1CC2A58DAD0EC94CE6430AA9B0C10D75E3C6BAC670EFBADEE1607739CE0FC18A2587E3EC3058562014C64219C69BC269082D5C2F4A659278D585755912176D78A1B6
311
41719C2A394CED495A1AC5D583FD2F5EDD93308EA7EAE8A6DD396598BDBD3D4CFED62D18A5BDFDE0DD5C80D1A89BA62697B131AE7CE9A6594138582F1B37D68F1749AC7CB67A70695D48A4A056AC1FBD4E82358CEAE38F54B95A9016F9000F9879C0D9D131768635CA798895F27D6F1614F11F2838A83611AA51C9A3DDB539
311
D42979C29F10465655C17BEC3E2760B80DCBF609198C7B171A531905F3EC218D696025975E986C6B4C666666787271F202805577DD5A3EF0CAFAF91B62DC4B2DB4217A7606282F31D8DDBC290593BAA93EA6353AFA9939B877978481E15CFC9F2755CDC00C538F63A4BA3E80AE009B73CA0185687D339A507D165B74290D6E
311
E46D5C58148F020C3668ABE9EF2F7549170DC80DB41FFC1D678FF19AEB10C7133832B104B80F691B3138F97A92D26E551F1F110400D45AC71A9B9AC41A1A1B1DAEED0B0810638EFFB511D46B121C6FEA0F38CD00E03CFFEB9713FE1F9C263E4DDEC160D0497FA9A132BA608584057FB15380825DE6C7FC3C667EE947D488A0
311
9898D8E939C4953BF4EC9836344D2CC6B2971B2A21A572B06096F4982D2CC7232D46E8EA69DC83722E267754D777F97F96D5DA74E1E75178084D0E70F12AD33E5F71EF2AFA599B2BEBF60A5BE475F444F240CBFE8143C334E7ED9150FEEFEF7EB020C4DBED388DD1D6A167A76F3CBF119B578AE8CFA7736ACAFA4440A1C471
311
85638A0D2F3EB5BDDEFDA958FB13CE4AA4923D5BF840392D45544329525749734866684BF7F8D9D54D892E19BCA9F829A0F8BFCBEEA6CFDFC61D74EA1A645ED7A1FF241739F15694BD835B66FEC5677E40FE69BD3F91AE402F036537218A401CB0828604AD189E575015C6F3F6BBC8AC79CF6C70653847254B31551EFCBEB5
311
978B9DB85D58D0FA41A9DFE9C624834AA04949D24B5AE6D299E072D152D12097920F14AA92C31C3B97E28B6C2E6E9C23D63043ECBBC0A60FDF5BD0C33C127EA8A3308B8B6AFFEB28B4455BF6E7AF4FC6222728357EB8E46E85053E6A8843AB23295BF838ABDA94658FEF3F832F147046B4ACD6F7D48E8FCC9618582961C898
311
D1C7A253C91BFECBDA6BA18A1FCF70755DCCEE2222F41B76D23CA98D0CB3D95F0CF66D57FFF65E2A90F5DF40FC3187621E981BD0BC1D992787212688976B94A8F0C6EF646624B570B78E068826F87CE27041A95C9A4871FF65CC17FCB1639629AD6A9517000D63AC231F3D741CB8430777E7ECF80CE7A3F73C0F162F7E56AA
311
71F4DA80A33CD6ACEE78E2C11FAC03DAFCE929B106F8F6B3ED2DC71FF994BD9CEF4E9A94896EF1B6E2B7B4978168BCF0847A3D2A4F1B0500B926E634B174548E9FBAD27153FB5FC36799B1E6C7C38A94E1F9E996796D7B485E635D5287A2AE76FBD11A341DB3F8F810385BB7296391973DC6C37C452A9305AEBBE0CDB6C566
311
DB59FE60C8E94B1FD090354BF51439FFD1B48D725228FFA88C84F686F547107A7A235665A4593B7C34D748C1AC8D56DD5DA861EEFBADDECBBD65117E65851F90351AEB65F0EFCFF4BCFEF24CB7A5879699FAC437A7AF9099186CF006BB923A59E37D7A36A29FD8D2CBB914A5E9D0A8FD212FBF796AE9A67958FF1D5D8B85F7
311
8F96219D4714EB919929241B6C018AAE0C02069F8D919961EC5DDFBFB7573E3AC8E08BFB7C8534BE6DE045B3CD63DBD71F7638BA2309CAE398EA3A7D8F98BBBC7AEB367EFA5CFA27A9F8F2F52FE878058E6209C026453F8E7E8A237DFC389E9590F6059B397CFD65183BBF936E86896612A5B5FEE49DAC8455D026218AFEBE
311
C12B3523A45B57B82C9C97E02ACFA1184DB18E48CF615DBF39C3CC6F0B4AE6BBEEA2E39D944E290302FA3DE33FA7E40296E2EF7BF1CD855BBECFAD0FD622BEE9746FC4FDFDE545AE6E3BC234CADF83A0FB76DFB145BF3828AE3436368AC24989454F8FF70A177672C711CAA1A76107218CF948CA01F873520E7A2B118EBB16
311
1ABAD432932029628B6761590C98AB590C8C8C79798CE9F715BA696E839E9131A4BB68BE923F1747FBFF165331FFDD4D05997ACD168F12CA75348DAC04C7F509FE83898A8B421181AF492861CE81E4A2DD0A30850CFA95E05F097FF70F9E777310D584A75BA7018922E271DAB1D785671157685B7D383D3E074DDB4F1E44EF
311
04B07BAAC75A062077C54B9752C738C9D804D402E02851F3F89605AF189738C18C021D2139EAF72513824E10DDD3047BACC8521ED7E98B257D1166903B1B08FA6F918FD7E162913FEC7D0EF4787E29C35FBA8C6E2C9C20E9AB30AE42CA2A01A090E7D010C1B5BF9CEE2A304BF3A987FB40D836979B79E18D70F257DA61E808
311
472DD85B82761825779D6B90CAEB0F23360C6F80A7D7D77545E95B3DFF0CF96A827F9B5BCECD2C9698718417EF80FEEDEE938AFF55859D0D540B7FE09435583A6F04874A0C7E8CF234DF4879722000167F5872CEC6BF3EF7E5A8CC8121E6A359227C8A29C95212F9F735BC72A887D56B8F309FC525BFB4FD767AAEC4AEFF24
311
9CFBBD2DE1AB9969A6155C7D8DABC307E47324C1F916C7BCFF40ABA5644E9FFB9238D19ADADA49D9610F01ABBA57E4DFCBDCCBB2B93C8953206C91DE01B0E2651A6D6C31721915B31F7B7CBCE55466F6D70402788FA91D73BE4ADCBA99A35F17D6B83383704917D6833F0FA3CD45C926ADB8BC17999A4A0AFBCE2541F7B8CF
311
4C2F5FBA611B3E626D64407CB32C122DFF4EF8674D6EDBB86C8F7C6A16D50FA685E2CCA34F8F7D1D8265BB0042E9D7F1F666F7BE5FAA5184DF58E12122A42EF02F461B3F369AC746F96528AD208512AB56844CF75B97F352DF7995024FB02855385854F3798670D01CAC771AC3E1889EC25F61A20C1F8CAB46898817F9C47E
311
2CDA1F286BF2F358298709FE567C91133E2638C8B53975E753EA8BFD3578B5F7186B7BF084EBA3F77BAC3132A5779902EC22AF2D2E79F42D324E083386DAEE9810D1B44A5DAA54513C7A71E52A4AB9257D975B621308FE4D2141CC3DCFE946C154A3C1DFCCA7629EC69ACFA831634ADDA93C0388D2A9A2DDAFCF957C6995BC
311
E7FBB6DC4EBAE79E63EB08E9A25F52F67076F7093CA545CA3053B5BF576DEAD4E0017143C5F759F32B2D6F145B52B67B48909B7C7FCA6586EE385A2189C16932CB6DDFD9152AE317C430492A578ED27B72D85D40C7C93C097939E1B50F4D67F05334FE9DC362C30B7FF561B95259138ECFD9274C8D695C31B14D4EAA9F3D7F
311
A8DDF652F8C5DEFA23284C799B7D94416DEE81E05A866302DC70192A5368EA65E1CED8BF107A1E2D3119A71E85DC1A7B0C1E93274CE04DD0F2ABC8AC7C987FDB002B6F81757B43502EF7A0D92E416494FAEEA4C9C090CD9557AA4D532F4996A272B94355C5A0E4974EEA9627476F30809B94D8D8D860062E02204643BEC7D0
311
438AF800FC7E2B26955D595421E83C69E1A07E0E3122285835F014AD538188CF9737CE76D464A353FA55A001AB2526B84E985083693BC76FE211CA1D000679C889E3C009832C87E1AC2EDD05C302557422DF0800E316FCAC86978A371F025A6C7DAA9F333E7BD160403A1A06EA75AA9888FF01504B0304140006080800ED7A
311
834B28BB58AF800100009E0500003D00000043453043443444342D443530382D343031332D384344372D4439463041393742433446462F536368656D61732F436F6D6D6F6E536368656D612E786D6CBD544D4FC23018BEFB2B96DE15493C78601010A34B880709DEDFB52FD0D8B54BD70DF6EFED3AC0B12E6442E2716BFB3C
311
EFF3D18E26FB440405EA8C2B1992E1C323095052C5B8DC842437EBFB673219DF8DA659866649B798C078B48AE6410122242F2A4994AC7F93815DF85C049C8564CA0A901499DD886B2EB9B1E02448F358701A9235880C49A0119892A20C89D1B9FD768815CAD268CB5E0355B40B1E47F3E37A2020464BED06AA57CE8FCC20C3
311
C3446D46761A2632A8C1283D07031EFF2AE7CCB1BFEEE916E406DFAC8E36FFD99A9D60A6944090EEDC3B670C7DC13DE86B6B2C5C240D6E503BB85ACD579D513F1B9F9A69DC9CC22AFA80C426D40AF0B21EA168559156B6276F0F726A6BFF04DCD513A87A62CAD41FB24FCB2858B3952E3D852084DA25B9303C15687973CC8E
311
8AAE11DF2836C38C6A9E765E8C1BA1BFB1DC29CDFE518C8B5A7655A4ED7E77291ABEB80DBD82EC866ADE1B8D05AF9E35CF09D7A061F38A986D9EC412B8F0F65E5D81534D9B231D1E5A8FE577A241F3A5FD01504B0304140006080800ED7A834B2CCEBD668A040000E01200003E00000043453043443444342D443530382D34
311
3031332D384344372D4439463041393742433446462F536368656D61732F47656E65726963536368656D612E786D6CD5586D6FDB380CFE7EBF42F0F7A649B70E1B90744856B4970F450FCD7A5F05459613EDE4174872DADCAF3F522F8ED3B88D2F1D06AC4050DBA2493EE4438AF2F8EB73AEC8466823CB62928C06C3848882
311
97A92C5693A4B6D9D9E7E4EBD51FE3A931C22EF85AE4EC6AFC38BF261BA626C9AD288496DC3F4FCEAFC63366845F7A10452AF41DB320C0D44EC26EAB20918735565582695670811A6A49643A49A6E9069FA4604A64B29016DC4B48552F95E4932463CA888468C1D2B250DB4962750DF7CE273069CE8363F1FF4EDB00E0A219
311
99574AE4A2B00C353B93F3BD4777B8A61ED8F604ABFEDD79CE56A2B7BDFBDBC50996E0ADDE16FED26223C5D30956C29BDF4A55EA686E5E58B112DA45CE67F76F4FA27EFA3FB672FD7372FC388FAECDCA5209E693CAD167BADCD272F943701B3812F8A3D852008B1D2E32DB927B2F833C6EA95879925356D254582695095A3C
311
E982924720BE5774A3CB9CDCDB350427D2DF20DA1B5532EBE2D5D6288D75D4F7E4FD9890A0EF8E3D93EBB8F8BA4758158EF6FB90A6F9520281C93DE7AAC6D24607DA296BB96018123F821A7D6A5C5884050C475DA4865442732C8B95684A50165CBB3A32F25F783A4A480ED59AD7F924B968AEA50131F46303223E6A397B0E
311
52976030DC1DCA81D7E7C1EDEEA42C19FF27635C505E2BD5198A599020DF50A2330FCB3AAF28CB0124108429553EF1B228802E2265D8F7CC2401042B155BCC7070F1E5C55F13B4A9577362CCCE46C32174E010C3C378C44841A4BDA00FE3A12006CE11EE6AEC59894D3526DDE1CD59D503ECC324017F8061B7F162162FA62E
311
DD81AE3308617770796DCBDAD2B2625C5AE8A63DE20B2C8AA5E95E76E5730823955956E33E705425A2187C185D36489A1B44D3DCEC2172F6BA2105C3546287A7194B2331768EBBE64F6E70A9930ABE0ADEA89E9E2C38523B810287AD67A54A039C1606EAFE68F8304610BB9093DBDDABC0B2AE4E290DCDA15376D7E39F72B5
311
56F0B32EAB5D3D498B4C41ABADEC3A1434C422D87E8025A84BDCB2B1417ED750FAE4DA8976863974C577C7F902D3F156AD354DEA3540DE6BEAE2BEA52F7A2EB4CA43802ECE5BF2CE2EDC9347179FFB023CE412E60BE16DA0BE29B374988A553F561DC04615DD35F7D2C8979F60E5955CE93DF29DED8AFA1EE6642D53418086
311
C03C47C377910F75F7E8F5EF665F70B60FFB22AEDF897D119E8423C773E819A3C1E55E550599EE6EDCA34D0C86FD72057DF2CD46F16A470682471C164E4346D5306BF12D7D12D82CFF673D41636C347443FEB51B50D72EA171A8E4A58623A4A16E0FA2B8B10A0D23268D87C33896EE8FB73305A74BF224EDBADFA0BD674AB3
311
54D63DB7BD5D83426761C077DE767728235446A552754EB93B755891C3C4CC6CADE37CF0E912A7BB38DBA010F9DE1282EDF470CA69A9CDA482E334C4A6EA4107987980B17E72F31730EBF88BBD39E7C629F56797A3C0009C2C5AE7951D9A05A02773440F02EEB4DE396A3B6A570C72CCFBCD823B0B8ED3F1D5CEDDFED772FA
311
70236C83FB7D86C385D570B87107535572A60A96035F8F7C6A7192F13007246BBE0521855E6AC46F3E27689CEE7D186A6FD679D98CDCAD13333E04EBE7ED6F55FF01504B0304140006080800ED7A834B6180134D5F0100006B0300004500000043453043443444342D443530382D343031332D384344372D44394630413937
311
42433446462F536368656D61732F52656E6465724D6174657269616C536368656D612E786D6CA5934D6FC2300C86EFFB1551EEE343DBA41D1A103009551ADAD40EAE28A4A68D9426284961FCFBE5A340113B2071746D3F765EBF4DC6BFB5407BD0862B49F0B037C0082453059725C18DDD3EBFE3F1E829991803366715D474
311
942CD30FB4A782E00C64017A412D684E454CE3FE28995203B162A6EA5AC94B66997D225E109CD63B0135484BAD1B3C07E9080CA35DB3119C11BCA5C200461A68A1A438126C75E3E230D40FF81FB3F03C91D1E3A3A0AF79FE28E25BC39EC3E17E4C2A2D94A0833A51AF55BCCA7D88572FCBAC529C4140B020FC3AAFA886621D
311
CED7EAD7664CC86024E806DC297DA1BB393E4156543457A4537DB8817349A70F8ACBF09B3EEE2CB2F33E91B65D60786E4E3B39B77E3FEEEF5650424525DA657FB8B46BE6BF064646F0A0F7327C0BC1BC1B4CBBC1C419FA3CCB23500007872A2580CAAE5461865565294E4EDB4617B62FF579DF9A5B2F54E834076A597573A0
311
20912FED777F9B3F504B0304140006080800ED7A834B5826D8C251000000570000004700000043453043443444342D443530382D343031332D384344372D4439463041393742433446462F4173736574446174612F41737365745461626C654F66436F6E74656E74732E62696E536160607076367373343330D535B43033D3
311
35717671D275323475D6B5303172753473B1343630341002AACB4D2C492DCA4CCC492C28484D2C4ACC4B4E050A82012F90744FCD03CA26072767A4E6260200504B0304140006080800ED7A834BF865834058000000680000004500000043453043443444342D443530382D343031332D384344372D44394630413937424334
311
46462F4173736574446174612F53747265616D56657273696F6E5461626C652E696E66558CBD0A80300C06F73E4B117FB66E451741D041DC5BF98480A492E4FDD18EAEC7DD4555D89EF28DF51A0B1BD8340C4DE7DD848B988C0ACF0649566493F2408C508DDEBB99D5129FF8F1AF8CF5B9503E20FAE5A16B5AF702504B0304
311
140006080800ED7A834BFBADDE8038010000A20400003600000043453043443444342D443530382D343031332D384344372D4439463041393742433446462F4173736574446174612F636E782E786D6CCD943F4FC33010C5BF4A64893176928A3FAA1C5708964E205131B05D9D4BB1EAD8917D41F0EDB1DB0CA022A60E5D4F
311
BFBB7B7EF23BB9FA1C6CF181211AEF5A56F38A15E8B4EF8CDBB56CA2BEBC63C54AC9E03DFDC058E160C096E532537217FC34CEA50E7B986CAE5AE3F673F13E46A40D6C2D3EF50FDE113A8AACD016626C59D4EF380087897C8771CF3B20E0350F18FD1434A64964069C27E98040D831D554F56D593765B5D8D4D7CB66B16C6E
311
DEA4C8A4925BEFEDCC9BB42CF8F1AAA9F4712F5395141950720A66A6F26B98FA4B25DF1A274522958C14922B73077D8DA903C6D11A0D94CC135E1352992084418A23ACA4C82EFCF2E2117BE34C6E592769403E3C278118C8E0057AF29FDAF37BB37691C069BC64474E359EDF8797C32F7A3DC6F2909BCB4BCBA9466E5C7F86
311
AC88C33949D1C9D7457D03504B0304140006080800ED7A834B22D0E17EE7000000600100006700000043453043443444342D443530382D343031332D384344372D4439463041393742433446462F5265736F75726365732F43433646413630352D313836362D344344422D423135432D3834324541364439333031302F7468
311
756D626E61696C2F302F636E782E786D6C4D90CD6EC4200C845F25B2D46342C8AA3F5A11F6257AEAA5A2C49BA2251881A9DAB72FB41CF634D6F893E51975F93EFCF085293B0A2BC869860183A5CD857D85C2D7F105868B568988EF3018823970856683567BA212BBB5E1D514DF5CEFC2AD9B3B064CCEBEC7B0C360BDC97985
311
6C3FF13093294C1BE6DBB41936939C12662AC9623DC0EEC07EC026348C1BE86596CFA35CC6F9F42A1FCFCBE9BC3CBD29D148AD3E887CE75D604C141F96D9521D43FD6756A2015A95E43AD54280BE7B4E89BAD42A73AAF93BC43FB1422646EFACE15A9320CBC86385D01C4AFCC35A8996B7CA5F19555B37FA17504B03041400
311
06080800ED7A834BA233C2345D000000800000006500000043453043443444342D443530382D343031332D384344372D4439463041393742433446462F5265736F75726365732F43433646413630352D313836362D344344422D423135432D3834324541364439333031302F7468756D626E61696C2F636E782E786D6C4D8B
311
490E80201004BF42E6EE76F3C0F216234B883063108CCF170C074F95AE5473F5C4C06E932E4F28601967600677D21E9D8092EDB002539227A2FCCB80E1168D80A6417297A89C5D6963B7129A0D1E8F2EE73AA7B62BBEB8B27DE50B504B0304140006080800ED7A834BBE89762363000000880000005B000000434530434434
311
44342D443530382D343031332D384344372D4439463041393742433446462F5265736F75726365732F43433646413630352D313836362D344344422D423135432D3834324541364439333031302F636E782E786D6C4DCC3B0E80201004D0AB90EDFD75167CCE820A4A845D83603CBE602CAC26799919AEEEE0D965E2E90805
311
0C6D0FCCE04C8BC355404EB6198129C92351FAD580A10E464065907C8D948F8F166375F655BDC3FDC3B4E530A176BE7057BDC43B2A593FE403504B0304140006080800ED7A834B0659812A7E000000A30000003600000043453043443444342D443530382D343031332D384344372D4439463041393742433446462F526573
311
6F75726365732F636E782E786D6C4D8CD10E822018465F85FDF718A432DA00A758EFE1121D0BA191B41E3F685E74F56D67DF39A2FB6C0EBD4D7CD9E025D08A0032FE1E66EB5709695F3007D4291143D8FF6E80FCB419090583126B0CE979A0D92C5372853AEB1F07D49ADD7A465A4C3963B8D1E38007DA6ACC9BF3B567E3A5
311
269464E354943CBF5EDE92575F504B0304140006080800ED7A834BCACF65790B010000550300003400000043453043443444342D443530382D343031332D384344372D4439463041393742433446462F536368656D61732F636E782E786D6CCD933B4F04211485FFCA84C4726066363EB261D8C2C2CA46ADEC10EEAE64813B
311
E161F4DF0B23C56E62A7C57670F2E5E69C0397EF3E9DED3E2044837E26231D48075EA136FE30939CF6FD1DE9768207C4748291CE4B0733A93211FC10302F4DD2B097D956D51A7F6CE23D3A87FE59BD8393A45356C63893B85EA9CC0935C423D532493AD200117350502624E3A04D500164024DC4348CB7FD38F5C3E665BCDE
311
4E9BED74F3CA5925057F43B48D373E41C0E56A1A1496A32F8606CE2A20780EA651350511A7EE68E983B342081E53282D34327D2D8594CB628D92A994C556F087119CD5B067911FC04330EA52339FD9FBB7D04FE03584C7F252C1487BA9D97F73F9B70AD8BA01E51BD48510DF504B0304140006080800ED7A834BE3603EBE7A
311
000000C20000002C00000043453043443444342D443530382D343031332D384344372D4439463041393742433446462F636E782E786D6C6DCD410EC2201085E1AB90D9DBEACE05D09878023D01A1D34A8419C380F1F82DA68B9AB8FDFEC93C3D7C52546FCC12980C9CBA232824CF63A0D9402DD3E10C6AB03A3397DD192872
311
090D3406ABE7CCF5B5D18893ABB1690CF4DCF02282E5EA8A5BB96FFE536F285CB347F95BEFFE81C9ED5AFF9D5B1FB575BB00504B0304140006080800ED7A834BA54434367E000000A300000007000000636E782E786D6C4D8CD10AC22018465F45FE7BCB913107EA28CDF718CD0DC969D81C7BFC3476D1D50787EF1CDEEF8B
311
479B4D1F178380E64400D9F08CA30BB380BC4E9801EA254F31AE7F37406158AC808A41F239C5FC3ED068A721FB4ABD0BAF03AA07519A6A8AF595304C4973C14CE916EBCE905BD7DE1535A618E7AA94F9F5CAD6BCFC02504B0304140006080800ED7A834BCA1DF9C9A900000073010000130000005B436F6E74656E745F5479
311
7065735D2E786D6CA590410EC2300C04BF12E5DEBA70400835E500FC800F84E0B411AD13252E2ABF27A55740421CEDDDD9B55CEFA7A117778CC979527255565220197F75D42A39B22DB652EC9BFAFC089844F65252B2630E3B80643A1C742A7D40CA8AF571D09CC7D842D0E6A65B8475556DC07862242E78CE904D7D44ABC7
311
9EC569CAEBA537E3521C16DF5CA5A40EA17746733E0B6615DE7217475F386F18B9481C510F1F021CD9FF027EA0E1F5C4E609504B0304140006080800ED7A834B3DEE336E64000000790000001B0000006175746F6465736B2D64657369676E2D7061636B6167652E786D6C35CBC10E83200C00D05F21DCA56CA76D41FC9606
311
2B120735B69A7DBE268BB7777961F8D5AF396893C2ADB70FE7ADA196782C2DF776D7A97B5933C430F15651E5469C55D70F80A4992A3ADC954792C525AE70A1E4D6AD9816CC044FEFDF01FE3FDE907802504B0304140006080800ED7A834B786C737AF9000000960100003700000043453043443444342D443530382D343031
311
332D384344372D4439463041393742433446462F4173736574446174612F636F72652E786D6C8550CB6E833010FC15B477838D093491711452FEA0A7DE2CE3502BC1467E54FDFCDA814AEDA9A75DCDCECCEE0E3B7F2D8FE25339AFADE98194180A65A49DB4997B88E1865EA03873E6AC0DBF685018B1A81E320C9CCDCEC675
311
87A43541998C1A3BA91D14DEAB00857CA4A6072F3FD4224A114362F87BB90A7917B32A49B9F1388B514FBB544FC94DDFB472C0DBA1A1C3F5D8A06E6C46D4503CA04B5737E8409B91E06B3B527C6455167316F4F2B35D3A25829A80D7987488D408D3377238D5F454B7EFACCA4CCE7C70E9E77D69FE0EF8255FFD2A8260D536
311
FDE31AD7E97FD7A84DA0F5EEBA293C70928E7C0E38AB724AA93C234C3527CABF01504B0304140006080800ED7A834B8AAF5771F30000008E0100006800000043453043443444342D443530382D343031332D384344372D4439463041393742433446462F5265736F75726365732F43433646413630352D313836362D344344
311
422D423135432D3834324541364439333031302F7468756D626E61696C2F302F636F72652E786D6C8550CB6EC32010FC156BEFD83C9CB88930511DF90F7AEA0D01715162B00C54FDFC42EC4AEDA9A75DCDCECCEE0EBF7CCD8FEAD3ACC17AD703A93154C629AFAD9B7A48F1865EA0BA08BE7A1F7FD1A07272363D1418049F56
311
9F961D52DE45E30AEABC363B284330112AF5C84D0F417D9859D632C5CC08F77A91EA2E2753937AE3099E92D5BBD4EAEC666FD6AC208E43CB86EBA945DDD88EA8657840AF1D6DD181B523C1D7E3C8F08937452C78B4F3CF76B51A198D064131E910A108B33772385376A6C777DE14A6E021AEF9E77D69F90E04E6CD86FE714B
311
8BFEDF2D591719DDDD36450041F271CF81E04D4927976774B99624C537504B0304140006080800ED7A834B18A24278FA000000960100006600000043453043443444342D443530382D343031332D384344372D4439463041393742433446462F5265736F75726365732F43433646413630352D313836362D344344422D4231
311
35432D3834324541364439333031302F7468756D626E61696C2F636F72652E786D6C8550CB6E833010FC15B47703C6843491715422FEA0A7DE5CDB2156C0467E54FDFCDA814AEDA9A75DCDCECCEE0EBD7C2D73F1A99CD7D6F480CB1A0A658495DA4C3DC470432F505C1875D6865F34280C5F540F1906462767E3BA43C29AA0
311
4C468D956A07B9F72A4021E6D4F4E0C55D2DBCE43124867F942B170F3EA912971B8FD118B5DCA55A26377DD3CA01EB86960CD7538B8E633BA296D4037A3D362D3A9076C4F5B51B497DA25516331AF4F2B35D38C58392C09A1A1F116E504DDEF0E1DC9073D3BDD32A3319F5C1A59FF7A5F93B60E11E970FC3F54CAB6DFAC735
311
AEF27FD7A84D20CDEEBA293C309C8E7C0E18AD724AA93C234C3527CABE01504B0304140006080800ED7A834B6A9B607A0D010000B10100005C00000043453043443444342D443530382D343031332D384344372D4439463041393742433446462F5265736F75726365732F43433646413630352D313836362D344344422D42
311
3135432D3834324541364439333031302F636F72652E786D6C8590CB6EC32014447FC5628FCDCBE4214C643BEE1774D51DB24982124364A0EAE71762576A575D5D34CC70B8234E5FF3A3F8D48B37CE3600970814DA8E6E32F6DA80182E700F8A93148B73E1970D1456CDBA015906525C17179F9B343A1BB4CDAA7593DE44E5
311
BD0EA0181FE9D0003FDEF4AC4A154372F87BF954E35D5D7589CBD527458C66DAA2664AAF998BD10B90BC63B4EB0F0CEE063640465107DB1D61B0A66CC0A8E703450751E5B014C1CC3FF471D12AE8094882F00E6202117DC7F591D023E11FA2CA4E297C58D2CE1B346F0764DFF3B796A31AE23DE790F5E70E76B8EEE19E91A1
311
E5E7034518896A0DFE01C6E7F43F301A1B28D9806BC20389D3FF5F175254B9C0345EEDA699CB96DF504B0304140006080800ED7A834BEC301427FA000000960100003700000043453043443444342D443530382D343031332D384344372D4439463041393742433446462F5265736F75726365732F636F72652E786D6C8550
311
CB6EC23010FC9568EF4E623B84821CA382F203554FBD59CE0216C4467E54FDFCDA2495DA534FBB9A9D99DD1D71F89AEFD527FA609C1D80D62D5468B59B8CBD0C90E299BC407590C23B177FD1A0B26AC6010A0C525CBC4B8F15D2CE46B405B56EC215542160844ADF733340D0579C55AD52CC8C70AB1F4ADFD4056B5A2F3C29
311
5232D32A3553763367831E647FECF8F1B4EBC876EC46D2F1F6485EB7AC231BDE8DB43DF5236F77A2296229A2997FB66B8F2AE20492B5744B28232D7FA79B3DE37BD67F88A630A508D1E79FD7A5E53B906F185CF21A836896E91FD7F498FE774DC646CE56D7451140D27CE47320455352CAE51961AE2551F90D504B03041400
311
06080800ED7A834B865334AFF7000000940100003500000043453043443444342D443530382D343031332D384344372D4439463041393742433446462F536368656D61732F636F72652E786D6C8550CB6E833010FC15B477831F049AC8382A115FD09E7AB38C43AC041B61BBEAE7D70E546A4F3DED6A76667677F8F96B7E14
311
9F7AF5C6D90E4889A1D056B9D1D8A98318AEE8058AB3E0AB73E1170D0A2B67DD418641F0697571D921E56CD036A3D68D7A07A5F73A40A11EA9E9C0AB9B9E652963480C7F2F17A9EE72D22529379EE0319A71979A31B999ABD12B88A6AF597F39D6A81DEA01D50CF7E8B5A5353AB07A20F8D20C0C1F7995C5820733FF6C57AB
311
96418F2028262D221461F64E0E27CA4EB4F9E055660AEEC39A7EDE97E6EF40BC3DEFF4BCDA667F3CE332FEEF198D0D8CEE9E9BC28320E9C4E740F02A6794CA33C054739EE21B504B0304140006080800ED7A834B8AC5E6F302010000D70100002D00000043453043443444342D443530382D343031332D384344372D443946
311
3041393742433446462F636F72652E786D6C95914D52C4201085AF92EA3D09E4C7CC4C11A634312770E50E434FA46602A9402C8F2F9858EA4E57508FEF75F3BAF9F97DBA256FB8386D4D032CA590A019ACD2666C60F5177280E42CF862ADFF814162E4840D4419041F17BBCEBB3458E3D144D55885BB289D430FC9700B9706
311
DCF08A934CE5EA03E1AEE92C87AB1C3165E9C609EEF5F4651D16941E15889CB29AB09CD0E28955A7BC38E577CF3C8BA4E0AB36BEC8F76638BDA04AECEC43241015CFB6D740AD5AED8C56E18FFAA27101D13ED2B62BBB9274153D9092B2821CDAAE26DDB1A7F7C7FAA12DFB3E140966C19D5FC264F62271067FB56FC65FC9D6
311
59FD33D9E67020D877A82C8E59F0EC7307E18C2B111F504B0304140006080800ED7A834BE8EBEFF507010000B201000008000000636F72652E786D6C8D50C16E842014FC15F2EE2888ABDD0DB2A91BFFA0A7DEA8B02E590523B869FFBEB0DAA4BDF5F4C8CCBC37C3F0F3E734A2875EBC71B6019A1140DAF64E193B34B0862B
311
7E0174167C712EFC9201B272D20D2418041F16B7CE3BD43B1BB44DA8754AEFA0F45E0740FD181F0DF8FEA62799C9354485BF67B3ECEF72D019CD369DE0C14C3FABFDA265D00A4441688D6981097BA38753C14E45F5CEF3A4147C5D8DDAAD8C8AEEE66AF402A26A4BD65E8E25AEBBB2C325232D7EAD8B121F58D95172A93A46
311
8E3C4FCB82FBB0C43FEF4762CE80BC7C245F9E6F94E01FCE8DBB208652C8D9F10B04E17922FE845E67F58FD0C60656EC07B70D0F82C6404F221AA706E378D61B676A5B7C03504B01021400140006080800ED7A834B474E0CBCDB000000200100004F000000000000000000000000000000000043453043443444342D443530
311
382D343031332D384344372D4439463041393742433446462F4173736574446174612F446566696E6974696F6E4974657261746F7250726F706572746965732E62696E504B01021400140006080800ED7A834B697F1EB8EC0000003002000045000000000000000000000000004801000043453043443444342D443530382D
311
343031332D384344372D4439463041393742433446462F4173736574446174612F496E7374616E636550726F706572746965732E62696E504B01021400140006080800ED7A834B88E57597CD3F0000904100006B000000000000000000000000009702000043453043443444342D443530382D343031332D384344372D4439
311
463041393742433446462F5265736F75726365732F43433646413630352D313836362D344344422D423135432D3834324541364439333031302F7468756D626E61696C2F302F67656E657269635F706E67504B01021400140006080800ED7A834B28BB58AF800100009E0500003D00000000000000000000000000ED420000
311
43453043443444342D443530382D343031332D384344372D4439463041393742433446462F536368656D61732F436F6D6D6F6E536368656D612E786D6C504B01021400140006080800ED7A834B2CCEBD668A040000E01200003E00000000000000000000000000C844000043453043443444342D443530382D343031332D38
311
4344372D4439463041393742433446462F536368656D61732F47656E65726963536368656D612E786D6C504B01021400140006080800ED7A834B6180134D5F0100006B0300004500000000000000000000000000AE49000043453043443444342D443530382D343031332D384344372D4439463041393742433446462F5363
311
68656D61732F52656E6465724D6174657269616C536368656D612E786D6C504B01021400140006080800ED7A834B5826D8C251000000570000004700000000000000000000000000704B000043453043443444342D443530382D343031332D384344372D4439463041393742433446462F4173736574446174612F41737365
311
745461626C654F66436F6E74656E74732E62696E504B01021400140006080800ED7A834BF865834058000000680000004500000000000000000000000000264C000043453043443444342D443530382D343031332D384344372D4439463041393742433446462F4173736574446174612F53747265616D56657273696F6E54
311
61626C652E696E66504B01021400140006080800ED7A834BFBADDE8038010000A20400003600000000000000000000000000E14C000043453043443444342D443530382D343031332D384344372D4439463041393742433446462F4173736574446174612F636E782E786D6C504B01021400140006080800ED7A834B22D0E1
311
7EE70000006001000067000000000000000000000000006D4E000043453043443444342D443530382D343031332D384344372D4439463041393742433446462F5265736F75726365732F43433646413630352D313836362D344344422D423135432D3834324541364439333031302F7468756D626E61696C2F302F636E782E
311
786D6C504B01021400140006080800ED7A834BA233C2345D000000800000006500000000000000000000000000D94F000043453043443444342D443530382D343031332D384344372D4439463041393742433446462F5265736F75726365732F43433646413630352D313836362D344344422D423135432D38343245413644
311
39333031302F7468756D626E61696C2F636E782E786D6C504B01021400140006080800ED7A834BBE89762363000000880000005B00000000000000000000000000B950000043453043443444342D443530382D343031332D384344372D4439463041393742433446462F5265736F75726365732F43433646413630352D3138
311
36362D344344422D423135432D3834324541364439333031302F636E782E786D6C504B01021400140006080800ED7A834B0659812A7E000000A300000036000000000000000000000000009551000043453043443444342D443530382D343031332D384344372D4439463041393742433446462F5265736F75726365732F63
311
6E782E786D6C504B01021400140006080800ED7A834BCACF65790B0100005503000034000000000000000000000000006752000043453043443444342D443530382D343031332D384344372D4439463041393742433446462F536368656D61732F636E782E786D6C504B01021400140006080800ED7A834BE3603EBE7A0000
311
00C20000002C00000000000000000000000000C453000043453043443444342D443530382D343031332D384344372D4439463041393742433446462F636E782E786D6C504B01021400140006080800ED7A834BA54434367E000000A3000000070000000000000000000000000088540000636E782E786D6C504B0102140014
311
0006080800ED7A834BCA1DF9C9A90000007301000013000000000000000000000000002B5500005B436F6E74656E745F54797065735D2E786D6C504B01021400140006080800ED7A834B3DEE336E64000000790000001B00000000000000000000000000055600006175746F6465736B2D64657369676E2D7061636B616765
311
2E786D6C504B01021400140006080800ED7A834B786C737AF9000000960100003700000000000000000000000000A256000043453043443444342D443530382D343031332D384344372D4439463041393742433446462F4173736574446174612F636F72652E786D6C504B01021400140006080800ED7A834B8AAF5771F300
311
00008E0100006800000000000000000000000000F057000043453043443444342D443530382D343031332D384344372D4439463041393742433446462F5265736F75726365732F43433646413630352D313836362D344344422D423135432D3834324541364439333031302F7468756D626E61696C2F302F636F72652E786D
311
6C504B01021400140006080800ED7A834B18A24278FA0000009601000066000000000000000000000000006959000043453043443444342D443530382D343031332D384344372D4439463041393742433446462F5265736F75726365732F43433646413630352D313836362D344344422D423135432D383432454136443933
311
3031302F7468756D626E61696C2F636F72652E786D6C504B01021400140006080800ED7A834B6A9B607A0D010000B10100005C00000000000000000000000000E75A000043453043443444342D443530382D343031332D384344372D4439463041393742433446462F5265736F75726365732F43433646413630352D313836
311
362D344344422D423135432D3834324541364439333031302F636F72652E786D6C504B01021400140006080800ED7A834BEC301427FA0000009601000037000000000000000000000000006E5C000043453043443444342D443530382D343031332D384344372D4439463041393742433446462F5265736F75726365732F63
311
6F72652E786D6C504B01021400140006080800ED7A834B865334AFF7000000940100003500000000000000000000000000BD5D000043453043443444342D443530382D343031332D384344372D4439463041393742433446462F536368656D61732F636F72652E786D6C504B01021400140006080800ED7A834B8AC5E6F302
311
010000D70100002D00000000000000000000000000075F000043453043443444342D443530382D343031332D384344372D4439463041393742433446462F636F72652E786D6C504B01021400140006080800ED7A834BE8EBEFF507010000B2010000080000000000000000000000000054600000636F72652E786D6C504B05
311
06000000001A001A00210B0000816100000000
310
504B0304140006080800ED7A834B000000000000000000000000370000006662782F32323835384537432D413146342D343434322D394433362D4631434145343237424146422F617474726962757465732E62696E504B0304140006080800ED7A834B000000000000000000000000350000006662782F3232383538453743
310
2D413146342D343434322D394433362D4631434145343237424146422F76657274696365732E62696E504B0304140006080800ED7A834BF270F1330600000004000000360000006662782F32323835384537432D413146342D343434322D394433362D4631434145343237424146422F747269616E676C65732E62696E6366
310
60600000504B0304140006080800ED7A834B88E57597CD3F000090410000420000006662782F32323835384537432D413146342D343434322D394433362D4631434145343237424146422F7265736F75726365732F322F305F67656E657269632E706E67355B773CD4FF1FBF73E71C0E67EF7576C9DEF3EC995D46C6A1EC50
310
46649CBDF79E192942562825CE965D8A868C2842C8DE9FDFD1F7E7F138F7078FCF6B3F5FCFD7EBFDFEC41B196891913091804020321D6D7513FC77D8C5070EC3FFEE51B21F068154CC75D455CC028A3EA68992803810109FDDE5D5CEC5521B28A1B422BF80741695D5B529DA1C2D058AD2388BDA9F476F7C2CADC939304173
310
DBF48A452BF8A700C0C70C3D121C1AA15A5270C22E2B9E28763651F7DA0D12CE11077B2ECD0D560B5E3DE2368B1E65C5E1C87384A4CC5F2D9FB8BE39E9B77C753783A37998F5CEF1B4FEE553463245C9712270880DF339E0B882A6BA713D865F6F384C842D440934EF264F4A304F8DE4EEFA1E2BF5E2D91F5ADD9613D6E31D
310
DB33ED31DB1D7916CAF091286EA3D31B9CFECB78BB0060245B943C4C040119FF780A74DD308BA9D028678674EB5504ECF284EE814DAED07440BAF649BE4B55DA2890F4D73E2D489A59EE54FDB0A85B59F2F52C4858A02705C4815A792B0C4A996A2023ECB195073E115E3E3647F64243A8338F2000BCB58DA5692C7E7C3D41
310
3F963FEDF3CF00FBB0F831A9D51360FECA43819F527B89FA260EB63C5DA676830AA3626A3693B23F1A17A0DFFCE3EE164E31B5365EDF0C89EF64D8E38AB0BA9A1117D7C3A0EC44F44F4023095E80BA610DE336D0F99593A88BFC5306E72DF98F7FD132ED95878DF2964EA7E43071359FD83B2BDF9C6B5BDF768F0F3C0FC351
310
199526F53D9460A34511F75D1B63E488178569472C91A94497807A3FD4A390C6558F26D416365C3656DE6E769DA9D8FC73774E1709812842DD8EF96AED1960F79D21B395CDDFE6F92CB4EB962A4668C76990E2EF29798C8941D67DA50F4A5F947872460F1F6FDB794E8A29FD7AC0C0D6E0714339CE258FB17AE8535221E346
310
4A10F29A0BE5EEECEFC5675926A89F49EB14E5711894F6586DB5754EB4D5DA9C6437EBA57DB97A24F8B8A8DB295FFD73266CF57E82694DF5166DDF93573AFE9C9C5EB05F8FEF8E89E0A8917B0B3724DB7BEBB53252581EFC3E38166BA131A3A5B42FE2AD00A769BBFA4458D2DE7822F8C4F63D0B8E21B285AE13325F3410A4
310
35C648C9D91FDEB109E73CEDA7BC796961AF79175E1A3CE4C5E8B0D009B0C9E29EFD98BC8E97554E3D8D838424E270F7685226E5AC268E021EDE3522D583E8F20C0BDE2959EF5BBFEEDAB32FE9A3ED0E39F211A86AA9DEBFC68182EDED132AB8BB794442D2D7EA9F4D8BFF52BC4D55BB165124EE90A42D101E67BBBB292FFB
310
4F66DE5BF2300E44546757DA7CEF8932BFC9F92A0707953491A55C5A5ACEDABD9FA1AEA01BAC3DC5A24E22E7C47213493996EFBC369D086ED9397C9BA6C7F9855C7BD5E15BFC8C53DB3D2A4C5901A57ACD2FBDF4D1676E95338B2C2BCE65FDA4C64F5FEFDC7D9CA5AA1FCF11E193F2FDABF0F4916BF13FB916A224380E6462
310
A9815F2300DC49CC4DF8D055CEF76462F4B7A7ACA7365C2707891370BC1D0AA6203C44CCAB47084FEC057F27FFCD57F89B8B9852459798A675C66BD7CE572CAF71FF7E6D7ECF7BF62CAB7B3F1107DCD04DC55A3F9961700286141C94A4F771FEB2BCDA2DDEE0CB0BAE402FF1DB0100F8E475DFFFC074DDB4498AB7D186A765
310
4DDB1CB680D703D47CEB4E72F8CB13D86A4AA68116E26387B93FD6738779B34FEDB8E517EDF2BAF28D9BE93A1D3A164320E07D42E514725C29515FF361754213EDE06B079A2E99EB1CA82A02019EADEEB87B9AF005BD04BBCECB14AACD6B24EFBE482194A97DD32400685FF1FEF1544D1B14EFB1E7F08E6D2CD2AF52DE757F
310
35F5E62332EE88EA26417AD5C3E0E319D68F25414E6D672BD4522B278C57D18F0113921C71D96527E091F00CEB15AE23D24667369BD3CEFA10C7549D930890BA4366F4EBC55F01F746109F98ABCDD5A3EE06619C6AD78AB33E48E4C9BD21BF7478B385EC05C4F8987E2C1BFA0A60EBEDAA0AE0B015C2720ECE180FB6F2DEFB
310
EB822D96338C9B63822183BBF52FB664A7AE57003AABCE512BF77E7E31BDA2E739AC4C131657DDFE5225E900FB56CC01CDE808FA4A9C9DA16AC679656BB64796283D89812B8F91136AE18EE5EBBAF47A73BE3C153EB5D4CD491B4BFB4FE690A4CF9ABA08C0D8AA64220C438C96EA6CA80B58FE5761E697B3A292EB9FBDA502
310
FA863E49FE694ADDFFF9D62C520BDD1A22014147A0903A05B9B729F54272EF83931FEEC057BFF8C8055C279EAC5C0011804828734024F6CFA319C9CC6867C727184465CD9BB7ED386AFFD96B294A85E3802FAE47244602D8273615952B98C4F23F7EAE4463D9D638EEE374A20959E0FE519C4CFB0FBFE5DD80C2AA3F9DB961
310
D1BDE57E67C9BB47B77FDD74EE3094F5DBBE3EBC1FBDB7393F5116263009E2EFE1AF9A221B2AE234C902BF70E9F280ED23E73908361565964333A3F01D0B006AF32FB21AA1316744B489D5A198E85299241735BE559675130955C902A8ED761FC0DBE337A9F91919AF5CE32AF902ADF9AB2615E00E8A94586BA1A90839B618
310
32FF1BFB76D2EFADE6DB1BA04CCAD3DA649E7E2A0219F592E22F2AD54847EEA8E42271011E9074F8F3DD9FBA6CDF88FFC9FC7E811AD1CA8F4557CE4AFC7BBEDCF0114A48689F20A584520C74DA8127124B767E2FB91A6B186246727BE63C9445BAE02088D58B8EFDC0F1072407CD9B89A13F6303B4A928F593AD489B58E686
310
9325790ADC406036C591729FE14021F94B7796BB11848D463536A092A26F077F94639F7CEEE2A724C66EC885F4A24F8B8A0AC321F8FD149BA529460FAA34E4663C02D41FDF80BCA222D42F0ABFF8490F4FA74C673807C2051D8E467B47B616072860069A9A303ABA9B319D58404461401B0A0F9BE5E1E151C14BC33B32ABE0
310
3DDE91708DFAEB15E7C0D593C86BB7D7EC17BE56E57975F077BFD5525F3A1A361D584A75E08CF29FC7B44B2B3085014F3A5A14517377C3F6B8F37E59514C3B12F8AACDEDDA4DFC49BE5710101534CD6FB6DE15B50F11A09472AABA727F0C49D9CB906B158030065F48EB3625E010CEC1D511D0053474B11E6A4F01C0D6EF1B
310
ED3A944FDEC70E0DDCDC756C86545910E0DAE3BE3AA9A404574C2995CD5CAF9549226BC94B4F4F0F5F9086F418F6B32346464610D8BC7391D3C3A3CCF04CFC1FB2A3A3170E369511868F14EEA4E5E438CC73DB1F3248AA94B6B2FF33B222FF3D1E7BF146CAD229770158063BCE4F5391964DF62F7E52A7BE0EEA829C9E13C4
310
C147D6F93FE59E111DAB5E4594D6F3CD1AD375EE039930EFE5AF2BB2D41C83C7DABD8C659BAFBE8FAB392CA634F3D15C1D945DB4588D2B0824A4EC928AAC565557CA2F0DAA588CA5BE30B3A8004F7BF005E96CBF891D7F18112A3619FDF530DC8AA64954258E1811789B5189B49B4EB53F5F89F7D37523894F3EB57B373763
310
C91E502F52CC99EB7BDDF933FC324C4FFC2561DFFA7339FAFDD0A4BFBE6D3A8FF9ED1FC49898139864602458968913181918F719CCF5A68B2EE9C1FF050E34E63107003B8120FA982C21B30A874E4F5E4B38D5A8290C4B8D9BE48A0BE31EA995BDC37AC6DE90BA17D259DEF53605D55922FEB1855D915B659FBEB350EE0DFB
310
2F9F766E1C84CC8964B75D08667445EAB966015F63A18A9E0A325C1B3DC628C0D3CB60F767FA93CC65F25458BD23C3B312716E5F40E5858AC06EBA9AB14F95DB99147B832069201541D09A0D856E12C629CF32683760EE855537D1901988D5EBC156676C7DD51D7207CF3267AF1D76C2AD867315E44618015313A98B19941C
310
696FED3461CAA9B5415F918556D7802EDACEFD6B2E45853A9735DFC9DBF7E440F9319F8B6805A973BCCDC76C069A9144E51F187EDCC12FC31B5DEAAF0A76137199B106EC84ADA6B6EE697D4E6A96E007417F4E880E8B1E89B4BCE9D81EF611E2ED8F0C1A6C25F620FAFAAB656A7C42D464880E8AFAB0E0FC8EA38CA9A8AEEA
310
EE3E4648BA4680270A89743CDD3E6C6CBF34B7B640EFA285ABC7EA0A1E28F3CC963D114A80123EE66D0AF7D5380EB41909B605AB4765B709B808590458157E69BA1378FEC4B48CAF6A730E3BE3C5EF2DD1A5EAF94B1DDE50CEB55DDFD7EE9A16747FA4B223359FB1FCC69E1194892BABB93A1D5C4E807AC0EA2E30180811E7
310
7A2291F6E7F7FAA5E0F60215BC6024E48DE436C511F0628B8CA189982D4D83CCA17D305A7E923C37941CFDFDCD93ACAF735EF5F0E61BBD3E6C41A59B242790D3A3BAC7064DCD89AA2E37214EC839820949D5CAA31E240D2948E48F690298974A96BA9A8432BC90F5071D6537C9666EA4564796B7AFFFA548077BEEA75F6308
310
3435074BA182F3699557397F71548383FDA8CA34D99B981E72835ECDA5DDDC151315173D05A21F651AAF8524E88209E2E7A737ED1045800CE3390050BCFB8BE588DF111617874C62575039CA588EEFDEFEFE319B739DE2EDC147092A262611E159650E787917885EF08F1F51B8F2D8A71D60B58B190FEF9541A1BE94BC19FE
310
A50784DA1419FE4B0FB51B8D36B5FF8E1286FD8AF42B91E59A5F1CC4D60174E764045FD8C57B18209B217F89A62252BD20BE0E63E12B8E8F029FE19E0E8D0870F58721A557082250D5424F7909369376E41666C0EE77CD87CB283F661D5FB6D0DA023CB67320A20DC7BE661E9E1BFE5463085C557DA1FF9BE835733766C3D1
310
39F2CF9E2208873AD0EB4814DE9E6BF2CAF81614D4D43906ED1C05A3265CABBFE192770FC2F64F940CB6B17B5F166F133C9AEEAD2641807C3E69515171DD74C4A85311513D6EC9530B3B601B6BA3EBFF3B5C3D2F7D69765141E345F75433953D013ADDF8F6AA7DC3F4A7563FE5C7D367937E2900D7EAD0F9FC9A4A1A9B5BDF
310
1FEF08532660C01C5D6DE22199AA774383E306DAB87E301ABB7D213887F9869D4942D0D71E94B27EDF216A318BD488D45DF84529EF575AF3C3938C0AAA0215B01994153E2054A0B894DA5C784980633AAD48576957CF4AEAEAFADC7C587368551C73DBE1E57C58AC713303A8BFC258BD04B51724459FF9E24C03A81E0E0679
310
CEB9B348C0DC998FEB9C6D6EFA77D247CC8F92D3848599ED89A23218D0636465AD1CEEB7DC140D7426F83491C4E8E8281C2FB35240918FFECE880CA2A42D70E8B20B34DF5221C7DB0CF90ECCB9C745B37A47E9B716FF7A97B7A252C1F3814DC7B1E1A7F72B8751D524EF7CAE45B0C73B3BE7D08ED39781B380DDFC9AA4A474
310
9C9493DB5BAD07A6EA6C092FBD0E85DB004DF06B8C9D3089C5320187E4CE1846158C7EA7DDAE8AD9AFFF21AA3A1026BB06A259845E8232DEE62811A4DA9CEAB3A4887320B76E2AE5615EAB7BDF738CBDD01F1E64064BC13D9EC53576751CA8CACD58B3CEB0E6CA585BD089B2A59B9FC101403387AADBDBE70586B93D64BF3A
310
D4453EF9C3B6A93817E8346991798601344F79A83C51F3D50F7BF2683A3605F51A72449489E0EE6169C749C60B1035651103AEE24D24E51A759C840DD3FC6504DA6FE107510E447B43461C79D22970B75DE5E1BD3007D1AFC619A4A4A69B5626AF5E9B8374E20677F77E2F8E73DF868E8BEC7EBA7B6A75EEF7205E1AB9486C
310
B642741D6E03FF13FCCEDB1C4AC129886268B01CDF4B124AF797CF784F3C6DEC97A17D4B558070A0F1C04DA4FF9BDBF34159AEFE958479824B3F58EBD1E19088A2AFDE501B6F2052368A3FD0E650A179EFAB1561E1D27527077136E652676C3670F42DCB3352F48F6BC86D2C3B0051727E41A0A4DC6CE2BE9D47F5CAA2935A
310
3C0539AF080665997194ABECD723B08129CC5B6B21D2E7D54CD4D12610E7E9FB8306771A89576C7A982002775ED44F3F744CF21EEBB27A631671D921938AAEE3EB0D19CD1E083727F607823E817BF599DCED5394E37EEBC2E88782E638920CA641EF74D4CDFCDEF06F4278ECB18E31E7E9876F2D783C8BF429C75395F57E98
310
C2B495A3DA077EB3AC3C158608B6B57FE3EA48484D9A480096FCEE0DE880950E7E5A5714131C5C41AAA29FD19AE81AC145FA1B9E85C7169A5AB837B213493DF7E9AA4B5FBF9CDEB36EBD21EF1181B7CF7366AB2A951D01E37AF4EB835D1BE8C117CFBE7625D2EBCDB0B20C5A4B45CED0BCDE3EE8DA9DA78C2E21DEAAFFD119
310
7E463C33CC6A80FB785669B856EFF7A8CCCA2841B5A5369173320B1170C368B2748D81062EA0296E5E2D95D7667A4A46D98A6FF475C76AAB0A8C8D45E226FAFC9FE0133EA9F60111F99CA81ACE03A1D14C89E8B0D69079C91464FA1D99E651D0EAF606F345C42A8A1AA9BA391031582B96D5B4176A77AADB01F12FD298A75D
310
EEBB2C82F0B8650E880722F8DDD90C56A7A058E5FDEF1AC93545BA27367C76F5D8F9690CB6F8DAE141EDD7971F0FB548A2AE435F224D6E5954CA155512F7332029D5A1230854B79F258EC5FFDB09F5F6343A8EB193229B7F7E79B3E48F8E183860B38C8269D1B53738FF1E0BACF6AADA6D4869E9DE708E79B5DADCC09B1BC7
310
6F649731CFAF59A83FD8BAE4C749D66FA87A3810D4D62FFE826FA400C0F325D2BC0F3CA35F5847B82A2ACC7961745C823E4D863D54460AF792CE6F79B5C7A33B25C3AEA6CDE15A919B6367D781E9D44F61BF828672594A3E1D9EDD6DF179A81F27EAC05B936575D73E05C209DDD2115CFB705DF9BBF3C911589B3640735E9E
310
618FC9C36A7326C82B2205E244C55D56FDB9D5DC93CE958D4BF8174D2B3DA54CB3C09F2C2A6DFF73D23B2197355761AD421EC581284A7EF8DE2CE3497C0C804D49B41DFD6A7360844E5BEFFB495CFCDB97A4595911CDBA623274CE852B5E278AF0BEB1770E9D37CD977B2766A7DED0E94B840E1E95E8C77DE5CB6354AF7871
310
427C28ADBEEF7BA0A28E19DE9ACD75F379FE373EAE6DDDAE3834692F9C2B03B4FCA8FCA9ABE8EEEBEBB725B88A7C90941E850682CA04061A7DF0CE82ED49BFAFFD42C309818FAE14755CAAE78B0F73243ECCCAD7DF58FCB9CDFAE7A4D3E6671A613639130D056C8383C8F4FCF4808C331E544DD26E4755D09EA05253B3049A
310
1E32587CC25D72E073E2CD96D04A71BBCB0038FEC3F53D254199C3CDC67CD66640269431860225392B2CB3ECD0B4498AAE78BA1994246AE1EE78F2EDFB79F6C6CB6B5E279C4D373FBC21CB2698C9ACBBEB6A4BB6B39E16AB0E421CCBFC7654D81ED86022F9BB522146F9F4772E2D0E4FA70120C95A85A417BF5078B232F475
310
4363EB1750B2AC2148EB46B1EA72AD9B4D23ADCBC589D70106C3EC2ABEEED84DFE28E718C6C83502C28E9FDD3B09DA0A6F6F7B72B706A31C9E2A331EE70DA56A083D2177BFD63C55B11D8D949FAFCF90B23A1E24B9B5018B9A17E99F2890EC302F330FE7936E2C23F0D237EC8916F5166AB84B62A21BB0B950146962D754F9
310
2CC2C8877BED8FC7B7B25726DD19545392570B3A2C66B58F027BEF412E552D12A588C4A3CC5C3193FCB3485EFFF700D0B9EEC077754A33DC1FB9E25AF814628F91DDFECB667D3F7690803F38D13F8AE39353523BB08FC6760144AFA2CE28236F65EDBB3D5F59A57D612B99E3D7E5F8A851666BF9B5A6658EFC96EEB37A378A
310
BB0EB3FDDF1303AF32C41BD1C8560745D7BD81066B0D6313359CF488563D3BA3F8E2185D1FAA3EBA1397C9D0E3DD232180A4DCADB6AF25DB3AC3CC26589C8239E66E81547BC7E2F328F9884764CA37EB5DBE390DFC03A5246B456A7C3684C4377D0EEF9A350680FA9A077E8B2957B489E09AB1AD41316944C2254B5984830F
310
691C93CAA767EECF976FA5647538830B5E63236A6F0365C1E0F3E327F24FE35EDDBD7360B0F7374837409F7A6311BECC12B7026D4FA1AE204FA3F5FE904B1F420C7A9044AE58E403E7C4848E7DA25DC9EDAC79DD756FAA26B9EA83ACE8A214A2612A22AFA19DAE7DBAC5F8CDE1292A485F98DAC731A29FE01A3966E96BCB9F
310
B5A4C8830E1B9AF0C54B87FBE221A097036E5D28D1F869F810C06A9BB0AC0612F69AEBAF893C6E7AD59460208BAB3A6B09CA4F6BDDAB8CF0D1F84B72487498395A70DCD754796E271099A567A55CF242BBED64696378BB6CF25EF0FCDB589F3A82F1116D010A9AB9FA4358809EE0C973A2B4229BAA876A70B03AB49CBA7FBE
310
71DB1832FFD32F9BF2C8E98075CACAFB36921235D0F552B6A67E94E094097A5D7DF681B40623DA535ADA7A9AD8E9A62407D7C9A5AE51D62A17A83A23728DE86BB56115804D3F2675F2C6B87541A0FC497BF0CA86420F558C9859EBE9FAD62747E323E3AADC03FDCDDFE7407B09DA90B44E3185723C5381EAEF589765E2F7A0
310
99BA46695BAD60CEF3491B8A171F5F56444F7CE9455312C3498C74173AEA0214EC029833B34B650CBB5A5508D5091665309642791708ECF27CF11DB3D797D6CFE474453BD4BFADB768094B2147814D81C7CBAF8228DCAF5564B5891F5EF6A860EB2E323CB82AB868D8EA048880D63B0DE5341F1B3D53297B928A11E15F25E5
310
148990F710747C3509ED14909C552EBE3973246FCE55D00564D8310BC3EBC5085D08D806799B77D6C57FDF5E55837F9E934F09C03C729271B64F12D0A9F9E938107CAF7BF1EC8CF1BB9B42363D33070F4CACB425E605DDB0A34A12BB936DE286B9887A4E2E558F0886498BFF49C311D96C277CF6A9FC0D75AD0ECC5226D7E0
310
E3572012E56D7FDE4410CEC7A6D0F997F225A2055B8B92E3956E875AE4993CB3D4C9063AF98FD45E1BAB165640A43439A2C9181A7C355B297C0A0CCFFAE19B6FA3C2BA238A885FBC98B8F6DAF4B94B97304878DF4D8BFF6A4AEDF79E90ED4E68F00CD7299F4E0D83E35601AF0CBEF18C1E870E74758FA91F5131075004DB3C
310
FCF09AE1DABC11957FD9808C92E8A678CE9DBE40DDA0E0D1D505AAFBCBA208232BFB6FB3704E8985E61ADE53DE74152F5C7DE74B1DEDCD37DC3E8FB30D7EBA8B9EFFC3606BF90B8D438279CB7709FC7C00D327F41817EEA71CD9E49FE9C8C9A81C70915D9F0F15958EC5AA4C3BBFAF46986B90F188BDB24B89DE3C6F29EC3E
310
6F66D84856EE96A35E657CA41B41EFD8DBFA16AD6E91439EA92B40B21C053249F51AE50EB0B24C770FFAF40DF12C8436366819C48E36547D4E7B72FE2BBF10828583057814A668BDF183F6B2E58DFB151103E56303E63D00F39C27C4661605DB644D19175D02E3F0241E8FC3458D17AAAADB117CE9EEA690D0DB01E634878C
310
04C2C9310B69FCAB831151E3AD293BEF6E46B0ABCECB50F5939B39C613D41E81FAE8D34CAE3C4566B761D37185FE864AC32FCB71AEF39DAA5BAB88609BB980CD2F07A8F941653B529567726E2B2A58D079DD57E1E5E31426CF184A04D7B03B985F276D47406AF276FE32E3328BA866EB1FD39BEF57863A317634AA5FE46740
310
9B3873F5069EF0D71AF00AD189D17BA1974ECDB2D623E9E14086386A6AAB5807825C37B015BFE892AFD154920EC437EB945D958E18622E1E0FE2FA06557CE4BB9BBD05A2D40E774DA2B65473791E314B7D6C886820B2FCFE4AA272B3B8B15E7344A145E8AF919B5454D89D36D413E87211186BF6F645E5EC94DCCE8E1C7990
310
22E4EC9BC86D7A0F2AFB1FC4B2CE48F84B3F49ECE65BAD24CADCC07EFF39AB06BE9E6B27A059938EA7208838455383DDBCFCD967DDE4650EF92A14FF933C975DB20BD7FEEBC4487576485963D757D16340D9599FEB362F775F38CA4185A86F74B629C81B133644A3B18FD056E997E0734F9BE26D11C0AAFC669E2AC9FC41D2
310
81F8B2E1C35AE27BCE05F3DA295488096688719D974DF1B5D182DB7792288697F8763CFB43562C1CDEE11C4AABD5C22B6E33F6F389CFC3477C5919DC0D533F8A7A1846B7ADB60ABDC26C43D0CFC8910B7C15EE22675BD02702ED39DB77A87A192CA7A543E6205B979B9F5A6B512A3CA799E198B2D5797C0AF8D1D872CA455D
310
4D431A7879D4DD76110B5FF7F4176B54477A9EB5E4A5D11214FDA585F0382751D8E2582BA5D2075053298FEB8F1537304E32CB22C2E2B693DC0A760B1DFCA751BDC445AFDCBB12820ED85F6D5298933C7EF1211E9E057684056CDA3FEF3BB6052355E162DF27C59E965A8DDB7F9437EB72CDDA3A090DE65A5B2F50326247B7
310
EC67B73ACC7047FC9B353D6EE990F772207C6EC52B39DC2F3C0754821DAB559F7C1809C7D0DD5B0499D0442E0A6E391B3D5DB46D11E731E6794EC77523FBDAA242ED67F9FA1FB684255671F63C9BCFE6E7E896D51001A6113EF2298BA494E0B0980D1FA5B9D60796554C02256B1E0345FB7C6186B6A19D2DCA270416262845
310
FA4F42DB5D9B0A0B6F07FCA2E56C242522E001E0CEB734AF310FC8BFB57E38E03AACE93B3326A2197891E68452B26A6307FDABFEE0223D3C03C3C73D2D5BC054C8311F12004CAE488E5C29287F8156A2CAA4AD0D7BE6B97264E4139F437CE73ADF52E5134C52B819777C18B323A5924E4F67AFD13B1CDC3A61793A79FAF5C0
310
CEB718E441071E797C6DCCB9EFCF7E4A1E9F3DF3C2F9C9E8294E9586868788C972857FB0556D7A26941A7EEB9B580AD78EC40B85DC906B4120A563CA3B87797ED612D3B035962BB75F6515A393F4CB057F564CDF54F2E5A024514E6A1F901DB80C7E70B1FC05E356A7E72FABF4775B3E3FB8F70A2A8E7B6A94542BB3041579
310
78CCC999E707A29CC795E67A59CC546A5D47B368954CA7B6E75EC9E1F6FC73CE3B4F71F8CB1A6B15923D61EAAEB14626AAA9D04A26EB9C66CD1BE86CA31A5D8703DE04CD1EBCE4F5CCB62F93909AD11E55799A781A956ED27D3E738F4538CB04ADABC7DAEF20BC35BA6A90BCC1DC61BA05F20D8832FFB9BC9B15E2DB838A0A
310
FBB7E0C82A562127E0446894F427794C3037186F622BF24DE1B00AA10A23BFA47B2A180D6DA5AD6F7326FEB8C100C2D7142EB2A0B2A9D1008A09BA343D70E054AB69E2A7EDB783CBD92537FAF4A44D1296AC2792729104B3276C276C951D0CF3CF3F1E6B017720A7B8505A5FF9589365979678C36F1BAF759EAF57C60F1FF5
310
FE9DCF5F8E764FF25A2D06CF25117A8FED51884C13B2B750DB0E4F5E3D64124FCF11F0AD8F1CC3B3DA4B38ED22BF1CB2585EE6BFEBBA63FBFD44F9537B9B37BDD6B358720F98A8125AED4349CCFEB0E135F19E208A04CA7E2B10711185D72E381F448036EF57C9F874E54A971CA37A639E986AC0226DC5AA00D5B14FEA9192
310
234B3DE617814FC221C92F33F1D392F297731B567FD98FD91D989379AF567A65B8ADF177591DB90FBEA99BF4ED11B16E50A0AB1DBF1156D034BBE04D69D08F939D8E92BF525A1DDAFF80ECBC95D8F45D3FDD289FD23F7D8B452F8EBB34EC082DEEE68E18EDDF072060FAD2AB1504DD4879BF67099FC58F6E9DEFBF645D1633
310
4A3E9A127C6F1AF6132CF287E433B43A0EE93812B4AA0B194E03EE3FF91EF9C6ED0074A2F6EB18A96A7C9890B1FCDA1F2095E944DB911ED54C60DF16FB74C8CE9BDC7C54C4F14078CF73C2FFF1F1BBCCD7CF64F71407EA1683DBC410D226627F66E509060D5C0AFD611DE681D509DB8DD12FB1265B03C6F5C55FF4C30BD941
310
87FF692B4F152982502F193098A789526A038AB529A52BC0DC4FB6285CBAC10A8B8DB75DCD9BDABBB221E27D1F8DA9F5EE5926A1C8AA9BA9BC09239C6A7F12914EA3B59EFF7AAEC3FFCCE56F1C5C2980AD072793527565E774F4631DB178CEEC691B1F367BEA0CF2907E1D6B854D527065979DDEF002D8B2ACEA7CE21AE297
310
737EDE1D45B31233B73FEA35BCFDD0B09721FDBAF6432681F2FD10C3E9EFB246FD6E854B344ACC9D8A0EEF876A7314B49B6A499FC650B099D650DBFEC7638ADFD245E2B7839DA5AC5F7D5623FC0ECEEC8653FC9B2BDD1AD4D00A566FBA7186DD3C9CD26512551637498CADB950FEC71ADB9A5524285DE328B8EC7EC75D2345
310
AEC6A27C42AF6D9B92155315C80DBFCABBB7DA0FAE425C4FB896B15C9BFAC4FE67DF5A23D30C93DA4D8F36FB15D100050DA6062E22AEC5F4DAC4F6FEEF97AE05DE63C6D38F9E068A20BC5E3B6BCD75320C5090924E7F93640A7735B1A43451C2D91EE62C6238B797349E59890AF3A520DF4A87095F3ABEC2E61F0593416CE4
310
6CDCBE0E00E2523FCCD04408588B5B6C9DB6459C786CE378770B54F51DA3A5E1DF2A3349BEAAC234A6CF8993B598B3B25B4B113E353A4D750FA7534749430F3EBF2512E7EA3FD43C6AB9A1F765A58463B306721A15D224FAFE8C6F5E3432D57EE697DA0DD5A9D4866A8BCCAAA9DFF1F06047851408FEC060471D0E3EB86BFA
310
F46E4B5E60311DC3E3CEA147C75CF971BE74689507154FF2D2E92F15CDB2B9182B11459FD8ACAC5A85F174BC94A7F4EE4C4F5CAFA7C02E37BF0BC77B7DCD0C047BC316F562A01A441AFA7931CC84A28CB9F4AA367EB515778F29BFE61195FA671F4352E5E46E3A64773F1F76EE5EB36D7BCE9BCEAD837A4D77F8DB8C92AEEF
310
6711920D7C7D0F76B0FD0EB7AB83724CD35BCA7D36DDDF5FBB7FF6F04A91F3E2BB3B8F1A43CD659639507FF6331C5F697BCC782AE57D757A27D97F1AB9E0AEDB43F92F1B2AACDF5FEC8ADBAF9F814E2027003BA2F9E144B1938A7A04050AE5D953B82C45619165C813A10E76DD6906B3C16438064D14CDA713AEC420034613
310
E1AC7241904A49FBF87409AFB1FCB9B72FE7933A87D8FBEDACECE4EDCF6A4FE9FB94D5DEB74FAB7CFEAE17EE965DF980DCCA2D04134994F9A2E94D2265DA4FE6AA7B7AC15FACAC2B5ABBCD7DFF542C5314FDAB2E1B9D8B65220B8E2B638BE008E8DCA22678C820C5053664D15E89F2D735B51A84955E81A443545E9FF787BE
310
0FA700A76D136C27DA179A7C6E8939E01BE756E19CB292798063D8B97F44E8A27BCF3A614FEB8BE974A718E86F7EC99B53CA35FA24F61F2B07266684623A3D4CF073E511F3A10A8FDAFAF0078C577F4DF9D339FE7862E5FA47CF4344209E5BF76D783B1B48E152AD281B15FCB934DCDA49CEC5706B1EE8B460F435324A5CAD
310
154725E21AB8044B75A557A79F6C807B9340AA3D92503E866F4274412926C8C504E4D5EF8C0E68DD0B028781A6B4054F11CF18941F101C57CCC796773ABC8DED9CD91FE5788806C05E548895354AEAC96546D55B0E94A59F148D061F42AA398D822CDECA4CDE79E13469BDCC44FDC990F366BA5978C15F97ED80CBFD73B0CD
310
9B8B83A4F6845BDFBFAF034019473FB9A63BD55D3A4A7284757071574029A4D016DCCBE95DD679EF3C4880BF169422F8C89B68A988D2B13793CAED4F74DE7486C72DC94DF46B8E93D8E02EFCB1FF9B3BA10C8AE7F653DF94F4AF466CDDCEF5776687F7C4C14B63E4EED1719DC2EC482D7DBCC7AE518CDE3D5FF86D39000EC3
310
673C0044E1D308BF05F74D1B5F033A7D1BE7F74BC55BBE3E4A20F920946CA0271EB17BD2B80E5660ACB8A29A79F5E4BBA49D4D945B6EEF4A7EFEAA65E5555BBB57A7E15D2F83C69F30BBB978D2B39F1F26FC097424D39BB33CA3D87ABF64E307938B685BAD44F71556A30B7E712CA4FE600613C3E554B69ADE949A7CFE214D
310
F1FFF05CB82151EC6FC31950239F94CF7AD39DC473F6EA356E5EC2C4EFA04383CEFE985A127484366FBEE3C0EC4FEA363E4F6632AE781392FD45D67B63FB8DF70E82734F431FD3443172A0E30A83D60982D55FA6A2CF86DBA8382502ACC6CDEF3B907982EED1160E14863FA242F9757347E1544275CCDCF71ECD5F8621CBEA
310
326B8BA884AD7F825781923E66971F04010D574C541D8427A438A37EEF8AF88240EED7362C953F5A81DE2D56109CDE2524EA0F5D2F87308C0C47BD97AD605878AB8589E17CA83930CB5E0DCCD75853D68B1AB136594926DE426C367428E9334AFAFF90ECE221BB5DC9E5BB53D2CDEF954EAA9CD814F0E5725F1965DD458E5F
310
8487683AD86B9D0076BE3EE91EB1CECC5331A67A3F79D8B27587C12EC2A6A70474749F27B4C0BBAFB94B34189E88DC18964BE4121B9137FD516C7755356E50D6714E31ACD222621EBBCD1CFF81D87479056A9DA0E0B8EA19D24CF937DA89F78E8650CCBDC110AAB6C4E46DCBFD0446BA9E2060E81F314AC2031E88135E5476
310
AC0160EF5C0DD2EEF1B8B5CB2D198BE9A554A9093B5F7D7E4B5407DDFCA1D9C152FD97F55BFFFDFE802954DFEC8995B983E28AC92F1971E28F531DC407A1280EB125F64A72E617EFB27DFBCEDCDA2D6F2BDADA36873EE46B9BE1782998C63DA7182BC383FB6FD15DA472B175D7E8B4FC88F38D6E07FEAA3FA3CBB8F6B449EC
310
F14D2175E5C5CCA3A42ABF24CA6C9395AF74535F4DDB38CB84F56614B0FD32D7E19CA5CF988DB4449C40E23DF2B16772594554579094450F56F253CD25EA7F77366FB1CFE79696C428BB64D5A41E986189427E5E4D7E2DAE3D5BB4972B3DC44EAABDDDD63A2264ECFA5C786EB0EE1FDC5BE34FA0F08376869FD1E61EA06CAE
310
15191135445EE8F0394161C3266A596AA035572BB0C8876180D8B9C77D307DF9DCDF7365ABDA6F3A2366436457A4DFC1F259666569A9E4A79C817BDD5610E5200FCE894A358EC72858D50EF67545DA81C6FACE3D457BAF70367E1E6BDD9A952FB4F56247F58F523B97E640246051A72F79BE42FFA0B3187F63097F91C48B86
310
8586F714B0EBD5A00A8412C1236E1298F60C72BE6C96B82B404CADAA304AE9F303176B14BA53FBC2D5E86377E35542019E24D97B96A49B2C0E5006E7795954DEAF5DA58958839043C6C70BD3B1B33B6DC5C31316D8A6923F142E26F6711A2258AF977DDF1F970ECC4F1F2B434B96D81BEB6E89BF3BBB3C7C8CC80505070723
310
D6D7D7D3C8CA27CA164A26024FED94B12A86031867241DA53D929636DA600F050BC40CE48B8BA03D69224720DEE2ED2127390BDF5E6EA64527BBD4C4C63FA76BB801FEEC0E61218EC98A8A86CD8313781617877E66692839B9468CF4DB8E50A73986E558E309C0D6F676F921BE02F1185454DC75B111572FF9D27D85EA14C0
310
5AD7271225B391C4275659CA4A43759D0BA44639BE4C30A84DB7F67A41399FB95CBF923B1B1672ABC807C1590557FB18D811983FA97F5E609516D62281D38B1281F68FC75528C35E4CD7DF0F7DBB5E5DD69C414EBEA2F4A5B241B996BA77AE6C772E367408C633EA3E438B68563EA8BE7667F3A4C4FDEEA52ABD78A2820F44
310
3B7914A15F180018D231E64519C56A12F6CA7C8DAE18F06F6B769DBF92329EF6A5D18FBCE600F36BD8E8198DE5CDAA96181F3A756EBA5501CEE58F497EA4F418A2B82565B9BCC611713C0B708CCA1F398B78C5F7D03B3437CC18F13061F55C7BEDADD5ACB1DB0E36D3CE47FF6EA1A563A57E9649EA5D14D1A50EAA45746338
310
1C073777EF1600607BAF6428A7DDC079D47A204EF1E1F1F0589FB054D45E02CE623B3823C317C601E589E22B1E88B448524B86A82828E32345EC18AE17214B42F8C41C6D428016D9BA31DDCB47572561E5A402E5BA4FCE55F78AF7268524AA04130F3A20BA5D1E9F9948EA48FC8F5314FDB35E21898198060034ACE5E3E2BB
310
CA34092518F275190AF65F45867FF0900AA4B81F25427414C372BF51DC29AA855C5428EE1EEDD6B849AD60F6E73475C2D2523F8A2772C840A478DED18A8C5C91B085F255DC4F54EA7AA8947354FD17ECF8FB3B4A0DE7B483CAF3A1165EE05BBA413E5C1FEF3DE1D6B8F2F3F3251C17D9FCAB48A9AAF63AC773A0E413BBC46A
310
9ADF84A566FC920E4D8C52C9769EE3301CADEEEDD92B312E02E2A7E35B7F1E7D203FE5A7D75578B06E99D0E46FFADB8FDA17ED8880390DA29094202D6F645F76F6F96409CDA05495A96E84B04A00D1A6C6C81D7F3DE9376E828CCF144EE50E364ACCE7237EA0BFB5607ED1AC3CFE73794E5B61739D14DF1743441B1AC98F00
310
ECEDE9E7301FA29755FBEFA68C91EF2B314CF510537EF1ABFC9A762496280B546F5EDAAF8A5B387D469FC9A878A92828C88608453ACEC6094DCA54111E7AD5B2663DFE2DD151B7F123B9F4FEF8EE36AB125FD7AD52A59B1B765B3E3F73E3F73DEA93875004D2AFFE3CDE9493B87A9904DD052028949041A91DC0E1BA47BA71
310
4343FD5B25E0A6A09503AFC17C790058A836A324FE31D7893512E28230332F153181C1E018E1124EBE1BA262AA428A518237D1EA7275E48C5C561BD19ED6912EDD8367DA0F31E40EEAE9683DA9257525AEA7B632B97119E17145A90231768A4F3B9120FF32E8319B015E3CBE26F1A754177D8185345817C096B0CE443A955D
310
13AC15E1FB5DEEA0239EC32A3C92241A237B0B02FFCB4F93CF2B02570C8D192E2F2A68CEEB42F12E6F8CEEFF46C251E22B4341C56FB08CCE550E7A9D6F4D6564B9EA52A83D5BF2C6E03FA19D2775E15A8A7ACF30A13C259EE7F5EF2AC3BA354F1500E1A07FC63FB4686E2F12EC69719F9ECF5FE3F35598DF2CE944008CE78F
310
0911BA5BE5D0A34E0098FF038669C26030BA9B300303039852A8F6F496341737CA7E0D2E3AAA36DE0A70AA7D9CA0D54D9AD84B18A44C9E625475E1C97B93BEBB38DCE7D227E67A2D00F531436136355F243D1FC0D712C5765754FA22FCFFAE97919161F46D6E61ACB37D83777B385889770B50765B127768443A5C4D3A4E35
310
A3151111F146B7CA116F918A049F1C272F2CD7976C69A0068773451659A97E0F4A08FE604C3FF6CE7385DB19F4D3ABC8A0D80DA8A42096AC377DB49382B36E270B6FA7570188B4B7D1DDDDA82ACA487CCA5D38BD3BD039ADBAFA4ACFF27809239B722081E2EB9F145320553D183F28471C388BC8814E5045676767AB58A8E7
310
2D1CED2CA731379515D2E533E4CF0B39DFC625F97AC4836831A4DE330E87A8126FA17EBE583D614E71E22A8DBF2825599743E0640037303E8E1B1E8EA4E1ABFA4F62907B5E4E0E5DCFDAB417C36C6848A2B8D15F1E505434C0707E16B1CFC2A1C36A42BBF55734F8F4301DDC2A5110CEE8C0747F69519265012A2174BF4E95
310
5ECD4FDE095A3ABC70536B7AD0B9D7892F81287D667C108703C9B66A221E9A0929D030008F77FF6F5D2108EF5706FC87A3069B976F7C9FC3239D13D283CDEA83597461079FEEE049B0F392889898B7D87D31F8D60ED7B56B91823A8E4EDDB36C6172ECEE42BD42B12CD67994FA0F0DFAE9389356F4CD4425A4B8AA55CBF7EC
310
D585C6A2C2316791E43D5C06841ADBB226A87FD61515FFBB0167B74E56BD7F3E90A57A97FEDCBDF483A0D6699A8C0849CAEB4947FAA90D8E332D9DEBD9F4738C37DA0CAF9CF3DAA68BCB67C420459C7A64498D6E848E5CADE92BB6901F607AA331104A67F7CD650EE169B1DAE94D2C31C2F993632259B6957E246EFE4C5481
310
107B07118607700040E5812A2A2A38DA0076875258C753F60E0F2662C748EDD5F3F3686B8FC3BD6FE631ECCAA1E8B1C1E565AD117E54893E79F4672E32F9E46B2A183DFDCF3EECB4D4D077DBEA0DA254D256045109670050129E9B9B1A9E4A11344D61497A992778095151510C4BB7EF2009B63AA4360635312E4CF668B7E0
310
D3D85A8688E2BD83B569439892ADB63461930D428E0DE42E4AC57CE48DA5CC1449530D8BD3D6A0F08DF20C8E8F570F2CFFFCEA286E30969B4654D498A58D9DA782E19FE3F002181838925592C4A1EF0B332D88B61A92C644547BED490D3A42CFFAB70E36D961F694F6307F72FF15A1C79D5B1B5CEFD353D9E2B52566DEC8F8
310
F09CB3E8359C0F68EBBB7898243E34E12A015B2685AB303C04D3A9E00671FF3DFF0A184E4A2ABEB2B666AF5B3A209C73D8EF29DCDB069C9F391EEE9DD0F74C7BCDE16F8F02E3B8816122BBEB50665775B600549D8BB33A54A6BF940C028118BC6878C79958D6784F9DEAA6E26748386FFAF8D0D0101E2847B6563F5D8DC1D7
310
8F787BE00E2C941AE12148D4A81599FE8F68D4DA5CDED75530ADE138240300EE13B0FC13A1687FED6774662C05A2B7DFB186732F0D7A93545D8B0A6390AE5054D9CB582DA846D7A061B3358B45E2B52DDE63E114397EDB7E09233A579155D795BE76102CF277F4DF8B188C4F2879BEAE3C08347124BF9ED23B128259FE107D
310
31E34A652F090B30B39E0D9AF917B76A2806135621A8A60681F16AF216514BBD02711585B5B1AE823F4B2D0369EA5B6BCB863072727FFC871CA6C9AB79A814D989057E9470A3D238BC87CBB4A0EA49AFE2B86F22E499793CAA9047080450166BDC357524561E258C77CB697F1ABB32562CF87C3B7AA12F911EF19FB3E5C022
310
22E887D08202A60A17151F5E053A86B437771088B4FEE14D652C43E8D939995D34545E12E2FF93D4E366EAD25F10CB7DED141563C3D0C447AF06078A91135FD4B9611583CB4BF3BD167F2399CEAB0E0100F8FFC305F00F1711717173138B4B48C83022295DE657EFEDD97F238ECA80F528AFB4F8D67AD4E2594B9A3AA86D74
310
87EFC313BA95745C186F0CDD84CC12DC9CB0424B42203D351FD9C0A3AF10CC7F388E0329279087386421F194F4A29464C1DEF7EF8BE515E4A199DCD5B909342598D8FE6A231F71336248D5CEC5454455C7BE383B3BC7B260FED27F703FDC39A170F3827239102F59D4DEE7FEF82EAA1A5E4BA94DCC4CC44E7E2EDE20F24244
310
E4454369D2E87C3F823F193FD4FD27E1C23984B01898D15ABC20711A8A558054951A6AE280096BA36CBA439603B7B0B4C45F248C14B2383B4B5CD8ECECE4FF859AD4A6CA2326D020EF090F4041D28DB66E5256B56232CC52829DE8060BAE6BBF37D4B7469B822454FE93210A3E8D15E69FFCF01123222611C51C4FD0A041A0
310
CFA2471CF6BE38D2B20FA4C3525B5B8B586759475CF80ADFE67A284AC24651E52B8E683D24C2622642F27E7C3C22783BCF63648BC398BD6CD0D9C97E7E7E3EACB6126DB7A6C1FD9F1031302EE67ED96F22B77C7CA0239BB324207559B105E4693EB26EC46182A92C9C0DBD24F29B31C5C5AC1F84300E0E17CEEAC15F5736FA
310
4A98971E2F1423BFCD68D4BBD5F86E74B40A369F39507C88FCDB35D2DD8DEBEA4AF999E23CF2816D204200DF6E611781B9884C1AC8888B4DE397320472959434323A5A36B22A8E1F721A270DF3BD65E4A31C11FF048AFB0D8B7B6881423793963A23CFCE935FC189ED36FAE35C46DA3574C979E4394BE52084F3081837BE03
310
3396D2EBD80F1F691B273F660D2B32FA27A33B1DE4ADA5F0FA4651511102DFA410DDA86E065272CA314D5249DF91B06BB92807B28EFD54F08F7B525252782CD276DD02E6B0319B13DF87B1F6361AD6B28FC0D711CF445429B9E5A433CD493051C49A9E03DDB1B147D880253514A5DED88009018620EE229101C041950E2D8A
310
A8E1F5F5438E0C0C0C60EEDEE9E3E0C051948C69F84BB7B2A48A1F3C8EB9E6864687F4F4F6F6E2FA87608ADAF9C5E117B7C1A737E710769DA1D15ECE6A84502AA855398712D5FB51BE92E4EF824969CE18278798AC303C2C7980DD2500ADF8FB1E6D6C2FAAFF9987178923334A244758BAA01A9A1B70FA5097D01E1CC2A58D
310
AD0EC94CE6430AA9B0C10D75E3C6BAC670EFBADEE1607739CE0FC18A2587E3EC3058562014C64219C69BC269082D5C2F4A659278D585755912176D78A1B641719C2A394CED495A1AC5D583FD2F5EDD93308EA7EAE8A6DD396598BDBD3D4CFED62D18A5BDFDE0DD5C80D1A89BA62697B131AE7CE9A6594138582F1B37D68F17
310
49AC7CB67A70695D48A4A056AC1FBD4E82358CEAE38F54B95A9016F9000F9879C0D9D131768635CA798895F27D6F1614F11F2838A83611AA51C9A3DDB539D42979C29F10465655C17BEC3E2760B80DCBF609198C7B171A531905F3EC218D696025975E986C6B4C666666787271F202805577DD5A3EF0CAFAF91B62DC4B2DB4
310
217A7606282F31D8DDBC290593BAA93EA6353AFA9939B877978481E15CFC9F2755CDC00C538F63A4BA3E80AE009B73CA0185687D339A507D165B74290D6EE46D5C58148F020C3668ABE9EF2F7549170DC80DB41FFC1D678FF19AEB10C7133832B104B80F691B3138F97A92D26E551F1F110400D45AC71A9B9AC41A1A1B1DAE
310
ED0B0810638EFFB511D46B121C6FEA0F38CD00E03CFFEB9713FE1F9C263E4DDEC160D0497FA9A132BA608584057FB15380825DE6C7FC3C667EE947D488A09898D8E939C4953BF4EC9836344D2CC6B2971B2A21A572B06096F4982D2CC7232D46E8EA69DC83722E267754D777F97F96D5DA74E1E75178084D0E70F12AD33E5F
310
71EF2AFA599B2BEBF60A5BE475F444F240CBFE8143C334E7ED9150FEEFEF7EB020C4DBED388DD1D6A167A76F3CBF119B578AE8CFA7736ACAFA4440A1C47185638A0D2F3EB5BDDEFDA958FB13CE4AA4923D5BF840392D45544329525749734866684BF7F8D9D54D892E19BCA9F829A0F8BFCBEEA6CFDFC61D74EA1A645ED7A1
310
FF241739F15694BD835B66FEC5677E40FE69BD3F91AE402F036537218A401CB0828604AD189E575015C6F3F6BBC8AC79CF6C70653847254B31551EFCBEB5978B9DB85D58D0FA41A9DFE9C624834AA04949D24B5AE6D299E072D152D12097920F14AA92C31C3B97E28B6C2E6E9C23D63043ECBBC0A60FDF5BD0C33C127EA8A3
310
308B8B6AFFEB28B4455BF6E7AF4FC6222728357EB8E46E85053E6A8843AB23295BF838ABDA94658FEF3F832F147046B4ACD6F7D48E8FCC9618582961C898D1C7A253C91BFECBDA6BA18A1FCF70755DCCEE2222F41B76D23CA98D0CB3D95F0CF66D57FFF65E2A90F5DF40FC3187621E981BD0BC1D992787212688976B94A8F0
310
C6EF646624B570B78E068826F87CE27041A95C9A4871FF65CC17FCB1639629AD6A9517000D63AC231F3D741CB8430777E7ECF80CE7A3F73C0F162F7E56AA71F4DA80A33CD6ACEE78E2C11FAC03DAFCE929B106F8F6B3ED2DC71FF994BD9CEF4E9A94896EF1B6E2B7B4978168BCF0847A3D2A4F1B0500B926E634B174548E9F
310
BAD27153FB5FC36799B1E6C7C38A94E1F9E996796D7B485E635D5287A2AE76FBD11A341DB3F8F810385BB7296391973DC6C37C452A9305AEBBE0CDB6C566DB59FE60C8E94B1FD090354BF51439FFD1B48D725228FFA88C84F686F547107A7A235665A4593B7C34D748C1AC8D56DD5DA861EEFBADDECBBD65117E65851F9035
310
1AEB65F0EFCFF4BCFEF24CB7A5879699FAC437A7AF9099186CF006BB923A59E37D7A36A29FD8D2CBB914A5E9D0A8FD212FBF796AE9A67958FF1D5D8B85F78F96219D4714EB919929241B6C018AAE0C02069F8D919961EC5DDFBFB7573E3AC8E08BFB7C8534BE6DE045B3CD63DBD71F7638BA2309CAE398EA3A7D8F98BBBC7A
310
EB367EFA5CFA27A9F8F2F52FE878058E6209C026453F8E7E8A237DFC389E9590F6059B397CFD65183BBF936E86896612A5B5FEE49DAC8455D026218AFEBEC12B3523A45B57B82C9C97E02ACFA1184DB18E48CF615DBF39C3CC6F0B4AE6BBEEA2E39D944E290302FA3DE33FA7E40296E2EF7BF1CD855BBECFAD0FD622BEE974
310
6FC4FDFDE545AE6E3BC234CADF83A0FB76DFB145BF3828AE3436368AC24989454F8FF70A177672C711CAA1A76107218CF948CA01F873520E7A2B118EBB161ABAD432932029628B6761590C98AB590C8C8C79798CE9F715BA696E839E9131A4BB68BE923F1747FBFF165331FFDD4D05997ACD168F12CA75348DAC04C7F509FE
310
83898A8B421181AF492861CE81E4A2DD0A30850CFA95E05F097FF70F9E777310D584A75BA7018922E271DAB1D785671157685B7D383D3E074DDB4F1E44EF04B07BAAC75A062077C54B9752C738C9D804D402E02851F3F89605AF189738C18C021D2139EAF72513824E10DDD3047BACC8521ED7E98B257D1166903B1B08FA6F
310
918FD7E162913FEC7D0EF4787E29C35FBA8C6E2C9C20E9AB30AE42CA2A01A090E7D010C1B5BF9CEE2A304BF3A987FB40D836979B79E18D70F257DA61E808472DD85B82761825779D6B90CAEB0F23360C6F80A7D7D77545E95B3DFF0CF96A827F9B5BCECD2C9698718417EF80FEEDEE938AFF55859D0D540B7FE09435583A6F
310
04874A0C7E8CF234DF4879722000167F5872CEC6BF3EF7E5A8CC8121E6A359227C8A29C95212F9F735BC72A887D56B8F309FC525BFB4FD767AAEC4AEFF249CFBBD2DE1AB9969A6155C7D8DABC307E47324C1F916C7BCFF40ABA5644E9FFB9238D19ADADA49D9610F01ABBA57E4DFCBDCCBB2B93C8953206C91DE01B0E2651A
310
6D6C31721915B31F7B7CBCE55466F6D70402788FA91D73BE4ADCBA99A35F17D6B83383704917D6833F0FA3CD45C926ADB8BC17999A4A0AFBCE2541F7B8CF4C2F5FBA611B3E626D64407CB32C122DFF4EF8674D6EDBB86C8F7C6A16D50FA685E2CCA34F8F7D1D8265BB0042E9D7F1F666F7BE5FAA5184DF58E12122A42EF02F
310
461B3F369AC746F96528AD208512AB56844CF75B97F352DF7995024FB02855385854F3798670D01CAC771AC3E1889EC25F61A20C1F8CAB46898817F9C47E2CDA1F286BF2F358298709FE567C91133E2638C8B53975E753EA8BFD3578B5F7186B7BF084EBA3F77BAC3132A5779902EC22AF2D2E79F42D324E083386DAEE9810
310
D1B44A5DAA54513C7A71E52A4AB9257D975B621308FE4D2141CC3DCFE946C154A3C1DFCCA7629EC69ACFA831634ADDA93C0388D2A9A2DDAFCF957C6995BCE7FBB6DC4EBAE79E63EB08E9A25F52F67076F7093CA545CA3053B5BF576DEAD4E0017143C5F759F32B2D6F145B52B67B48909B7C7FCA6586EE385A2189C16932CB
310
6DDFD9152AE317C430492A578ED27B72D85D40C7C93C097939E1B50F4D67F05334FE9DC362C30B7FF561B95259138ECFD9274C8D695C31B14D4EAA9F3D7FA8DDF652F8C5DEFA23284C799B7D94416DEE81E05A866302DC70192A5368EA65E1CED8BF107A1E2D3119A71E85DC1A7B0C1E93274CE04DD0F2ABC8AC7C987FDB00
310
2B6F81757B43502EF7A0D92E416494FAEEA4C9C090CD9557AA4D532F4996A272B94355C5A0E4974EEA9627476F30809B94D8D8D860062E02204643BEC7D0438AF800FC7E2B26955D595421E83C69E1A07E0E3122285835F014AD538188CF9737CE76D464A353FA55A001AB2526B84E985083693BC76FE211CA1D000679C889
310
E3C009832C87E1AC2EDD05C302557422DF0800E316FCAC86978A371F025A6C7DAA9F333E7BD160403A1A06EA75AA9888FF01504B0304140006080800ED7A834B51464CB48900000043010000360000006662782F32323835384537432D413146342D343434322D394433362D4631434145343237424146422F646972656374
310
6F72792E786D6C9D8F310EC2300C45AF127987122606C71DD918B841D4B851A43646695A717C52A85029031293A5A76FBF6FACEF7DA7264E43906840EF0FA03836E242F406C6DCEE4EA06AC22492573150D1F66C60C640E8938CB705396EEDD86DE9B5042FE27813D640EA63BB001C722AF6E55CB61E4863F58284D5D3F53D
310
D715CE1C3985E63FD7F1B7EBDD617E9F1E504B0304140006080800ED7A834BCD09253E3E070000211C0000340000006662782F32323835384537432D413146342D343434322D394433362D4631434145343237424146422F6F626A656374732E786D6CDD59596FDB3810FE2B84F665F74197AFD885E3C2475C18DDB4418D2E
310
F64DA065DAE146172829B1F7D7EF90226551916DA50750AC03C432450D67BEB947E3F7873040CF84A5348E6E0DD7720C44223FDED2687F6BE4D9CE1C1AE8FD048D591C67957D068A70486E0DBE6C4CC67B16E7895CDA921DCE83FAEA72F6374A7D121103F9014ED35B23F51F49882D9C67F196A44FD61667D8DAEF0E966B15
310
1B75B27B8693C7DA51096624CA8055588F808AE4C0D57F8248F6646CF30DDAB66EBB6D9D0BDB6C21B8CE288DD20C47FE2BAE6AC775CE70553BAEEBF616779DFEC8ECF77A5DB337E8B8E66C395B98EE4DD7990FE6F3D1F46E64A0C97813C741A98084445BD0E2D198B8639BDF29C5972834F1EDC751447C8966D3862D917429
310
49EB9868C0BA42B48A420A592B0BDD96C29FD9D60A148D250D6D259CFAAE5A6FBCF9074048DB58294B09B7F23463A06B897DE10FCED82E5635BDD0148538238CE2000574C3300305C1D642411A19EE2D9C14E298092D2A7A555EC1B0AFFB521397BB3C08B8FF1A13E1691EF823C952C119FD97B013F7D5D380279036A75136
310
94C266C704488CC6B6582CEE753BF2660124DA05780FD60262F24DDD4E0DAF398F05AB8531F9B8DC1CD63C3E341F9EB038212CE396279C59FA9DD260C5B4C0F85A8052E0AAEBEE84CA1780FE13205FF282C6A039460FBD434FC9CE7094EE6216827690834C07FE39885FBEBA1ADBE5C31384B458790E5370DB1F84A9268676
310
7605D2C9F8198C3E665D29DCDAC701D8F43D8DB89F83A1A020862588F7BBCDC198AC2098C2223C8503901EFEC636BF44F055D0817853D35053F86DA128E530753F3BE9EA03D80CA37EA92A4DC673F8F67F08BED3C5FAE33A673BEC937BE9D80BB2A311CD20993633A481AEB9FCD7D527E191B3E39FF858F5416D970FE7EC63
310
1E381AF4B2967A414231C00ACFC3856AC4CA3D05770F021C91384FE57A53A0F2E32066DEE6E8153EDC78D65FCA088AC3A405340633C8EE3EA30907C59848759591D03AE194828961264D705FA8D5DBE461E2E130CE231E6B5FDB629D0F0834DC1481AAA0A62C5BB9AD22BBA5BB5D9E42F46A2439D780940EAD081726DE8340
310
D6C42F233B86218BC69147210983B7349EA01D50827799E794043B8F06411E7A3B1A4022F1429C9CA1DF52826AEA7A22C797986D1B09EA96A59C52D910075C02AB4052E9AA08FA52A78C3C535E678A84A6D281B64316A2C6A477265FF054D100A8324661E6F3F960391D387DD31D0E06666FBE989933B73F3787BDCEDD74B0
310
18751DF76425028153B8AA263C5025AF7334FFCB1EF37013611AC00D2E36DE26EFDE8BF4796B436CB43B9D617F78773337A7EEB267F67ABD8E395A7407E6D29D4FEF7A9D9BD97439B31949E39CF924B53BB6E329934CA27D1DBDEB4114EA9AEBD94EE9AB2ECCFF37887EA827054D89BF6A102DADB2A1226C1B44F9A3F5108A
310
FD279EA33C1FCABE46F7A905D13A1F4D71EE8D71D9B1BA8EF8B8EEA8E38C3AC3D1A034F68B815A9CF3DD71AE49021F1ACF3CF3E204FB346B4EA8355C5AC6E937E516ABEBF611A053FE2F0FB99C67E4211E0DF19E783BCCDB8486C0784D82C61CB60FE234A51149459BF7AAFCABD1742CA8A6F49CDB608434F54292E16FB13F
310
D137D46C1A6273E041439AF191C0D5AAA03468D9829CA3C8DB5F48DC42FEA397E230098A56F71A066E4741A09A9C268BE34CF3239EC1DE3C9C79CE9688C9C535EA25FBAA3E68D45A9DFAE89BC99F8147D5353F111E7544FBD2C9EABB23FE19425019F4DDEE8D52C435ACD451196FE4821C5A4FFFE8BD10BA7F6C5568B6D349
310
A5642B8AEA8C84D0C7E22C67ADFC75D0775E1D24E342CD212A27BDB138140D9C6AE1003DD1C19D2B6F2BC7401D4A231874B512E495148D262C7421867A7C76F506BFBEA8EC2AD5EF8E973FBD62AE3A5F28A63FD771806AB908C032FA68357563D5ADD543E90BCE7C08A46BF16DCEC023B6647B6ACC34724D25BAAA53AF55CF
310
2B1E504318D9621E67EFF945F00583AAA17D4E6D59B4D9C5FA8A27360BA6D3273E34A6755A9F3FAC6B5460A5F5D30F1C23F252A32057E7BC1BBE40EAEBEAD4F4D7284889BEAE2E3CFE4B74144A8195391A8C83D338A03095275BB42731646F183BB4E8365848529195C178659052AF045A3CFD5C0C5533BC09D4D3FE2386C9
310
74207BB1DC87A92864CC5B43AEA3DF600ECA4791623A653D411B2663988172466F0DB0D88C42B7656D609E25A687827A6D5E098E8DA33DCFF7C553E5EFD3631C1D884A27B9CA3D6D70919269CE04856D225E1440D557DC988CBF5D74C50EC2195C6EF2AC14E6B470924682A0DE0814C2C1D8EF49C27B8082E2B25CAE25F668
310
90B41ACD5FB48382AA9961B617F3F50ADED3C583CD47E3ABCF2809F23D57E7A5EE57A364F2AE3BC88B29D4180C438A99605E43CEDFD90F2C86774C215A523002F4FB6138F8C39EC7611847C5923D956FAAD0FA11DE3B6D6D35F38336DE71FBB69802C8B9BEB7C129B1F0367D8205502DA37C385A40AC1940194D2B06A034C2
310
75018F69FB570B246BA3CA84A41A76393C62A88FC091F8CB1CEE36D50D950924F80270256E9E2ED4C2D86630059FFC07504B0304140006080800ED7A834B08539667E2000000550100003C0000006662782F32323835384537432D413146342D343434322D394433362D4631434145343237424146422F7265736F75726365
310
732F322F636E782E786D6C4D90CD6AC33010845F45087AB42C39F487B0565EA2A75E822A6F54115B6BF4539AB78F94AAD0D32E331FCBECC0E9675BD937C6E429CC5C09C919064B8B0F6EE6255F8637CE4E1A2251FE877116CC86336F32D7E02295BD4B0B5E4C599BBAFA70EDA23C3B0C18BD3DEFC171665793D2CC93FDC2CD
310
0853322D98AE6231D9082522262AD1623D91FD86FD848D68322E5C4F52BD0E6A1AE4E15D3D1FA7C3717AF980B1911A3E89D6CEFB9031D2FE34494B750D359184B1011A4AF49D6A6F54E32F9EA8F160ACB6869463EDA063F9B657CC6FC6E1F8407E5D0D637BB28E470375B642F41D504B0304140006080800ED7A834BFF15A4
310
A45D000000800000003A0000006662782F32323835384537432D413146342D343434322D394433362D4631434145343237424146422F7265736F75726365732F636E782E786D6C4D8B3B0E80201005AF42B6F75B59F0390B113044D83508C6E30BC6C26AF226F3B8BA6360974DA7271430F523308B2B198F9B80925DB70053
310
9227A2FCCB80A18E5640D320F996A81C9F32D6E9129A0D1EF74FCE750E6D57BC7165FBCA07504B0304140006080800ED7A834BA8FE2E6A4301000056050000300000006662782F32323835384537432D413146342D343434322D394433362D4631434145343237424146422F636E782E786D6CCD944D6EC3201085AF622175
310
69B01DF547152652173D41175577184F5C1A0C160C5573FB42EA24ADAAA85D444A7668F890DE9B790C5F7E8CA678071FB4B32DA969450AB0CAF5DA0E2D89B82AEF48B114DC3B87DF30525839424B7299083E7817A7B9D4C34A4693AB46DBF55C94885E77112190421919424B827A85515219D1F510D6B49728694D3D0417BD
310
82F41EF508F37BE54122F44434557D5BD64D592D9EEAEBFB6671DFDCBC709649C13BE7CCCC6B8BE0DD74D554CAA5A34D722ACE322078F47AA6B207220EDA68A72D67E95EF090F4DA61E67033656E9A8C561253A3985308582608E4C8D9172C38CB8E7FF87E7C783E6848A75E7B50E8FCE66C6DA88FB5612F8DA644FCAF0B5B
310
F02FF3AE7B4B96CF37F7A386676127B3BB4B6E48D1FD9D849427690773891F602FEDF4F94F8B05B5BA44D33B6527F2CCB62B300D3E6F44F109504B0304140006080800ED7A834BC7203B5F7F000000A30000000B0000006662782F636E782E786D6C4D8CD10E822018465F85FDF75410256D804393F77089CE89D0485A8F1F
310
342FBAFAB6B3EF1C517F5687DE36BEE6E02590C30990F58F30CC7E9290B6117340B5123184EDEF06C8F7AB9550302831C5909E3B1AECD82757A89BFDB2434AF98577558B35310C33C628BEDDCF576C48AB3B46AB469B261BC7A2E4F9F5F296BCFA02504B0304140006080800ED7A834BA6D797065F00000082000000070000
310
00636E782E786D6C4DCB3B0E80201045D1AD90E9FD7516806B51190811670C8A61F982B1B0BAC9C97B72CA7B1037C6D3332918DA1E04D2CAC69353902EDB8C20262D23F3F59B81A079470595414B17391D1F19B4730A5583A7ED43BBE4025D9592775E5ADFFA01504B0304140006080800ED7A834BECFD112DA80000002601
310
0000130000005B436F6E74656E745F54797065735D2E786D6C7D4F4B0EC22010BD0A61DF525D18634ABB506FE00510A79458060253536F2FD89D5197F3FED3F68B9BD80362B21E25DFD40D6780DADF2C1AC9671AAA3D677DD75E9E0112CB5A4C928F44E12044D22338956A1F003333F8E814E5331A1194BE2B0362DB343BA1
310
3D122055543278D79E6050F344ECBC6478EDCD76CE8EABAE5449AE4298AC56946789C28AAFBEABC53F3EAF09A84A1441B91F0101CD4780756578C173A578FFDDBD00504B0304140006080800ED7A834B3DEE336E64000000790000001B0000006175746F6465736B2D64657369676E2D7061636B6167652E786D6C35CBC10E
310
83200C00D05F21DCA56CA76D41FC96062B120735B69A7DBE268BB7777961F8D5AF396893C2ADB70FE7ADA196782C2DF776D7A97B5933C430F15651E5469C55D70F80A4992A3ADC954792C525AE70A1E4D6AD9816CC044FEFDF01FE3FDE907802504B0304140006080800ED7A834B8A954B6FF30000008E0100003D00000066
310
62782F32323835384537432D413146342D343434322D394433362D4631434145343237424146422F7265736F75726365732F322F636F72652E786D6C8550CB6E833010FC15B477038690A0C838A2C2FD829E7AB36C875A0936F223CAE7D70E546A4F3DED6A76667677C8E5B9DC8B87725E5B33002E6B289411566A330F10C3
310
15F5505C2871D6865F34280C5FD40019064A6667E3BA43C29AA04C468D956A07B9F72A4021EEA919C08B2FB5F092C79018FE56AE5CDCF8AC4A5C6E3C4A62D472976A99DCF4552B07B467356BBB11A371641D3AD4A737D4B7EC88A6697A9F587F9830EB4995C59404BDFC6C174EF1A024D0A6C627841B54B71FB83B37EDB939
310
7E922A3329F1C1A59FF7A5F9BB4427D586FE718BABFCDF2D6A13DA6677DB141E284EC7BD069454399D545ED1A59A93A4DF504B0304140006080800ED7A834B322318ABF8000000960100003B0000006662782F32323835384537432D413146342D343434322D394433362D4631434145343237424146422F7265736F757263
310
65732F636F72652E786D6C8550CB6E84300CFC15E47B80C03ED02A644545FA053DF516052F8D7649501E553FBFC942A5F6D493ADF1CCD81E76FD5A1EC5273AAFADE98196351468949DB4997B88E1463A28AE9C396BC32F1A14462ED8438681B3D9D9B8EE90B226A0C9A8B113EEA0F41E0314EA919A1EBCFAC045963286C4F0
310
F77295EA2E672C69B9F1388B514FBB544FC94DDF343AE09DA8457B1C281906712487FAFC42BA569CC8388EAFA3E80E23151DABB298B3A0979FEDCAA10C38016F6A7A26B42175FB468F97A6BD34A777566526673EB8F4F3BE347F07DCA1B7D129F4ACDAA67F5CE33AFDEF1AB5096DB3BB6E0A0F9CA6239F03CEAA9C522ACF08
310
53CD89F26F504B0304140006080800ED7A834B74276975F2000000B1010000310000006662782F32323835384537432D413146342D343434322D394433362D4631434145343237424146422F636F72652E786D6C8D504B6EC32014BC8AC51E6CB013BB112672D2F8045D758780382831587CAA1EBF10BB52BBCBEAA17933CC
310
BCA1C7EFF9517C29E7B5353DC0A8028532C24A6DA61EC470851D288E8C3A6BC31F1A280C9F550F320C189D9C8DCB06096B8232193556AA0DE4DEAB000AF1488F1E78715333473C86C4F077B47071E7934218AD3C46839E7FA5C2291E94048C54B88598C0AAFEC0BB03A90F64FF49CBCC6434462D372B2D93BBBE6AE5928474
310
BBEED29EE180C706364D43E0DB7BBD87233E0F9786B4A7613CD1328B19F5C1A59BB74FF275AFCA57E1BFCC71912F64D626D464335C151E309CF23C178C96B9C0349EEDA699CB663F504B0304140006080800ED7A834BF77DD47E53010000DD0200000C0000006662782F636F72652E786D6C8D52DB6E842014FC15C33B2ABA
310
17B34136DB68BFA04F7D63112D59058360F6F30B5E627DE8B6314132E79C993313F0F5D9B5C1C8F52094CC010A631070C954256493036B6A9881E04AB056CAFC680381A41DCF818701C18D56B65F20A6A4E1D2A352557C01E930700302D6BA4B0E06F6C53B1A526B5CC7F0087BCA1EB4E1210AE73E82AD15D5322A2AC7266A
310
C13520591997E9F186E0ED561EE1213EBFC12C2D4FB0288AF7A2CC0E052A331CF961828DE85675A63935BC022489D119A204C6E9073A5E92F4929C3E71E43B091E8C769E1751EF0E90FAFEC4D18CEFF86C5FFDCD67853469B2F0CD130320C8AD3715088E7C3EEE3785B7CFD009BBFC0CBDB7AB85878346CE8CD20757A994DD
310
4A236D2D77D471307D389AAB8E7922F88D2779C1F39AC3054565E356A3C65DEFD678F5FD4E3DD77034CF402ADDD1765B6E5E713B37A19DA5759CA956E9FF4CAF56D73023FF30C937504B0304140006080800ED7A834B2732F83E08010000B201000008000000636F72652E786D6C8D50CB6E833010FC156BEF060C21419171
310
4405FD829E7A73B143AC808DFC88DABFAF1DA8D4DE7A5A6B6676673CF4F2B9CCE821AD5346B740B20290D4A3114A4F2D047FC50DA00BA3D618FF4B0648F345B690606074B226AC3B341AEDA54EA83642EE20774E7A40E31C1F2DB8F126179EF1E0A3C2DDB3958F773EC98C649B8E51AF969FD5D14AEEA5005616E48449898B
310
EA8DD4E7B23A97C7779A2725A32128B15B2911DDD555490BAC198AA1AA3B82BB6EA8F1A138BDE0A61A8EB8EFFBD77E680E3D191A9AA765469DB7F1CFFB9198D323C71FC997E61BC5E88731F32E88A104327AFE0256D03C117F428755FC23B4D2BE2AF783DB86034662A027118D5383713CEB8D33B5CDBE01504B0102140014
310
0006080800ED7A834B0000000000000000000000003700000000000000000000000000000000006662782F32323835384537432D413146342D343434322D394433362D4631434145343237424146422F617474726962757465732E62696E504B01021400140006080800ED7A834B0000000000000000000000003500000000
310
000000000000000000550000006662782F32323835384537432D413146342D343434322D394433362D4631434145343237424146422F76657274696365732E62696E504B01021400140006080800ED7A834BF270F13306000000040000003600000000000000000000000000A80000006662782F32323835384537432D4131
310
46342D343434322D394433362D4631434145343237424146422F747269616E676C65732E62696E504B01021400140006080800ED7A834B88E57597CD3F0000904100004200000000000000000000000000020100006662782F32323835384537432D413146342D343434322D394433362D4631434145343237424146422F72
310
65736F75726365732F322F305F67656E657269632E706E67504B01021400140006080800ED7A834B51464CB4890000004301000036000000000000000000000000002F4100006662782F32323835384537432D413146342D343434322D394433362D4631434145343237424146422F6469726563746F72792E786D6C504B01
310
021400140006080800ED7A834BCD09253E3E070000211C000034000000000000000000000000000C4200006662782F32323835384537432D413146342D343434322D394433362D4631434145343237424146422F6F626A656374732E786D6C504B01021400140006080800ED7A834B08539667E2000000550100003C000000
310
000000000000000000009C4900006662782F32323835384537432D413146342D343434322D394433362D4631434145343237424146422F7265736F75726365732F322F636E782E786D6C504B01021400140006080800ED7A834BFF15A4A45D000000800000003A00000000000000000000000000D84A00006662782F323238
310
35384537432D413146342D343434322D394433362D4631434145343237424146422F7265736F75726365732F636E782E786D6C504B01021400140006080800ED7A834BA8FE2E6A430100005605000030000000000000000000000000008D4B00006662782F32323835384537432D413146342D343434322D394433362D4631
310
434145343237424146422F636E782E786D6C504B01021400140006080800ED7A834BC7203B5F7F000000A30000000B000000000000000000000000001E4D00006662782F636E782E786D6C504B01021400140006080800ED7A834BA6D797065F000000820000000700000000000000000000000000C64D0000636E782E786D
310
6C504B01021400140006080800ED7A834BECFD112DA80000002601000013000000000000000000000000004A4E00005B436F6E74656E745F54797065735D2E786D6C504B01021400140006080800ED7A834B3DEE336E64000000790000001B00000000000000000000000000234F00006175746F6465736B2D64657369676E
310
2D7061636B6167652E786D6C504B01021400140006080800ED7A834B8A954B6FF30000008E0100003D00000000000000000000000000C04F00006662782F32323835384537432D413146342D343434322D394433362D4631434145343237424146422F7265736F75726365732F322F636F72652E786D6C504B010214001400
310
06080800ED7A834B322318ABF8000000960100003B000000000000000000000000000E5100006662782F32323835384537432D413146342D343434322D394433362D4631434145343237424146422F7265736F75726365732F636F72652E786D6C504B01021400140006080800ED7A834B74276975F2000000B10100003100
310
0000000000000000000000005F5200006662782F32323835384537432D413146342D343434322D394433362D4631434145343237424146422F636F72652E786D6C504B01021400140006080800ED7A834BF77DD47E53010000DD0200000C00000000000000000000000000A05300006662782F636F72652E786D6C504B0102
310
1400140006080800ED7A834B2732F83E08010000B201000008000000000000000000000000001D550000636F72652E786D6C504B050600000000120012002D0600004B5600000000
  0
XRECORD
  5
17
102
{ACAD_REACTORS
330
12
102
}
330
12
100
AcDbXrecord
280
     1
270
     1
271
     1
  0
XRECORD
  5
16
102
{ACAD_REACTORS
330
12
102
}
330
12
100
AcDbXrecord
280
     1
270
     1
271
     1
  0
XRECORD
  5
18
102
{ACAD_REACTORS
330
12
102
}
330
12
100
AcDbXrecord
280
     1
270
     1
271
     1
  0
XRECORD
  5
15
102
{ACAD_REACTORS
330
12
102
}
330
12
100
AcDbXrecord
280
     1
270
     1
271
     1
  0
XRECORD
  5
24
102
{ACAD_REACTORS
330
22
102
}
330
22
100
AcDbXrecord
280
     1
270
     1
271
     1
  0
XRECORD
  5
23
102
{ACAD_REACTORS
330
22
102
}
330
22
100
AcDbXrecord
280
     1
270
     1
271
     1
  0
XRECORD
  5
27
102
{ACAD_REACTORS
330
22
102
}
330
22
100
AcDbXrecord
280
     1
270
     1
271
     1
  0
XRECORD
  5
26
102
{ACAD_REACTORS
330
22
102
}
330
22
100
AcDbXrecord
280
     1
270
     1
271
     1
  0
XRECORD
  5
28
102
{ACAD_REACTORS
330
22
102
}
330
22
100
AcDbXrecord
280
     1
270
     1
271
     1
  0
XRECORD
  5
25
102
{ACAD_REACTORS
330
22
102
}
330
22
100
AcDbXrecord
280
     1
270
     1
271
     1
  0
XRECORD
  5
9B3
102
{ACAD_REACTORS
330
9B2
102
}
330
9B2
100
AcDbXrecord
280
     1
102
ACAD_ROUNDTRIP_2012_MLEADER_STYLE
298
     1
  0
XRECORD
  5
9B5
102
{ACAD_REACTORS
330
9B4
102
}
330
9B4
100
AcDbXrecord
280
     1
102
DISPLAYNAME
  1
Imperial24
102
FLAGS
 90
        0
  0
CELLSTYLEMAP
  5
970
102
{ACAD_REACTORS
330
96F
102
}
330
96F
100
AcDbCellStyleMap
 90
        3
300
CELLSTYLE
  1
TABLEFORMAT_BEGIN
 90
        5
170
     1
 91
        0
 92
    32768
 62
   257
 93
        1
300
CONTENTFORMAT
  1
CONTENTFORMAT_BEGIN
 90
        0
 91
        0
 92
      512
 93
        0
300

 40
0.0
140
1.0
 94
        5
 62
     0
340
55
144
0.25
309
CONTENTFORMAT_END
171
     0
 94
        0
309
TABLEFORMAT_END
  1
CELLSTYLE_BEGIN
 90
        1
 91
        1
300
_TITLE
309
CELLSTYLE_END
300
CELLSTYLE
  1
TABLEFORMAT_BEGIN
 90
        5
170
     1
 91
        0
 92
        0
 62
   257
 93
        1
300
CONTENTFORMAT
  1
CONTENTFORMAT_BEGIN
 90
        0
 91
        0
 92
      512
 93
        0
300

 40
0.0
140
1.0
 94
        5
 62
     0
340
55
144
0.18
309
CONTENTFORMAT_END
171
     0
 94
        0
309
TABLEFORMAT_END
  1
CELLSTYLE_BEGIN
 90
        2
 91
        1
300
_HEADER
309
CELLSTYLE_END
300
CELLSTYLE
  1
TABLEFORMAT_BEGIN
 90
        5
170
     1
 91
        0
 92
        0
 62
   257
 93
        1
300
CONTENTFORMAT
  1
CONTENTFORMAT_BEGIN
 90
        0
 91
        0
 92
      512
 93
        0
300

 40
0.0
140
1.0
 94
        2
 62
     0
340
55
144
0.18
309
CONTENTFORMAT_END
171
     0
 94
        0
309
TABLEFORMAT_END
  1
CELLSTYLE_BEGIN
 90
        3
 91
        2
300
_DATA
309
CELLSTYLE_END
  0
XRECORD
  5
98D
102
{ACAD_REACTORS
330
98C
102
}
330
98C
100
AcDbXrecord
280
     1
102
RTVSPost2010Prop28
280
     1
102
RTVSPost2010PropOp28
 70
     1
102
RTVSPost2010Prop29
280
     1
102
RTVSPost2010PropOp29
 70
     1
102
RTVSPost2010Prop30
280
     0
102
RTVSPost2010PropOp30
 70
     1
102
RTVSPost2010Prop31
280
     0
102
RTVSPost2010PropOp31
 70
     1
102
RTVSPost2010Prop32
280
     0
102
RTVSPost2010PropOp32
 70
     1
102
RTVSPost2010Prop33
280
     0
102
RTVSPost2010PropOp33
 70
     1
102
RTVSPost2010Prop34
280
     0
102
RTVSPost2010PropOp34
 70
     1
102
RTVSPost2010Prop35
280
     0
102
RTVSPost2010PropOp35
 70
     1
102
RTVSPost2010Prop36
280
     0
102
RTVSPost2010PropOp36
 70
     1
102
RTVSPost2010Prop37
 90
       50
102
RTVSPost2010PropOp37
 70
     1
102
RTVSPost2010Prop38
140
0.0
102
RTVSPost2010PropOp38
 70
     1
102
RTVSPost2010Prop39
140
1.0
102
RTVSPost2010PropOp39
 70
     1
102
RTVSPost2010Prop40
 90
        0
102
RTVSPost2010PropOp40
 70
     1
102
RTVSPost2010Prop41ColorIndex
 90
       18
102
RTVSPost2010Prop41ColorRGB
 90
        0
102
RTVSPost2010PropOp41
 70
     1
102
RTVSPost2010Prop42
 90
       50
102
RTVSPost2010PropOp42
 70
     1
102
RTVSPost2010Prop43
 90
        3
102
RTVSPost2010PropOp43
 70
     1
102
RTVSPost2010Prop44ColorIndex
 90
        5
102
RTVSPost2010Prop44ColorRGB
 90
      255
102
RTVSPost2010PropOp44
 70
     1
102
RTVSPost2010Prop45
280
     0
102
RTVSPost2010PropOp45
 70
     1
102
RTVSPost2010Prop46
 90
       50
102
RTVSPost2010PropOp46
 70
     1
102
RTVSPost2010Prop47
 90
       50
102
RTVSPost2010PropOp47
 70
     1
102
RTVSPost2010Prop48
 90
       50
102
RTVSPost2010PropOp48
 70
     1
102
RTVSPost2010Prop49
280
     0
102
RTVSPost2010PropOp49
 70
     1
102
RTVSPost2010Prop50
 90
       50
102
RTVSPost2010PropOp50
 70
     1
102
RTVSPost2010Prop51ColorIndex
 90
      256
102
RTVSPost2010Prop51ColorRGB
 90
-16777216
102
RTVSPost2010PropOp51
 70
     0
102
RTVSPost2010Prop52
140
1.0
102
RTVSPost2010PropOp52
 70
     0
102
RTVSPost2010Prop53
 90
        2
102
RTVSPost2010PropOp53
 70
     1
102
RTVSPost2010Prop54
  1
strokes_ogs.tif
102
RTVSPost2010PropOp54
 70
     1
102
RTVSPost2010Prop55
280
     0
102
RTVSPost2010PropOp55
 70
     1
102
RTVSPost2010Prop56
140
1.0
102
RTVSPost2010PropOp56
 70
     1
102
RTVSPost2010Prop57
140
1.0
102
RTVSPost2010PropOp57
 70
     1
  0
XRECORD
  5
98B
102
{ACAD_REACTORS
330
98A
102
}
330
98A
100
AcDbXrecord
280
     1
102
RTVSPost2010Prop28
280
     0
102
RTVSPost2010PropOp28
 70
     1
102
RTVSPost2010Prop29
280
     1
102
RTVSPost2010PropOp29
 70
     1
102
RTVSPost2010Prop30
280
     1
102
RTVSPost2010PropOp30
 70
     1
102
RTVSPost2010Prop31
280
     0
102
RTVSPost2010PropOp31
 70
     1
102
RTVSPost2010Prop32
280
     0
102
RTVSPost2010PropOp32
 70
     1
102
RTVSPost2010Prop33
280
     0
102
RTVSPost2010PropOp33
 70
     1
102
RTVSPost2010Prop34
280
     0
102
RTVSPost2010PropOp34
 70
     1
102
RTVSPost2010Prop35
280
     0
102
RTVSPost2010PropOp35
 70
     1
102
RTVSPost2010Prop36
280
     0
102
RTVSPost2010PropOp36
 70
     1
102
RTVSPost2010Prop37
 90
       50
102
RTVSPost2010PropOp37
 70
     1
102
RTVSPost2010Prop38
140
0.0
102
RTVSPost2010PropOp38
 70
     1
102
RTVSPost2010Prop39
140
1.0
102
RTVSPost2010PropOp39
 70
     1
102
RTVSPost2010Prop40
 90
        0
102
RTVSPost2010PropOp40
 70
     1
102
RTVSPost2010Prop41ColorIndex
 90
       18
102
RTVSPost2010Prop41ColorRGB
 90
        0
102
RTVSPost2010PropOp41
 70
     1
102
RTVSPost2010Prop42
 90
       50
102
RTVSPost2010PropOp42
 70
     1
102
RTVSPost2010Prop43
 90
        3
102
RTVSPost2010PropOp43
 70
     1
102
RTVSPost2010Prop44ColorIndex
 90
        5
102
RTVSPost2010Prop44ColorRGB
 90
      255
102
RTVSPost2010PropOp44
 70
     1
102
RTVSPost2010Prop45
280
     0
102
RTVSPost2010PropOp45
 70
     1
102
RTVSPost2010Prop46
 90
       50
102
RTVSPost2010PropOp46
 70
     1
102
RTVSPost2010Prop47
 90
       50
102
RTVSPost2010PropOp47
 70
     1
102
RTVSPost2010Prop48
 90
       50
102
RTVSPost2010PropOp48
 70
     1
102
RTVSPost2010Prop49
280
     0
102
RTVSPost2010PropOp49
 70
     1
102
RTVSPost2010Prop50
 90
       50
102
RTVSPost2010PropOp50
 70
     1
102
RTVSPost2010Prop51ColorIndex
 90
      256
102
RTVSPost2010Prop51ColorRGB
 90
-16777216
102
RTVSPost2010PropOp51
 70
     0
102
RTVSPost2010Prop52
140
1.0
102
RTVSPost2010PropOp52
 70
     0
102
RTVSPost2010Prop53
 90
        2
102
RTVSPost2010PropOp53
 70
     1
102
RTVSPost2010Prop54
  1
strokes_ogs.tif
102
RTVSPost2010PropOp54
 70
     1
102
RTVSPost2010Prop55
280
     0
102
RTVSPost2010PropOp55
 70
     1
102
RTVSPost2010Prop56
140
1.0
102
RTVSPost2010PropOp56
 70
     1
102
RTVSPost2010Prop57
140
1.0
102
RTVSPost2010PropOp57
 70
     1
  0
XRECORD
  5
999
102
{ACAD_REACTORS
330
998
102
}
330
998
100
AcDbXrecord
280
     1
102
RTVSPost2010Prop28
280
     0
102
RTVSPost2010PropOp28
 70
     1
102
RTVSPost2010Prop29
280
     1
102
RTVSPost2010PropOp29
 70
     1
102
RTVSPost2010Prop30
280
     1
102
RTVSPost2010PropOp30
 70
     1
102
RTVSPost2010Prop31
280
     0
102
RTVSPost2010PropOp31
 70
     1
102
RTVSPost2010Prop32
280
     0
102
RTVSPost2010PropOp32
 70
     1
102
RTVSPost2010Prop33
280
     0
102
RTVSPost2010PropOp33
 70
     1
102
RTVSPost2010Prop34
280
     0
102
RTVSPost2010PropOp34
 70
     1
102
RTVSPost2010Prop35
280
     0
102
RTVSPost2010PropOp35
 70
     1
102
RTVSPost2010Prop36
280
     0
102
RTVSPost2010PropOp36
 70
     1
102
RTVSPost2010Prop37
 90
       50
102
RTVSPost2010PropOp37
 70
     1
102
RTVSPost2010Prop38
140
0.0
102
RTVSPost2010PropOp38
 70
     1
102
RTVSPost2010Prop39
140
1.0
102
RTVSPost2010PropOp39
 70
     1
102
RTVSPost2010Prop40
 90
        0
102
RTVSPost2010PropOp40
 70
     1
102
RTVSPost2010Prop41ColorIndex
 90
       18
102
RTVSPost2010Prop41ColorRGB
 90
        0
102
RTVSPost2010PropOp41
 70
     1
102
RTVSPost2010Prop42
 90
       50
102
RTVSPost2010PropOp42
 70
     1
102
RTVSPost2010Prop43
 90
        3
102
RTVSPost2010PropOp43
 70
     1
102
RTVSPost2010Prop44ColorIndex
 90
        5
102
RTVSPost2010Prop44ColorRGB
 90
      255
102
RTVSPost2010PropOp44
 70
     1
102
RTVSPost2010Prop45
280
     0
102
RTVSPost2010PropOp45
 70
     1
102
RTVSPost2010Prop46
 90
       50
102
RTVSPost2010PropOp46
 70
     1
102
RTVSPost2010Prop47
 90
       50
102
RTVSPost2010PropOp47
 70
     1
102
RTVSPost2010Prop48
 90
       50
102
RTVSPost2010PropOp48
 70
     1
102
RTVSPost2010Prop49
280
     0
102
RTVSPost2010PropOp49
 70
     1
102
RTVSPost2010Prop50
 90
       50
102
RTVSPost2010PropOp50
 70
     1
102
RTVSPost2010Prop51ColorIndex
 90
      256
102
RTVSPost2010Prop51ColorRGB
 90
-16777216
102
RTVSPost2010PropOp51
 70
     0
102
RTVSPost2010Prop52
140
1.0
102
RTVSPost2010PropOp52
 70
     0
102
RTVSPost2010Prop53
 90
        2
102
RTVSPost2010PropOp53
 70
     1
102
RTVSPost2010Prop54
  1
strokes_ogs.tif
102
RTVSPost2010PropOp54
 70
     1
102
RTVSPost2010Prop55
280
     0
102
RTVSPost2010PropOp55
 70
     1
102
RTVSPost2010Prop56
140
1.0
102
RTVSPost2010PropOp56
 70
     1
102
RTVSPost2010Prop57
140
1.0
102
RTVSPost2010PropOp57
 70
     1
  0
XRECORD
  5
9A1
102
{ACAD_REACTORS
330
9A0
102
}
330
9A0
100
AcDbXrecord
280
     1
102
RTVSPost2010Prop28
280
     0
102
RTVSPost2010PropOp28
 70
     1
102
RTVSPost2010Prop29
280
     1
102
RTVSPost2010PropOp29
 70
     1
102
RTVSPost2010Prop30
280
     1
102
RTVSPost2010PropOp30
 70
     1
102
RTVSPost2010Prop31
280
     0
102
RTVSPost2010PropOp31
 70
     1
102
RTVSPost2010Prop32
280
     0
102
RTVSPost2010PropOp32
 70
     1
102
RTVSPost2010Prop33
280
     0
102
RTVSPost2010PropOp33
 70
     1
102
RTVSPost2010Prop34
280
     0
102
RTVSPost2010PropOp34
 70
     1
102
RTVSPost2010Prop35
280
     0
102
RTVSPost2010PropOp35
 70
     1
102
RTVSPost2010Prop36
280
     0
102
RTVSPost2010PropOp36
 70
     1
102
RTVSPost2010Prop37
 90
       50
102
RTVSPost2010PropOp37
 70
     1
102
RTVSPost2010Prop38
140
0.0
102
RTVSPost2010PropOp38
 70
     1
102
RTVSPost2010Prop39
140
1.0
102
RTVSPost2010PropOp39
 70
     1
102
RTVSPost2010Prop40
 90
        0
102
RTVSPost2010PropOp40
 70
     1
102
RTVSPost2010Prop41ColorIndex
 90
       18
102
RTVSPost2010Prop41ColorRGB
 90
        0
102
RTVSPost2010PropOp41
 70
     1
102
RTVSPost2010Prop42
 90
       50
102
RTVSPost2010PropOp42
 70
     1
102
RTVSPost2010Prop43
 90
        3
102
RTVSPost2010PropOp43
 70
     1
102
RTVSPost2010Prop44ColorIndex
 90
        5
102
RTVSPost2010Prop44ColorRGB
 90
      255
102
RTVSPost2010PropOp44
 70
     1
102
RTVSPost2010Prop45
280
     0
102
RTVSPost2010PropOp45
 70
     1
102
RTVSPost2010Prop46
 90
       50
102
RTVSPost2010PropOp46
 70
     1
102
RTVSPost2010Prop47
 90
       50
102
RTVSPost2010PropOp47
 70
     1
102
RTVSPost2010Prop48
 90
       50
102
RTVSPost2010PropOp48
 70
     1
102
RTVSPost2010Prop49
280
     0
102
RTVSPost2010PropOp49
 70
     1
102
RTVSPost2010Prop50
 90
       50
102
RTVSPost2010PropOp50
 70
     1
102
RTVSPost2010Prop51ColorIndex
 90
      256
102
RTVSPost2010Prop51ColorRGB
 90
-16777216
102
RTVSPost2010PropOp51
 70
     0
102
RTVSPost2010Prop52
140
1.0
102
RTVSPost2010PropOp52
 70
     0
102
RTVSPost2010Prop53
 90
        2
102
RTVSPost2010PropOp53
 70
     1
102
RTVSPost2010Prop54
  1
strokes_ogs.tif
102
RTVSPost2010PropOp54
 70
     1
102
RTVSPost2010Prop55
280
     0
102
RTVSPost2010PropOp55
 70
     1
102
RTVSPost2010Prop56
140
1.0
102
RTVSPost2010PropOp56
 70
     1
102
RTVSPost2010Prop57
140
1.0
102
RTVSPost2010PropOp57
 70
     1
  0
XRECORD
  5
993
102
{ACAD_REACTORS
330
992
102
}
330
992
100
AcDbXrecord
280
     1
102
RTVSPost2010Prop28
280
     0
102
RTVSPost2010PropOp28
 70
     1
102
RTVSPost2010Prop29
280
     1
102
RTVSPost2010PropOp29
 70
     1
102
RTVSPost2010Prop30
280
     1
102
RTVSPost2010PropOp30
 70
     1
102
RTVSPost2010Prop31
280
     0
102
RTVSPost2010PropOp31
 70
     1
102
RTVSPost2010Prop32
280
     0
102
RTVSPost2010PropOp32
 70
     1
102
RTVSPost2010Prop33
280
     0
102
RTVSPost2010PropOp33
 70
     1
102
RTVSPost2010Prop34
280
     0
102
RTVSPost2010PropOp34
 70
     1
102
RTVSPost2010Prop35
280
     0
102
RTVSPost2010PropOp35
 70
     1
102
RTVSPost2010Prop36
280
     0
102
RTVSPost2010PropOp36
 70
     1
102
RTVSPost2010Prop37
 90
       50
102
RTVSPost2010PropOp37
 70
     1
102
RTVSPost2010Prop38
140
0.0
102
RTVSPost2010PropOp38
 70
     1
102
RTVSPost2010Prop39
140
1.0
102
RTVSPost2010PropOp39
 70
     1
102
RTVSPost2010Prop40
 90
        0
102
RTVSPost2010PropOp40
 70
     1
102
RTVSPost2010Prop41ColorIndex
 90
       18
102
RTVSPost2010Prop41ColorRGB
 90
        0
102
RTVSPost2010PropOp41
 70
     1
102
RTVSPost2010Prop42
 90
       50
102
RTVSPost2010PropOp42
 70
     1
102
RTVSPost2010Prop43
 90
        3
102
RTVSPost2010PropOp43
 70
     1
102
RTVSPost2010Prop44ColorIndex
 90
        5
102
RTVSPost2010Prop44ColorRGB
 90
      255
102
RTVSPost2010PropOp44
 70
     1
102
RTVSPost2010Prop45
280
     0
102
RTVSPost2010PropOp45
 70
     1
102
RTVSPost2010Prop46
 90
       50
102
RTVSPost2010PropOp46
 70
     1
102
RTVSPost2010Prop47
 90
       50
102
RTVSPost2010PropOp47
 70
     1
102
RTVSPost2010Prop48
 90
       50
102
RTVSPost2010PropOp48
 70
     1
102
RTVSPost2010Prop49
280
     0
102
RTVSPost2010PropOp49
 70
     1
102
RTVSPost2010Prop50
 90
       50
102
RTVSPost2010PropOp50
 70
     1
102
RTVSPost2010Prop51ColorIndex
 90
      256
102
RTVSPost2010Prop51ColorRGB
 90
-16777216
102
RTVSPost2010PropOp51
 70
     0
102
RTVSPost2010Prop52
140
1.0
102
RTVSPost2010PropOp52
 70
     0
102
RTVSPost2010Prop53
 90
        2
102
RTVSPost2010PropOp53
 70
     1
102
RTVSPost2010Prop54
  1
strokes_ogs.tif
102
RTVSPost2010PropOp54
 70
     1
102
RTVSPost2010Prop55
280
     0
102
RTVSPost2010PropOp55
 70
     1
102
RTVSPost2010Prop56
140
1.0
102
RTVSPost2010PropOp56
 70
     1
102
RTVSPost2010Prop57
140
1.0
102
RTVSPost2010PropOp57
 70
     1
  0
XRECORD
  5
997
102
{ACAD_REACTORS
330
996
102
}
330
996
100
AcDbXrecord
280
     1
102
RTVSPost2010Prop28
280
     0
102
RTVSPost2010PropOp28
 70
     1
102
RTVSPost2010Prop29
280
     1
102
RTVSPost2010PropOp29
 70
     1
102
RTVSPost2010Prop30
280
     1
102
RTVSPost2010PropOp30
 70
     1
102
RTVSPost2010Prop31
280
     0
102
RTVSPost2010PropOp31
 70
     1
102
RTVSPost2010Prop32
280
     0
102
RTVSPost2010PropOp32
 70
     1
102
RTVSPost2010Prop33
280
     0
102
RTVSPost2010PropOp33
 70
     1
102
RTVSPost2010Prop34
280
     0
102
RTVSPost2010PropOp34
 70
     1
102
RTVSPost2010Prop35
280
     0
102
RTVSPost2010PropOp35
 70
     1
102
RTVSPost2010Prop36
280
     0
102
RTVSPost2010PropOp36
 70
     1
102
RTVSPost2010Prop37
 90
       50
102
RTVSPost2010PropOp37
 70
     1
102
RTVSPost2010Prop38
140
0.0
102
RTVSPost2010PropOp38
 70
     1
102
RTVSPost2010Prop39
140
1.0
102
RTVSPost2010PropOp39
 70
     1
102
RTVSPost2010Prop40
 90
        0
102
RTVSPost2010PropOp40
 70
     1
102
RTVSPost2010Prop41ColorIndex
 90
       18
102
RTVSPost2010Prop41ColorRGB
 90
        0
102
RTVSPost2010PropOp41
 70
     1
102
RTVSPost2010Prop42
 90
       50
102
RTVSPost2010PropOp42
 70
     1
102
RTVSPost2010Prop43
 90
        3
102
RTVSPost2010PropOp43
 70
     1
102
RTVSPost2010Prop44ColorIndex
 90
        5
102
RTVSPost2010Prop44ColorRGB
 90
      255
102
RTVSPost2010PropOp44
 70
     1
102
RTVSPost2010Prop45
280
     0
102
RTVSPost2010PropOp45
 70
     1
102
RTVSPost2010Prop46
 90
       50
102
RTVSPost2010PropOp46
 70
     1
102
RTVSPost2010Prop47
 90
       50
102
RTVSPost2010PropOp47
 70
     1
102
RTVSPost2010Prop48
 90
       50
102
RTVSPost2010PropOp48
 70
     1
102
RTVSPost2010Prop49
280
     0
102
RTVSPost2010PropOp49
 70
     1
102
RTVSPost2010Prop50
 90
       50
102
RTVSPost2010PropOp50
 70
     1
102
RTVSPost2010Prop51ColorIndex
 90
      256
102
RTVSPost2010Prop51ColorRGB
 90
-16777216
102
RTVSPost2010PropOp51
 70
     0
102
RTVSPost2010Prop52
140
1.0
102
RTVSPost2010PropOp52
 70
     0
102
RTVSPost2010Prop53
 90
        2
102
RTVSPost2010PropOp53
 70
     1
102
RTVSPost2010Prop54
  1
strokes_ogs.tif
102
RTVSPost2010PropOp54
 70
     1
102
RTVSPost2010Prop55
280
     0
102
RTVSPost2010PropOp55
 70
     1
102
RTVSPost2010Prop56
140
1.0
102
RTVSPost2010PropOp56
 70
     1
102
RTVSPost2010Prop57
140
1.0
102
RTVSPost2010PropOp57
 70
     1
  0
XRECORD
  5
9B1
102
{ACAD_REACTORS
330
9B0
102
}
330
9B0
100
AcDbXrecord
280
     1
102
RTVSPost2010Prop28
280
     0
102
RTVSPost2010PropOp28
 70
     0
102
RTVSPost2010Prop29
280
     1
102
RTVSPost2010PropOp29
 70
     0
102
RTVSPost2010Prop30
280
     1
102
RTVSPost2010PropOp30
 70
     0
102
RTVSPost2010Prop31
280
     0
102
RTVSPost2010PropOp31
 70
     0
102
RTVSPost2010Prop32
280
     0
102
RTVSPost2010PropOp32
 70
     0
102
RTVSPost2010Prop33
280
     0
102
RTVSPost2010PropOp33
 70
     0
102
RTVSPost2010Prop34
280
     0
102
RTVSPost2010PropOp34
 70
     0
102
RTVSPost2010Prop35
280
     0
102
RTVSPost2010PropOp35
 70
     0
102
RTVSPost2010Prop36
280
     0
102
RTVSPost2010PropOp36
 70
     0
102
RTVSPost2010Prop37
 90
       50
102
RTVSPost2010PropOp37
 70
     0
102
RTVSPost2010Prop38
140
0.0
102
RTVSPost2010PropOp38
 70
     0
102
RTVSPost2010Prop39
140
1.0
102
RTVSPost2010PropOp39
 70
     0
102
RTVSPost2010Prop40
 90
        0
102
RTVSPost2010PropOp40
 70
     0
102
RTVSPost2010Prop41ColorIndex
 90
       18
102
RTVSPost2010Prop41ColorRGB
 90
        0
102
RTVSPost2010PropOp41
 70
     0
102
RTVSPost2010Prop42
 90
       50
102
RTVSPost2010PropOp42
 70
     0
102
RTVSPost2010Prop43
 90
        3
102
RTVSPost2010PropOp43
 70
     0
102
RTVSPost2010Prop44ColorIndex
 90
        5
102
RTVSPost2010Prop44ColorRGB
 90
      255
102
RTVSPost2010PropOp44
 70
     0
102
RTVSPost2010Prop45
280
     0
102
RTVSPost2010PropOp45
 70
     0
102
RTVSPost2010Prop46
 90
       50
102
RTVSPost2010PropOp46
 70
     0
102
RTVSPost2010Prop47
 90
       50
102
RTVSPost2010PropOp47
 70
     0
102
RTVSPost2010Prop48
 90
       50
102
RTVSPost2010PropOp48
 70
     0
102
RTVSPost2010Prop49
280
     0
102
RTVSPost2010PropOp49
 70
     0
102
RTVSPost2010Prop50
 90
       50
102
RTVSPost2010PropOp50
 70
     0
102
RTVSPost2010Prop51ColorIndex
 90
      256
102
RTVSPost2010Prop51ColorRGB
 90
-16777216
102
RTVSPost2010PropOp51
 70
     0
102
RTVSPost2010Prop52
140
1.0
102
RTVSPost2010PropOp52
 70
     0
102
RTVSPost2010Prop53
 90
        2
102
RTVSPost2010PropOp53
 70
     0
102
RTVSPost2010Prop54
  1
strokes_ogs.tif
102
RTVSPost2010PropOp54
 70
     0
102
RTVSPost2010Prop55
280
     0
102
RTVSPost2010PropOp55
 70
     0
102
RTVSPost2010Prop56
140
1.0
102
RTVSPost2010PropOp56
 70
     0
102
RTVSPost2010Prop57
140
1.0
102
RTVSPost2010PropOp57
 70
     0
  0
XRECORD
  5
99F
102
{ACAD_REACTORS
330
99E
102
}
330
99E
100
AcDbXrecord
280
     1
102
RTVSPost2010Prop28
280
     0
102
RTVSPost2010PropOp28
 70
     1
102
RTVSPost2010Prop29
280
     1
102
RTVSPost2010PropOp29
 70
     1
102
RTVSPost2010Prop30
280
     1
102
RTVSPost2010PropOp30
 70
     1
102
RTVSPost2010Prop31
280
     0
102
RTVSPost2010PropOp31
 70
     1
102
RTVSPost2010Prop32
280
     0
102
RTVSPost2010PropOp32
 70
     1
102
RTVSPost2010Prop33
280
     0
102
RTVSPost2010PropOp33
 70
     1
102
RTVSPost2010Prop34
280
     0
102
RTVSPost2010PropOp34
 70
     1
102
RTVSPost2010Prop35
280
     0
102
RTVSPost2010PropOp35
 70
     1
102
RTVSPost2010Prop36
280
     0
102
RTVSPost2010PropOp36
 70
     1
102
RTVSPost2010Prop37
 90
       50
102
RTVSPost2010PropOp37
 70
     1
102
RTVSPost2010Prop38
140
0.0
102
RTVSPost2010PropOp38
 70
     1
102
RTVSPost2010Prop39
140
1.0
102
RTVSPost2010PropOp39
 70
     1
102
RTVSPost2010Prop40
 90
        0
102
RTVSPost2010PropOp40
 70
     1
102
RTVSPost2010Prop41ColorIndex
 90
       18
102
RTVSPost2010Prop41ColorRGB
 90
        0
102
RTVSPost2010PropOp41
 70
     1
102
RTVSPost2010Prop42
 90
       50
102
RTVSPost2010PropOp42
 70
     1
102
RTVSPost2010Prop43
 90
        3
102
RTVSPost2010PropOp43
 70
     1
102
RTVSPost2010Prop44ColorIndex
 90
        5
102
RTVSPost2010Prop44ColorRGB
 90
      255
102
RTVSPost2010PropOp44
 70
     1
102
RTVSPost2010Prop45
280
     0
102
RTVSPost2010PropOp45
 70
     1
102
RTVSPost2010Prop46
 90
       50
102
RTVSPost2010PropOp46
 70
     1
102
RTVSPost2010Prop47
 90
       50
102
RTVSPost2010PropOp47
 70
     1
102
RTVSPost2010Prop48
 90
       50
102
RTVSPost2010PropOp48
 70
     1
102
RTVSPost2010Prop49
280
     0
102
RTVSPost2010PropOp49
 70
     1
102
RTVSPost2010Prop50
 90
       50
102
RTVSPost2010PropOp50
 70
     1
102
RTVSPost2010Prop51ColorIndex
 90
      256
102
RTVSPost2010Prop51ColorRGB
 90
-16777216
102
RTVSPost2010PropOp51
 70
     0
102
RTVSPost2010Prop52
140
1.0
102
RTVSPost2010PropOp52
 70
     0
102
RTVSPost2010Prop53
 90
        2
102
RTVSPost2010PropOp53
 70
     1
102
RTVSPost2010Prop54
  1
strokes_ogs.tif
102
RTVSPost2010PropOp54
 70
     1
102
RTVSPost2010Prop55
280
     0
102
RTVSPost2010PropOp55
 70
     1
102
RTVSPost2010Prop56
140
1.0
102
RTVSPost2010PropOp56
 70
     1
102
RTVSPost2010Prop57
140
1.0
102
RTVSPost2010PropOp57
 70
     1
  0
XRECORD
  5
983
102
{ACAD_REACTORS
330
982
102
}
330
982
100
AcDbXrecord
280
     1
102
RTVSPost2010Prop28
280
     0
102
RTVSPost2010PropOp28
 70
     1
102
RTVSPost2010Prop29
280
     1
102
RTVSPost2010PropOp29
 70
     1
102
RTVSPost2010Prop30
280
     1
102
RTVSPost2010PropOp30
 70
     1
102
RTVSPost2010Prop31
280
     0
102
RTVSPost2010PropOp31
 70
     1
102
RTVSPost2010Prop32
280
     0
102
RTVSPost2010PropOp32
 70
     1
102
RTVSPost2010Prop33
280
     0
102
RTVSPost2010PropOp33
 70
     1
102
RTVSPost2010Prop34
280
     0
102
RTVSPost2010PropOp34
 70
     1
102
RTVSPost2010Prop35
280
     0
102
RTVSPost2010PropOp35
 70
     1
102
RTVSPost2010Prop36
280
     0
102
RTVSPost2010PropOp36
 70
     1
102
RTVSPost2010Prop37
 90
       50
102
RTVSPost2010PropOp37
 70
     1
102
RTVSPost2010Prop38
140
0.0
102
RTVSPost2010PropOp38
 70
     1
102
RTVSPost2010Prop39
140
1.0
102
RTVSPost2010PropOp39
 70
     1
102
RTVSPost2010Prop40
 90
        0
102
RTVSPost2010PropOp40
 70
     1
102
RTVSPost2010Prop41ColorIndex
 90
       18
102
RTVSPost2010Prop41ColorRGB
 90
        0
102
RTVSPost2010PropOp41
 70
     1
102
RTVSPost2010Prop42
 90
       50
102
RTVSPost2010PropOp42
 70
     1
102
RTVSPost2010Prop43
 90
        3
102
RTVSPost2010PropOp43
 70
     1
102
RTVSPost2010Prop44ColorIndex
 90
        5
102
RTVSPost2010Prop44ColorRGB
 90
      255
102
RTVSPost2010PropOp44
 70
     1
102
RTVSPost2010Prop45
280
     0
102
RTVSPost2010PropOp45
 70
     1
102
RTVSPost2010Prop46
 90
       50
102
RTVSPost2010PropOp46
 70
     1
102
RTVSPost2010Prop47
 90
       50
102
RTVSPost2010PropOp47
 70
     1
102
RTVSPost2010Prop48
 90
       50
102
RTVSPost2010PropOp48
 70
     1
102
RTVSPost2010Prop49
280
     0
102
RTVSPost2010PropOp49
 70
     1
102
RTVSPost2010Prop50
 90
       50
102
RTVSPost2010PropOp50
 70
     1
102
RTVSPost2010Prop51ColorIndex
 90
      256
102
RTVSPost2010Prop51ColorRGB
 90
-16777216
102
RTVSPost2010PropOp51
 70
     0
102
RTVSPost2010Prop52
140
1.0
102
RTVSPost2010PropOp52
 70
     0
102
RTVSPost2010Prop53
 90
        2
102
RTVSPost2010PropOp53
 70
     1
102
RTVSPost2010Prop54
  1
strokes_ogs.tif
102
RTVSPost2010PropOp54
 70
     1
102
RTVSPost2010Prop55
280
     0
102
RTVSPost2010PropOp55
 70
     1
102
RTVSPost2010Prop56
140
1.0
102
RTVSPost2010PropOp56
 70
     1
102
RTVSPost2010Prop57
140
1.0
102
RTVSPost2010PropOp57
 70
     1
  0
XRECORD
  5
985
102
{ACAD_REACTORS
330
984
102
}
330
984
100
AcDbXrecord
280
     1
102
RTVSPost2010Prop28
280
     0
102
RTVSPost2010PropOp28
 70
     1
102
RTVSPost2010Prop29
280
     1
102
RTVSPost2010PropOp29
 70
     1
102
RTVSPost2010Prop30
280
     1
102
RTVSPost2010PropOp30
 70
     1
102
RTVSPost2010Prop31
280
     0
102
RTVSPost2010PropOp31
 70
     1
102
RTVSPost2010Prop32
280
     0
102
RTVSPost2010PropOp32
 70
     1
102
RTVSPost2010Prop33
280
     0
102
RTVSPost2010PropOp33
 70
     1
102
RTVSPost2010Prop34
280
     0
102
RTVSPost2010PropOp34
 70
     1
102
RTVSPost2010Prop35
280
     0
102
RTVSPost2010PropOp35
 70
     1
102
RTVSPost2010Prop36
280
     0
102
RTVSPost2010PropOp36
 70
     1
102
RTVSPost2010Prop37
 90
       50
102
RTVSPost2010PropOp37
 70
     1
102
RTVSPost2010Prop38
140
0.0
102
RTVSPost2010PropOp38
 70
     1
102
RTVSPost2010Prop39
140
1.0
102
RTVSPost2010PropOp39
 70
     1
102
RTVSPost2010Prop40
 90
        0
102
RTVSPost2010PropOp40
 70
     1
102
RTVSPost2010Prop41ColorIndex
 90
       18
102
RTVSPost2010Prop41ColorRGB
 90
        0
102
RTVSPost2010PropOp41
 70
     1
102
RTVSPost2010Prop42
 90
       50
102
RTVSPost2010PropOp42
 70
     1
102
RTVSPost2010Prop43
 90
        3
102
RTVSPost2010PropOp43
 70
     1
102
RTVSPost2010Prop44ColorIndex
 90
        5
102
RTVSPost2010Prop44ColorRGB
 90
      255
102
RTVSPost2010PropOp44
 70
     1
102
RTVSPost2010Prop45
280
     0
102
RTVSPost2010PropOp45
 70
     1
102
RTVSPost2010Prop46
 90
       50
102
RTVSPost2010PropOp46
 70
     1
102
RTVSPost2010Prop47
 90
       50
102
RTVSPost2010PropOp47
 70
     1
102
RTVSPost2010Prop48
 90
       50
102
RTVSPost2010PropOp48
 70
     1
102
RTVSPost2010Prop49
280
     0
102
RTVSPost2010PropOp49
 70
     1
102
RTVSPost2010Prop50
 90
       50
102
RTVSPost2010PropOp50
 70
     1
102
RTVSPost2010Prop51ColorIndex
 90
      256
102
RTVSPost2010Prop51ColorRGB
 90
-16777216
102
RTVSPost2010PropOp51
 70
     0
102
RTVSPost2010Prop52
140
1.0
102
RTVSPost2010PropOp52
 70
     0
102
RTVSPost2010Prop53
 90
        2
102
RTVSPost2010PropOp53
 70
     1
102
RTVSPost2010Prop54
  1
strokes_ogs.tif
102
RTVSPost2010PropOp54
 70
     1
102
RTVSPost2010Prop55
280
     0
102
RTVSPost2010PropOp55
 70
     1
102
RTVSPost2010Prop56
140
1.0
102
RTVSPost2010PropOp56
 70
     1
102
RTVSPost2010Prop57
140
1.0
102
RTVSPost2010PropOp57
 70
     1
  0
XRECORD
  5
987
102
{ACAD_REACTORS
330
986
102
}
330
986
100
AcDbXrecord
280
     1
102
RTVSPost2010Prop28
280
     0
102
RTVSPost2010PropOp28
 70
     1
102
RTVSPost2010Prop29
280
     1
102
RTVSPost2010PropOp29
 70
     1
102
RTVSPost2010Prop30
280
     1
102
RTVSPost2010PropOp30
 70
     1
102
RTVSPost2010Prop31
280
     0
102
RTVSPost2010PropOp31
 70
     1
102
RTVSPost2010Prop32
280
     0
102
RTVSPost2010PropOp32
 70
     1
102
RTVSPost2010Prop33
280
     0
102
RTVSPost2010PropOp33
 70
     1
102
RTVSPost2010Prop34
280
     0
102
RTVSPost2010PropOp34
 70
     1
102
RTVSPost2010Prop35
280
     0
102
RTVSPost2010PropOp35
 70
     1
102
RTVSPost2010Prop36
280
     0
102
RTVSPost2010PropOp36
 70
     1
102
RTVSPost2010Prop37
 90
       50
102
RTVSPost2010PropOp37
 70
     1
102
RTVSPost2010Prop38
140
0.0
102
RTVSPost2010PropOp38
 70
     1
102
RTVSPost2010Prop39
140
1.0
102
RTVSPost2010PropOp39
 70
     1
102
RTVSPost2010Prop40
 90
        0
102
RTVSPost2010PropOp40
 70
     1
102
RTVSPost2010Prop41ColorIndex
 90
       18
102
RTVSPost2010Prop41ColorRGB
 90
        0
102
RTVSPost2010PropOp41
 70
     1
102
RTVSPost2010Prop42
 90
       50
102
RTVSPost2010PropOp42
 70
     1
102
RTVSPost2010Prop43
 90
        3
102
RTVSPost2010PropOp43
 70
     1
102
RTVSPost2010Prop44ColorIndex
 90
        5
102
RTVSPost2010Prop44ColorRGB
 90
      255
102
RTVSPost2010PropOp44
 70
     1
102
RTVSPost2010Prop45
280
     0
102
RTVSPost2010PropOp45
 70
     1
102
RTVSPost2010Prop46
 90
       50
102
RTVSPost2010PropOp46
 70
     1
102
RTVSPost2010Prop47
 90
       50
102
RTVSPost2010PropOp47
 70
     1
102
RTVSPost2010Prop48
 90
       50
102
RTVSPost2010PropOp48
 70
     1
102
RTVSPost2010Prop49
280
     0
102
RTVSPost2010PropOp49
 70
     1
102
RTVSPost2010Prop50
 90
       50
102
RTVSPost2010PropOp50
 70
     1
102
RTVSPost2010Prop51ColorIndex
 90
      256
102
RTVSPost2010Prop51ColorRGB
 90
-16777216
102
RTVSPost2010PropOp51
 70
     0
102
RTVSPost2010Prop52
140
1.0
102
RTVSPost2010PropOp52
 70
     0
102
RTVSPost2010Prop53
 90
        2
102
RTVSPost2010PropOp53
 70
     1
102
RTVSPost2010Prop54
  1
strokes_ogs.tif
102
RTVSPost2010PropOp54
 70
     1
102
RTVSPost2010Prop55
280
     0
102
RTVSPost2010PropOp55
 70
     1
102
RTVSPost2010Prop56
140
1.0
102
RTVSPost2010PropOp56
 70
     1
102
RTVSPost2010Prop57
140
1.0
102
RTVSPost2010PropOp57
 70
     1
  0
XRECORD
  5
989
102
{ACAD_REACTORS
330
988
102
}
330
988
100
AcDbXrecord
280
     1
102
RTVSPost2010Prop28
280
     0
102
RTVSPost2010PropOp28
 70
     1
102
RTVSPost2010Prop29
280
     1
102
RTVSPost2010PropOp29
 70
     1
102
RTVSPost2010Prop30
280
     1
102
RTVSPost2010PropOp30
 70
     1
102
RTVSPost2010Prop31
280
     0
102
RTVSPost2010PropOp31
 70
     1
102
RTVSPost2010Prop32
280
     0
102
RTVSPost2010PropOp32
 70
     1
102
RTVSPost2010Prop33
280
     0
102
RTVSPost2010PropOp33
 70
     1
102
RTVSPost2010Prop34
280
     0
102
RTVSPost2010PropOp34
 70
     1
102
RTVSPost2010Prop35
280
     0
102
RTVSPost2010PropOp35
 70
     1
102
RTVSPost2010Prop36
280
     0
102
RTVSPost2010PropOp36
 70
     1
102
RTVSPost2010Prop37
 90
       50
102
RTVSPost2010PropOp37
 70
     1
102
RTVSPost2010Prop38
140
0.0
102
RTVSPost2010PropOp38
 70
     1
102
RTVSPost2010Prop39
140
1.0
102
RTVSPost2010PropOp39
 70
     1
102
RTVSPost2010Prop40
 90
        0
102
RTVSPost2010PropOp40
 70
     1
102
RTVSPost2010Prop41ColorIndex
 90
       18
102
RTVSPost2010Prop41ColorRGB
 90
        0
102
RTVSPost2010PropOp41
 70
     1
102
RTVSPost2010Prop42
 90
       50
102
RTVSPost2010PropOp42
 70
     1
102
RTVSPost2010Prop43
 90
        3
102
RTVSPost2010PropOp43
 70
     1
102
RTVSPost2010Prop44ColorIndex
 90
        5
102
RTVSPost2010Prop44ColorRGB
 90
      255
102
RTVSPost2010PropOp44
 70
     1
102
RTVSPost2010Prop45
280
     0
102
RTVSPost2010PropOp45
 70
     1
102
RTVSPost2010Prop46
 90
       50
102
RTVSPost2010PropOp46
 70
     1
102
RTVSPost2010Prop47
 90
       50
102
RTVSPost2010PropOp47
 70
     1
102
RTVSPost2010Prop48
 90
       50
102
RTVSPost2010PropOp48
 70
     1
102
RTVSPost2010Prop49
280
     0
102
RTVSPost2010PropOp49
 70
     1
102
RTVSPost2010Prop50
 90
       50
102
RTVSPost2010PropOp50
 70
     1
102
RTVSPost2010Prop51ColorIndex
 90
      256
102
RTVSPost2010Prop51ColorRGB
 90
-16777216
102
RTVSPost2010PropOp51
 70
     0
102
RTVSPost2010Prop52
140
1.0
102
RTVSPost2010PropOp52
 70
     0
102
RTVSPost2010Prop53
 90
        2
102
RTVSPost2010PropOp53
 70
     1
102
RTVSPost2010Prop54
  1
strokes_ogs.tif
102
RTVSPost2010PropOp54
 70
     1
102
RTVSPost2010Prop55
280
     0
102
RTVSPost2010PropOp55
 70
     1
102
RTVSPost2010Prop56
140
1.0
102
RTVSPost2010PropOp56
 70
     1
102
RTVSPost2010Prop57
140
1.0
102
RTVSPost2010PropOp57
 70
     1
  0
XRECORD
  5
991
102
{ACAD_REACTORS
330
990
102
}
330
990
100
AcDbXrecord
280
     1
102
RTVSPost2010Prop28
280
     0
102
RTVSPost2010PropOp28
 70
     1
102
RTVSPost2010Prop29
280
     1
102
RTVSPost2010PropOp29
 70
     1
102
RTVSPost2010Prop30
280
     1
102
RTVSPost2010PropOp30
 70
     1
102
RTVSPost2010Prop31
280
     0
102
RTVSPost2010PropOp31
 70
     1
102
RTVSPost2010Prop32
280
     0
102
RTVSPost2010PropOp32
 70
     1
102
RTVSPost2010Prop33
280
     0
102
RTVSPost2010PropOp33
 70
     1
102
RTVSPost2010Prop34
280
     0
102
RTVSPost2010PropOp34
 70
     1
102
RTVSPost2010Prop35
280
     0
102
RTVSPost2010PropOp35
 70
     1
102
RTVSPost2010Prop36
280
     0
102
RTVSPost2010PropOp36
 70
     1
102
RTVSPost2010Prop37
 90
       50
102
RTVSPost2010PropOp37
 70
     1
102
RTVSPost2010Prop38
140
0.0
102
RTVSPost2010PropOp38
 70
     1
102
RTVSPost2010Prop39
140
1.0
102
RTVSPost2010PropOp39
 70
     1
102
RTVSPost2010Prop40
 90
        0
102
RTVSPost2010PropOp40
 70
     1
102
RTVSPost2010Prop41ColorIndex
 90
       18
102
RTVSPost2010Prop41ColorRGB
 90
        0
102
RTVSPost2010PropOp41
 70
     1
102
RTVSPost2010Prop42
 90
       50
102
RTVSPost2010PropOp42
 70
     1
102
RTVSPost2010Prop43
 90
        3
102
RTVSPost2010PropOp43
 70
     1
102
RTVSPost2010Prop44ColorIndex
 90
        5
102
RTVSPost2010Prop44ColorRGB
 90
      255
102
RTVSPost2010PropOp44
 70
     1
102
RTVSPost2010Prop45
280
     0
102
RTVSPost2010PropOp45
 70
     1
102
RTVSPost2010Prop46
 90
       50
102
RTVSPost2010PropOp46
 70
     1
102
RTVSPost2010Prop47
 90
       50
102
RTVSPost2010PropOp47
 70
     1
102
RTVSPost2010Prop48
 90
       50
102
RTVSPost2010PropOp48
 70
     1
102
RTVSPost2010Prop49
280
     0
102
RTVSPost2010PropOp49
 70
     1
102
RTVSPost2010Prop50
 90
       50
102
RTVSPost2010PropOp50
 70
     1
102
RTVSPost2010Prop51ColorIndex
 90
      256
102
RTVSPost2010Prop51ColorRGB
 90
-16777216
102
RTVSPost2010PropOp51
 70
     0
102
RTVSPost2010Prop52
140
1.0
102
RTVSPost2010PropOp52
 70
     0
102
RTVSPost2010Prop53
 90
        2
102
RTVSPost2010PropOp53
 70
     1
102
RTVSPost2010Prop54
  1
strokes_ogs.tif
102
RTVSPost2010PropOp54
 70
     1
102
RTVSPost2010Prop55
280
     0
102
RTVSPost2010PropOp55
 70
     1
102
RTVSPost2010Prop56
140
1.0
102
RTVSPost2010PropOp56
 70
     1
102
RTVSPost2010Prop57
140
1.0
102
RTVSPost2010PropOp57
 70
     1
  0
XRECORD
  5
9AD
102
{ACAD_REACTORS
330
9AC
102
}
330
9AC
100
AcDbXrecord
280
     1
102
RTVSPost2010Prop28
280
     0
102
RTVSPost2010PropOp28
 70
     0
102
RTVSPost2010Prop29
280
     1
102
RTVSPost2010PropOp29
 70
     0
102
RTVSPost2010Prop30
280
     1
102
RTVSPost2010PropOp30
 70
     0
102
RTVSPost2010Prop31
280
     0
102
RTVSPost2010PropOp31
 70
     0
102
RTVSPost2010Prop32
280
     0
102
RTVSPost2010PropOp32
 70
     0
102
RTVSPost2010Prop33
280
     0
102
RTVSPost2010PropOp33
 70
     0
102
RTVSPost2010Prop34
280
     0
102
RTVSPost2010PropOp34
 70
     0
102
RTVSPost2010Prop35
280
     0
102
RTVSPost2010PropOp35
 70
     0
102
RTVSPost2010Prop36
280
     0
102
RTVSPost2010PropOp36
 70
     0
102
RTVSPost2010Prop37
 90
       50
102
RTVSPost2010PropOp37
 70
     0
102
RTVSPost2010Prop38
140
0.0
102
RTVSPost2010PropOp38
 70
     0
102
RTVSPost2010Prop39
140
1.0
102
RTVSPost2010PropOp39
 70
     0
102
RTVSPost2010Prop40
 90
        0
102
RTVSPost2010PropOp40
 70
     0
102
RTVSPost2010Prop41ColorIndex
 90
       18
102
RTVSPost2010Prop41ColorRGB
 90
        0
102
RTVSPost2010PropOp41
 70
     0
102
RTVSPost2010Prop42
 90
       50
102
RTVSPost2010PropOp42
 70
     0
102
RTVSPost2010Prop43
 90
        3
102
RTVSPost2010PropOp43
 70
     0
102
RTVSPost2010Prop44ColorIndex
 90
        5
102
RTVSPost2010Prop44ColorRGB
 90
      255
102
RTVSPost2010PropOp44
 70
     0
102
RTVSPost2010Prop45
280
     0
102
RTVSPost2010PropOp45
 70
     0
102
RTVSPost2010Prop46
 90
       50
102
RTVSPost2010PropOp46
 70
     0
102
RTVSPost2010Prop47
 90
       50
102
RTVSPost2010PropOp47
 70
     0
102
RTVSPost2010Prop48
 90
       50
102
RTVSPost2010PropOp48
 70
     0
102
RTVSPost2010Prop49
280
     0
102
RTVSPost2010PropOp49
 70
     0
102
RTVSPost2010Prop50
 90
       50
102
RTVSPost2010PropOp50
 70
     0
102
RTVSPost2010Prop51ColorIndex
 90
      256
102
RTVSPost2010Prop51ColorRGB
 90
-16777216
102
RTVSPost2010PropOp51
 70
     0
102
RTVSPost2010Prop52
140
1.0
102
RTVSPost2010PropOp52
 70
     0
102
RTVSPost2010Prop53
 90
        2
102
RTVSPost2010PropOp53
 70
     0
102
RTVSPost2010Prop54
  1
strokes_ogs.tif
102
RTVSPost2010PropOp54
 70
     0
102
RTVSPost2010Prop55
280
     0
102
RTVSPost2010PropOp55
 70
     0
102
RTVSPost2010Prop56
140
1.0
102
RTVSPost2010PropOp56
 70
     0
102
RTVSPost2010Prop57
140
1.0
102
RTVSPost2010PropOp57
 70
     0
  0
XRECORD
  5
99D
102
{ACAD_REACTORS
330
99C
102
}
330
99C
100
AcDbXrecord
280
     1
102
RTVSPost2010Prop28
280
     0
102
RTVSPost2010PropOp28
 70
     1
102
RTVSPost2010Prop29
280
     1
102
RTVSPost2010PropOp29
 70
     1
102
RTVSPost2010Prop30
280
     1
102
RTVSPost2010PropOp30
 70
     1
102
RTVSPost2010Prop31
280
     0
102
RTVSPost2010PropOp31
 70
     1
102
RTVSPost2010Prop32
280
     0
102
RTVSPost2010PropOp32
 70
     1
102
RTVSPost2010Prop33
280
     0
102
RTVSPost2010PropOp33
 70
     1
102
RTVSPost2010Prop34
280
     0
102
RTVSPost2010PropOp34
 70
     1
102
RTVSPost2010Prop35
280
     0
102
RTVSPost2010PropOp35
 70
     1
102
RTVSPost2010Prop36
280
     0
102
RTVSPost2010PropOp36
 70
     1
102
RTVSPost2010Prop37
 90
       50
102
RTVSPost2010PropOp37
 70
     1
102
RTVSPost2010Prop38
140
0.0
102
RTVSPost2010PropOp38
 70
     1
102
RTVSPost2010Prop39
140
1.0
102
RTVSPost2010PropOp39
 70
     1
102
RTVSPost2010Prop40
 90
        0
102
RTVSPost2010PropOp40
 70
     1
102
RTVSPost2010Prop41ColorIndex
 90
       18
102
RTVSPost2010Prop41ColorRGB
 90
        0
102
RTVSPost2010PropOp41
 70
     1
102
RTVSPost2010Prop42
 90
       50
102
RTVSPost2010PropOp42
 70
     1
102
RTVSPost2010Prop43
 90
        3
102
RTVSPost2010PropOp43
 70
     1
102
RTVSPost2010Prop44ColorIndex
 90
        5
102
RTVSPost2010Prop44ColorRGB
 90
      255
102
RTVSPost2010PropOp44
 70
     1
102
RTVSPost2010Prop45
280
     0
102
RTVSPost2010PropOp45
 70
     1
102
RTVSPost2010Prop46
 90
       50
102
RTVSPost2010PropOp46
 70
     1
102
RTVSPost2010Prop47
 90
       50
102
RTVSPost2010PropOp47
 70
     1
102
RTVSPost2010Prop48
 90
       50
102
RTVSPost2010PropOp48
 70
     1
102
RTVSPost2010Prop49
280
     0
102
RTVSPost2010PropOp49
 70
     1
102
RTVSPost2010Prop50
 90
       50
102
RTVSPost2010PropOp50
 70
     1
102
RTVSPost2010Prop51ColorIndex
 90
      256
102
RTVSPost2010Prop51ColorRGB
 90
-16777216
102
RTVSPost2010PropOp51
 70
     0
102
RTVSPost2010Prop52
140
1.0
102
RTVSPost2010PropOp52
 70
     0
102
RTVSPost2010Prop53
 90
        2
102
RTVSPost2010PropOp53
 70
     1
102
RTVSPost2010Prop54
  1
strokes_ogs.tif
102
RTVSPost2010PropOp54
 70
     1
102
RTVSPost2010Prop55
280
     0
102
RTVSPost2010PropOp55
 70
     1
102
RTVSPost2010Prop56
140
1.0
102
RTVSPost2010PropOp56
 70
     1
102
RTVSPost2010Prop57
140
1.0
102
RTVSPost2010PropOp57
 70
     1
  0
XRECORD
  5
9AF
102
{ACAD_REACTORS
330
9AE
102
}
330
9AE
100
AcDbXrecord
280
     1
102
RTVSPost2010Prop28
280
     0
102
RTVSPost2010PropOp28
 70
     0
102
RTVSPost2010Prop29
280
     1
102
RTVSPost2010PropOp29
 70
     0
102
RTVSPost2010Prop30
280
     1
102
RTVSPost2010PropOp30
 70
     0
102
RTVSPost2010Prop31
280
     0
102
RTVSPost2010PropOp31
 70
     0
102
RTVSPost2010Prop32
280
     0
102
RTVSPost2010PropOp32
 70
     0
102
RTVSPost2010Prop33
280
     0
102
RTVSPost2010PropOp33
 70
     0
102
RTVSPost2010Prop34
280
     0
102
RTVSPost2010PropOp34
 70
     0
102
RTVSPost2010Prop35
280
     0
102
RTVSPost2010PropOp35
 70
     0
102
RTVSPost2010Prop36
280
     0
102
RTVSPost2010PropOp36
 70
     0
102
RTVSPost2010Prop37
 90
       50
102
RTVSPost2010PropOp37
 70
     0
102
RTVSPost2010Prop38
140
0.0
102
RTVSPost2010PropOp38
 70
     0
102
RTVSPost2010Prop39
140
1.0
102
RTVSPost2010PropOp39
 70
     0
102
RTVSPost2010Prop40
 90
        0
102
RTVSPost2010PropOp40
 70
     0
102
RTVSPost2010Prop41ColorIndex
 90
       18
102
RTVSPost2010Prop41ColorRGB
 90
        0
102
RTVSPost2010PropOp41
 70
     0
102
RTVSPost2010Prop42
 90
       50
102
RTVSPost2010PropOp42
 70
     0
102
RTVSPost2010Prop43
 90
        3
102
RTVSPost2010PropOp43
 70
     0
102
RTVSPost2010Prop44ColorIndex
 90
        5
102
RTVSPost2010Prop44ColorRGB
 90
      255
102
RTVSPost2010PropOp44
 70
     0
102
RTVSPost2010Prop45
280
     0
102
RTVSPost2010PropOp45
 70
     0
102
RTVSPost2010Prop46
 90
       50
102
RTVSPost2010PropOp46
 70
     0
102
RTVSPost2010Prop47
 90
       50
102
RTVSPost2010PropOp47
 70
     0
102
RTVSPost2010Prop48
 90
       50
102
RTVSPost2010PropOp48
 70
     0
102
RTVSPost2010Prop49
280
     0
102
RTVSPost2010PropOp49
 70
     0
102
RTVSPost2010Prop50
 90
       50
102
RTVSPost2010PropOp50
 70
     0
102
RTVSPost2010Prop51ColorIndex
 90
      256
102
RTVSPost2010Prop51ColorRGB
 90
-16777216
102
RTVSPost2010PropOp51
 70
     0
102
RTVSPost2010Prop52
140
1.0
102
RTVSPost2010PropOp52
 70
     0
102
RTVSPost2010Prop53
 90
        2
102
RTVSPost2010PropOp53
 70
     0
102
RTVSPost2010Prop54
  1
strokes_ogs.tif
102
RTVSPost2010PropOp54
 70
     0
102
RTVSPost2010Prop55
280
     0
102
RTVSPost2010PropOp55
 70
     0
102
RTVSPost2010Prop56
140
1.0
102
RTVSPost2010PropOp56
 70
     0
102
RTVSPost2010Prop57
140
1.0
102
RTVSPost2010PropOp57
 70
     0
  0
XRECORD
  5
995
102
{ACAD_REACTORS
330
994
102
}
330
994
100
AcDbXrecord
280
     1
102
RTVSPost2010Prop28
280
     0
102
RTVSPost2010PropOp28
 70
     1
102
RTVSPost2010Prop29
280
     1
102
RTVSPost2010PropOp29
 70
     1
102
RTVSPost2010Prop30
280
     1
102
RTVSPost2010PropOp30
 70
     1
102
RTVSPost2010Prop31
280
     0
102
RTVSPost2010PropOp31
 70
     1
102
RTVSPost2010Prop32
280
     0
102
RTVSPost2010PropOp32
 70
     1
102
RTVSPost2010Prop33
280
     0
102
RTVSPost2010PropOp33
 70
     1
102
RTVSPost2010Prop34
280
     0
102
RTVSPost2010PropOp34
 70
     1
102
RTVSPost2010Prop35
280
     0
102
RTVSPost2010PropOp35
 70
     1
102
RTVSPost2010Prop36
280
     0
102
RTVSPost2010PropOp36
 70
     1
102
RTVSPost2010Prop37
 90
       50
102
RTVSPost2010PropOp37
 70
     1
102
RTVSPost2010Prop38
140
0.0
102
RTVSPost2010PropOp38
 70
     1
102
RTVSPost2010Prop39
140
1.0
102
RTVSPost2010PropOp39
 70
     1
102
RTVSPost2010Prop40
 90
        0
102
RTVSPost2010PropOp40
 70
     1
102
RTVSPost2010Prop41ColorIndex
 90
       18
102
RTVSPost2010Prop41ColorRGB
 90
        0
102
RTVSPost2010PropOp41
 70
     1
102
RTVSPost2010Prop42
 90
       50
102
RTVSPost2010PropOp42
 70
     1
102
RTVSPost2010Prop43
 90
        3
102
RTVSPost2010PropOp43
 70
     1
102
RTVSPost2010Prop44ColorIndex
 90
        5
102
RTVSPost2010Prop44ColorRGB
 90
      255
102
RTVSPost2010PropOp44
 70
     1
102
RTVSPost2010Prop45
280
     0
102
RTVSPost2010PropOp45
 70
     1
102
RTVSPost2010Prop46
 90
       50
102
RTVSPost2010PropOp46
 70
     1
102
RTVSPost2010Prop47
 90
       50
102
RTVSPost2010PropOp47
 70
     1
102
RTVSPost2010Prop48
 90
       50
102
RTVSPost2010PropOp48
 70
     1
102
RTVSPost2010Prop49
280
     0
102
RTVSPost2010PropOp49
 70
     1
102
RTVSPost2010Prop50
 90
       50
102
RTVSPost2010PropOp50
 70
     1
102
RTVSPost2010Prop51ColorIndex
 90
      256
102
RTVSPost2010Prop51ColorRGB
 90
-16777216
102
RTVSPost2010PropOp51
 70
     0
102
RTVSPost2010Prop52
140
1.0
102
RTVSPost2010PropOp52
 70
     0
102
RTVSPost2010Prop53
 90
        2
102
RTVSPost2010PropOp53
 70
     1
102
RTVSPost2010Prop54
  1
strokes_ogs.tif
102
RTVSPost2010PropOp54
 70
     1
102
RTVSPost2010Prop55
280
     0
102
RTVSPost2010PropOp55
 70
     1
102
RTVSPost2010Prop56
140
1.0
102
RTVSPost2010PropOp56
 70
     1
102
RTVSPost2010Prop57
140
1.0
102
RTVSPost2010PropOp57
 70
     1
  0
XRECORD
  5
9AB
102
{ACAD_REACTORS
330
9AA
102
}
330
9AA
100
AcDbXrecord
280
     1
102
RTVSPost2010Prop28
280
     0
102
RTVSPost2010PropOp28
 70
     1
102
RTVSPost2010Prop29
280
     1
102
RTVSPost2010PropOp29
 70
     1
102
RTVSPost2010Prop30
280
     1
102
RTVSPost2010PropOp30
 70
     1
102
RTVSPost2010Prop31
280
     0
102
RTVSPost2010PropOp31
 70
     1
102
RTVSPost2010Prop32
280
     0
102
RTVSPost2010PropOp32
 70
     1
102
RTVSPost2010Prop33
280
     0
102
RTVSPost2010PropOp33
 70
     1
102
RTVSPost2010Prop34
280
     0
102
RTVSPost2010PropOp34
 70
     1
102
RTVSPost2010Prop35
280
     0
102
RTVSPost2010PropOp35
 70
     1
102
RTVSPost2010Prop36
280
     0
102
RTVSPost2010PropOp36
 70
     1
102
RTVSPost2010Prop37
 90
       50
102
RTVSPost2010PropOp37
 70
     1
102
RTVSPost2010Prop38
140
0.0
102
RTVSPost2010PropOp38
 70
     1
102
RTVSPost2010Prop39
140
1.0
102
RTVSPost2010PropOp39
 70
     1
102
RTVSPost2010Prop40
 90
        0
102
RTVSPost2010PropOp40
 70
     1
102
RTVSPost2010Prop41ColorIndex
 90
       18
102
RTVSPost2010Prop41ColorRGB
 90
        0
102
RTVSPost2010PropOp41
 70
     1
102
RTVSPost2010Prop42
 90
       50
102
RTVSPost2010PropOp42
 70
     1
102
RTVSPost2010Prop43
 90
        3
102
RTVSPost2010PropOp43
 70
     1
102
RTVSPost2010Prop44ColorIndex
 90
        5
102
RTVSPost2010Prop44ColorRGB
 90
      255
102
RTVSPost2010PropOp44
 70
     1
102
RTVSPost2010Prop45
280
     0
102
RTVSPost2010PropOp45
 70
     1
102
RTVSPost2010Prop46
 90
       50
102
RTVSPost2010PropOp46
 70
     1
102
RTVSPost2010Prop47
 90
       50
102
RTVSPost2010PropOp47
 70
     1
102
RTVSPost2010Prop48
 90
       50
102
RTVSPost2010PropOp48
 70
     1
102
RTVSPost2010Prop49
280
     0
102
RTVSPost2010PropOp49
 70
     1
102
RTVSPost2010Prop50
 90
       50
102
RTVSPost2010PropOp50
 70
     1
102
RTVSPost2010Prop51ColorIndex
 90
      256
102
RTVSPost2010Prop51ColorRGB
 90
-16777216
102
RTVSPost2010PropOp51
 70
     0
102
RTVSPost2010Prop52
140
1.0
102
RTVSPost2010PropOp52
 70
     0
102
RTVSPost2010Prop53
 90
        2
102
RTVSPost2010PropOp53
 70
     1
102
RTVSPost2010Prop54
  1
strokes_ogs.tif
102
RTVSPost2010PropOp54
 70
     1
102
RTVSPost2010Prop55
280
     0
102
RTVSPost2010PropOp55
 70
     1
102
RTVSPost2010Prop56
140
1.0
102
RTVSPost2010PropOp56
 70
     1
102
RTVSPost2010Prop57
140
1.0
102
RTVSPost2010PropOp57
 70
     1
  0
XRECORD
  5
9A9
102
{ACAD_REACTORS
330
9A8
102
}
330
9A8
100
AcDbXrecord
280
     1
102
RTVSPost2010Prop28
280
     0
102
RTVSPost2010PropOp28
 70
     1
102
RTVSPost2010Prop29
280
     1
102
RTVSPost2010PropOp29
 70
     1
102
RTVSPost2010Prop30
280
     1
102
RTVSPost2010PropOp30
 70
     1
102
RTVSPost2010Prop31
280
     0
102
RTVSPost2010PropOp31
 70
     1
102
RTVSPost2010Prop32
280
     0
102
RTVSPost2010PropOp32
 70
     1
102
RTVSPost2010Prop33
280
     0
102
RTVSPost2010PropOp33
 70
     1
102
RTVSPost2010Prop34
280
     0
102
RTVSPost2010PropOp34
 70
     1
102
RTVSPost2010Prop35
280
     0
102
RTVSPost2010PropOp35
 70
     1
102
RTVSPost2010Prop36
280
     0
102
RTVSPost2010PropOp36
 70
     1
102
RTVSPost2010Prop37
 90
       50
102
RTVSPost2010PropOp37
 70
     1
102
RTVSPost2010Prop38
140
0.0
102
RTVSPost2010PropOp38
 70
     1
102
RTVSPost2010Prop39
140
1.0
102
RTVSPost2010PropOp39
 70
     1
102
RTVSPost2010Prop40
 90
        0
102
RTVSPost2010PropOp40
 70
     1
102
RTVSPost2010Prop41ColorIndex
 90
       18
102
RTVSPost2010Prop41ColorRGB
 90
        0
102
RTVSPost2010PropOp41
 70
     1
102
RTVSPost2010Prop42
 90
       50
102
RTVSPost2010PropOp42
 70
     1
102
RTVSPost2010Prop43
 90
        3
102
RTVSPost2010PropOp43
 70
     1
102
RTVSPost2010Prop44ColorIndex
 90
        5
102
RTVSPost2010Prop44ColorRGB
 90
      255
102
RTVSPost2010PropOp44
 70
     1
102
RTVSPost2010Prop45
280
     0
102
RTVSPost2010PropOp45
 70
     1
102
RTVSPost2010Prop46
 90
       50
102
RTVSPost2010PropOp46
 70
     1
102
RTVSPost2010Prop47
 90
       50
102
RTVSPost2010PropOp47
 70
     1
102
RTVSPost2010Prop48
 90
       50
102
RTVSPost2010PropOp48
 70
     1
102
RTVSPost2010Prop49
280
     0
102
RTVSPost2010PropOp49
 70
     1
102
RTVSPost2010Prop50
 90
       50
102
RTVSPost2010PropOp50
 70
     1
102
RTVSPost2010Prop51ColorIndex
 90
      256
102
RTVSPost2010Prop51ColorRGB
 90
-16777216
102
RTVSPost2010PropOp51
 70
     0
102
RTVSPost2010Prop52
140
1.0
102
RTVSPost2010PropOp52
 70
     0
102
RTVSPost2010Prop53
 90
        2
102
RTVSPost2010PropOp53
 70
     1
102
RTVSPost2010Prop54
  1
strokes_ogs.tif
102
RTVSPost2010PropOp54
 70
     1
102
RTVSPost2010Prop55
280
     0
102
RTVSPost2010PropOp55
 70
     1
102
RTVSPost2010Prop56
140
1.0
102
RTVSPost2010PropOp56
 70
     1
102
RTVSPost2010Prop57
140
1.0
102
RTVSPost2010PropOp57
 70
     1
  0
XRECORD
  5
9A3
102
{ACAD_REACTORS
330
9A2
102
}
330
9A2
100
AcDbXrecord
280
     1
102
RTVSPost2010Prop28
280
     0
102
RTVSPost2010PropOp28
 70
     1
102
RTVSPost2010Prop29
280
     1
102
RTVSPost2010PropOp29
 70
     1
102
RTVSPost2010Prop30
280
     1
102
RTVSPost2010PropOp30
 70
     1
102
RTVSPost2010Prop31
280
     0
102
RTVSPost2010PropOp31
 70
     1
102
RTVSPost2010Prop32
280
     0
102
RTVSPost2010PropOp32
 70
     1
102
RTVSPost2010Prop33
280
     0
102
RTVSPost2010PropOp33
 70
     1
102
RTVSPost2010Prop34
280
     0
102
RTVSPost2010PropOp34
 70
     1
102
RTVSPost2010Prop35
280
     0
102
RTVSPost2010PropOp35
 70
     1
102
RTVSPost2010Prop36
280
     0
102
RTVSPost2010PropOp36
 70
     1
102
RTVSPost2010Prop37
 90
       50
102
RTVSPost2010PropOp37
 70
     1
102
RTVSPost2010Prop38
140
0.0
102
RTVSPost2010PropOp38
 70
     1
102
RTVSPost2010Prop39
140
1.0
102
RTVSPost2010PropOp39
 70
     1
102
RTVSPost2010Prop40
 90
        0
102
RTVSPost2010PropOp40
 70
     1
102
RTVSPost2010Prop41ColorIndex
 90
       18
102
RTVSPost2010Prop41ColorRGB
 90
        0
102
RTVSPost2010PropOp41
 70
     1
102
RTVSPost2010Prop42
 90
       50
102
RTVSPost2010PropOp42
 70
     1
102
RTVSPost2010Prop43
 90
        3
102
RTVSPost2010PropOp43
 70
     1
102
RTVSPost2010Prop44ColorIndex
 90
        5
102
RTVSPost2010Prop44ColorRGB
 90
      255
102
RTVSPost2010PropOp44
 70
     1
102
RTVSPost2010Prop45
280
     0
102
RTVSPost2010PropOp45
 70
     1
102
RTVSPost2010Prop46
 90
       50
102
RTVSPost2010PropOp46
 70
     1
102
RTVSPost2010Prop47
 90
       50
102
RTVSPost2010PropOp47
 70
     1
102
RTVSPost2010Prop48
 90
       50
102
RTVSPost2010PropOp48
 70
     1
102
RTVSPost2010Prop49
280
     0
102
RTVSPost2010PropOp49
 70
     1
102
RTVSPost2010Prop50
 90
       50
102
RTVSPost2010PropOp50
 70
     1
102
RTVSPost2010Prop51ColorIndex
 90
      256
102
RTVSPost2010Prop51ColorRGB
 90
-16777216
102
RTVSPost2010PropOp51
 70
     0
102
RTVSPost2010Prop52
140
1.0
102
RTVSPost2010PropOp52
 70
     0
102
RTVSPost2010Prop53
 90
        2
102
RTVSPost2010PropOp53
 70
     1
102
RTVSPost2010Prop54
  1
strokes_ogs.tif
102
RTVSPost2010PropOp54
 70
     1
102
RTVSPost2010Prop55
280
     0
102
RTVSPost2010PropOp55
 70
     1
102
RTVSPost2010Prop56
140
1.0
102
RTVSPost2010PropOp56
 70
     1
102
RTVSPost2010Prop57
140
1.0
102
RTVSPost2010PropOp57
 70
     1
  0
XRECORD
  5
9A5
102
{ACAD_REACTORS
330
9A4
102
}
330
9A4
100
AcDbXrecord
280
     1
102
RTVSPost2010Prop28
280
     0
102
RTVSPost2010PropOp28
 70
     1
102
RTVSPost2010Prop29
280
     1
102
RTVSPost2010PropOp29
 70
     1
102
RTVSPost2010Prop30
280
     1
102
RTVSPost2010PropOp30
 70
     1
102
RTVSPost2010Prop31
280
     0
102
RTVSPost2010PropOp31
 70
     1
102
RTVSPost2010Prop32
280
     0
102
RTVSPost2010PropOp32
 70
     1
102
RTVSPost2010Prop33
280
     0
102
RTVSPost2010PropOp33
 70
     1
102
RTVSPost2010Prop34
280
     0
102
RTVSPost2010PropOp34
 70
     1
102
RTVSPost2010Prop35
280
     0
102
RTVSPost2010PropOp35
 70
     1
102
RTVSPost2010Prop36
280
     0
102
RTVSPost2010PropOp36
 70
     1
102
RTVSPost2010Prop37
 90
       50
102
RTVSPost2010PropOp37
 70
     1
102
RTVSPost2010Prop38
140
0.0
102
RTVSPost2010PropOp38
 70
     1
102
RTVSPost2010Prop39
140
1.0
102
RTVSPost2010PropOp39
 70
     1
102
RTVSPost2010Prop40
 90
        0
102
RTVSPost2010PropOp40
 70
     1
102
RTVSPost2010Prop41ColorIndex
 90
       18
102
RTVSPost2010Prop41ColorRGB
 90
        0
102
RTVSPost2010PropOp41
 70
     1
102
RTVSPost2010Prop42
 90
       50
102
RTVSPost2010PropOp42
 70
     1
102
RTVSPost2010Prop43
 90
        3
102
RTVSPost2010PropOp43
 70
     1
102
RTVSPost2010Prop44ColorIndex
 90
        5
102
RTVSPost2010Prop44ColorRGB
 90
      255
102
RTVSPost2010PropOp44
 70
     1
102
RTVSPost2010Prop45
280
     0
102
RTVSPost2010PropOp45
 70
     1
102
RTVSPost2010Prop46
 90
       50
102
RTVSPost2010PropOp46
 70
     1
102
RTVSPost2010Prop47
 90
       50
102
RTVSPost2010PropOp47
 70
     1
102
RTVSPost2010Prop48
 90
       50
102
RTVSPost2010PropOp48
 70
     1
102
RTVSPost2010Prop49
280
     0
102
RTVSPost2010PropOp49
 70
     1
102
RTVSPost2010Prop50
 90
       50
102
RTVSPost2010PropOp50
 70
     1
102
RTVSPost2010Prop51ColorIndex
 90
      256
102
RTVSPost2010Prop51ColorRGB
 90
-16777216
102
RTVSPost2010PropOp51
 70
     0
102
RTVSPost2010Prop52
140
1.0
102
RTVSPost2010PropOp52
 70
     0
102
RTVSPost2010Prop53
 90
        2
102
RTVSPost2010PropOp53
 70
     1
102
RTVSPost2010Prop54
  1
strokes_ogs.tif
102
RTVSPost2010PropOp54
 70
     1
102
RTVSPost2010Prop55
280
     0
102
RTVSPost2010PropOp55
 70
     1
102
RTVSPost2010Prop56
140
1.0
102
RTVSPost2010PropOp56
 70
     1
102
RTVSPost2010Prop57
140
1.0
102
RTVSPost2010PropOp57
 70
     1
  0
XRECORD
  5
99B
102
{ACAD_REACTORS
330
99A
102
}
330
99A
100
AcDbXrecord
280
     1
102
RTVSPost2010Prop28
280
     0
102
RTVSPost2010PropOp28
 70
     1
102
RTVSPost2010Prop29
280
     1
102
RTVSPost2010PropOp29
 70
     1
102
RTVSPost2010Prop30
280
     1
102
RTVSPost2010PropOp30
 70
     1
102
RTVSPost2010Prop31
280
     0
102
RTVSPost2010PropOp31
 70
     1
102
RTVSPost2010Prop32
280
     0
102
RTVSPost2010PropOp32
 70
     1
102
RTVSPost2010Prop33
280
     0
102
RTVSPost2010PropOp33
 70
     1
102
RTVSPost2010Prop34
280
     0
102
RTVSPost2010PropOp34
 70
     1
102
RTVSPost2010Prop35
280
     0
102
RTVSPost2010PropOp35
 70
     1
102
RTVSPost2010Prop36
280
     0
102
RTVSPost2010PropOp36
 70
     1
102
RTVSPost2010Prop37
 90
       50
102
RTVSPost2010PropOp37
 70
     1
102
RTVSPost2010Prop38
140
0.0
102
RTVSPost2010PropOp38
 70
     1
102
RTVSPost2010Prop39
140
1.0
102
RTVSPost2010PropOp39
 70
     1
102
RTVSPost2010Prop40
 90
        0
102
RTVSPost2010PropOp40
 70
     1
102
RTVSPost2010Prop41ColorIndex
 90
       18
102
RTVSPost2010Prop41ColorRGB
 90
        0
102
RTVSPost2010PropOp41
 70
     1
102
RTVSPost2010Prop42
 90
       50
102
RTVSPost2010PropOp42
 70
     1
102
RTVSPost2010Prop43
 90
        3
102
RTVSPost2010PropOp43
 70
     1
102
RTVSPost2010Prop44ColorIndex
 90
        5
102
RTVSPost2010Prop44ColorRGB
 90
      255
102
RTVSPost2010PropOp44
 70
     1
102
RTVSPost2010Prop45
280
     0
102
RTVSPost2010PropOp45
 70
     1
102
RTVSPost2010Prop46
 90
       50
102
RTVSPost2010PropOp46
 70
     1
102
RTVSPost2010Prop47
 90
       50
102
RTVSPost2010PropOp47
 70
     1
102
RTVSPost2010Prop48
 90
       50
102
RTVSPost2010PropOp48
 70
     1
102
RTVSPost2010Prop49
280
     0
102
RTVSPost2010PropOp49
 70
     1
102
RTVSPost2010Prop50
 90
       50
102
RTVSPost2010PropOp50
 70
     1
102
RTVSPost2010Prop51ColorIndex
 90
      256
102
RTVSPost2010Prop51ColorRGB
 90
-16777216
102
RTVSPost2010PropOp51
 70
     0
102
RTVSPost2010Prop52
140
1.0
102
RTVSPost2010PropOp52
 70
     0
102
RTVSPost2010Prop53
 90
        2
102
RTVSPost2010PropOp53
 70
     1
102
RTVSPost2010Prop54
  1
strokes_ogs.tif
102
RTVSPost2010PropOp54
 70
     1
102
RTVSPost2010Prop55
280
     0
102
RTVSPost2010PropOp55
 70
     1
102
RTVSPost2010Prop56
140
1.0
102
RTVSPost2010PropOp56
 70
     1
102
RTVSPost2010Prop57
140
1.0
102
RTVSPost2010PropOp57
 70
     1
  0
XRECORD
  5
98F
102
{ACAD_REACTORS
330
98E
102
}
330
98E
100
AcDbXrecord
280
     1
102
RTVSPost2010Prop28
280
     0
102
RTVSPost2010PropOp28
 70
     1
102
RTVSPost2010Prop29
280
     1
102
RTVSPost2010PropOp29
 70
     1
102
RTVSPost2010Prop30
280
     1
102
RTVSPost2010PropOp30
 70
     1
102
RTVSPost2010Prop31
280
     0
102
RTVSPost2010PropOp31
 70
     1
102
RTVSPost2010Prop32
280
     0
102
RTVSPost2010PropOp32
 70
     1
102
RTVSPost2010Prop33
280
     0
102
RTVSPost2010PropOp33
 70
     1
102
RTVSPost2010Prop34
280
     0
102
RTVSPost2010PropOp34
 70
     1
102
RTVSPost2010Prop35
280
     0
102
RTVSPost2010PropOp35
 70
     1
102
RTVSPost2010Prop36
280
     0
102
RTVSPost2010PropOp36
 70
     1
102
RTVSPost2010Prop37
 90
       50
102
RTVSPost2010PropOp37
 70
     1
102
RTVSPost2010Prop38
140
0.0
102
RTVSPost2010PropOp38
 70
     1
102
RTVSPost2010Prop39
140
1.0
102
RTVSPost2010PropOp39
 70
     1
102
RTVSPost2010Prop40
 90
        0
102
RTVSPost2010PropOp40
 70
     1
102
RTVSPost2010Prop41ColorIndex
 90
       18
102
RTVSPost2010Prop41ColorRGB
 90
        0
102
RTVSPost2010PropOp41
 70
     1
102
RTVSPost2010Prop42
 90
       50
102
RTVSPost2010PropOp42
 70
     1
102
RTVSPost2010Prop43
 90
        3
102
RTVSPost2010PropOp43
 70
     1
102
RTVSPost2010Prop44ColorIndex
 90
        5
102
RTVSPost2010Prop44ColorRGB
 90
      255
102
RTVSPost2010PropOp44
 70
     1
102
RTVSPost2010Prop45
280
     0
102
RTVSPost2010PropOp45
 70
     1
102
RTVSPost2010Prop46
 90
       50
102
RTVSPost2010PropOp46
 70
     1
102
RTVSPost2010Prop47
 90
       50
102
RTVSPost2010PropOp47
 70
     1
102
RTVSPost2010Prop48
 90
       50
102
RTVSPost2010PropOp48
 70
     1
102
RTVSPost2010Prop49
280
     0
102
RTVSPost2010PropOp49
 70
     1
102
RTVSPost2010Prop50
 90
       50
102
RTVSPost2010PropOp50
 70
     1
102
RTVSPost2010Prop51ColorIndex
 90
      256
102
RTVSPost2010Prop51ColorRGB
 90
-16777216
102
RTVSPost2010PropOp51
 70
     0
102
RTVSPost2010Prop52
140
1.0
102
RTVSPost2010PropOp52
 70
     0
102
RTVSPost2010Prop53
 90
        2
102
RTVSPost2010PropOp53
 70
     1
102
RTVSPost2010Prop54
  1
strokes_ogs.tif
102
RTVSPost2010PropOp54
 70
     1
102
RTVSPost2010Prop55
280
     0
102
RTVSPost2010PropOp55
 70
     1
102
RTVSPost2010Prop56
140
1.0
102
RTVSPost2010PropOp56
 70
     1
102
RTVSPost2010Prop57
140
1.0
102
RTVSPost2010PropOp57
 70
     1
  0
XRECORD
  5
9A7
102
{ACAD_REACTORS
330
9A6
102
}
330
9A6
100
AcDbXrecord
280
     1
102
RTVSPost2010Prop28
280
     0
102
RTVSPost2010PropOp28
 70
     1
102
RTVSPost2010Prop29
280
     1
102
RTVSPost2010PropOp29
 70
     1
102
RTVSPost2010Prop30
280
     1
102
RTVSPost2010PropOp30
 70
     1
102
RTVSPost2010Prop31
280
     0
102
RTVSPost2010PropOp31
 70
     1
102
RTVSPost2010Prop32
280
     0
102
RTVSPost2010PropOp32
 70
     1
102
RTVSPost2010Prop33
280
     0
102
RTVSPost2010PropOp33
 70
     1
102
RTVSPost2010Prop34
280
     0
102
RTVSPost2010PropOp34
 70
     1
102
RTVSPost2010Prop35
280
     0
102
RTVSPost2010PropOp35
 70
     1
102
RTVSPost2010Prop36
280
     0
102
RTVSPost2010PropOp36
 70
     1
102
RTVSPost2010Prop37
 90
       50
102
RTVSPost2010PropOp37
 70
     1
102
RTVSPost2010Prop38
140
0.0
102
RTVSPost2010PropOp38
 70
     1
102
RTVSPost2010Prop39
140
1.0
102
RTVSPost2010PropOp39
 70
     1
102
RTVSPost2010Prop40
 90
        0
102
RTVSPost2010PropOp40
 70
     1
102
RTVSPost2010Prop41ColorIndex
 90
       18
102
RTVSPost2010Prop41ColorRGB
 90
        0
102
RTVSPost2010PropOp41
 70
     1
102
RTVSPost2010Prop42
 90
       50
102
RTVSPost2010PropOp42
 70
     1
102
RTVSPost2010Prop43
 90
        3
102
RTVSPost2010PropOp43
 70
     1
102
RTVSPost2010Prop44ColorIndex
 90
        5
102
RTVSPost2010Prop44ColorRGB
 90
      255
102
RTVSPost2010PropOp44
 70
     1
102
RTVSPost2010Prop45
280
     0
102
RTVSPost2010PropOp45
 70
     1
102
RTVSPost2010Prop46
 90
       50
102
RTVSPost2010PropOp46
 70
     1
102
RTVSPost2010Prop47
 90
       50
102
RTVSPost2010PropOp47
 70
     1
102
RTVSPost2010Prop48
 90
       50
102
RTVSPost2010PropOp48
 70
     1
102
RTVSPost2010Prop49
280
     0
102
RTVSPost2010PropOp49
 70
     1
102
RTVSPost2010Prop50
 90
       50
102
RTVSPost2010PropOp50
 70
     1
102
RTVSPost2010Prop51ColorIndex
 90
      256
102
RTVSPost2010Prop51ColorRGB
 90
-16777216
102
RTVSPost2010PropOp51
 70
     0
102
RTVSPost2010Prop52
140
1.0
102
RTVSPost2010PropOp52
 70
     0
102
RTVSPost2010Prop53
 90
        2
102
RTVSPost2010PropOp53
 70
     1
102
RTVSPost2010Prop54
  1
strokes_ogs.tif
102
RTVSPost2010PropOp54
 70
     1
102
RTVSPost2010Prop55
280
     0
102
RTVSPost2010PropOp55
 70
     1
102
RTVSPost2010Prop56
140
1.0
102
RTVSPost2010PropOp56
 70
     1
102
RTVSPost2010Prop57
140
1.0
102
RTVSPost2010PropOp57
 70
     1
  0
ENDSEC
  0
EOF
