  0
SECTION
  2
HEADER
  9
$ACADVER
  1
AC1024
  9
$ACADMAINTVER
 70
   181
  9
$DWGCODEPAGE
  3
ANSI_1252
  9
$AUTHOR
  1
KIM
  9
$CUSTOMPROPERTYTAG
  1
Manager
  9
$CUSTOMPROPERTY
  1

  9
$CUSTOMPROPERTYTAG
  1
Company
  9
$CUSTOMPROPERTY
  1

  9
$CUSTOMPROPERTYTAG
  1
Category
  9
$CUSTOMPROPERTY
  1

  9
$CUSTOMPROPERTYTAG
  1
Part Number
  9
$CUSTOMPROPERTY
  1
494204
  9
$CUSTOMPROPERTYTAG
  1
Description
  9
$CUSTOMPROPERTY
  1

  9
$CUSTOMPROPERTYTAG
  1
Project
  9
$CUSTOMPROPERTY
  1

  9
$CUSTOMPROPERTYTAG
  1
Designer
  9
$CUSTOMPROPERTY
  1
KIM
  9
$CUSTOMPROPERTYTAG
  1
Engineer
  9
$CUSTOMPROPERTY
  1

  9
$CUSTOMPROPERTYTAG
  1
Authority
  9
$CUSTOMPROPERTY
  1

  9
$CUSTOMPROPERTYTAG
  1
Cost Center
  9
$CUSTOMPROPERTY
  1

  9
$CUSTOMPROPERTYTAG
  1
Cost
  9
$CUSTOMPROPERTY
  1

  9
$CUSTOMPROPERTYTAG
  1
Vendor
  9
$CUSTOMPROPERTY
  1

  9
$CUSTOMPROPERTYTAG
  1
User Status
  9
$CUSTOMPROPERTY
  1

  9
$CUSTOMPROPERTYTAG
  1
Design Status
  9
$CUSTOMPROPERTY
  1
WorkInProgress
  9
$CUSTOMPROPERTYTAG
  1
Checked by
  9
$CUSTOMPROPERTY
  1

  9
$CUSTOMPROPERTYTAG
  1
Engr Approved by
  9
$CUSTOMPROPERTY
  1

  9
$CUSTOMPROPERTYTAG
  1
Mfg Approved by
  9
$CUSTOMPROPERTY
  1

  9
$CUSTOMPROPERTYTAG
  1
Date Created
  9
$CUSTOMPROPERTY
  1
08/27/2017
  9
$CUSTOMPROPERTYTAG
  1
Stock Number
  9
$CUSTOMPROPERTY
  1

  9
$INSBASE
 10
0.0
 20
0.0
 30
0.0
  9
$EXTMIN
 10
0.0
 20
0.0
 30
0.0
  9
$EXTMAX
 10
840.9999999999998
 20
594.0
 30
0.0
  9
$LIMMIN
 10
0.0
 20
0.0
  9
$LIMMAX
 10
840.9999999999998
 20
594.0
  9
$ORTHOMODE
 70
     0
  9
$REGENMODE
 70
     1
  9
$FILLMODE
 70
     1
  9
$QTEXTMODE
 70
     0
  9
$MIRRTEXT
 70
     0
  9
$LTSCALE
 40
1.0
  9
$ATTMODE
 70
     1
  9
$TEXTSIZE
 40
0.2
  9
$TRACEWID
 40
0.05
  9
$TEXTSTYLE
  7
Standard
  9
$CLAYER
  8
0
  9
$CELTYPE
  6
ByLayer
  9
$CECOLOR
 62
   256
  9
$CELTSCALE
 40
1.0
  9
$DISPSILH
 70
     0
  9
$DIMSCALE
 40
1.0
  9
$DIMASZ
 40
1.799999999999999
  9
$DIMEXO
 40
0.0625
  9
$DIMDLI
 40
0.38
  9
$DIMRND
 40
0.0
  9
$DIMDLE
 40
0.0
  9
$DIMEXE
 40
0.18
  9
$DIMTP
 40
0.0
  9
$DIMTM
 40
0.0
  9
$DIMTXT
 40
0.25
  9
$DIMCEN
 40
0.09
  9
$DIMTSZ
 40
0.0
  9
$DIMTOL
 70
     0
  9
$DIMLIM
 70
     0
  9
$DIMTIH
 70
     1
  9
$DIMTOH
 70
     1
  9
$DIMSE1
 70
     0
  9
$DIMSE2
 70
     0
  9
$DIMTAD
 70
     0
  9
$DIMZIN
 70
     0
  9
$DIMBLK
  1

  9
$DIMASO
 70
     1
  9
$DIMSHO
 70
     1
  9
$DIMPOST
  1

  9
$DIMAPOST
  1

  9
$DIMALT
 70
     0
  9
$DIMALTD
 70
     2
  9
$DIMALTF
 40
25.4
  9
$DIMLFAC
 40
1.0
  9
$DIMTOFL
 70
     0
  9
$DIMTVP
 40
0.0
  9
$DIMTIX
 70
     0
  9
$DIMSOXD
 70
     0
  9
$DIMSAH
 70
     0
  9
$DIMBLK1
  1

  9
$DIMBLK2
  1

  9
$DIMSTYLE
  2
Standard
  9
$DIMCLRD
 70
     0
  9
$DIMCLRE
 70
     0
  9
$DIMCLRT
 70
     0
  9
$DIMTFAC
 40
1.0
  9
$DIMGAP
 40
0.09
  9
$DIMJUST
 70
     0
  9
$DIMSD1
 70
     0
  9
$DIMSD2
 70
     0
  9
$DIMTOLJ
 70
     1
  9
$DIMTZIN
 70
     0
  9
$DIMALTZ
 70
     0
  9
$DIMALTTZ
 70
     0
  9
$DIMUPT
 70
     0
  9
$DIMDEC
 70
     4
  9
$DIMTDEC
 70
     4
  9
$DIMALTU
 70
     2
  9
$DIMALTTD
 70
     2
  9
$DIMTXSTY
  7
Standard
  9
$DIMAUNIT
 70
     0
  9
$DIMADEC
 70
     0
  9
$DIMALTRND
 40
0.0
  9
$DIMAZIN
 70
     0
  9
$DIMDSEP
 70
    46
  9
$DIMATFIT
 70
     3
  9
$DIMFRAC
 70
     0
  9
$DIMLDRBLK
  1

  9
$DIMLUNIT
 70
     2
  9
$DIMLWD
 70
    -2
  9
$DIMLWE
 70
    -2
  9
$DIMTMOVE
 70
     0
  9
$DIMFXL
 40
1.0
  9
$DIMFXLON
 70
     0
  9
$DIMJOGANG
 40
0.7853981633974483
  9
$DIMTFILL
 70
     0
  9
$DIMTFILLCLR
 70
     0
  9
$DIMARCSYM
 70
     0
  9
$DIMLTYPE
  6

  9
$DIMLTEX1
  6

  9
$DIMLTEX2
  6

  9
$DIMTXTDIRECTION
 70
     0
  9
$LUNITS
 70
     2
  9
$LUPREC
 70
     4
  9
$SKETCHINC
 40
0.1
  9
$FILLETRAD
 40
0.0
  9
$AUNITS
 70
     0
  9
$AUPREC
 70
     0
  9
$MENU
  1
.
  9
$ELEVATION
 40
0.0
  9
$PELEVATION
 40
0.0
  9
$THICKNESS
 40
0.0
  9
$LIMCHECK
 70
     0
  9
$CHAMFERA
 40
0.0
  9
$CHAMFERB
 40
0.0
  9
$CHAMFERC
 40
0.0
  9
$CHAMFERD
 40
0.0
  9
$SKPOLY
 70
     0
  9
$TDCREATE
 40
2457993.591565602
  9
$TDUCREATE
 40
2457993.466565602
  9
$TDUPDATE
 40
2457993.591565602
  9
$TDUUPDATE
 40
2457993.466565602
  9
$TDINDWG
 40
0.0000051157
  9
$TDUSRTIMER
 40
0.0000051157
  9
$USRTIMER
 70
     1
  9
$ANGBASE
 50
0.0
  9
$ANGDIR
 70
     0
  9
$PDMODE
 70
     0
  9
$PDSIZE
 40
0.0
  9
$PLINEWID
 40
0.0
  9
$SPLFRAME
 70
     0
  9
$SPLINETYPE
 70
     6
  9
$SPLINESEGS
 70
     8
  9
$HANDSEED
  5
745
  9
$SURFTAB1
 70
     6
  9
$SURFTAB2
 70
     6
  9
$SURFTYPE
 70
     6
  9
$SURFU
 70
     6
  9
$SURFV
 70
     6
  9
$UCSBASE
  2

  9
$UCSNAME
  2

  9
$UCSORG
 10
0.0
 20
0.0
 30
0.0
  9
$UCSXDIR
 10
1.0
 20
0.0
 30
0.0
  9
$UCSYDIR
 10
0.0
 20
1.0
 30
0.0
  9
$UCSORTHOREF
  2

  9
$UCSORTHOVIEW
 70
     0
  9
$UCSORGTOP
 10
0.0
 20
0.0
 30
0.0
  9
$UCSORGBOTTOM
 10
0.0
 20
0.0
 30
0.0
  9
$UCSORGLEFT
 10
0.0
 20
0.0
 30
0.0
  9
$UCSORGRIGHT
 10
0.0
 20
0.0
 30
0.0
  9
$UCSORGFRONT
 10
0.0
 20
0.0
 30
0.0
  9
$UCSORGBACK
 10
0.0
 20
0.0
 30
0.0
  9
$PUCSBASE
  2

  9
$PUCSNAME
  2

  9
$PUCSORG
 10
0.0
 20
0.0
 30
0.0
  9
$PUCSXDIR
 10
1.0
 20
0.0
 30
0.0
  9
$PUCSYDIR
 10
0.0
 20
1.0
 30
0.0
  9
$PUCSORTHOREF
  2

  9
$PUCSORTHOVIEW
 70
     0
  9
$PUCSORGTOP
 10
0.0
 20
0.0
 30
0.0
  9
$PUCSORGBOTTOM
 10
0.0
 20
0.0
 30
0.0
  9
$PUCSORGLEFT
 10
0.0
 20
0.0
 30
0.0
  9
$PUCSORGRIGHT
 10
0.0
 20
0.0
 30
0.0
  9
$PUCSORGFRONT
 10
0.0
 20
0.0
 30
0.0
  9
$PUCSORGBACK
 10
0.0
 20
0.0
 30
0.0
  9
$USERI1
 70
     0
  9
$USERI2
 70
     0
  9
$USERI3
 70
     0
  9
$USERI4
 70
     0
  9
$USERI5
 70
     0
  9
$USERR1
 40
0.0
  9
$USERR2
 40
0.0
  9
$USERR3
 40
0.0
  9
$USERR4
 40
0.0
  9
$USERR5
 40
0.0
  9
$WORLDVIEW
 70
     1
  9
$SHADEDGE
 70
     3
  9
$SHADEDIF
 70
    70
  9
$TILEMODE
 70
     1
  9
$MAXACTVP
 70
    64
  9
$PINSBASE
 10
0.0
 20
0.0
 30
0.0
  9
$PLIMCHECK
 70
     0
  9
$PEXTMIN
 10
0.0
 20
0.0
 30
0.0
  9
$PEXTMAX
 10
840.9999999999998
 20
594.0
 30
0.0
  9
$PLIMMIN
 10
0.0
 20
0.0
  9
$PLIMMAX
 10
840.9999999999998
 20
594.0
  9
$UNITMODE
 70
     0
  9
$VISRETAIN
 70
     1
  9
$PLINEGEN
 70
     0
  9
$PSLTSCALE
 70
     1
  9
$TREEDEPTH
 70
  3020
  9
$CMLSTYLE
  2
Standard
  9
$CMLJUST
 70
     0
  9
$CMLSCALE
 40
1.0
  9
$PROXYGRAPHICS
 70
     1
  9
$MEASUREMENT
 70
     1
  9
$CELWEIGHT
370
    -1
  9
$ENDCAPS
280
     0
  9
$JOINSTYLE
280
     0
  9
$LWDISPLAY
290
     0
  9
$INSUNITS
 70
     4
  9
$HYPERLINKBASE
  1

  9
$STYLESHEET
  1

  9
$XEDIT
290
     1
  9
$CEPSNTYPE
380
     0
  9
$PSTYLEMODE
290
     1
  9
$FINGERPRINTGUID
  2
{68A9AF6D-1D94-47AE-B0FF-C11CC1C59727}
  9
$VERSIONGUID
  2
{2F32ADC3-86A7-427C-824B-F59B4CAC1A43}
  9
$EXTNAMES
290
     1
  9
$PSVPSCALE
 40
0.0
  9
$OLESTARTUP
290
     0
  9
$SORTENTS
280
   127
  9
$INDEXCTL
280
     0
  9
$HIDETEXT
280
     1
  9
$XCLIPFRAME
280
     2
  9
$HALOGAP
280
     0
  9
$OBSCOLOR
 70
   257
  9
$OBSLTYPE
280
     0
  9
$INTERSECTIONDISPLAY
280
     0
  9
$INTERSECTIONCOLOR
 70
   257
  9
$DIMASSOC
280
     1
  9
$PROJECTNAME
  1

  9
$CAMERADISPLAY
290
     0
  9
$LENSLENGTH
 40
50.0
  9
$CAMERAHEIGHT
 40
0.0
  9
$STEPSPERSEC
 40
2.0
  9
$STEPSIZE
 40
6.0
  9
$3DDWFPREC
 40
2.0
  9
$PSOLWIDTH
 40
0.25
  9
$PSOLHEIGHT
 40
4.0
  9
$LOFTANG1
 40
1.570796326794896
  9
$LOFTANG2
 40
1.570796326794896
  9
$LOFTMAG1
 40
0.0
  9
$LOFTMAG2
 40
0.0
  9
$LOFTPARAM
 70
     7
  9
$LOFTNORMALS
280
     1
  9
$LATITUDE
 40
37.795
  9
$LONGITUDE
 40
-122.394
  9
$NORTHDIRECTION
 40
0.0
  9
$TIMEZONE
 70
 -8000
  9
$LIGHTGLYPHDISPLAY
280
     1
  9
$TILEMODELIGHTSYNCH
280
     1
  9
$CMATERIAL
347
11
  9
$SOLIDHIST
280
     0
  9
$SHOWHIST
280
     1
  9
$DWFFRAME
280
     2
  9
$DGNFRAME
280
     0
  9
$REALWORLDSCALE
290
     1
  9
$INTERFERECOLOR
 62
     1
  9
$INTERFEREOBJVS
345
33
  9
$INTERFEREVPVS
346
30
  9
$CSHADOW
280
     0
  9
$SHADOWPLANELOCATION
 40
0.0
  0
ENDSEC
  0
SECTION
  2
CLASSES
  0
CLASS
  1
ACDBDICTIONARYWDFLT
  2
AcDbDictionaryWithDefault
  3
ObjectDBX Classes
 90
        0
 91
        1
280
     0
281
     0
  0
CLASS
  1
MATERIAL
  2
AcDbMaterial
  3
ObjectDBX Classes
 90
     1153
 91
        3
280
     0
281
     0
  0
CLASS
  1
VISUALSTYLE
  2
AcDbVisualStyle
  3
ObjectDBX Classes
 90
     4095
 91
       24
280
     0
281
     0
  0
CLASS
  1
SCALE
  2
AcDbScale
  3
ObjectDBX Classes
 90
     1153
 91
       17
280
     0
281
     0
  0
CLASS
  1
TABLESTYLE
  2
AcDbTableStyle
  3
ObjectDBX Classes
 90
     4095
 91
        1
280
     0
281
     0
  0
CLASS
  1
MLEADERSTYLE
  2
AcDbMLeaderStyle
  3
ACDB_MLEADERSTYLE_CLASS
 90
     4095
 91
        1
280
     0
281
     0
  0
CLASS
  1
ACDBSECTIONVIEWSTYLE
  2
AcDbSectionViewStyle
  3
ObjectDBX Classes
 90
     1025
 91
        1
280
     0
281
     0
  0
CLASS
  1
ACDBDETAILVIEWSTYLE
  2
AcDbDetailViewStyle
  3
ObjectDBX Classes
 90
     1025
 91
        1
280
     0
281
     0
  0
CLASS
  1
DICTIONARYVAR
  2
AcDbDictionaryVar
  3
ObjectDBX Classes
 90
        0
 91
        5
280
     0
281
     0
  0
CLASS
  1
CELLSTYLEMAP
  2
AcDbCellStyleMap
  3
ObjectDBX Classes
 90
     1152
 91
        1
280
     0
281
     0
  0
ENDSEC
  0
SECTION
  2
TABLES
  0
TABLE
  2
VPORT
  5
8
330
0
100
AcDbSymbolTable
 70
     1
  0
VPORT
  5
57
330
8
100
AcDbSymbolTableRecord
100
AcDbViewportTableRecord
  2
*Active
 70
     0
 10
0.0
 20
0.0
 11
1.0
 21
1.0
 12
420.4999999999999
 22
297.0
 13
0.0
 23
0.0
 14
1.0
 24
1.0
 15
0.0
 25
0.0
 16
0.0
 26
0.0
 36
1.0
 17
0.0
 27
0.0
 37
0.0
 40
594.0
 41
1.415824915824915
 42
50.0
 43
0.0
 44
0.0
 50
0.0
 51
0.0
 71
     0
 72
   100
 73
     1
 74
     1
 75
     0
 76
     0
 77
     0
 78
     0
281
     0
 65
     1
110
0.0
120
0.0
130
0.0
111
1.0
121
0.0
131
0.0
112
0.0
122
1.0
132
0.0
 79
     0
146
0.0
 60
     3
 61
     5
292
     1
282
     1
141
0.0
142
0.0
 63
   250
421
  3355443
  0
ENDTAB
  0
TABLE
  2
LTYPE
  5
5
330
0
100
AcDbSymbolTable
 70
    59
  0
LTYPE
  5
5B
330
5
100
AcDbSymbolTableRecord
100
AcDbLinetypeTableRecord
  2
ByBlock
 70
     0
  3

 72
    65
 73
     0
 40
0.0
  0
LTYPE
  5
5C
330
5
100
AcDbSymbolTableRecord
100
AcDbLinetypeTableRecord
  2
ByLayer
 70
     0
  3

 72
    65
 73
     0
 40
0.0
  0
LTYPE
  5
5D
330
5
100
AcDbSymbolTableRecord
100
AcDbLinetypeTableRecord
  2
Continuous
 70
     0
  3
Solid line
 72
    65
 73
     0
 40
0.0
  0
LTYPE
  5
78
330
5
100
AcDbSymbolTableRecord
100
AcDbLinetypeTableRecord
  2
Section_View_Lines
 70
     0
  3
Section View Lines
 72
    65
 73
     4
 40
0.8406
 49
0.6614
 74
     0
 49
-0.0827
 74
     0
 49
0.0138
 74
     0
 49
-0.0827
 74
     0
  0
LTYPE
  5
79
330
5
100
AcDbSymbolTableRecord
100
AcDbLinetypeTableRecord
  2
CHAIN
 70
     0
  3
Chain ____ _ ____ _ ____ _ ____ _ ____ _ ____
 72
    65
 73
     4
 40
0.3543
 49
0.2362
 74
     0
 49
-0.0295
 74
     0
 49
0.0591
 74
     0
 49
-0.0295
 74
     0
  0
LTYPE
  5
7A
330
5
100
AcDbSymbolTableRecord
100
AcDbLinetypeTableRecord
  2
DASH_DOT
 70
     0
  3
Dash dot _._._._._._._._._._._._._._._.
 72
    65
 73
     4
 40
0.182
 49
0.1181
 74
     0
 49
-0.0295
 74
     0
 49
0.0049
 74
     0
 49
-0.0295
 74
     0
  0
LTYPE
  5
7B
330
5
100
AcDbSymbolTableRecord
100
AcDbLinetypeTableRecord
  2
DASH_DOUBLE_DOT
 70
     0
  3
Dash Double Dot __ __ . __ __ . __ __ . __ _
 72
    65
 73
     6
 40
0.2164
 49
0.1181
 74
     0
 49
-0.0295
 74
     0
 49
0.0049
 74
     0
 49
-0.0295
 74
     0
 49
0.0049
 74
     0
 49
-0.0295
 74
     0
  0
LTYPE
  5
7C
330
5
100
AcDbSymbolTableRecord
100
AcDbLinetypeTableRecord
  2
DASH_TRIPLE_DOT
 70
     0
  3
Dash Triple-Dot _ . . . _ . . . _ . . . _
 72
    65
 73
     8
 40
0.2508
 49
0.1181
 74
     0
 49
-0.0295
 74
     0
 49
0.0049
 74
     0
 49
-0.0295
 74
     0
 49
0.0049
 74
     0
 49
-0.0295
 74
     0
 49
0.0049
 74
     0
 49
-0.0295
 74
     0
  0
LTYPE
  5
7D
330
5
100
AcDbSymbolTableRecord
100
AcDbLinetypeTableRecord
  2
DASHED
 70
     0
  3
Dashed __ __ __ __ __ __ __ __ __ __ __ __ __ _
 72
    65
 73
     2
 40
0.2068
 49
0.1655
 74
     0
 49
-0.0413
 74
     0
  0
LTYPE
  5
7E
330
5
100
AcDbSymbolTableRecord
100
AcDbLinetypeTableRecord
  2
DASHED_SPACE
 70
     0
  3
Dashed Space __ __ __ __ __ __ __ __ __ __ __ _
 72
    65
 73
     2
 40
0.2067
 49
0.1654
 74
     0
 49
-0.0413
 74
     0
  0
LTYPE
  5
7F
330
5
100
AcDbSymbolTableRecord
100
AcDbLinetypeTableRecord
  2
DOTTED
 70
     0
  3
Dotted . . . . . . . . . . . . . . . . . . . . 
 72
    65
 73
     2
 40
0.0481
 49
0.0068
 74
     0
 49
-0.0413
 74
     0
  0
LTYPE
  5
80
330
5
100
AcDbSymbolTableRecord
100
AcDbLinetypeTableRecord
  2
DOUBLE_DASH_CHAIN
 70
     0
  3
Double Dash Chain ___ _ _ ___ _ _ ___ _ _ ___ _
 72
    65
 73
     6
 40
1.240299999999999
 49
0.6614
 74
     0
 49
-0.0827
 74
     0
 49
0.1654
 74
     0
 49
-0.0827
 74
     0
 49
0.1654
 74
     0
 49
-0.0827
 74
     0
  0
LTYPE
  5
81
330
5
100
AcDbSymbolTableRecord
100
AcDbLinetypeTableRecord
  2
DOUBLE_DASH_DOT
 70
     0
  3
Double Dash Dot __ __ . __ __ . __ __ . __ _
 72
    65
 73
     6
 40
0.3296
 49
0.1181
 74
     0
 49
-0.0295
 74
     0
 49
0.1181
 74
     0
 49
-0.0295
 74
     0
 49
0.0049
 74
     0
 49
-0.0295
 74
     0
  0
LTYPE
  5
82
330
5
100
AcDbSymbolTableRecord
100
AcDbLinetypeTableRecord
  2
DOUBLE_DASH_DOUBLE_DOT
 70
     0
  3
Double Dash Double Dot _ _ . . _ _ . . _ _
 72
    65
 73
     8
 40
0.364
 49
0.1181
 74
     0
 49
-0.0295
 74
     0
 49
0.1181
 74
     0
 49
-0.0295
 74
     0
 49
0.0049
 74
     0
 49
-0.0295
 74
     0
 49
0.0049
 74
     0
 49
-0.0295
 74
     0
  0
LTYPE
  5
83
330
5
100
AcDbSymbolTableRecord
100
AcDbLinetypeTableRecord
  2
DOUBLE_DASH_TRIPLE_DOT
 70
     0
  3
Double Dash Triple Dot __ __ . . . __ __ . . .
 72
    65
 73
    10
 40
0.3984
 49
0.1181
 74
     0
 49
-0.0295
 74
     0
 49
0.1181
 74
     0
 49
-0.0295
 74
     0
 49
0.0049
 74
     0
 49
-0.0295
 74
     0
 49
0.0049
 74
     0
 49
-0.0295
 74
     0
 49
0.0049
 74
     0
 49
-0.0295
 74
     0
  0
LTYPE
  5
84
330
5
100
AcDbSymbolTableRecord
100
AcDbLinetypeTableRecord
  2
LONG_DASH_DOTTED
 70
     0
  3
Long Dash Dotted ____ . ____ . ____ . ____ . _
 72
    65
 73
     4
 40
0.3001
 49
0.2362
 74
     0
 49
-0.0295
 74
     0
 49
0.0049
 74
     0
 49
-0.0295
 74
     0
  0
LTYPE
  5
85
330
5
100
AcDbSymbolTableRecord
100
AcDbLinetypeTableRecord
  2
LONG_DASH_DOUBLE_DOT
 70
     0
  3
Long Dash Double Dot ____ . . ____ . . ____ . .
 72
    65
 73
     6
 40
0.3345
 49
0.2362
 74
     0
 49
-0.0295
 74
     0
 49
0.0049
 74
     0
 49
-0.0295
 74
     0
 49
0.0049
 74
     0
 49
-0.0295
 74
     0
  0
LTYPE
  5
86
330
5
100
AcDbSymbolTableRecord
100
AcDbLinetypeTableRecord
  2
LONG_DASH_TRIPLE_DOT
 70
     0
  3
Long Dash Triple Dot ____ ... ____ ... ____
 72
    65
 73
     8
 40
0.3689
 49
0.2362
 74
     0
 49
-0.0295
 74
     0
 49
0.0049
 74
     0
 49
-0.0295
 74
     0
 49
0.0049
 74
     0
 49
-0.0295
 74
     0
 49
0.0049
 74
     0
 49
-0.0295
 74
     0
  0
LTYPE
  5
87
330
5
100
AcDbSymbolTableRecord
100
AcDbLinetypeTableRecord
  2
BORDER
 70
     0
  3
Border __ __ . __ __ . __ __ . __ __ . __ __ .
 72
    65
 73
     6
 40
44.45
 49
12.7
 74
     0
 49
-6.349999999999999
 74
     0
 49
12.7
 74
     0
 49
-6.349999999999999
 74
     0
 49
0.0
 74
     0
 49
-6.349999999999999
 74
     0
  0
LTYPE
  5
88
330
5
100
AcDbSymbolTableRecord
100
AcDbLinetypeTableRecord
  2
BORDER2
 70
     0
  3
Border (.5x) __.__.__.__.__.__.__.__.__.__.__.
 72
    65
 73
     6
 40
22.225
 49
6.349999999999999
 74
     0
 49
-3.174999999999999
 74
     0
 49
6.349999999999999
 74
     0
 49
-3.174999999999999
 74
     0
 49
0.0
 74
     0
 49
-3.174999999999999
 74
     0
  0
LTYPE
  5
89
330
5
100
AcDbSymbolTableRecord
100
AcDbLinetypeTableRecord
  2
BORDERX2
 70
     0
  3
Border (2x) ____  ____  .  ____  ____  .  ___
 72
    65
 73
     6
 40
88.9
 49
25.4
 74
     0
 49
-12.7
 74
     0
 49
25.4
 74
     0
 49
-12.7
 74
     0
 49
0.0
 74
     0
 49
-12.7
 74
     0
  0
LTYPE
  5
8A
330
5
100
AcDbSymbolTableRecord
100
AcDbLinetypeTableRecord
  2
CENTER
 70
     0
  3
Center ____ _ ____ _ ____ _ ____ _ ____ _ ____
 72
    65
 73
     4
 40
50.8
 49
31.75
 74
     0
 49
-6.349999999999999
 74
     0
 49
6.349999999999999
 74
     0
 49
-6.349999999999999
 74
     0
  0
LTYPE
  5
8B
330
5
100
AcDbSymbolTableRecord
100
AcDbLinetypeTableRecord
  2
CENTER2
 70
     0
  3
Center (.5x) ___ _ ___ _ ___ _ ___ _ ___ _ ___
 72
    65
 73
     4
 40
28.575
 49
19.05
 74
     0
 49
-3.174999999999999
 74
     0
 49
3.174999999999999
 74
     0
 49
-3.174999999999999
 74
     0
  0
LTYPE
  5
8C
330
5
100
AcDbSymbolTableRecord
100
AcDbLinetypeTableRecord
  2
CENTERX2
 70
     0
  3
Center (2x) ________  __  ________  __  _____
 72
    65
 73
     4
 40
101.6
 49
63.5
 74
     0
 49
-12.7
 74
     0
 49
12.7
 74
     0
 49
-12.7
 74
     0
  0
LTYPE
  5
8D
330
5
100
AcDbSymbolTableRecord
100
AcDbLinetypeTableRecord
  2
DASHDOT2
 70
     0
  3
Dash dot (.5x) _._._._._._._._._._._._._._._.
 72
    65
 73
     4
 40
12.7
 49
6.349999999999999
 74
     0
 49
-3.174999999999999
 74
     0
 49
0.0
 74
     0
 49
-3.174999999999999
 74
     0
  0
LTYPE
  5
8E
330
5
100
AcDbSymbolTableRecord
100
AcDbLinetypeTableRecord
  2
DASHDOTX2
 70
     0
  3
Dash dot (2x) ____  .  ____  .  ____  .  ___
 72
    65
 73
     4
 40
50.8
 49
25.4
 74
     0
 49
-12.7
 74
     0
 49
0.0
 74
     0
 49
-12.7
 74
     0
  0
LTYPE
  5
8F
330
5
100
AcDbSymbolTableRecord
100
AcDbLinetypeTableRecord
  2
DASHED2
 70
     0
  3
Dashed (.5x) _ _ _ _ _ _ _ _ _ _ _ _ _ _ _ _ _
 72
    65
 73
     2
 40
9.524999999999998
 49
6.349999999999999
 74
     0
 49
-3.174999999999999
 74
     0
  0
LTYPE
  5
90
330
5
100
AcDbSymbolTableRecord
100
AcDbLinetypeTableRecord
  2
DASHEDX2
 70
     0
  3
Dashed (2x) ____  ____  ____  ____  ____  ___
 72
    65
 73
     2
 40
38.1
 49
25.4
 74
     0
 49
-12.7
 74
     0
  0
LTYPE
  5
91
330
5
100
AcDbSymbolTableRecord
100
AcDbLinetypeTableRecord
  2
DIVIDE
 70
     0
  3
Divide ____ . . ____ . . ____ . . ____ . . ____
 72
    65
 73
     6
 40
31.75
 49
12.7
 74
     0
 49
-6.349999999999999
 74
     0
 49
0.0
 74
     0
 49
-6.349999999999999
 74
     0
 49
0.0
 74
     0
 49
-6.349999999999999
 74
     0
  0
LTYPE
  5
92
330
5
100
AcDbSymbolTableRecord
100
AcDbLinetypeTableRecord
  2
DIVIDE2
 70
     0
  3
Divide (.5x) __..__..__..__..__..__..__..__.._
 72
    65
 73
     6
 40
15.875
 49
6.349999999999999
 74
     0
 49
-3.174999999999999
 74
     0
 49
0.0
 74
     0
 49
-3.174999999999999
 74
     0
 49
0.0
 74
     0
 49
-3.174999999999999
 74
     0
  0
LTYPE
  5
93
330
5
100
AcDbSymbolTableRecord
100
AcDbLinetypeTableRecord
  2
DIVIDEX2
 70
     0
  3
Divide (2x) ________  .  .  ________  .  .  _
 72
    65
 73
     6
 40
63.49999999999999
 49
25.4
 74
     0
 49
-12.7
 74
     0
 49
0.0
 74
     0
 49
-12.7
 74
     0
 49
0.0
 74
     0
 49
-12.7
 74
     0
  0
LTYPE
  5
94
330
5
100
AcDbSymbolTableRecord
100
AcDbLinetypeTableRecord
  2
DOT
 70
     0
  3
Dot . . . . . . . . . . . . . . . . . . . . . .
 72
    65
 73
     2
 40
6.349999999999999
 49
0.0
 74
     0
 49
-6.349999999999999
 74
     0
  0
LTYPE
  5
95
330
5
100
AcDbSymbolTableRecord
100
AcDbLinetypeTableRecord
  2
DOT2
 70
     0
  3
Dot (.5x) .....................................
 72
    65
 73
     2
 40
3.174999999999999
 49
0.0
 74
     0
 49
-3.174999999999999
 74
     0
  0
LTYPE
  5
96
330
5
100
AcDbSymbolTableRecord
100
AcDbLinetypeTableRecord
  2
DOTX2
 70
     0
  3
Dot (2x) .  .  .  .  .  .  .  .  .  .  .  .  . 
 72
    65
 73
     2
 40
12.7
 49
0.0
 74
     0
 49
-12.7
 74
     0
  0
LTYPE
  5
97
330
5
100
AcDbSymbolTableRecord
100
AcDbLinetypeTableRecord
  2
HIDDEN
 70
     0
  3
Hidden __ __ __ __ __ __ __ __ __ __ __ __ __ _
 72
    65
 73
     2
 40
9.524999999999998
 49
6.349999999999999
 74
     0
 49
-3.174999999999999
 74
     0
  0
LTYPE
  5
98
330
5
100
AcDbSymbolTableRecord
100
AcDbLinetypeTableRecord
  2
HIDDEN2
 70
     0
  3
Hidden (.5x) _ _ _ _ _ _ _ _ _ _ _ _ _ _ _ _ _
 72
    65
 73
     2
 40
4.762499999999999
 49
3.174999999999999
 74
     0
 49
-1.587499999999999
 74
     0
  0
LTYPE
  5
99
330
5
100
AcDbSymbolTableRecord
100
AcDbLinetypeTableRecord
  2
HIDDENX2
 70
     0
  3
Hidden (2x) ____ ____ ____ ____ ____ ____ ____
 72
    65
 73
     2
 40
19.05
 49
12.7
 74
     0
 49
-6.349999999999999
 74
     0
  0
LTYPE
  5
9A
330
5
100
AcDbSymbolTableRecord
100
AcDbLinetypeTableRecord
  2
PHANTOM
 70
     0
  3
Phantom ______  __  __  ______  __  __  ______
 72
    65
 73
     6
 40
63.5
 49
31.75
 74
     0
 49
-6.349999999999999
 74
     0
 49
6.349999999999999
 74
     0
 49
-6.349999999999999
 74
     0
 49
6.349999999999999
 74
     0
 49
-6.349999999999999
 74
     0
  0
LTYPE
  5
9B
330
5
100
AcDbSymbolTableRecord
100
AcDbLinetypeTableRecord
  2
PHANTOM2
 70
     0
  3
Phantom (.5x) ___ _ _ ___ _ _ ___ _ _ ___ _ _
 72
    65
 73
     6
 40
31.75
 49
15.875
 74
     0
 49
-3.174999999999999
 74
     0
 49
3.174999999999999
 74
     0
 49
-3.174999999999999
 74
     0
 49
3.174999999999999
 74
     0
 49
-3.174999999999999
 74
     0
  0
LTYPE
  5
9C
330
5
100
AcDbSymbolTableRecord
100
AcDbLinetypeTableRecord
  2
PHANTOMX2
 70
     0
  3
Phantom (2x) ____________    ____    ____   _
 72
    65
 73
     6
 40
127.0
 49
63.5
 74
     0
 49
-12.7
 74
     0
 49
12.7
 74
     0
 49
-12.7
 74
     0
 49
12.7
 74
     0
 49
-12.7
 74
     0
  0
LTYPE
  5
9D
330
5
100
AcDbSymbolTableRecord
100
AcDbLinetypeTableRecord
  2
ACAD_ISO02W100
 70
     0
  3
ISO dash __ __ __ __ __ __ __ __ __ __ __ __ __
 72
    65
 73
     2
 40
15.0
 49
12.0
 74
     0
 49
-3.0
 74
     0
  0
LTYPE
  5
9E
330
5
100
AcDbSymbolTableRecord
100
AcDbLinetypeTableRecord
  2
ACAD_ISO03W100
 70
     0
  3
ISO dash space __    __    __    __    __    __
 72
    65
 73
     2
 40
30.0
 49
12.0
 74
     0
 49
-18.0
 74
     0
  0
LTYPE
  5
9F
330
5
100
AcDbSymbolTableRecord
100
AcDbLinetypeTableRecord
  2
ACAD_ISO04W100
 70
     0
  3
ISO long-dash dot ____ . ____ . ____ . ____ . _
 72
    65
 73
     4
 40
30.0
 49
24.0
 74
     0
 49
-3.0
 74
     0
 49
0.0
 74
     0
 49
-3.0
 74
     0
  0
LTYPE
  5
A0
330
5
100
AcDbSymbolTableRecord
100
AcDbLinetypeTableRecord
  2
ACAD_ISO05W100
 70
     0
  3
ISO long-dash double-dot ____ .. ____ .. ____ .
 72
    65
 73
     6
 40
33.0
 49
24.0
 74
     0
 49
-3.0
 74
     0
 49
0.0
 74
     0
 49
-3.0
 74
     0
 49
0.0
 74
     0
 49
-3.0
 74
     0
  0
LTYPE
  5
A1
330
5
100
AcDbSymbolTableRecord
100
AcDbLinetypeTableRecord
  2
ACAD_ISO06W100
 70
     0
  3
ISO long-dash triple-dot ____ ... ____ ... ____
 72
    65
 73
     8
 40
36.0
 49
24.0
 74
     0
 49
-3.0
 74
     0
 49
0.0
 74
     0
 49
-3.0
 74
     0
 49
0.0
 74
     0
 49
-3.0
 74
     0
 49
0.0
 74
     0
 49
-3.0
 74
     0
  0
LTYPE
  5
A2
330
5
100
AcDbSymbolTableRecord
100
AcDbLinetypeTableRecord
  2
ACAD_ISO07W100
 70
     0
  3
ISO dot . . . . . . . . . . . . . . . . . . . .
 72
    65
 73
     2
 40
3.0
 49
0.0
 74
     0
 49
-3.0
 74
     0
  0
LTYPE
  5
A3
330
5
100
AcDbSymbolTableRecord
100
AcDbLinetypeTableRecord
  2
ACAD_ISO08W100
 70
     0
  3
ISO long-dash short-dash ____ __ ____ __ ____ _
 72
    65
 73
     4
 40
36.0
 49
24.0
 74
     0
 49
-3.0
 74
     0
 49
6.0
 74
     0
 49
-3.0
 74
     0
  0
LTYPE
  5
A4
330
5
100
AcDbSymbolTableRecord
100
AcDbLinetypeTableRecord
  2
ACAD_ISO09W100
 70
     0
  3
ISO long-dash double-short-dash ____ __ __ ____
 72
    65
 73
     6
 40
45.0
 49
24.0
 74
     0
 49
-3.0
 74
     0
 49
6.0
 74
     0
 49
-3.0
 74
     0
 49
6.0
 74
     0
 49
-3.0
 74
     0
  0
LTYPE
  5
A5
330
5
100
AcDbSymbolTableRecord
100
AcDbLinetypeTableRecord
  2
ACAD_ISO10W100
 70
     0
  3
ISO dash dot __ . __ . __ . __ . __ . __ . __ .
 72
    65
 73
     4
 40
18.0
 49
12.0
 74
     0
 49
-3.0
 74
     0
 49
0.0
 74
     0
 49
-3.0
 74
     0
  0
LTYPE
  5
A6
330
5
100
AcDbSymbolTableRecord
100
AcDbLinetypeTableRecord
  2
ACAD_ISO11W100
 70
     0
  3
ISO double-dash dot __ __ . __ __ . __ __ . __ 
 72
    65
 73
     6
 40
33.0
 49
12.0
 74
     0
 49
-3.0
 74
     0
 49
12.0
 74
     0
 49
-3.0
 74
     0
 49
0.0
 74
     0
 49
-3.0
 74
     0
  0
LTYPE
  5
A7
330
5
100
AcDbSymbolTableRecord
100
AcDbLinetypeTableRecord
  2
ACAD_ISO12W100
 70
     0
  3
ISO dash double-dot __ . . __ . . __ . . __ . .
 72
    65
 73
     6
 40
21.0
 49
12.0
 74
     0
 49
-3.0
 74
     0
 49
0.0
 74
     0
 49
-3.0
 74
     0
 49
0.0
 74
     0
 49
-3.0
 74
     0
  0
LTYPE
  5
A8
330
5
100
AcDbSymbolTableRecord
100
AcDbLinetypeTableRecord
  2
ACAD_ISO13W100
 70
     0
  3
ISO double-dash double-dot __ __ . . __ __ . . 
 72
    65
 73
     8
 40
36.0
 49
12.0
 74
     0
 49
-3.0
 74
     0
 49
12.0
 74
     0
 49
-3.0
 74
     0
 49
0.0
 74
     0
 49
-3.0
 74
     0
 49
0.0
 74
     0
 49
-3.0
 74
     0
  0
LTYPE
  5
A9
330
5
100
AcDbSymbolTableRecord
100
AcDbLinetypeTableRecord
  2
ACAD_ISO14W100
 70
     0
  3
ISO dash triple-dot __ . . . __ . . . __ . . . 
 72
    65
 73
     8
 40
24.0
 49
12.0
 74
     0
 49
-3.0
 74
     0
 49
0.0
 74
     0
 49
-3.0
 74
     0
 49
0.0
 74
     0
 49
-3.0
 74
     0
 49
0.0
 74
     0
 49
-3.0
 74
     0
  0
LTYPE
  5
AA
330
5
100
AcDbSymbolTableRecord
100
AcDbLinetypeTableRecord
  2
ACAD_ISO15W100
 70
     0
  3
ISO double-dash triple-dot __ __ . . . __ __ . 
 72
    65
 73
    10
 40
39.0
 49
12.0
 74
     0
 49
-3.0
 74
     0
 49
12.0
 74
     0
 49
-3.0
 74
     0
 49
0.0
 74
     0
 49
-3.0
 74
     0
 49
0.0
 74
     0
 49
-3.0
 74
     0
 49
0.0
 74
     0
 49
-3.0
 74
     0
  0
LTYPE
  5
AD
330
5
100
AcDbSymbolTableRecord
100
AcDbLinetypeTableRecord
  2
FENCELINE1
 70
     0
  3
Fenceline circle ----0-----0----0-----0----0---
 72
    65
 73
     4
 40
36.83
 49
6.349999999999999
 74
     0
 49
-2.54
 74
     4
 75
   133
340
AC
 46
2.54
 50
0.0
 44
-2.54
 45
0.0
 49
-2.54
 74
     0
 49
25.4
 74
     0
  0
LTYPE
  5
AE
330
5
100
AcDbSymbolTableRecord
100
AcDbLinetypeTableRecord
  2
FENCELINE2
 70
     0
  3
Fenceline square ----[]-----[]----[]-----[]----
 72
    65
 73
     4
 40
36.83
 49
6.349999999999999
 74
     0
 49
-2.54
 74
     4
 75
   132
340
AC
 46
2.54
 50
0.0
 44
-2.54
 45
0.0
 49
-2.54
 74
     0
 49
25.4
 74
     0
  0
LTYPE
  5
AF
330
5
100
AcDbSymbolTableRecord
100
AcDbLinetypeTableRecord
  2
TRACKS
 70
     0
  3
Tracks -|-|-|-|-|-|-|-|-|-|-|-|-|-|-|-|-|-|-|-|
 72
    65
 73
     2
 40
7.62
 49
3.81
 74
     4
 75
   130
340
AC
 46
6.349999999999999
 50
0.0
 44
0.0
 45
0.0
 49
3.81
 74
     0
  0
LTYPE
  5
B0
330
5
100
AcDbSymbolTableRecord
100
AcDbLinetypeTableRecord
  2
BATTING
 70
     0
  3
Batting SSSSSSSSSSSSSSSSSSSSSSSSSSSSSSSSSSSSSSS
 72
    65
 73
     4
 40
10.16254
 49
0.00254
 74
     0
 49
-2.54
 74
     4
 75
   134
340
AC
 46
2.54
 50
0.0
 44
-2.54
 45
0.0
 49
-5.08
 74
     4
 75
   134
340
AC
 46
2.54
 50
180.0
 44
2.54
 45
0.0
 49
-2.54
 74
     0
  0
LTYPE
  5
B1
330
5
100
AcDbSymbolTableRecord
100
AcDbLinetypeTableRecord
  2
HOT_WATER_SUPPLY
 70
     0
  3
Hot water supply ---- HW ---- HW ---- HW ----
 72
    65
 73
     3
 40
22.86
 49
12.7
 74
     0
 49
-5.08
 74
     2
 75
     0
340
55
 46
2.54
 50
0.0
 44
-2.54
 45
-1.27
  9
HW
 49
-5.08
 74
     0
  0
LTYPE
  5
B2
330
5
100
AcDbSymbolTableRecord
100
AcDbLinetypeTableRecord
  2
GAS_LINE
 70
     0
  3
Gas line ----GAS----GAS----GAS----GAS----GAS---
 72
    65
 73
     3
 40
24.13
 49
12.7
 74
     0
 49
-5.08
 74
     2
 75
     0
340
55
 46
2.54
 50
0.0
 44
-2.54
 45
-1.27
  9
GAS
 49
-6.349999999999999
 74
     0
  0
LTYPE
  5
B3
330
5
100
AcDbSymbolTableRecord
100
AcDbLinetypeTableRecord
  2
ZIGZAG
 70
     0
  3
Zig zag /\/\/\/\/\/\/\/\/\/\/\/\/\/\/\/\/\/\/\/
 72
    65
 73
     4
 40
20.32254
 49
0.00254
 74
     0
 49
-5.08
 74
     4
 75
   131
340
AC
 46
5.08
 50
0.0
 44
-5.08
 45
0.0
 49
-10.16
 74
     4
 75
   131
340
AC
 46
5.08
 50
180.0
 44
5.08
 45
0.0
 49
-5.08
 74
     0
  0
ENDTAB
  0
TABLE
  2
LAYER
  5
2
330
0
100
AcDbSymbolTable
 70
    27
  0
LAYER
  5
54
330
2
100
AcDbSymbolTableRecord
100
AcDbLayerTableRecord
  2
0
 70
     0
 62
     7
  6
Continuous
370
    -3
390
F
347
21
  0
LAYER
  5
B7
330
2
100
AcDbSymbolTableRecord
100
AcDbLayerTableRecord
  2
Border (ISO)
 70
     0
 62
     7
  6
Continuous
370
    70
390
F
347
21
  0
LAYER
  5
BC
330
2
100
AcDbSymbolTableRecord
100
AcDbLayerTableRecord
  2
Dimension (ISO)
 70
     0
 62
     7
  6
Continuous
370
    25
390
F
347
21
  0
LAYER
  5
BD
330
2
100
AcDbSymbolTableRecord
100
AcDbLayerTableRecord
  2
Hatch (ISO)
 70
     0
 62
     7
  6
Continuous
370
    18
390
F
347
21
  0
LAYER
  5
C3
330
2
100
AcDbSymbolTableRecord
100
AcDbLayerTableRecord
  2
Section Line (ISO)
 70
     0
 62
     7
  6
CHAIN
370
    70
390
F
347
21
  0
LAYER
  5
C5
330
2
100
AcDbSymbolTableRecord
100
AcDbLayerTableRecord
  2
Symbol (ISO)
 70
     0
 62
     7
  6
Continuous
370
    25
390
F
347
21
  0
LAYER
  5
C6
330
2
100
AcDbSymbolTableRecord
100
AcDbLayerTableRecord
  2
Title (ISO)
 70
     0
 62
     7
  6
Continuous
370
    50
390
F
347
21
  0
LAYER
  5
C8
330
2
100
AcDbSymbolTableRecord
100
AcDbLayerTableRecord
  2
Visible (ISO)
 70
     0
 62
     7
  6
Continuous
370
    50
390
F
347
21
  0
LAYER
  5
C9
330
2
100
AcDbSymbolTableRecord
100
AcDbLayerTableRecord
  2
Visible Narrow (ISO)
 70
     0
 62
     7
  6
Continuous
370
    35
390
F
347
21
  0
LAYER
  5
274
330
2
100
AcDbSymbolTableRecord
100
AcDbLayerTableRecord
  2
Defpoints
 70
     0
 62
     7
  6
Continuous
290
     0
370
    -3
390
F
347
21
  0
ENDTAB
  0
TABLE
  2
STYLE
  5
3
330
0
100
AcDbSymbolTable
 70
     5
  0
STYLE
  5
55
330
3
100
AcDbSymbolTableRecord
100
AcDbTextStyleTableRecord
  2
Standard
 70
     0
 40
0.0
 41
1.0
 50
0.0
 71
     0
 42
0.2
  3
tahoma.ttf
  4

1001
ACAD
1000
Tahoma
1071
      256
  0
STYLE
  5
5A
330
3
100
AcDbSymbolTableRecord
100
AcDbTextStyleTableRecord
  2
Annotative
 70
     0
 40
0.0
 41
1.0
 50
0.0
 71
     0
 42
0.2
  3
txt
  4

1001
AcadAnnotative
1000
AnnotativeData
1002
{
1070
     1
1070
     1
1002
}
  0
STYLE
  5
AC
330
3
100
AcDbSymbolTableRecord
100
AcDbTextStyleTableRecord
  2

 70
     1
 40
0.0
 41
1.0
 50
0.0
 71
     0
 42
0.2
  3
ltypeshp.shx
  4

  0
STYLE
  5
CD
330
3
100
AcDbSymbolTableRecord
100
AcDbTextStyleTableRecord
  2
Label Text (ISO)
 70
     0
 40
0.0
 41
1.0
 50
0.0
 71
     0
 42
0.2
  3
tahoma.ttf
  4

1001
ACAD
1000
Tahoma
1071
      256
  0
STYLE
  5
CE
330
3
100
AcDbSymbolTableRecord
100
AcDbTextStyleTableRecord
  2
Note Text (ISO)
 70
     0
 40
0.0
 41
1.0
 50
0.0
 71
     0
 42
0.2
  3
tahoma.ttf
  4

1001
ACAD
1000
Tahoma
1071
      256
  0
ENDTAB
  0
TABLE
  2
VIEW
  5
6
330
0
100
AcDbSymbolTable
 70
     0
  0
ENDTAB
  0
TABLE
  2
UCS
  5
7
330
0
100
AcDbSymbolTable
 70
     0
  0
ENDTAB
  0
TABLE
  2
APPID
  5
9
330
0
100
AcDbSymbolTable
 70
     3
  0
APPID
  5
56
330
9
100
AcDbSymbolTableRecord
100
AcDbRegAppTableRecord
  2
ACAD
 70
     0
  0
APPID
  5
5E
330
9
100
AcDbSymbolTableRecord
100
AcDbRegAppTableRecord
  2
AcadAnnotative
 70
     0
  0
APPID
  5
171
330
9
100
AcDbSymbolTableRecord
100
AcDbRegAppTableRecord
  2
AcadAnnoPO
 70
     0
  0
ENDTAB
  0
TABLE
  2
DIMSTYLE
  5
A
330
0
100
AcDbSymbolTable
 70
    15
100
AcDbDimStyleTable
 71
     2
340
D7
340
58
  0
DIMSTYLE
105
58
330
A
100
AcDbSymbolTableRecord
100
AcDbDimStyleTableRecord
  2
Standard
 70
     0
340
55
  0
DIMSTYLE
105
59
330
A
100
AcDbSymbolTableRecord
100
AcDbDimStyleTableRecord
  2
Annotative
 70
     0
340
55
1001
AcadAnnotative
1000
AnnotativeData
1002
{
1070
     1
1070
     1
1002
}
  0
DIMSTYLE
105
CF
330
A
100
AcDbSymbolTableRecord
100
AcDbDimStyleTableRecord
  2
Default - Method 1b (ISO)
 70
     0
 41
2.5
 42
0.0
 43
5.999999999999999
 44
3.174999999999999
 45
0.00000001
 46
10.0
 73
     0
 77
     1
 78
     8
 79
     2
140
2.5
143
0.03937
146
1.399999976158142
147
0.762
171
     3
172
     1
176
   256
177
   256
178
   232
179
     2
271
     2
272
     2
274
     3
278
    44
284
     8
286
     8
340
CE
371
    -1
372
    -1
  0
DIMSTYLE
105
D0
330
A
100
AcDbSymbolTableRecord
100
AcDbDimStyleTableRecord
  2
Default - Method 1b (ISO)$7
 70
     0
 41
2.5
 42
0.0
 43
5.999999999999999
 44
3.174999999999999
 45
0.00000001
 46
10.0
 73
     0
 77
     1
 78
     8
 79
     2
140
2.5
143
0.03937
146
1.399999976158142
147
0.762
171
     3
172
     1
176
   256
177
   256
178
   232
179
     2
271
     2
272
     2
274
     3
278
    44
284
     8
286
     8
340
CE
371
    -1
372
    -1
  0
DIMSTYLE
105
D1
330
A
100
AcDbSymbolTableRecord
100
AcDbDimStyleTableRecord
  2
Default - Method 2a (ISO)
 70
     0
 41
2.5
 42
0.0
 43
5.999999999999999
 44
3.174999999999999
 45
0.00000001
 46
10.0
 77
     1
 78
     8
 79
     2
140
2.5
143
0.03937
146
1.399999976158142
147
0.762
171
     3
172
     1
176
   256
177
   256
178
   232
179
     2
271
     2
272
     2
274
     3
278
    44
284
     8
286
     8
340
CE
371
    -1
372
    -1
  0
DIMSTYLE
105
D2
330
A
100
AcDbSymbolTableRecord
100
AcDbDimStyleTableRecord
  2
Default - Method 2a (ISO)$7
 70
     0
 41
2.5
 42
0.0
 43
5.999999999999999
 44
3.174999999999999
 45
0.00000001
 46
10.0
 77
     1
 78
     8
 79
     2
140
2.5
143
0.03937
146
1.399999976158142
147
0.762
171
     3
172
     1
176
   256
177
   256
178
   232
179
     2
271
     2
272
     2
274
     3
278
    44
284
     8
286
     8
340
CE
371
    -1
372
    -1
  0
DIMSTYLE
105
D3
330
A
100
AcDbSymbolTableRecord
100
AcDbDimStyleTableRecord
  2
Default - Method 2b (ISO)
 70
     0
 41
2.5
 42
0.0
 43
5.999999999999999
 44
3.174999999999999
 45
0.00000001
 46
10.0
 77
     1
 78
     8
 79
     2
140
2.5
143
0.03937
147
0.762
171
     3
172
     1
176
   256
177
   256
178
   232
179
     2
271
     2
272
     1
274
     3
278
    44
284
     8
286
     8
340
CE
371
    -1
372
    -1
  0
DIMSTYLE
105
D4
330
A
100
AcDbSymbolTableRecord
100
AcDbDimStyleTableRecord
  2
Default - Method 2b (ISO)$7
 70
     0
 41
2.5
 42
0.0
 43
5.999999999999999
 44
3.174999999999999
 45
0.00000001
 46
10.0
 77
     1
 78
     8
 79
     2
140
2.5
143
0.03937
147
0.762
171
     3
172
     1
176
   256
177
   256
178
   232
179
     2
271
     2
272
     1
274
     3
278
    44
284
     8
286
     8
340
CE
371
    -1
372
    -1
  0
DIMSTYLE
105
D5
330
A
100
AcDbSymbolTableRecord
100
AcDbDimStyleTableRecord
  2
Default - mm [in] (ISO)
 70
     0
  4
 in
 41
2.5
 42
0.0
 43
5.999999999999999
 44
3.174999999999999
 45
0.00000001
 46
10.0
 73
     0
 74
     0
 77
     1
 78
     8
 79
     2
140
2.5
143
0.03937
146
1.399999976158142
147
0.762
170
     1
171
     3
172
     1
176
   256
177
   256
178
   232
179
     3
271
     3
272
     2
274
     3
275
     1
278
    44
284
     8
285
     8
286
     8
340
CE
371
    -1
372
    -1
  0
DIMSTYLE
105
D6
330
A
100
AcDbSymbolTableRecord
100
AcDbDimStyleTableRecord
  2
Default - mm [in] (ISO)$7
 70
     0
  4
 in
 41
2.5
 42
0.0
 43
5.999999999999999
 44
3.174999999999999
 45
0.00000001
 46
10.0
 73
     0
 74
     0
 77
     1
 78
     8
 79
     2
140
2.5
143
0.03937
146
1.399999976158142
147
0.762
170
     1
171
     3
172
     1
176
   256
177
   256
178
   232
179
     3
271
     3
272
     2
274
     3
275
     1
278
    44
284
     8
285
     8
286
     8
340
CE
371
    -1
372
    -1
  0
DIMSTYLE
105
D7
102
{ACAD_REACTORS
330
273
330
356
330
438
330
514
330
5F6
102
}
330
A
100
AcDbSymbolTableRecord
100
AcDbDimStyleTableRecord
  2
Default (ISO)
 70
     0
 41
2.5
 42
0.0
 43
5.999999999999999
 44
3.174999999999999
 45
0.00000001
 46
10.0
 73
     0
 74
     0
 77
     1
140
2.5
143
0.03937
146
1.402080059051513
147
0.762
171
     3
172
     1
176
   256
177
   256
178
   232
179
     2
271
     2
272
     2
274
     3
278
    44
340
CE
371
    -1
372
    -1
  0
DIMSTYLE
105
D8
330
A
100
AcDbSymbolTableRecord
100
AcDbDimStyleTableRecord
  2
Default (ISO)$7
 70
     0
 41
2.5
 42
0.0
 43
5.999999999999999
 44
3.174999999999999
 45
0.00000001
 46
10.0
 73
     0
 74
     0
 77
     1
140
2.5
143
0.03937
146
1.402080059051513
147
0.762
171
     3
172
     1
176
   256
177
   256
178
   232
179
     2
271
     2
272
     2
274
     3
278
    44
340
CE
371
    -1
372
    -1
  0
DIMSTYLE
105
D9
330
A
100
AcDbSymbolTableRecord
100
AcDbDimStyleTableRecord
  2
Alternate (ISO)
 70
     0
 41
2.5
340
55
342
DA
  0
DIMSTYLE
105
EC
330
A
100
AcDbSymbolTableRecord
100
AcDbDimStyleTableRecord
  2
Datum (ISO)
 70
     0
 41
2.5
340
55
342
DA
  0
DIMSTYLE
105
FB
330
A
100
AcDbSymbolTableRecord
100
AcDbDimStyleTableRecord
  2
Large (ISO)
 70
     0
 41
5.0
340
55
342
DA
  0
ENDTAB
  0
TABLE
  2
BLOCK_RECORD
  5
1
330
0
100
AcDbSymbolTable
 70
    12
  0
BLOCK_RECORD
  5
70
330
1
100
AcDbSymbolTableRecord
100
AcDbBlockTableRecord
  2
*Model_Space
340
73
 70
     0
280
     1
281
     0
  0
BLOCK_RECORD
  5
6C
330
1
100
AcDbSymbolTableRecord
100
AcDbBlockTableRecord
  2
*Paper_Space
340
6F
 70
     0
280
     1
281
     0
  0
BLOCK_RECORD
  5
74
330
1
100
AcDbSymbolTableRecord
100
AcDbBlockTableRecord
  2
*Paper_Space0
340
77
 70
     0
280
     1
281
     0
  0
BLOCK_RECORD
  5
DA
330
1
100
AcDbSymbolTableRecord
100
AcDbBlockTableRecord
  2
_Closed
340
0
 70
     0
280
     1
281
     0
  0
BLOCK_RECORD
  5
E1
330
1
100
AcDbSymbolTableRecord
100
AcDbBlockTableRecord
  2
DatumFilled45
340
0
 70
     0
280
     1
281
     0
  0
BLOCK_RECORD
  5
ED
330
1
100
AcDbSymbolTableRecord
100
AcDbBlockTableRecord
  2
Filled-1
340
0
 70
     0
280
     1
281
     0
  0
BLOCK_RECORD
  5
FC
330
1
100
AcDbSymbolTableRecord
100
AcDbBlockTableRecord
  2
Borders Default Border
340
0
102
{BLKREFS
331
16B
102
}
 70
     0
280
     1
281
     0
  0
BLOCK_RECORD
  5
16C
330
1
100
AcDbSymbolTableRecord
100
AcDbBlockTableRecord
  2
Title Blocks ISO
340
0
102
{BLKREFS
331
173
102
}
 70
     0
280
     1
281
     0
  0
BLOCK_RECORD
  5
1DF
330
1
100
AcDbSymbolTableRecord
100
AcDbBlockTableRecord
  2
2dTransSection0
340
0
102
{BLKREFS
331
1FF
102
}
 70
     0
280
     1
281
     0
  0
BLOCK_RECORD
  5
275
330
1
100
AcDbSymbolTableRecord
100
AcDbBlockTableRecord
  2
*D7
340
0
 70
     0
280
     1
281
     0
  0
BLOCK_RECORD
  5
357
330
1
100
AcDbSymbolTableRecord
100
AcDbBlockTableRecord
  2
*D8
340
0
 70
     0
280
     1
281
     0
  0
BLOCK_RECORD
  5
439
330
1
100
AcDbSymbolTableRecord
100
AcDbBlockTableRecord
  2
*D9
340
0
 70
     0
280
     1
281
     0
  0
BLOCK_RECORD
  5
515
330
1
100
AcDbSymbolTableRecord
100
AcDbBlockTableRecord
  2
*D10
340
0
 70
     0
280
     1
281
     0
  0
BLOCK_RECORD
  5
5F7
330
1
100
AcDbSymbolTableRecord
100
AcDbBlockTableRecord
  2
*D11
340
0
 70
     0
280
     1
281
     0
  0
ENDTAB
  0
ENDSEC
  0
SECTION
  2
BLOCKS
  0
BLOCK
  5
71
330
70
100
AcDbEntity
  8
0
100
AcDbBlockBegin
  2
*Model_Space
 70
     0
 10
0.0
 20
0.0
 30
0.0
  3
*Model_Space
  1

  0
ENDBLK
  5
72
330
70
100
AcDbEntity
  8
0
100
AcDbBlockEnd
  0
BLOCK
  5
6D
330
6C
100
AcDbEntity
 67
     1
  8
0
100
AcDbBlockBegin
  2
*Paper_Space
 70
     0
 10
0.0
 20
0.0
 30
0.0
  3
*Paper_Space
  1

  0
ENDBLK
  5
6E
330
6C
100
AcDbEntity
 67
     1
  8
0
100
AcDbBlockEnd
  0
BLOCK
  5
75
330
74
100
AcDbEntity
 67
     1
  8
0
100
AcDbBlockBegin
  2
*Paper_Space0
 70
     0
 10
0.0
 20
0.0
 30
0.0
  3
*Paper_Space0
  1

  0
ENDBLK
  5
76
330
74
100
AcDbEntity
 67
     1
  8
0
100
AcDbBlockEnd
  0
BLOCK
  5
DF
330
DA
100
AcDbEntity
  8
0
100
AcDbBlockBegin
  2
_Closed
 70
     0
 10
0.0
 20
0.0
 30
0.0
  3
_Closed
  1

  0
LINE
  5
DB
330
DA
100
AcDbEntity
  8
0
  6
ByBlock
 62
     0
370
    -2
100
AcDbLine
 10
-1.0
 20
0.1666666666666666
 30
0.0
 11
0.0
 21
0.0
 31
0.0
  0
LINE
  5
DC
330
DA
100
AcDbEntity
  8
0
  6
ByBlock
 62
     0
370
    -2
100
AcDbLine
 10
0.0
 20
0.0
 30
0.0
 11
-1.0
 21
-0.1666666666666666
 31
0.0
  0
LINE
  5
DD
330
DA
100
AcDbEntity
  8
0
  6
ByBlock
 62
     0
370
    -2
100
AcDbLine
 10
-1.0
 20
0.1666666666666666
 30
0.0
 11
-1.0
 21
-0.1666666666666666
 31
0.0
  0
LINE
  5
DE
330
DA
100
AcDbEntity
  8
0
  6
ByBlock
 62
     0
370
    -2
100
AcDbLine
 10
0.0
 20
0.0
 30
0.0
 11
-1.0
 21
0.0
 31
0.0
  0
ENDBLK
  5
E0
330
DA
100
AcDbEntity
  8
0
100
AcDbBlockEnd
  0
BLOCK
  5
E2
330
E1
100
AcDbEntity
  8
0
100
AcDbBlockBegin
  2
DatumFilled45
 70
     0
 10
0.0
 20
0.0
 30
0.0
  3
DatumFilled45
  1

  0
POLYLINE
  5
E4
330
E1
100
AcDbEntity
  8
0
 62
     0
100
AcDb2dPolyline
 66
     1
 10
0.0
 20
0.0
 30
0.0
 70
   128
  0
VERTEX
  5
E5
330
E4
100
AcDbEntity
  8
0
 62
     0
100
AcDbVertex
100
AcDb2dVertex
 10
0.0
 20
1.0
 30
0.0
  0
VERTEX
  5
E6
330
E4
100
AcDbEntity
  8
0
 62
     0
100
AcDbVertex
100
AcDb2dVertex
 10
0.0
 20
-1.0
 30
0.0
  0
VERTEX
  5
E8
330
E4
100
AcDbEntity
  8
0
 62
     0
100
AcDbVertex
100
AcDb2dVertex
 10
-1.0
 20
0.0
 30
0.0
  0
VERTEX
  5
E9
330
E4
100
AcDbEntity
  8
0
 62
     0
100
AcDbVertex
100
AcDb2dVertex
 10
0.0
 20
1.0
 30
0.0
  0
SEQEND
  5
E7
330
E4
100
AcDbEntity
  8
0
 62
     0
  0
SOLID
  5
EB
330
E1
100
AcDbEntity
  8
0
 62
     0
100
AcDbTrace
 10
0.0
 20
1.0
 30
0.0
 11
0.0
 21
-1.0
 31
0.0
 12
-1.0
 22
0.0
 32
0.0
 13
0.0
 23
1.0
 33
0.0
  0
ENDBLK
  5
E3
330
E1
100
AcDbEntity
  8
0
100
AcDbBlockEnd
  0
BLOCK
  5
EE
330
ED
100
AcDbEntity
  8
0
100
AcDbBlockBegin
  2
Filled-1
 70
     0
 10
0.0
 20
0.0
 30
0.0
  3
Filled-1
  1

  0
LINE
  5
F0
330
ED
100
AcDbEntity
  8
0
 62
     0
100
AcDbLine
 10
-1.0
 20
0.0
 30
0.0
 11
0.0
 21
0.0
 31
0.0
  0
POLYLINE
  5
F1
330
ED
100
AcDbEntity
  8
0
 62
     0
100
AcDb2dPolyline
 66
     1
 10
0.0
 20
0.0
 30
0.0
 70
   128
  0
VERTEX
  5
F2
330
F1
100
AcDbEntity
  8
0
 62
     0
100
AcDbVertex
100
AcDb2dVertex
 10
-1.0
 20
-0.1
 30
0.0
  0
VERTEX
  5
F3
330
F1
100
AcDbEntity
  8
0
 62
     0
100
AcDbVertex
100
AcDb2dVertex
 10
0.0
 20
0.0
 30
0.0
  0
VERTEX
  5
F5
330
F1
100
AcDbEntity
  8
0
 62
     0
100
AcDbVertex
100
AcDb2dVertex
 10
-1.0
 20
0.1
 30
0.0
  0
VERTEX
  5
F6
330
F1
100
AcDbEntity
  8
0
 62
     0
100
AcDbVertex
100
AcDb2dVertex
 10
-1.0
 20
-0.1
 30
0.0
  0
SEQEND
  5
F4
330
F1
100
AcDbEntity
  8
0
 62
     0
  0
SOLID
  5
F7
330
ED
100
AcDbEntity
  8
0
 62
     0
100
AcDbTrace
 10
-1.0
 20
-0.1
 30
0.0
 11
0.0
 21
0.0
 31
0.0
 12
-1.0
 22
0.1
 32
0.0
 13
-1.0
 23
-0.1
 33
0.0
  0
LINE
  5
F8
330
ED
100
AcDbEntity
  8
0
 62
     0
100
AcDbLine
 10
-1.0
 20
-0.1
 30
0.0
 11
0.0
 21
0.0
 31
0.0
  0
LINE
  5
F9
330
ED
100
AcDbEntity
  8
0
 62
     0
100
AcDbLine
 10
0.0
 20
0.0
 30
0.0
 11
-1.0
 21
0.1
 31
0.0
  0
LINE
  5
FA
330
ED
100
AcDbEntity
  8
0
 62
     0
100
AcDbLine
 10
-1.0
 20
0.1
 30
0.0
 11
-1.0
 21
-0.1
 31
0.0
  0
ENDBLK
  5
EF
330
ED
100
AcDbEntity
  8
0
100
AcDbBlockEnd
  0
BLOCK
  5
FD
330
FC
100
AcDbEntity
  8
0
100
AcDbBlockBegin
  2
Borders Default Border
 70
     0
 10
0.0
 20
0.0
 30
0.0
  3
Borders Default Border
  1

  0
POLYLINE
  5
FF
330
FC
100
AcDbEntity
  8
Border (ISO)
100
AcDb2dPolyline
 66
     1
 10
0.0
 20
0.0
 30
0.0
 70
   128
  0
VERTEX
  5
100
330
FF
100
AcDbEntity
  8
Border (ISO)
100
AcDbVertex
100
AcDb2dVertex
 10
20.0
 20
20.0
 30
0.0
  0
VERTEX
  5
101
330
FF
100
AcDbEntity
  8
Border (ISO)
100
AcDbVertex
100
AcDb2dVertex
 10
20.0
 20
574.000015258789
 30
0.0
  0
VERTEX
  5
103
330
FF
100
AcDbEntity
  8
Border (ISO)
100
AcDbVertex
100
AcDb2dVertex
 10
820.999984741211
 20
574.000015258789
 30
0.0
  0
VERTEX
  5
104
330
FF
100
AcDbEntity
  8
Border (ISO)
100
AcDbVertex
100
AcDb2dVertex
 10
820.999984741211
 20
20.0
 30
0.0
  0
VERTEX
  5
105
330
FF
100
AcDbEntity
  8
Border (ISO)
100
AcDbVertex
100
AcDb2dVertex
 10
20.0
 20
20.0
 30
0.0
  0
SEQEND
  5
102
330
FF
100
AcDbEntity
  8
Border (ISO)
  0
POLYLINE
  5
106
330
FC
100
AcDbEntity
  8
Border (ISO)
100
AcDb2dPolyline
 66
     1
 10
0.0
 20
0.0
 30
0.0
 70
   128
  0
VERTEX
  5
107
330
106
100
AcDbEntity
  8
Border (ISO)
100
AcDbVertex
100
AcDb2dVertex
 10
420.4999923706054
 20
0.0
 30
0.0
  0
VERTEX
  5
108
330
106
100
AcDbEntity
  8
Border (ISO)
100
AcDbVertex
100
AcDb2dVertex
 10
420.4999923706054
 20
20.0
 30
0.0
  0
VERTEX
  5
10A
330
106
100
AcDbEntity
  8
Border (ISO)
100
AcDbVertex
100
AcDb2dVertex
 10
414.7264862060547
 20
10.0
 30
0.0
  0
VERTEX
  5
10B
330
106
100
AcDbEntity
  8
Border (ISO)
100
AcDbVertex
100
AcDb2dVertex
 10
426.2734985351562
 20
10.0
 30
0.0
  0
VERTEX
  5
10C
330
106
100
AcDbEntity
  8
Border (ISO)
100
AcDbVertex
100
AcDb2dVertex
 10
420.4999923706054
 20
20.0
 30
0.0
  0
SEQEND
  5
109
330
106
100
AcDbEntity
  8
Border (ISO)
  0
POLYLINE
  5
10D
330
FC
100
AcDbEntity
  8
Border (ISO)
100
AcDb2dPolyline
 66
     1
 10
0.0
 20
0.0
 30
0.0
 70
   128
  0
VERTEX
  5
10E
330
10D
100
AcDbEntity
  8
Border (ISO)
100
AcDbVertex
100
AcDb2dVertex
 10
420.4999923706054
 20
594.0000152587891
 30
0.0
  0
VERTEX
  5
10F
330
10D
100
AcDbEntity
  8
Border (ISO)
100
AcDbVertex
100
AcDb2dVertex
 10
420.4999923706054
 20
574.000015258789
 30
0.0
  0
VERTEX
  5
111
330
10D
100
AcDbEntity
  8
Border (ISO)
100
AcDbVertex
100
AcDb2dVertex
 10
414.7264862060547
 20
584.000015258789
 30
0.0
  0
VERTEX
  5
112
330
10D
100
AcDbEntity
  8
Border (ISO)
100
AcDbVertex
100
AcDb2dVertex
 10
426.2734985351562
 20
584.000015258789
 30
0.0
  0
VERTEX
  5
113
330
10D
100
AcDbEntity
  8
Border (ISO)
100
AcDbVertex
100
AcDb2dVertex
 10
420.4999923706054
 20
574.000015258789
 30
0.0
  0
SEQEND
  5
110
330
10D
100
AcDbEntity
  8
Border (ISO)
  0
POLYLINE
  5
114
330
FC
100
AcDbEntity
  8
Border (ISO)
100
AcDb2dPolyline
 66
     1
 10
0.0
 20
0.0
 30
0.0
 70
   128
  0
VERTEX
  5
115
330
114
100
AcDbEntity
  8
Border (ISO)
100
AcDbVertex
100
AcDb2dVertex
 10
0.0
 20
297.0000076293946
 30
0.0
  0
VERTEX
  5
116
330
114
100
AcDbEntity
  8
Border (ISO)
100
AcDbVertex
100
AcDb2dVertex
 10
20.0
 20
297.0000076293946
 30
0.0
  0
VERTEX
  5
118
330
114
100
AcDbEntity
  8
Border (ISO)
100
AcDbVertex
100
AcDb2dVertex
 10
10.0
 20
302.773494720459
 30
0.0
  0
VERTEX
  5
119
330
114
100
AcDbEntity
  8
Border (ISO)
100
AcDbVertex
100
AcDb2dVertex
 10
10.0
 20
291.2265014648438
 30
0.0
  0
VERTEX
  5
11A
330
114
100
AcDbEntity
  8
Border (ISO)
100
AcDbVertex
100
AcDb2dVertex
 10
20.0
 20
297.0000076293946
 30
0.0
  0
SEQEND
  5
117
330
114
100
AcDbEntity
  8
Border (ISO)
  0
POLYLINE
  5
11B
330
FC
100
AcDbEntity
  8
Border (ISO)
100
AcDb2dPolyline
 66
     1
 10
0.0
 20
0.0
 30
0.0
 70
   128
  0
VERTEX
  5
11C
330
11B
100
AcDbEntity
  8
Border (ISO)
100
AcDbVertex
100
AcDb2dVertex
 10
840.9999847412109
 20
297.0000076293946
 30
0.0
  0
VERTEX
  5
11D
330
11B
100
AcDbEntity
  8
Border (ISO)
100
AcDbVertex
100
AcDb2dVertex
 10
820.999984741211
 20
297.0000076293946
 30
0.0
  0
VERTEX
  5
11F
330
11B
100
AcDbEntity
  8
Border (ISO)
100
AcDbVertex
100
AcDb2dVertex
 10
830.9999847412109
 20
302.773494720459
 30
0.0
  0
VERTEX
  5
120
330
11B
100
AcDbEntity
  8
Border (ISO)
100
AcDbVertex
100
AcDb2dVertex
 10
830.9999847412109
 20
291.2265014648438
 30
0.0
  0
VERTEX
  5
121
330
11B
100
AcDbEntity
  8
Border (ISO)
100
AcDbVertex
100
AcDb2dVertex
 10
820.999984741211
 20
297.0000076293946
 30
0.0
  0
SEQEND
  5
11E
330
11B
100
AcDbEntity
  8
Border (ISO)
  0
LINE
  5
122
330
FC
100
AcDbEntity
  8
Border (ISO)
100
AcDbLine
 10
70.08333206176757
 20
20.0
 30
0.0
 11
70.08333206176757
 21
17.10000038146972
 31
0.0
  0
LINE
  5
123
330
FC
100
AcDbEntity
  8
Border (ISO)
100
AcDbLine
 10
70.08333206176757
 20
574.000015258789
 30
0.0
 11
70.08333206176757
 21
576.8999862670898
 31
0.0
  0
LINE
  5
124
330
FC
100
AcDbEntity
  8
Border (ISO)
100
AcDbLine
 10
140.1666641235351
 20
20.0
 30
0.0
 11
140.1666641235351
 21
17.10000038146972
 31
0.0
  0
LINE
  5
125
330
FC
100
AcDbEntity
  8
Border (ISO)
100
AcDbLine
 10
140.1666641235351
 20
574.000015258789
 30
0.0
 11
140.1666641235351
 21
576.8999862670898
 31
0.0
  0
LINE
  5
126
330
FC
100
AcDbEntity
  8
Border (ISO)
100
AcDbLine
 10
210.2499961853027
 20
20.0
 30
0.0
 11
210.2499961853027
 21
17.10000038146972
 31
0.0
  0
LINE
  5
127
330
FC
100
AcDbEntity
  8
Border (ISO)
100
AcDbLine
 10
210.2499961853027
 20
574.000015258789
 30
0.0
 11
210.2499961853027
 21
576.8999862670898
 31
0.0
  0
LINE
  5
128
330
FC
100
AcDbEntity
  8
Border (ISO)
100
AcDbLine
 10
280.3333282470703
 20
20.0
 30
0.0
 11
280.3333282470703
 21
17.10000038146972
 31
0.0
  0
LINE
  5
129
330
FC
100
AcDbEntity
  8
Border (ISO)
100
AcDbLine
 10
280.3333282470703
 20
574.000015258789
 30
0.0
 11
280.3333282470703
 21
576.8999862670898
 31
0.0
  0
LINE
  5
12A
330
FC
100
AcDbEntity
  8
Border (ISO)
100
AcDbLine
 10
350.4166793823242
 20
20.0
 30
0.0
 11
350.4166793823242
 21
17.10000038146972
 31
0.0
  0
LINE
  5
12B
330
FC
100
AcDbEntity
  8
Border (ISO)
100
AcDbLine
 10
350.4166793823242
 20
574.000015258789
 30
0.0
 11
350.4166793823242
 21
576.8999862670898
 31
0.0
  0
LINE
  5
12C
330
FC
100
AcDbEntity
  8
Border (ISO)
100
AcDbLine
 10
490.5833435058593
 20
20.0
 30
0.0
 11
490.5833435058593
 21
17.10000038146972
 31
0.0
  0
LINE
  5
12D
330
FC
100
AcDbEntity
  8
Border (ISO)
100
AcDbLine
 10
490.5833435058593
 20
574.000015258789
 30
0.0
 11
490.5833435058593
 21
576.8999862670898
 31
0.0
  0
LINE
  5
12E
330
FC
100
AcDbEntity
  8
Border (ISO)
100
AcDbLine
 10
560.6666564941406
 20
20.0
 30
0.0
 11
560.6666564941406
 21
17.10000038146972
 31
0.0
  0
LINE
  5
12F
330
FC
100
AcDbEntity
  8
Border (ISO)
100
AcDbLine
 10
560.6666564941406
 20
574.000015258789
 30
0.0
 11
560.6666564941406
 21
576.8999862670898
 31
0.0
  0
LINE
  5
130
330
FC
100
AcDbEntity
  8
Border (ISO)
100
AcDbLine
 10
630.7500076293945
 20
20.0
 30
0.0
 11
630.7500076293945
 21
17.10000038146972
 31
0.0
  0
LINE
  5
131
330
FC
100
AcDbEntity
  8
Border (ISO)
100
AcDbLine
 10
630.7500076293945
 20
574.000015258789
 30
0.0
 11
630.7500076293945
 21
576.8999862670898
 31
0.0
  0
LINE
  5
132
330
FC
100
AcDbEntity
  8
Border (ISO)
100
AcDbLine
 10
700.8333587646484
 20
20.0
 30
0.0
 11
700.8333587646484
 21
17.10000038146972
 31
0.0
  0
LINE
  5
133
330
FC
100
AcDbEntity
  8
Border (ISO)
100
AcDbLine
 10
700.8333587646484
 20
574.000015258789
 30
0.0
 11
700.8333587646484
 21
576.8999862670898
 31
0.0
  0
LINE
  5
134
330
FC
100
AcDbEntity
  8
Border (ISO)
100
AcDbLine
 10
770.9166717529297
 20
20.0
 30
0.0
 11
770.9166717529297
 21
17.10000038146972
 31
0.0
  0
LINE
  5
135
330
FC
100
AcDbEntity
  8
Border (ISO)
100
AcDbLine
 10
770.9166717529297
 20
574.000015258789
 30
0.0
 11
770.9166717529297
 21
576.8999862670898
 31
0.0
  0
MTEXT
  5
136
330
FC
100
AcDbEntity
  8
Border (ISO)
 62
   232
420
 13238372
100
AcDbMText
 10
34.47766113364014
 20
574.3999999999999
 30
0.0
 40
2.5
 41
0.0
 46
0.0
 71
     7
 72
     1
  1
1
  7
Note Text (ISO)
 73
     1
 44
1.0
  0
MTEXT
  5
138
330
FC
100
AcDbEntity
  8
Border (ISO)
 62
   232
420
 13238372
100
AcDbMText
 10
34.47766113364014
 20
17.1
 30
0.0
 40
2.5
 41
0.0
 46
0.0
 71
     7
 72
     1
  1
1
  7
Note Text (ISO)
 73
     1
 44
1.0
  0
MTEXT
  5
139
330
FC
100
AcDbEntity
  8
Border (ISO)
 62
   232
420
 13238372
100
AcDbMText
 10
104.3669939703322
 20
574.3999999999999
 30
0.0
 40
2.5
 41
0.0
 46
0.0
 71
     7
 72
     1
  1
2
  7
Note Text (ISO)
 73
     1
 44
1.0
  0
MTEXT
  5
13A
330
FC
100
AcDbEntity
  8
Border (ISO)
 62
   232
420
 13238372
100
AcDbMText
 10
104.3669939703322
 20
17.1
 30
0.0
 40
2.5
 41
0.0
 46
0.0
 71
     7
 72
     1
  1
2
  7
Note Text (ISO)
 73
     1
 44
1.0
  0
MTEXT
  5
13B
330
FC
100
AcDbEntity
  8
Border (ISO)
 62
   232
420
 13238372
100
AcDbMText
 10
174.4303272524654
 20
574.3473257688805
 30
0.0
 40
2.5
 41
0.0
 46
0.0
 71
     7
 72
     1
  1
3
  7
Note Text (ISO)
 73
     1
 44
1.0
  0
MTEXT
  5
13C
330
FC
100
AcDbEntity
  8
Border (ISO)
 62
   232
420
 13238372
100
AcDbMText
 10
174.4303272524654
 20
17.04732576888055
 30
0.0
 40
2.5
 41
0.0
 46
0.0
 71
     7
 72
     1
  1
3
  7
Note Text (ISO)
 73
     1
 44
1.0
  0
MTEXT
  5
13D
330
FC
100
AcDbEntity
  8
Border (ISO)
 62
   232
420
 13238372
100
AcDbMText
 10
244.4196603451581
 20
574.3999999999999
 30
0.0
 40
2.5
 41
0.0
 46
0.0
 71
     7
 72
     1
  1
4
  7
Note Text (ISO)
 73
     1
 44
1.0
  0
MTEXT
  5
13E
330
FC
100
AcDbEntity
  8
Border (ISO)
 62
   232
420
 13238372
100
AcDbMText
 10
244.4196603451581
 20
17.1
 30
0.0
 40
2.5
 41
0.0
 46
0.0
 71
     7
 72
     1
  1
4
  7
Note Text (ISO)
 73
     1
 44
1.0
  0
MTEXT
  5
13F
330
FC
100
AcDbEntity
  8
Border (ISO)
 62
   232
420
 13238372
100
AcDbMText
 10
314.6429940368923
 20
574.3473257688805
 30
0.0
 40
2.5
 41
0.0
 46
0.0
 71
     7
 72
     1
  1
5
  7
Note Text (ISO)
 73
     1
 44
1.0
  0
MTEXT
  5
140
330
FC
100
AcDbEntity
  8
Border (ISO)
 62
   232
420
 13238372
100
AcDbMText
 10
314.6429940368923
 20
17.04732576888055
 30
0.0
 40
2.5
 41
0.0
 46
0.0
 71
     7
 72
     1
  1
5
  7
Note Text (ISO)
 73
     1
 44
1.0
  0
MTEXT
  5
141
330
FC
100
AcDbEntity
  8
Border (ISO)
 62
   232
420
 13238372
100
AcDbMText
 10
384.6603272012653
 20
574.3473257688805
 30
0.0
 40
2.5
 41
0.0
 46
0.0
 71
     7
 72
     1
  1
6
  7
Note Text (ISO)
 73
     1
 44
1.0
  0
MTEXT
  5
142
330
FC
100
AcDbEntity
  8
Border (ISO)
 62
   232
420
 13238372
100
AcDbMText
 10
384.6603272012653
 20
17.04732576888055
 30
0.0
 40
2.5
 41
0.0
 46
0.0
 71
     7
 72
     1
  1
6
  7
Note Text (ISO)
 73
     1
 44
1.0
  0
MTEXT
  5
143
330
FC
100
AcDbEntity
  8
Border (ISO)
 62
   232
420
 13238372
100
AcDbMText
 10
454.7676605960387
 20
574.3999999999999
 30
0.0
 40
2.5
 41
0.0
 46
0.0
 71
     7
 72
     1
  1
7
  7
Note Text (ISO)
 73
     1
 44
1.0
  0
MTEXT
  5
144
330
FC
100
AcDbEntity
  8
Border (ISO)
 62
   232
420
 13238372
100
AcDbMText
 10
454.7676605960387
 20
17.1
 30
0.0
 40
2.5
 41
0.0
 46
0.0
 71
     7
 72
     1
  1
7
  7
Note Text (ISO)
 73
     1
 44
1.0
  0
MTEXT
  5
145
330
FC
100
AcDbEntity
  8
Border (ISO)
 62
   232
420
 13238372
100
AcDbMText
 10
524.8089938218518
 20
574.3432739056646
 30
0.0
 40
2.5
 41
0.0
 46
0.0
 71
     7
 72
     1
  1
8
  7
Note Text (ISO)
 73
     1
 44
1.0
  0
MTEXT
  5
146
330
FC
100
AcDbEntity
  8
Border (ISO)
 62
   232
420
 13238372
100
AcDbMText
 10
524.8089938218518
 20
17.04327390566468
 30
0.0
 40
2.5
 41
0.0
 46
0.0
 71
     7
 72
     1
  1
8
  7
Note Text (ISO)
 73
     1
 44
1.0
  0
MTEXT
  5
147
330
FC
100
AcDbEntity
  8
Border (ISO)
 62
   232
420
 13238372
100
AcDbMText
 10
594.882327129585
 20
574.3513776320964
 30
0.0
 40
2.5
 41
0.0
 46
0.0
 71
     7
 72
     1
  1
9
  7
Note Text (ISO)
 73
     1
 44
1.0
  0
MTEXT
  5
148
330
FC
100
AcDbEntity
  8
Border (ISO)
 62
   232
420
 13238372
100
AcDbMText
 10
594.882327129585
 20
17.05137763209641
 30
0.0
 40
2.5
 41
0.0
 46
0.0
 71
     7
 72
     1
  1
9
  7
Note Text (ISO)
 73
     1
 44
1.0
  0
MTEXT
  5
149
330
FC
100
AcDbEntity
  8
Border (ISO)
 62
   232
420
 13238372
100
AcDbMText
 10
664.2896546431711
 20
574.3473257688805
 30
0.0
 40
2.5
 41
0.0
 46
0.0
 71
     7
 72
     1
  1
10
  7
Note Text (ISO)
 73
     1
 44
1.0
  0
MTEXT
  5
14A
330
FC
100
AcDbEntity
  8
Border (ISO)
 62
   232
420
 13238372
100
AcDbMText
 10
664.2896546431711
 20
17.04732576888055
 30
0.0
 40
2.5
 41
0.0
 46
0.0
 71
     7
 72
     1
  1
10
  7
Note Text (ISO)
 73
     1
 44
1.0
  0
MTEXT
  5
14B
330
FC
100
AcDbEntity
  8
Border (ISO)
 62
   232
420
 13238372
100
AcDbMText
 10
734.3729879765045
 20
574.3999999999999
 30
0.0
 40
2.5
 41
0.0
 46
0.0
 71
     7
 72
     1
  1
11
  7
Note Text (ISO)
 73
     1
 44
1.0
  0
MTEXT
  5
14C
330
FC
100
AcDbEntity
  8
Border (ISO)
 62
   232
420
 13238372
100
AcDbMText
 10
734.3729879765045
 20
17.1
 30
0.0
 40
2.5
 41
0.0
 46
0.0
 71
     7
 72
     1
  1
11
  7
Note Text (ISO)
 73
     1
 44
1.0
  0
MTEXT
  5
14D
330
FC
100
AcDbEntity
  8
Border (ISO)
 62
   232
420
 13238372
100
AcDbMText
 10
804.4563213098378
 20
574.3999999999999
 30
0.0
 40
2.5
 41
0.0
 46
0.0
 71
     7
 72
     1
  1
12
  7
Note Text (ISO)
 73
     1
 44
1.0
  0
MTEXT
  5
14E
330
FC
100
AcDbEntity
  8
Border (ISO)
 62
   232
420
 13238372
100
AcDbMText
 10
804.4563213098378
 20
17.1
 30
0.0
 40
2.5
 41
0.0
 46
0.0
 71
     7
 72
     1
  1
12
  7
Note Text (ISO)
 73
     1
 44
1.0
  0
LINE
  5
14F
330
FC
100
AcDbEntity
  8
Border (ISO)
100
AcDbLine
 10
20.0
 20
74.25000190734863
 30
0.0
 11
17.10000038146972
 21
74.25000190734863
 31
0.0
  0
LINE
  5
150
330
FC
100
AcDbEntity
  8
Border (ISO)
100
AcDbLine
 10
820.999984741211
 20
74.25000190734863
 30
0.0
 11
823.8999938964843
 21
74.25000190734863
 31
0.0
  0
LINE
  5
151
330
FC
100
AcDbEntity
  8
Border (ISO)
100
AcDbLine
 10
20.0
 20
148.5000038146973
 30
0.0
 11
17.10000038146972
 21
148.5000038146973
 31
0.0
  0
LINE
  5
152
330
FC
100
AcDbEntity
  8
Border (ISO)
100
AcDbLine
 10
820.999984741211
 20
148.5000038146973
 30
0.0
 11
823.8999938964843
 21
148.5000038146973
 31
0.0
  0
LINE
  5
153
330
FC
100
AcDbEntity
  8
Border (ISO)
100
AcDbLine
 10
20.0
 20
222.7499961853027
 30
0.0
 11
17.10000038146972
 21
222.7499961853027
 31
0.0
  0
LINE
  5
154
330
FC
100
AcDbEntity
  8
Border (ISO)
100
AcDbLine
 10
820.999984741211
 20
222.7499961853027
 30
0.0
 11
823.8999938964843
 21
222.7499961853027
 31
0.0
  0
LINE
  5
155
330
FC
100
AcDbEntity
  8
Border (ISO)
100
AcDbLine
 10
20.0
 20
371.25
 30
0.0
 11
17.10000038146972
 21
371.25
 31
0.0
  0
LINE
  5
156
330
FC
100
AcDbEntity
  8
Border (ISO)
100
AcDbLine
 10
820.999984741211
 20
371.25
 30
0.0
 11
823.8999938964843
 21
371.25
 31
0.0
  0
LINE
  5
157
330
FC
100
AcDbEntity
  8
Border (ISO)
100
AcDbLine
 10
20.0
 20
445.4999923706054
 30
0.0
 11
17.10000038146972
 21
445.4999923706054
 31
0.0
  0
LINE
  5
158
330
FC
100
AcDbEntity
  8
Border (ISO)
100
AcDbLine
 10
820.999984741211
 20
445.4999923706054
 30
0.0
 11
823.8999938964843
 21
445.4999923706054
 31
0.0
  0
LINE
  5
159
330
FC
100
AcDbEntity
  8
Border (ISO)
100
AcDbLine
 10
20.0
 20
519.7499847412109
 30
0.0
 11
17.10000038146972
 21
519.7499847412109
 31
0.0
  0
LINE
  5
15A
330
FC
100
AcDbEntity
  8
Border (ISO)
100
AcDbLine
 10
820.999984741211
 20
519.7499847412109
 30
0.0
 11
823.8999938964843
 21
519.7499847412109
 31
0.0
  0
MTEXT
  5
15B
330
FC
100
AcDbEntity
  8
Border (ISO)
 62
   232
420
 13238372
100
AcDbMText
 10
17.28659316639921
 20
555.625
 30
0.0
 40
2.5
 41
0.0
 46
0.0
 71
     7
 72
     1
  1
A
  7
Note Text (ISO)
 73
     1
 44
1.0
  0
MTEXT
  5
15C
330
FC
100
AcDbEntity
  8
Border (ISO)
 62
   232
420
 13238372
100
AcDbMText
 10
821.5865931663993
 20
555.625
 30
0.0
 40
2.5
 41
0.0
 46
0.0
 71
     7
 72
     1
  1
A
  7
Note Text (ISO)
 73
     1
 44
1.0
  0
MTEXT
  5
15D
330
FC
100
AcDbEntity
  8
Border (ISO)
 62
   232
420
 13238372
100
AcDbMText
 10
17.58703467771087
 20
481.3749999999999
 30
0.0
 40
2.5
 41
0.0
 46
0.0
 71
     7
 72
     1
  1
B
  7
Note Text (ISO)
 73
     1
 44
1.0
  0
MTEXT
  5
15E
330
FC
100
AcDbEntity
  8
Border (ISO)
 62
   232
420
 13238372
100
AcDbMText
 10
821.8870346777109
 20
481.3749999999999
 30
0.0
 40
2.5
 41
0.0
 46
0.0
 71
     7
 72
     1
  1
B
  7
Note Text (ISO)
 73
     1
 44
1.0
  0
MTEXT
  5
15F
330
FC
100
AcDbEntity
  8
Border (ISO)
 62
   232
420
 13238372
100
AcDbMText
 10
17.42778797951198
 20
407.0804294999689
 30
0.0
 40
2.5
 41
0.0
 46
0.0
 71
     7
 72
     1
  1
C
  7
Note Text (ISO)
 73
     1
 44
1.0
  0
MTEXT
  5
160
330
FC
100
AcDbEntity
  8
Border (ISO)
 62
   232
420
 13238372
100
AcDbMText
 10
821.7277879795119
 20
407.0804294999689
 30
0.0
 40
2.5
 41
0.0
 46
0.0
 71
     7
 72
     1
  1
C
  7
Note Text (ISO)
 73
     1
 44
1.0
  0
MTEXT
  5
161
330
FC
100
AcDbEntity
  8
Border (ISO)
 62
   232
420
 13238372
100
AcDbMText
 10
17.43407686575924
 20
332.8750000000001
 30
0.0
 40
2.5
 41
0.0
 46
0.0
 71
     7
 72
     1
  1
D
  7
Note Text (ISO)
 73
     1
 44
1.0
  0
MTEXT
  5
162
330
FC
100
AcDbEntity
  8
Border (ISO)
 62
   232
420
 13238372
100
AcDbMText
 10
821.7340768657592
 20
332.8750000000001
 30
0.0
 40
2.5
 41
0.0
 46
0.0
 71
     7
 72
     1
  1
D
  7
Note Text (ISO)
 73
     1
 44
1.0
  0
MTEXT
  5
163
330
FC
100
AcDbEntity
  8
Border (ISO)
 62
   232
420
 13238372
100
AcDbMText
 10
17.63565709218059
 20
258.6250000000001
 30
0.0
 40
2.5
 41
0.0
 46
0.0
 71
     7
 72
     1
  1
E
  7
Note Text (ISO)
 73
     1
 44
1.0
  0
MTEXT
  5
164
330
FC
100
AcDbEntity
  8
Border (ISO)
 62
   232
420
 13238372
100
AcDbMText
 10
821.9356570921807
 20
258.6250000000001
 30
0.0
 40
2.5
 41
0.0
 46
0.0
 71
     7
 72
     1
  1
E
  7
Note Text (ISO)
 73
     1
 44
1.0
  0
MTEXT
  5
165
330
FC
100
AcDbEntity
  8
Border (ISO)
 62
   232
420
 13238372
100
AcDbMText
 10
17.70352577194248
 20
184.375
 30
0.0
 40
2.5
 41
0.0
 46
0.0
 71
     7
 72
     1
  1
F
  7
Note Text (ISO)
 73
     1
 44
1.0
  0
MTEXT
  5
166
330
FC
100
AcDbEntity
  8
Border (ISO)
 62
   232
420
 13238372
100
AcDbMText
 10
822.0035257719425
 20
184.375
 30
0.0
 40
2.5
 41
0.0
 46
0.0
 71
     7
 72
     1
  1
F
  7
Note Text (ISO)
 73
     1
 44
1.0
  0
MTEXT
  5
167
330
FC
100
AcDbEntity
  8
Border (ISO)
 62
   232
420
 13238372
100
AcDbMText
 10
17.31230986621833
 20
110.0763776320965
 30
0.0
 40
2.5
 41
0.0
 46
0.0
 71
     7
 72
     1
  1
G
  7
Note Text (ISO)
 73
     1
 44
1.0
  0
MTEXT
  5
168
330
FC
100
AcDbEntity
  8
Border (ISO)
 62
   232
420
 13238372
100
AcDbMText
 10
821.6123098662183
 20
110.0763776320965
 30
0.0
 40
2.5
 41
0.0
 46
0.0
 71
     7
 72
     1
  1
G
  7
Note Text (ISO)
 73
     1
 44
1.0
  0
MTEXT
  5
169
330
FC
100
AcDbEntity
  8
Border (ISO)
 62
   232
420
 13238372
100
AcDbMText
 10
17.43914169594322
 20
35.87500000000007
 30
0.0
 40
2.5
 41
0.0
 46
0.0
 71
     7
 72
     1
  1
H
  7
Note Text (ISO)
 73
     1
 44
1.0
  0
MTEXT
  5
16A
330
FC
100
AcDbEntity
  8
Border (ISO)
 62
   232
420
 13238372
100
AcDbMText
 10
821.7391416959433
 20
35.87500000000007
 30
0.0
 40
2.5
 41
0.0
 46
0.0
 71
     7
 72
     1
  1
H
  7
Note Text (ISO)
 73
     1
 44
1.0
  0
ENDBLK
  5
FE
330
FC
100
AcDbEntity
  8
0
100
AcDbBlockEnd
  0
BLOCK
  5
16D
330
16C
100
AcDbEntity
  8
0
100
AcDbBlockBegin
  2
Title Blocks ISO
 70
     2
 10
0.0
 20
0.0
 30
0.0
  3
Title Blocks ISO
  1

  0
ATTDEF
  5
16F
102
{ACAD_XDICTIONARY
360
6FE
102
}
330
16C
100
AcDbEntity
  8
Title (ISO)
 62
   232
420
 13238372
100
AcDbText
 10
34.15585882339947
 20
73.13494450671268
 30
0.0
 40
2.5
  1
494204040
  7
Note Text (ISO)
100
AcDbAttributeDefinition
280
     0
  3
PART NUMBER
  2
PART_NUMBER_001
 70
     0
280
     0
  0
ATTDEF
  5
172
102
{ACAD_XDICTIONARY
360
703
102
}
330
16C
100
AcDbEntity
  8
Title (ISO)
 62
   232
420
 13238372
100
AcDbText
 10
33.83688029166227
 20
63.39776635682264
 30
0.0
 40
2.5
  1
PLASSON END CAP MONOLITHIC
  7
Note Text (ISO)
100
AcDbAttributeDefinition
280
     0
  3
DESCRIPTION
  2
DESCRIPTION_001
 70
     0
280
     0
  0
ATTDEF
  5
701
102
{ACAD_XDICTIONARY
360
702
102
}
330
16C
100
AcDbEntity
  8
Title (ISO)
 62
   232
420
 13238372
100
AcDbText
 10
34.0232469795112
 20
59.1807303312143
 30
0.0
 40
2.5
  1
40
  7
Note Text (ISO)
100
AcDbAttributeDefinition
280
     0
  3
DESCRIPTION
  2
DESCRIPTION_002
 70
     0
280
     0
  0
ENDBLK
  5
16E
330
16C
100
AcDbEntity
  8
0
100
AcDbBlockEnd
  0
BLOCK
  5
1E0
330
1DF
100
AcDbEntity
  8
0
100
AcDbBlockBegin
  2
2dTransSection0
 70
     0
 10
0.0
 20
0.0
 30
0.0
  3
2dTransSection0
  1

  0
LINE
  5
1E2
330
1DF
100
AcDbEntity
  8
Section Line (ISO)
  6
CHAIN
 48
44.87468719482421
100
AcDbLine
 10
257.8860740532867
 20
69.02878755548896
 30
0.0
 11
443.0752989083124
 21
69.02878755548899
 31
0.0
  0
LINE
  5
1E3
330
1DF
100
AcDbEntity
  8
Section Line (ISO)
  6
Continuous
370
   140
100
AcDbLine
 10
257.8860740532867
 20
69.02878755548896
 30
0.0
 11
268.1851761245389
 21
69.02878755548896
 31
0.0
  0
LINE
  5
1E4
330
1DF
100
AcDbEntity
  8
Section Line (ISO)
  6
Continuous
370
   140
100
AcDbLine
 10
432.7761968370603
 20
69.02878755548899
 30
0.0
 11
443.0752989083124
 21
69.02878755548899
 31
0.0
  0
LINE
  5
1E5
330
1DF
100
AcDbEntity
  8
Section Line (ISO)
  6
Continuous
100
AcDbLine
 10
263.0356250889128
 20
66.52878755548896
 30
0.0
 11
263.0356250889128
 21
69.02878755548896
 31
0.0
  0
POLYLINE
  5
1E6
330
1DF
100
AcDbEntity
  8
Section Line (ISO)
  6
Continuous
100
AcDb2dPolyline
 66
     1
 10
0.0
 20
0.0
 30
0.0
 70
   128
  0
VERTEX
  5
1E7
330
1E6
100
AcDbEntity
  8
Section Line (ISO)
  6
Continuous
100
AcDbVertex
100
AcDb2dVertex
 10
263.5356228565988
 20
66.52878755549245
 30
0.0
  0
VERTEX
  5
1E8
330
1E6
100
AcDbEntity
  8
Section Line (ISO)
  6
Continuous
100
AcDbVertex
100
AcDb2dVertex
 10
263.0356209492502
 20
69.02878755548896
 30
0.0
  0
VERTEX
  5
1EA
330
1E6
100
AcDbEntity
  8
Section Line (ISO)
  6
Continuous
100
AcDbVertex
100
AcDb2dVertex
 10
262.5356285786447
 20
66.52878755549245
 30
0.0
  0
VERTEX
  5
1EB
330
1E6
100
AcDbEntity
  8
Section Line (ISO)
  6
Continuous
100
AcDbVertex
100
AcDb2dVertex
 10
263.5356228565988
 20
66.52878755549245
 30
0.0
  0
SEQEND
  5
1E9
330
1E6
100
AcDbEntity
  8
Section Line (ISO)
  6
Continuous
  0
SOLID
  5
1EC
330
1DF
100
AcDbEntity
  8
Section Line (ISO)
100
AcDbTrace
 10
263.5356228565988
 20
66.52878755549245
 30
0.0
 11
263.0356209492502
 21
69.02878755548896
 31
0.0
 12
262.5356285786447
 22
66.52878755549245
 32
0.0
 13
263.5356228565988
 23
66.52878755549245
 33
0.0
  0
LINE
  5
1ED
330
1DF
100
AcDbEntity
  8
Section Line (ISO)
  6
Continuous
100
AcDbLine
 10
263.5356250889128
 20
66.52878755548896
 30
0.0
 11
263.0356250889128
 21
69.02878755548896
 31
0.0
  0
LINE
  5
1EE
330
1DF
100
AcDbEntity
  8
Section Line (ISO)
  6
Continuous
100
AcDbLine
 10
263.0356250889128
 20
69.02878755548896
 30
0.0
 11
262.5356250889128
 21
66.52878755548896
 31
0.0
  0
LINE
  5
1EF
330
1DF
100
AcDbEntity
  8
Section Line (ISO)
  6
Continuous
100
AcDbLine
 10
262.5356250889128
 20
66.52878755548896
 30
0.0
 11
263.5356250889128
 21
66.52878755548896
 31
0.0
  0
LINE
  5
1F0
330
1DF
100
AcDbEntity
  8
Section Line (ISO)
  6
Continuous
100
AcDbLine
 10
263.0356250889128
 20
61.85119214556806
 30
0.0
 11
263.0356250889128
 21
66.52878755548896
 31
0.0
  0
LINE
  5
1F1
330
1DF
100
AcDbEntity
  8
Section Line (ISO)
  6
Continuous
100
AcDbLine
 10
437.9257478726863
 20
66.52878755548899
 30
0.0
 11
437.9257478726863
 21
69.02878755548899
 31
0.0
  0
POLYLINE
  5
1F2
330
1DF
100
AcDbEntity
  8
Section Line (ISO)
  6
Continuous
100
AcDb2dPolyline
 66
     1
 10
0.0
 20
0.0
 30
0.0
 70
   128
  0
VERTEX
  5
1F3
330
1F2
100
AcDbEntity
  8
Section Line (ISO)
  6
Continuous
100
AcDbVertex
100
AcDb2dVertex
 10
438.4257500386056
 20
66.52878755549245
 30
0.0
  0
VERTEX
  5
1F4
330
1F2
100
AcDbEntity
  8
Section Line (ISO)
  6
Continuous
100
AcDbVertex
100
AcDb2dVertex
 10
437.925748131257
 20
69.02878755548899
 30
0.0
  0
VERTEX
  5
1F6
330
1F2
100
AcDbEntity
  8
Section Line (ISO)
  6
Continuous
100
AcDbVertex
100
AcDb2dVertex
 10
437.4257462239084
 20
66.52878755549245
 30
0.0
  0
VERTEX
  5
1F7
330
1F2
100
AcDbEntity
  8
Section Line (ISO)
  6
Continuous
100
AcDbVertex
100
AcDb2dVertex
 10
438.4257500386056
 20
66.52878755549245
 30
0.0
  0
SEQEND
  5
1F5
330
1F2
100
AcDbEntity
  8
Section Line (ISO)
  6
Continuous
  0
SOLID
  5
1F8
330
1DF
100
AcDbEntity
  8
Section Line (ISO)
100
AcDbTrace
 10
438.4257500386056
 20
66.52878755549245
 30
0.0
 11
437.925748131257
 21
69.02878755548899
 31
0.0
 12
437.4257462239084
 22
66.52878755549245
 32
0.0
 13
438.4257500386056
 23
66.52878755549245
 33
0.0
  0
LINE
  5
1F9
330
1DF
100
AcDbEntity
  8
Section Line (ISO)
  6
Continuous
100
AcDbLine
 10
438.4257478726864
 20
66.52878755548899
 30
0.0
 11
437.9257478726863
 21
69.02878755548899
 31
0.0
  0
LINE
  5
1FA
330
1DF
100
AcDbEntity
  8
Section Line (ISO)
  6
Continuous
100
AcDbLine
 10
437.9257478726863
 20
69.02878755548899
 30
0.0
 11
437.4257478726863
 21
66.52878755548899
 31
0.0
  0
LINE
  5
1FB
330
1DF
100
AcDbEntity
  8
Section Line (ISO)
  6
Continuous
100
AcDbLine
 10
437.4257478726863
 20
66.52878755548899
 30
0.0
 11
438.4257478726864
 21
66.52878755548899
 31
0.0
  0
LINE
  5
1FC
330
1DF
100
AcDbEntity
  8
Section Line (ISO)
  6
Continuous
100
AcDbLine
 10
437.9257478726863
 20
61.85119214556809
 30
0.0
 11
437.9257478726863
 21
66.52878755548899
 31
0.0
  0
MTEXT
  5
1FD
330
1DF
100
AcDbEntity
  8
Section Line (ISO)
100
AcDbMText
 10
261.9674735274395
 20
57.02878731707038
 30
0.0
 40
3.499999940395355
 41
0.0
 46
0.0
 71
     7
 72
     1
  1
B
  7
Label Text (ISO)
 73
     1
 44
1.0
  0
MTEXT
  5
1FE
330
1DF
100
AcDbEntity
  8
Section Line (ISO)
100
AcDbMText
 10
436.857596311213
 20
57.02878731707041
 30
0.0
 40
3.499999940395355
 41
0.0
 46
0.0
 71
     7
 72
     1
  1
B
  7
Label Text (ISO)
 73
     1
 44
1.0
  0
ENDBLK
  5
1E1
330
1DF
100
AcDbEntity
  8
0
100
AcDbBlockEnd
  0
BLOCK
  5
276
330
275
100
AcDbEntity
  8
0
100
AcDbBlockBegin
  2
*D7
 70
     1
 10
0.0
 20
0.0
 30
0.0
  3
*D7
  1

  0
LINE
  5
34D
330
275
100
AcDbEntity
  8
Dimension (ISO)
440
 16777216
100
AcDbLine
 10
356.5312187886056
 20
692.2751415745984
 30
0.0
 11
416.0191303039495
 21
692.2751415745984
 31
0.0
  0
LINE
  5
34E
330
275
100
AcDbEntity
  8
Dimension (ISO)
440
 16777216
100
AcDbLine
 10
386.5312187886056
 20
641.2751415745983
 30
0.0
 11
416.0191303039495
 21
641.2751415745983
 31
0.0
  0
LINE
  5
34F
330
275
100
AcDbEntity
  8
Dimension (ISO)
440
 16777216
100
AcDbLine
 10
412.8441303039496
 20
689.7751415745983
 30
0.0
 11
412.8441303039496
 21
643.7751415745983
 31
0.0
  0
SOLID
  5
350
330
275
100
AcDbEntity
  8
Dimension (ISO)
440
 16777216
100
AcDbTrace
 10
412.4274636372829
 20
689.7751415745983
 30
0.0
 11
413.2607969706162
 21
689.7751415745983
 31
0.0
 12
412.8441303039496
 22
692.2751415745984
 32
0.0
 13
412.8441303039496
 23
692.2751415745984
 33
0.0
  0
SOLID
  5
351
330
275
100
AcDbEntity
  8
Dimension (ISO)
440
 16777216
100
AcDbTrace
 10
412.4274636372829
 20
643.7751415745983
 30
0.0
 11
413.2607969706162
 21
643.7751415745983
 31
0.0
 12
412.8441303039496
 22
641.2751415745983
 32
0.0
 13
412.8441303039496
 23
641.2751415745983
 33
0.0
  0
MTEXT
  5
352
330
275
100
AcDbEntity
  8
Dimension (ISO)
 62
   232
420
 13238372
440
 16777216
100
AcDbMText
 10
408.910538652178
 20
657.1742349523369
 30
0.0
 40
2.5
 41
0.0
 46
0.0
 71
     1
 72
     1
  1
\A1;51,00
  7
Note Text (ISO)
 11
0.0000000000000001
 21
1.0
 31
0.0
 73
     1
 44
1.0
  0
POINT
  5
353
330
275
100
AcDbEntity
  8
Defpoints
 62
     0
440
 16777216
100
AcDbPoint
 10
356.5312187886056
 20
692.2751415745984
 30
0.0
  0
POINT
  5
354
330
275
100
AcDbEntity
  8
Defpoints
 62
     0
440
 16777216
100
AcDbPoint
 10
386.5312187886056
 20
641.2751415745983
 30
0.0
  0
POINT
  5
355
330
275
100
AcDbEntity
  8
Defpoints
 62
     0
440
 16777216
100
AcDbPoint
 10
412.8441303039496
 20
641.2751415745983
 30
0.0
  0
ENDBLK
  5
277
330
275
100
AcDbEntity
  8
0
100
AcDbBlockEnd
  0
BLOCK
  5
358
330
357
100
AcDbEntity
  8
0
100
AcDbBlockBegin
  2
*D8
 70
     1
 10
0.0
 20
0.0
 30
0.0
  3
*D8
  1

  0
LINE
  5
42F
330
357
100
AcDbEntity
  8
Dimension (ISO)
440
 16777216
100
AcDbLine
 10
338.5312187886057
 20
668.7751415745983
 30
0.0
 11
297.1167782712036
 21
668.7751415745983
 31
0.0
  0
LINE
  5
430
330
357
100
AcDbEntity
  8
Dimension (ISO)
440
 16777216
100
AcDbLine
 10
338.5312187886057
 20
613.7751415745984
 30
0.0
 11
297.1167782712036
 21
613.7751415745984
 31
0.0
  0
LINE
  5
431
330
357
100
AcDbEntity
  8
Dimension (ISO)
440
 16777216
100
AcDbLine
 10
300.2917782712037
 20
666.2751415745983
 30
0.0
 11
300.2917782712036
 21
616.2751415745983
 31
0.0
  0
SOLID
  5
432
330
357
100
AcDbEntity
  8
Dimension (ISO)
440
 16777216
100
AcDbTrace
 10
299.875111604537
 20
666.2751415745983
 30
0.0
 11
300.7084449378703
 21
666.2751415745983
 31
0.0
 12
300.2917782712037
 22
668.7751415745983
 32
0.0
 13
300.2917782712037
 23
668.7751415745983
 33
0.0
  0
SOLID
  5
433
330
357
100
AcDbEntity
  8
Dimension (ISO)
440
 16777216
100
AcDbTrace
 10
299.8751116045369
 20
616.2751415745983
 30
0.0
 11
300.7084449378703
 21
616.2751415745983
 31
0.0
 12
300.2917782712036
 22
613.7751415745984
 32
0.0
 13
300.2917782712036
 23
613.7751415745984
 33
0.0
  0
MTEXT
  5
434
330
357
100
AcDbEntity
  8
Dimension (ISO)
 62
   232
420
 13238372
440
 16777216
100
AcDbMText
 10
296.3581866194321
 20
624.174234952337
 30
0.0
 40
2.5
 41
0.0
 46
0.0
 71
     1
 72
     1
  1
\A1;55,00
  7
Note Text (ISO)
 11
0.0000000000000001
 21
1.0
 31
0.0
 73
     1
 44
1.0
  0
POINT
  5
435
330
357
100
AcDbEntity
  8
Defpoints
 62
     0
440
 16777216
100
AcDbPoint
 10
338.5312187886057
 20
668.7751415745983
 30
0.0
  0
POINT
  5
436
330
357
100
AcDbEntity
  8
Defpoints
 62
     0
440
 16777216
100
AcDbPoint
 10
338.5312187886057
 20
613.7751415745984
 30
0.0
  0
POINT
  5
437
330
357
100
AcDbEntity
  8
Defpoints
 62
     0
440
 16777216
100
AcDbPoint
 10
300.2917782712036
 20
613.7751415745984
 30
0.0
  0
ENDBLK
  5
359
330
357
100
AcDbEntity
  8
0
100
AcDbBlockEnd
  0
BLOCK
  5
43A
330
439
100
AcDbEntity
  8
0
100
AcDbBlockBegin
  2
*D9
 70
     1
 10
0.0
 20
0.0
 30
0.0
  3
*D9
  1

  0
LINE
  5
50B
330
439
100
AcDbEntity
  8
Dimension (ISO)
440
 16777216
100
AcDbLine
 10
386.5312187886056
 20
620.1751415745984
 30
0.0
 11
386.5312187886056
 21
583.9228089679428
 31
0.0
  0
LINE
  5
50C
330
439
100
AcDbEntity
  8
Dimension (ISO)
440
 16777216
100
AcDbLine
 10
316.5312187886056
 20
641.2751415745983
 30
0.0
 11
316.5312187886056
 21
583.9228089679428
 31
0.0
  0
LINE
  5
50D
330
439
100
AcDbEntity
  8
Dimension (ISO)
440
 16777216
100
AcDbLine
 10
384.0312187886056
 20
587.0978089679428
 30
0.0
 11
319.0312187886056
 21
587.0978089679428
 31
0.0
  0
SOLID
  5
50E
330
439
100
AcDbEntity
  8
Dimension (ISO)
440
 16777216
100
AcDbTrace
 10
384.0312187886056
 20
587.5144756346094
 30
0.0
 11
384.0312187886056
 21
586.6811423012761
 31
0.0
 12
386.5312187886056
 22
587.0978089679428
 32
0.0
 13
386.5312187886056
 23
587.0978089679428
 33
0.0
  0
SOLID
  5
50F
330
439
100
AcDbEntity
  8
Dimension (ISO)
440
 16777216
100
AcDbTrace
 10
319.0312187886056
 20
587.5144756346094
 30
0.0
 11
319.0312187886056
 21
586.6811423012761
 31
0.0
 12
316.5312187886056
 22
587.0978089679428
 32
0.0
 13
316.5312187886056
 23
587.0978089679428
 33
0.0
  0
MTEXT
  5
510
330
439
100
AcDbEntity
  8
Dimension (ISO)
 62
   232
420
 13238372
440
 16777216
100
AcDbMText
 10
334.9093249267216
 20
591.0314006197141
 30
0.0
 40
2.5
 41
0.0
 46
0.0
 71
     1
 72
     1
  1
\A1;70,00
  7
Note Text (ISO)
 73
     1
 44
1.0
  0
POINT
  5
511
330
439
100
AcDbEntity
  8
Defpoints
 62
     0
440
 16777216
100
AcDbPoint
 10
386.5312187886056
 20
620.1751415745984
 30
0.0
  0
POINT
  5
512
330
439
100
AcDbEntity
  8
Defpoints
 62
     0
440
 16777216
100
AcDbPoint
 10
316.5312187886056
 20
641.2751415745983
 30
0.0
  0
POINT
  5
513
330
439
100
AcDbEntity
  8
Defpoints
 62
     0
440
 16777216
100
AcDbPoint
 10
316.5312187886056
 20
587.0978089679428
 30
0.0
  0
ENDBLK
  5
43B
330
439
100
AcDbEntity
  8
0
100
AcDbBlockEnd
  0
BLOCK
  5
516
330
515
100
AcDbEntity
  8
0
100
AcDbBlockBegin
  2
*D10
 70
     1
 10
0.0
 20
0.0
 30
0.0
  3
*D10
  1

  0
LINE
  5
5ED
330
515
100
AcDbEntity
  8
Dimension (ISO)
440
 16777216
100
AcDbLine
 10
386.5312187886056
 20
620.1751415745984
 30
0.0
 11
386.5312187886056
 21
603.570411039188
 31
0.0
  0
LINE
  5
5EE
330
515
100
AcDbEntity
  8
Dimension (ISO)
440
 16777216
100
AcDbLine
 10
338.5312187886057
 20
623.2751415745983
 30
0.0
 11
338.5312187886057
 21
603.570411039188
 31
0.0
  0
LINE
  5
5EF
330
515
100
AcDbEntity
  8
Dimension (ISO)
440
 16777216
100
AcDbLine
 10
384.0312187886056
 20
606.7454110391879
 30
0.0
 11
341.0312187886057
 21
606.7454110391879
 31
0.0
  0
SOLID
  5
5F0
330
515
100
AcDbEntity
  8
Dimension (ISO)
440
 16777216
100
AcDbTrace
 10
384.0312187886056
 20
607.1620777058545
 30
0.0
 11
384.0312187886056
 21
606.3287443725213
 31
0.0
 12
386.5312187886056
 22
606.7454110391879
 32
0.0
 13
386.5312187886056
 23
606.7454110391879
 33
0.0
  0
SOLID
  5
5F1
330
515
100
AcDbEntity
  8
Dimension (ISO)
440
 16777216
100
AcDbTrace
 10
341.0312187886057
 20
607.1620777058545
 30
0.0
 11
341.0312187886057
 21
606.3287443725213
 31
0.0
 12
338.5312187886057
 22
606.7454110391879
 32
0.0
 13
338.5312187886057
 23
606.7454110391879
 33
0.0
  0
MTEXT
  5
5F2
330
515
100
AcDbEntity
  8
Dimension (ISO)
 62
   232
420
 13238372
440
 16777216
100
AcDbMText
 10
351.3597950412122
 20
610.6857186076386
 30
0.0
 40
2.5
 41
0.0
 46
0.0
 71
     1
 72
     1
  1
\A1;48,00
  7
Note Text (ISO)
 73
     1
 44
1.0
  0
POINT
  5
5F3
330
515
100
AcDbEntity
  8
Defpoints
 62
     0
440
 16777216
100
AcDbPoint
 10
386.5312187886056
 20
620.1751415745984
 30
0.0
  0
POINT
  5
5F4
330
515
100
AcDbEntity
  8
Defpoints
 62
     0
440
 16777216
100
AcDbPoint
 10
338.5312187886057
 20
623.2751415745983
 30
0.0
  0
POINT
  5
5F5
330
515
100
AcDbEntity
  8
Defpoints
 62
     0
440
 16777216
100
AcDbPoint
 10
338.5312187886057
 20
606.7454110391879
 30
0.0
  0
ENDBLK
  5
517
330
515
100
AcDbEntity
  8
0
100
AcDbBlockEnd
  0
BLOCK
  5
5F8
330
5F7
100
AcDbEntity
  8
0
100
AcDbBlockBegin
  2
*D11
 70
     1
 10
0.0
 20
0.0
 30
0.0
  3
*D11
  1

  0
LINE
  5
6CF
330
5F7
100
AcDbEntity
  8
Dimension (ISO)
440
 16777216
100
AcDbLine
 10
385.4312187886056
 20
661.2751415745983
 30
0.0
 11
395.4273204943186
 21
661.2751415745983
 31
0.0
  0
LINE
  5
6D0
330
5F7
100
AcDbEntity
  8
Dimension (ISO)
440
 16777216
100
AcDbLine
 10
385.4312187886056
 20
621.2751415745984
 30
0.0
 11
395.4273204943186
 21
621.2751415745984
 31
0.0
  0
LINE
  5
6D1
330
5F7
100
AcDbEntity
  8
Dimension (ISO)
440
 16777216
100
AcDbLine
 10
392.2523204943186
 20
658.7751415745984
 30
0.0
 11
392.2523204943185
 21
623.7751415745983
 31
0.0
  0
SOLID
  5
6D2
330
5F7
100
AcDbEntity
  8
Dimension (ISO)
440
 16777216
100
AcDbTrace
 10
391.8356538276519
 20
658.7751415745984
 30
0.0
 11
392.6689871609853
 21
658.7751415745984
 31
0.0
 12
392.2523204943186
 22
661.2751415745983
 32
0.0
 13
392.2523204943186
 23
661.2751415745983
 33
0.0
  0
SOLID
  5
6D3
330
5F7
100
AcDbEntity
  8
Dimension (ISO)
440
 16777216
100
AcDbTrace
 10
391.8356538276519
 20
623.7751415745983
 30
0.0
 11
392.6689871609852
 21
623.7751415745983
 31
0.0
 12
392.2523204943185
 22
621.2751415745984
 32
0.0
 13
392.2523204943185
 23
621.2751415745984
 33
0.0
  0
MTEXT
  5
6D4
330
5F7
100
AcDbEntity
  8
Dimension (ISO)
 62
   232
420
 13238372
440
 16777216
100
AcDbMText
 10
388.3187288425471
 20
625.603717827205
 30
0.0
 40
2.5
 41
0.0
 46
0.0
 71
     1
 72
     1
  1
\A1;40,00
  7
Note Text (ISO)
 11
0.0000000000000001
 21
1.0
 31
0.0
 73
     1
 44
1.0
  0
POINT
  5
6D5
330
5F7
100
AcDbEntity
  8
Defpoints
 62
     0
440
 16777216
100
AcDbPoint
 10
385.4312187886056
 20
661.2751415745983
 30
0.0
  0
POINT
  5
6D6
330
5F7
100
AcDbEntity
  8
Defpoints
 62
     0
440
 16777216
100
AcDbPoint
 10
385.4312187886056
 20
621.2751415745984
 30
0.0
  0
POINT
  5
6D7
330
5F7
100
AcDbEntity
  8
Defpoints
 62
     0
440
 16777216
100
AcDbPoint
 10
392.2523204943185
 20
621.2751415745984
 30
0.0
  0
ENDBLK
  5
5F9
330
5F7
100
AcDbEntity
  8
0
100
AcDbBlockEnd
  0
ENDSEC
  0
SECTION
  2
ENTITIES
  0
INSERT
  5
16B
330
70
100
AcDbEntity
  8
0
100
AcDbBlockReference
  2
Borders Default Border
 10
0.0
 20
0.0
 30
0.0
  0
INSERT
  5
173
330
70
100
AcDbEntity
  8
0
100
AcDbBlockReference
 66
     1
  2
Title Blocks ISO
 10
821.0
 20
20.0
 30
0.0
  0
ATTRIB
  5
175
102
{ACAD_XDICTIONARY
360
706
102
}
330
173
100
AcDbEntity
  8
Title (ISO)
 62
   232
420
 13238372
100
AcDbText
 10
855.1558588233993
 20
93.13494450671269
 30
0.0
 40
2.5
  1
494204040
  7
Note Text (ISO)
100
AcDbAttribute
280
     0
  2
PART_NUMBER_001
 70
     0
280
     0
  0
ATTRIB
  5
176
102
{ACAD_XDICTIONARY
360
70B
102
}
330
173
100
AcDbEntity
  8
Title (ISO)
 62
   232
420
 13238372
100
AcDbText
 10
854.8368802916622
 20
83.39776635682264
 30
0.0
 40
2.5
  1
PLASSON END CAP MONOLITHIC
  7
Note Text (ISO)
100
AcDbAttribute
280
     0
  2
DESCRIPTION_001
 70
     0
280
     0
  0
ATTRIB
  5
709
102
{ACAD_XDICTIONARY
360
70A
102
}
330
173
100
AcDbEntity
  8
Title (ISO)
 62
   232
420
 13238372
100
AcDbText
 10
855.023246979511
 20
79.18073033121429
 30
0.0
 40
2.5
  1
40
  7
Note Text (ISO)
100
AcDbAttribute
280
     0
  2
DESCRIPTION_002
 70
     0
280
     1
  0
SEQEND
  5
174
330
173
100
AcDbEntity
  8
0
  0
LINE
  5
177
330
70
100
AcDbEntity
  8
Visible (ISO)
100
AcDbLine
 10
367.8312187886633
 20
297.3273716077983
 30
0.0
 11
382.8312187886633
 21
297.3273716077983
 31
0.0
  0
SPLINE
  5
178
330
70
100
AcDbEntity
  8
Visible (ISO)
100
AcDbSpline
210
0.0
220
0.0
230
1.0
 70
     8
 71
     3
 72
    22
 73
    18
 74
     0
 42
0.000000001
 43
0.0000000001
 40
1.381418565778383
 40
1.381418565778383
 40
1.381418565793463
 40
1.381418565793463
 40
1.727680402439793
 40
1.727680402439793
 40
2.073942239101204
 40
2.073942239101204
 40
2.418389685328985
 40
2.418389685328985
 40
2.762837131556767
 40
2.762837131556767
 40
3.126303251096384
 40
3.126303251096384
 40
3.489769370636
 40
3.489769370636
 40
3.846039136387842
 40
3.846039136387842
 40
4.202308902090771
 40
4.202308902090771
 40
4.202308902139684
 40
4.202308902139684
 10
384.5738333942738
 20
277.4091955221143
 30
0.0
 10
384.5738333942543
 20
277.4091955221083
 30
0.0
 10
384.3503447248438
 20
277.3397767646487
 30
0.0
 10
383.4433393163446
 20
277.0923969106328
 30
0.0
 10
382.76015011952
 20
276.9181729491343
 30
0.0
 10
381.1824837038096
 20
276.6044134752534
 30
0.0
 10
380.1799794245825
 20
276.4435607325573
 30
0.0
 10
377.9635794608688
 20
276.2628405972281
 30
0.0
 10
376.7489914422583
 20
276.2487484348969
 30
0.0
 10
374.39461278772
 20
276.3972154306555
 30
0.0
 10
373.1189148062123
 20
276.5780410431895
 30
0.0
 10
370.7906805047313
 20
277.068960012334
 30
0.0
 10
369.7365933978852
 20
277.3729548495775
 30
0.0
 10
368.0916374680616
 20
277.9068193445478
 30
0.0
 10
367.381617891034
 20
278.1738324499849
 30
0.0
 10
366.4339099429957
 20
278.5456968776284
 30
0.0
 10
366.1968828967457
 20
278.6468268821285
 30
0.0
 10
366.1968828966806
 20
278.6468268821563
 30
0.0
  0
LINE
  5
179
330
70
100
AcDbEntity
  8
Visible (ISO)
100
AcDbLine
 10
382.8312187886633
 20
297.3273716077983
 30
0.0
 11
384.5738333942738
 21
277.4091955221143
 31
0.0
  0
LINE
  5
17A
330
70
100
AcDbEntity
  8
Visible (ISO)
100
AcDbLine
 10
367.8312187886633
 20
297.3273716077983
 30
0.0
 11
366.1968828966806
 21
278.6468268821563
 31
0.0
  0
LINE
  5
17B
330
70
100
AcDbEntity
  8
Visible (ISO)
100
AcDbLine
 10
344.0312187886633
 20
302.4273716077983
 30
0.0
 11
359.0312187886633
 21
302.4273716077983
 31
0.0
  0
SPLINE
  5
17C
330
70
100
AcDbEntity
  8
Visible (ISO)
100
AcDbSpline
210
0.0
220
0.0
230
1.0
 70
     8
 71
     3
 72
    22
 73
    18
 74
     0
 42
0.000000001
 43
0.0000000001
 40
1.465450611266338
 40
1.465450611266338
 40
1.465450611266338
 40
1.465450611266338
 40
1.830959146342379
 40
1.830959146342379
 40
2.196467681418421
 40
2.196467681418421
 40
2.563684451975549
 40
2.563684451975549
 40
2.930901222532677
 40
2.930901222532677
 40
3.298117993089805
 40
3.298117993089805
 40
3.665334763646933
 40
3.665334763646933
 40
4.030843298722974
 40
4.030843298722974
 40
4.396351833753878
 40
4.396351833753878
 40
4.396351833799015
 40
4.396351833799015
 10
361.0872023815225
 20
278.9273716077983
 30
0.0
 10
361.0872023815225
 20
278.9273716077983
 30
0.0
 10
360.8475891642352
 20
278.8385471453235
 30
0.0
 10
359.882024405438
 20
278.5156075457703
 30
0.0
 10
359.1565871852074
 20
278.2853724007737
 30
0.0
 10
357.4800723630513
 20
277.8441296747477
 30
0.0
 10
356.4116212322859
 20
277.6029200943979
 30
0.0
 10
354.0498207900832
 20
277.2555662091745
 30
0.0
 10
352.7552746905204
 20
277.1556978467857
 30
0.0
 10
350.3071628868062
 20
277.1556978467857
 30
0.0
 10
349.0126167872434
 20
277.2555662091745
 30
0.0
 10
346.6508163450407
 20
277.6029200943979
 30
0.0
 10
345.5823652142752
 20
277.8441296747477
 30
0.0
 10
343.9058503921192
 20
278.2853724007737
 30
0.0
 10
343.1804131718886
 20
278.5156075457703
 30
0.0
 10
342.214848413151
 20
278.8385471453035
 30
0.0
 10
341.9752351958633
 20
278.9273716077764
 30
0.0
 10
341.9752351958041
 20
278.9273716077983
 30
0.0
  0
LINE
  5
17D
330
70
100
AcDbEntity
  8
Visible (ISO)
100
AcDbLine
 10
359.0312187886633
 20
302.4273716077983
 30
0.0
 11
361.0872023815225
 21
278.9273716077983
 31
0.0
  0
LINE
  5
17E
330
70
100
AcDbEntity
  8
Visible (ISO)
100
AcDbLine
 10
344.0312187886633
 20
302.4273716077983
 30
0.0
 11
341.9752351958041
 21
278.9273716077983
 31
0.0
  0
LINE
  5
17F
330
70
100
AcDbEntity
  8
Visible Narrow (ISO)
100
AcDbLine
 10
361.9942198780322
 20
224.265942241432
 30
0.0
 11
361.9942198780322
 21
278.5888009741646
 31
0.0
  0
LINE
  5
180
330
70
100
AcDbEntity
  8
Visible Narrow (ISO)
100
AcDbLine
 10
362.0681340773269
 20
278.5863454508856
 30
0.0
 11
362.0681340773269
 21
224.268397764711
 31
0.0
  0
LINE
  5
181
330
70
100
AcDbEntity
  8
Visible Narrow (ISO)
100
AcDbLine
 10
385.505132987958
 20
225.8273750474964
 30
0.0
 11
385.505132987958
 21
277.0273681681002
 31
0.0
  0
LINE
  5
182
330
70
100
AcDbEntity
  8
Visible (ISO)
100
AcDbLine
 10
386.5312187886633
 20
276.2489614770823
 30
0.0
 11
386.5312187886633
 21
226.6057817385143
 31
0.0
  0
ARC
  5
183
330
70
100
AcDbEntity
  8
Visible (ISO)
100
AcDbCircle
 10
361.9942198780322
 20
225.0273716077983
 30
0.0
 40
1.099999999999999
100
AcDbArc
 50
270.0
 51
273.8528773337835
  0
ARC
  5
184
330
70
100
AcDbEntity
  8
Visible (ISO)
100
AcDbCircle
 10
361.9942198780322
 20
277.8273716077984
 30
0.0
 40
1.1
100
AcDbArc
 50
86.14712266621657
 51
90.0
  0
ARC
  5
185
330
70
100
AcDbEntity
  8
Visible (ISO)
100
AcDbCircle
 10
385.4312187886633
 20
276.2489614770823
 30
0.0
 40
1.099999999999999
100
AcDbArc
 50
0.0
 51
86.14712266621657
  0
ARC
  5
186
330
70
100
AcDbEntity
  8
Visible (ISO)
100
AcDbCircle
 10
385.4312187886633
 20
226.6057817385143
 30
0.0
 40
1.1
100
AcDbArc
 50
273.8528773337835
 51
0.0
  0
LINE
  5
187
330
70
100
AcDbEntity
  8
Visible Narrow (ISO)
100
AcDbLine
 10
338.5312187886633
 20
224.265942241432
 30
0.0
 11
338.5312187886633
 21
278.5888009741646
 31
0.0
  0
LINE
  5
188
330
70
100
AcDbEntity
  8
Visible Narrow (ISO)
100
AcDbLine
 10
331.273172173791
 20
226.1892487825798
 30
0.0
 11
331.273172173791
 21
276.6654944330168
 31
0.0
  0
LINE
  5
189
330
70
100
AcDbEntity
  8
Visible (ISO)
100
AcDbLine
 10
338.5312187886633
 20
278.9273716077983
 30
0.0
 11
341.9752351958041
 21
278.9273716077983
 31
0.0
  0
LINE
  5
18A
330
70
100
AcDbEntity
  8
Visible (ISO)
100
AcDbLine
 10
361.0872023815225
 20
278.9273716077983
 30
0.0
 11
361.9942198780322
 21
278.9273716077983
 31
0.0
  0
LINE
  5
18B
330
70
100
AcDbEntity
  8
Visible (ISO)
100
AcDbLine
 10
338.5312187886633
 20
223.9273716077983
 30
0.0
 11
361.9942198780322
 21
223.9273716077983
 31
0.0
  0
ARC
  5
18C
330
70
100
AcDbEntity
  8
Visible (ISO)
100
AcDbCircle
 10
338.5312187886633
 20
238.4273716077983
 30
0.0
 40
14.5
100
AcDbArc
 50
239.9632787376988
 51
270.0
  0
ARC
  5
18D
330
70
100
AcDbEntity
  8
Visible (ISO)
100
AcDbCircle
 10
338.5312187886633
 20
264.4273716077983
 30
0.0
 40
14.5
100
AcDbArc
 50
89.99999999999971
 51
120.0367212623011
  0
ARC
  5
18E
330
70
100
AcDbEntity
  8
Visible (ISO)
100
AcDbCircle
 10
346.0478854553299
 20
251.4273716077983
 30
0.0
 40
29.51666666666663
100
AcDbArc
 50
120.0367212623012
 51
239.9632787376988
  0
LINE
  5
18F
330
70
100
AcDbEntity
  8
Visible (ISO)
100
AcDbLine
 10
385.505132987958
 20
225.5082678701998
 30
0.0
 11
362.0681340773269
 21
223.9298577394838
 31
0.0
  0
LINE
  5
190
330
70
100
AcDbEntity
  8
Visible (ISO)
100
AcDbLine
 10
385.505132987958
 20
277.3464753453968
 30
0.0
 11
384.5738333942738
 21
277.4091955221143
 31
0.0
  0
LINE
  5
191
330
70
100
AcDbEntity
  8
Visible (ISO)
100
AcDbLine
 10
366.1968828966806
 20
278.6468268821563
 30
0.0
 11
362.0681340773269
 21
278.9248854761128
 31
0.0
  0
LINE
  5
192
330
70
100
AcDbEntity
  8
Visible (ISO)
100
AcDbLine
 10
560.4637468901664
 20
302.4273716077983
 30
0.0
 11
575.4637468901664
 21
302.4273716077983
 31
0.0
  0
LINE
  5
193
330
70
100
AcDbEntity
  8
Visible (ISO)
100
AcDbLine
 10
575.4637468901664
 20
302.4273716077983
 30
0.0
 11
577.6747318525806
 21
277.1556978467857
 31
0.0
  0
LINE
  5
194
330
70
100
AcDbEntity
  8
Visible (ISO)
100
AcDbLine
 10
560.4637468901664
 20
302.4273716077983
 30
0.0
 11
558.2527619277523
 21
277.1556978467857
 31
0.0
  0
CIRCLE
  5
195
330
70
100
AcDbEntity
  8
Visible (ISO)
100
AcDbCircle
 10
567.9637468901627
 20
251.4273716077983
 30
0.0
 40
27.5
  0
CIRCLE
  5
196
330
70
100
AcDbEntity
  8
Visible Narrow (ISO)
100
AcDbCircle
 10
567.9637468901604
 20
251.4273716077983
 30
0.0
 40
25.55271920088787
  0
LINE
  5
197
330
70
100
AcDbEntity
  8
Visible Narrow (ISO)
100
AcDbLine
 10
361.994219878101
 20
467.8208945274007
 30
0.0
 11
361.994219878101
 21
522.1437532601332
 31
0.0
  0
LINE
  5
198
330
70
100
AcDbEntity
  8
Visible Narrow (ISO)
100
AcDbLine
 10
362.0681340773957
 20
522.1412977368543
 30
0.0
 11
362.0681340773957
 21
467.8233500506797
 31
0.0
  0
LINE
  5
199
330
70
100
AcDbEntity
  8
Visible Narrow (ISO)
100
AcDbLine
 10
385.5051329880268
 20
469.3823273334651
 30
0.0
 11
385.5051329880268
 21
520.582320454069
 31
0.0
  0
LINE
  5
19A
330
70
100
AcDbEntity
  8
Visible (ISO)
100
AcDbLine
 10
386.5312187887321
 20
519.8039137630523
 30
0.0
 11
386.5312187887321
 21
470.1607340244843
 31
0.0
  0
ARC
  5
19B
330
70
100
AcDbEntity
  8
Visible (ISO)
100
AcDbCircle
 10
361.994219878101
 20
468.5823238937683
 30
0.0
 40
1.099999999999999
100
AcDbArc
 50
270.0
 51
273.8528773337835
  0
ARC
  5
19C
330
70
100
AcDbEntity
  8
Visible (ISO)
100
AcDbCircle
 10
361.994219878101
 20
521.3823238937683
 30
0.0
 40
1.1
100
AcDbArc
 50
86.14712266621657
 51
90.0
  0
ARC
  5
19D
330
70
100
AcDbEntity
  8
Visible (ISO)
100
AcDbCircle
 10
385.431218788732
 20
519.8039137630523
 30
0.0
 40
1.099999999999999
100
AcDbArc
 50
0.0
 51
86.14712266621657
  0
ARC
  5
19E
330
70
100
AcDbEntity
  8
Visible (ISO)
100
AcDbCircle
 10
385.431218788732
 20
470.1607340244843
 30
0.0
 40
1.1
100
AcDbArc
 50
273.8528773337835
 51
0.0
  0
LINE
  5
19F
330
70
100
AcDbEntity
  8
Visible Narrow (ISO)
100
AcDbLine
 10
338.5312187887321
 20
467.8208945274007
 30
0.0
 11
338.5312187887321
 21
522.1437532601332
 31
0.0
  0
LINE
  5
1A0
330
70
100
AcDbEntity
  8
Visible Narrow (ISO)
100
AcDbLine
 10
331.2731721738598
 20
469.7442010685486
 30
0.0
 11
331.2731721738598
 21
520.2204467189856
 31
0.0
  0
LINE
  5
1A1
330
70
100
AcDbEntity
  8
Visible (ISO)
100
AcDbLine
 10
338.5312187887321
 20
522.4823238937683
 30
0.0
 11
361.994219878101
 21
522.4823238937683
 31
0.0
  0
LINE
  5
1A2
330
70
100
AcDbEntity
  8
Visible (ISO)
100
AcDbLine
 10
338.5312187887321
 20
467.4823238937682
 30
0.0
 11
361.994219878101
 21
467.4823238937682
 31
0.0
  0
ARC
  5
1A3
330
70
100
AcDbEntity
  8
Visible (ISO)
100
AcDbCircle
 10
338.5312187887321
 20
481.9823238937683
 30
0.0
 40
14.5
100
AcDbArc
 50
239.9632787376989
 51
270.0
  0
ARC
  5
1A4
330
70
100
AcDbEntity
  8
Visible (ISO)
100
AcDbCircle
 10
338.5312187887321
 20
507.9823238937683
 30
0.0
 40
14.5
100
AcDbArc
 50
89.99999999999971
 51
120.0367212623008
  0
ARC
  5
1A5
330
70
100
AcDbEntity
  8
Visible (ISO)
100
AcDbCircle
 10
346.0478854553987
 20
494.9823238937683
 30
0.0
 40
29.51666666666663
100
AcDbArc
 50
120.0367212623012
 51
239.9632787376988
  0
LINE
  5
1A6
330
70
100
AcDbEntity
  8
Visible (ISO)
100
AcDbLine
 10
385.5051329880268
 20
469.0632201561697
 30
0.0
 11
362.0681340773957
 21
467.4848100254538
 31
0.0
  0
LINE
  5
1A7
330
70
100
AcDbEntity
  8
Visible (ISO)
100
AcDbLine
 10
385.5051329880268
 20
520.9014276313667
 30
0.0
 11
362.0681340773957
 21
522.4798377620827
 31
0.0
  0
LINE
  5
1A8
330
70
100
AcDbEntity
  8
Visible (ISO)
100
AcDbLine
 10
102.95854209999
 20
250.4273716077983
 30
0.0
 11
100.9835577445518
 21
250.4273716077983
 31
0.0
  0
LINE
  5
1A9
330
70
100
AcDbEntity
  8
Visible (ISO)
100
AcDbLine
 10
102.95854209999
 20
250.4273716077983
 30
0.0
 11
102.95854209999
 21
252.4273716077983
 31
0.0
  0
LINE
  5
1AA
330
70
100
AcDbEntity
  8
Visible (ISO)
100
AcDbLine
 10
100.9835577445518
 20
252.4273716077983
 30
0.0
 11
102.95854209999
 21
252.4273716077983
 31
0.0
  0
LINE
  5
1AB
330
70
100
AcDbEntity
  8
Visible (ISO)
100
AcDbLine
 10
119.95854209999
 20
269.4273716077983
 30
0.0
 11
119.95854209999
 21
271.4023559632364
 31
0.0
  0
LINE
  5
1AC
330
70
100
AcDbEntity
  8
Visible (ISO)
100
AcDbLine
 10
119.95854209999
 20
269.4273716077983
 30
0.0
 11
121.95854209999
 21
269.4273716077983
 31
0.0
  0
LINE
  5
1AD
330
70
100
AcDbEntity
  8
Visible (ISO)
100
AcDbLine
 10
121.95854209999
 20
271.4023559632364
 30
0.0
 11
121.95854209999
 21
269.4273716077983
 31
0.0
  0
LINE
  5
1AE
330
70
100
AcDbEntity
  8
Visible (ISO)
100
AcDbLine
 10
138.95854209999
 20
252.4273716077983
 30
0.0
 11
140.9335264554282
 21
252.4273716077983
 31
0.0
  0
LINE
  5
1AF
330
70
100
AcDbEntity
  8
Visible (ISO)
100
AcDbLine
 10
138.95854209999
 20
252.4273716077983
 30
0.0
 11
138.95854209999
 21
250.4273716077983
 31
0.0
  0
LINE
  5
1B0
330
70
100
AcDbEntity
  8
Visible (ISO)
100
AcDbLine
 10
140.9335264554282
 20
250.4273716077983
 30
0.0
 11
138.95854209999
 21
250.4273716077983
 31
0.0
  0
ARC
  5
1B1
330
70
100
AcDbEntity
  8
Visible Narrow (ISO)
100
AcDbCircle
 10
120.958542099989
 20
251.4273716077983
 30
0.0
 40
19.05993340732517
100
AcDbArc
 50
187.2067192438068
 51
262.7932807561929
  0
ARC
  5
1B2
330
70
100
AcDbEntity
  8
Visible Narrow (ISO)
100
AcDbCircle
 10
120.958542099989
 20
251.4273716077983
 30
0.0
 40
19.05993340732517
100
AcDbArc
 50
277.2067192438069
 51
352.793280756193
  0
ARC
  5
1B3
330
70
100
AcDbEntity
  8
Visible Narrow (ISO)
100
AcDbCircle
 10
120.958542099989
 20
251.4273716077983
 30
0.0
 40
19.05993340732517
100
AcDbArc
 50
7.206719243807014
 51
82.79328075619313
  0
ARC
  5
1B4
330
70
100
AcDbEntity
  8
Visible Narrow (ISO)
100
AcDbCircle
 10
120.958542099989
 20
251.4273716077983
 30
0.0
 40
19.05993340732517
100
AcDbArc
 50
97.20671924380699
 51
172.793280756193
  0
LINE
  5
1B5
330
70
100
AcDbEntity
  8
Visible (ISO)
100
AcDbLine
 10
119.95854209999
 20
231.4523872523601
 30
0.0
 11
119.95854209999
 21
233.4273716077983
 31
0.0
  0
LINE
  5
1B6
330
70
100
AcDbEntity
  8
Visible (ISO)
100
AcDbLine
 10
121.95854209999
 20
233.4273716077983
 30
0.0
 11
121.95854209999
 21
231.4523872523601
 31
0.0
  0
LINE
  5
1B7
330
70
100
AcDbEntity
  8
Visible (ISO)
100
AcDbLine
 10
121.95854209999
 20
233.4273716077983
 30
0.0
 11
119.95854209999
 21
233.4273716077983
 31
0.0
  0
LINE
  5
1B8
330
70
100
AcDbEntity
  8
Visible (ISO)
100
AcDbLine
 10
113.4585421000009
 20
297.3273716077983
 30
0.0
 11
128.4585421000009
 21
297.3273716077983
 31
0.0
  0
SPLINE
  5
1B9
330
70
100
AcDbEntity
  8
Visible (ISO)
100
AcDbSpline
210
0.0
220
0.0
230
1.0
 70
     8
 71
     3
 72
    24
 73
    20
 74
     0
 42
0.000000001
 43
0.0000000001
 40
0.0
 40
0.0
 40
0.0
 40
0.0
 40
0.3444474462277815
 40
0.3444474462277815
 40
0.688894892455563
 40
0.688894892455563
 40
1.035156729116973
 40
1.035156729116973
 40
1.381418565778383
 40
1.381418565778383
 40
1.727680402439793
 40
1.727680402439793
 40
2.073942239101204
 40
2.073942239101204
 40
2.418389685328985
 40
2.418389685328985
 40
2.762837131556767
 40
2.762837131556767
 40
2.790013634676687
 40
2.790013634676687
 40
2.790013634676687
 40
2.790013634676687
 10
130.2923940918823
 20
276.3209875895213
 30
0.0
 10
130.2653080479035
 20
276.2487484348969
 30
0.0
 10
130.0046453336119
 20
276.2628405972281
 30
0.0
 10
129.0180486801666
 20
276.4435607325573
 30
0.0
 10
128.2926208354833
 20
276.6044134752534
 30
0.0
 10
126.6453792217369
 20
276.9181729491343
 30
0.0
 10
125.6084694367932
 20
277.0923969106328
 30
0.0
 10
123.3424226834609
 20
277.3397767646541
 30
0.0
 10
122.1127482222084
 20
277.4091955221143
 30
0.0
 10
119.804335977799
 20
277.4091955221143
 30
0.0
 10
118.5746615165463
 20
277.3397767646541
 30
0.0
 10
116.3086147632135
 20
277.0923969106328
 30
0.0
 10
115.2717049782693
 20
276.9181729491343
 30
0.0
 10
113.624463364522
 20
276.6044134752534
 30
0.0
 10
112.8990355198381
 20
276.4435607325573
 30
0.0
 10
111.9124388663915
 20
276.2628405972281
 30
0.0
 10
111.6517761520992
 20
276.2487484348969
 30
0.0
 10
111.6225530507347
 20
276.32668717485
 30
0.0
 10
111.6218426571819
 20
276.3329715256364
 30
0.0
 10
111.6225569155879
 20
276.3398239364844
 30
0.0
  0
SPLINE
  5
1BA
330
70
100
AcDbEntity
  8
Visible (ISO)
100
AcDbSpline
210
0.0
220
0.0
230
1.0
 70
     8
 71
     3
 72
     8
 73
     4
 74
     0
 42
0.000000001
 43
0.0000000001
 40
5.61460416960268
 40
5.61460416960268
 40
5.61460416960268
 40
5.61460416960268
 40
5.6417806727226
 40
5.6417806727226
 40
5.6417806727226
 40
5.6417806727226
 10
130.294527284414
 20
276.3398239364844
 30
0.0
 10
130.29524154282
 20
276.3329715256364
 30
0.0
 10
130.2945311492673
 20
276.32668717485
 30
0.0
 10
130.2923940918823
 20
276.3209875895213
 30
0.0
  0
LINE
  5
1BB
330
70
100
AcDbEntity
  8
Visible (ISO)
100
AcDbLine
 10
128.4585421000009
 20
297.3273716077983
 30
0.0
 11
130.2947261782008
 21
276.3396915564766
 31
0.0
  0
LINE
  5
1BC
330
70
100
AcDbEntity
  8
Visible (ISO)
100
AcDbLine
 10
113.4585421000009
 20
297.3273716077983
 30
0.0
 11
111.6223580218011
 21
276.3396915564766
 31
0.0
  0
LINE
  5
1BD
330
70
100
AcDbEntity
  8
Visible (ISO)
100
AcDbLine
 10
113.4585420999939
 20
302.4273716077983
 30
0.0
 11
128.4585420999938
 21
302.4273716077983
 31
0.0
  0
LINE
  5
1BE
330
70
100
AcDbEntity
  8
Visible (ISO)
100
AcDbLine
 10
128.4585420999938
 20
302.4273716077983
 30
0.0
 11
130.669527062408
 21
277.1556978467857
 31
0.0
  0
LINE
  5
1BF
330
70
100
AcDbEntity
  8
Visible (ISO)
100
AcDbLine
 10
113.4585420999939
 20
302.4273716077983
 30
0.0
 11
111.2475571375797
 21
277.1556978467857
 31
0.0
  0
ARC
  5
1C0
330
70
100
AcDbEntity
  8
Visible (ISO)
100
AcDbCircle
 10
120.958542099997
 20
251.4273716077983
 30
0.0
 40
27.50000000000001
100
AcDbArc
 50
109.6554360486767
 51
70.34456395132316
  0
ARC
  5
1C1
330
70
100
AcDbEntity
  8
Visible Narrow (ISO)
100
AcDbCircle
 10
120.958542099997
 20
251.4273716077983
 30
0.0
 40
27.49751386831448
100
AcDbArc
 50
125.6920324691848
 51
54.30796753081512
  0
CIRCLE
  5
1C2
330
70
100
AcDbEntity
  8
Visible Narrow (ISO)
100
AcDbCircle
 10
120.9585421000039
 20
251.4273716077983
 30
0.0
 40
25.91910373759853
  0
CIRCLE
  5
1C3
330
70
100
AcDbEntity
  8
Visible Narrow (ISO)
100
AcDbCircle
 10
120.9585421000042
 20
251.4273716077983
 30
0.0
 40
21.1
  0
CIRCLE
  5
1C4
330
70
100
AcDbEntity
  8
Visible (ISO)
100
AcDbCircle
 10
120.9585421000039
 20
251.4273716077983
 30
0.0
 40
20.0
  0
CIRCLE
  5
1C5
330
70
100
AcDbEntity
  8
Visible Narrow (ISO)
100
AcDbCircle
 10
120.9585421000042
 20
251.4273716077983
 30
0.0
 40
24.82158986928404
  0
CIRCLE
  5
1C6
330
70
100
AcDbEntity
  8
Visible (ISO)
100
AcDbCircle
 10
375.3312187886057
 20
69.02878755550171
 30
0.0
 40
2.0
  0
CIRCLE
  5
1C7
330
70
100
AcDbEntity
  8
Visible (ISO)
100
AcDbCircle
 10
351.5312187886057
 20
69.02878755550322
 30
0.0
 40
2.0
  0
CIRCLE
  5
1C8
330
70
100
AcDbEntity
  8
Visible (ISO)
100
AcDbCircle
 10
375.3312187886057
 20
69.02878755550259
 30
0.0
 40
5.0
  0
CIRCLE
  5
1C9
330
70
100
AcDbEntity
  8
Visible (ISO)
100
AcDbCircle
 10
375.3312187886057
 20
69.02878755550259
 30
0.0
 40
7.5
  0
SPLINE
  5
1CA
330
70
100
AcDbEntity
  8
Visible (ISO)
100
AcDbSpline
210
0.0
220
0.0
230
1.0
 70
    11
 71
     3
 72
    38
 73
    34
 74
     0
 42
0.000000001
 43
0.0000000001
 40
0.0
 40
0.0
 40
0.0
 40
0.0
 40
0.3444474462277815
 40
0.3444474462277815
 40
0.688894892455563
 40
0.688894892455563
 40
1.035156729116973
 40
1.035156729116973
 40
1.381418565778383
 40
1.381418565778383
 40
1.727680402439793
 40
1.727680402439793
 40
2.073942239101204
 40
2.073942239101204
 40
2.418389685328985
 40
2.418389685328985
 40
2.762837131556767
 40
2.762837131556767
 40
3.126303251096384
 40
3.126303251096384
 40
3.489769370636
 40
3.489769370636
 40
3.846039136387842
 40
3.846039136387842
 40
4.202308902139684
 40
4.202308902139684
 40
4.558578667891525
 40
4.558578667891525
 40
4.914848433643367
 40
4.914848433643367
 40
5.278314553182983
 40
5.278314553182983
 40
5.6417806727226
 40
5.6417806727226
 40
5.6417806727226
 40
5.6417806727226
 10
375.6034282629871
 20
78.36263954737768
 30
0.0
 10
376.7489914422007
 20
78.33555350339844
 30
0.0
 10
377.9635794608112
 20
78.07489078910652
 30
0.0
 10
380.1799794245249
 20
77.08829413566061
 30
0.0
 10
381.1824837037519
 20
76.3628662909771
 30
0.0
 10
382.7601501194624
 20
74.71562467723035
 30
0.0
 10
383.443339316287
 20
73.67871489228645
 30
0.0
 10
384.350344724806
 20
71.41266813895393
 30
0.0
 10
384.5738333942162
 20
70.18299367770139
 30
0.0
 10
384.5738333942162
 20
67.87458143329198
 30
0.0
 10
384.350344724806
 20
66.64490697203939
 30
0.0
 10
383.443339316287
 20
64.37886021870673
 30
0.0
 10
382.7601501194624
 20
63.34195043376272
 30
0.0
 10
381.1824837037519
 20
61.69470882001578
 30
0.0
 10
380.1799794245249
 20
60.96928097533217
 30
0.0
 10
377.9635794608112
 20
59.98268432188616
 30
0.0
 10
376.7489914422007
 20
59.72202160759423
 30
0.0
 10
374.3946127876623
 20
59.66635396312239
 30
0.0
 10
373.1189148061546
 20
59.89296161061066
 30
0.0
 10
370.7906805046736
 20
60.84692949291458
 30
0.0
 10
369.7365933978276
 20
61.5736327627716
 30
0.0
 10
368.0916374680039
 20
63.23642668556695
 30
0.0
 10
367.3816178909764
 20
64.28045453609303
 30
0.0
 10
366.433909942873
 20
66.58241613748521
 30
0.0
 10
366.196882896623
 20
67.84122166965757
 30
0.0
 10
366.196882896623
 20
70.21635344133652
 30
0.0
 10
366.433909942873
 20
71.47515897350882
 30
0.0
 10
367.3816178909764
 20
73.77712057490078
 30
0.0
 10
368.0916374680039
 20
74.8211484254267
 30
0.0
 10
369.7365933978276
 20
76.48394234822174
 30
0.0
 10
370.7906805046736
 20
77.21064561807857
 30
0.0
 10
373.1189148061546
 20
78.1646135003822
 30
0.0
 10
374.3946127876623
 20
78.39122114787038
 30
0.0
 10
375.6034282629871
 20
78.36263954737768
 30
0.0
  0
CIRCLE
  5
1CB
330
70
100
AcDbEntity
  8
Visible (ISO)
100
AcDbCircle
 10
351.5312187886057
 20
69.0287875555041
 30
0.0
 40
5.0
  0
CIRCLE
  5
1CC
330
70
100
AcDbEntity
  8
Visible (ISO)
100
AcDbCircle
 10
351.5312187886057
 20
69.0287875555041
 30
0.0
 40
7.5
  0
SPLINE
  5
1CD
330
70
100
AcDbEntity
  8
Visible (ISO)
100
AcDbSpline
210
0.0
220
0.0
230
1.0
 70
    11
 71
     3
 72
    38
 73
    34
 74
     0
 42
0.000000001
 43
0.0000000001
 40
0.0
 40
0.0
 40
0.0
 40
0.0
 40
0.3672167705571278
 40
0.3672167705571278
 40
0.7344335411142556
 40
0.7344335411142556
 40
1.099942076190297
 40
1.099942076190297
 40
1.465450611266338
 40
1.465450611266338
 40
1.830959146342379
 40
1.830959146342379
 40
2.196467681418421
 40
2.196467681418421
 40
2.563684451975549
 40
2.563684451975549
 40
2.930901222532677
 40
2.930901222532677
 40
3.298117993089805
 40
3.298117993089805
 40
3.665334763646933
 40
3.665334763646933
 40
4.030843298722974
 40
4.030843298722974
 40
4.396351833799015
 40
4.396351833799015
 40
4.761860368875057
 40
4.761860368875057
 40
5.127368903951098
 40
5.127368903951098
 40
5.494585674508225
 40
5.494585674508225
 40
5.861802445065354
 40
5.861802445065354
 40
5.861802445065354
 40
5.861802445065354
 10
351.5312187886057
 20
78.73977251791076
 30
0.0
 10
352.7552746904627
 20
78.73977251791076
 30
0.0
 10
354.0498207900256
 20
78.48600555244643
 30
0.0
 10
356.4116212322283
 20
77.47717496133013
 30
0.0
 10
357.4800723629937
 20
76.72276249818898
 30
0.0
 10
359.1565871851498
 20
75.00229539359532
 30
0.0
 10
359.8820244053803
 20
73.91921938726688
 30
0.0
 10
360.8475891641775
 20
71.54201352406132
 30
0.0
 10
361.0872023814649
 20
70.24714933908393
 30
0.0
 10
361.0872023814649
 20
67.81042577191033
 30
0.0
 10
360.8475891641775
 20
66.5155615869329
 30
0.0
 10
359.8820244053803
 20
64.13835572372716
 30
0.0
 10
359.1565871851498
 20
63.05527971739857
 30
0.0
 10
357.4800723629937
 20
61.33481261280464
 30
0.0
 10
356.4116212322283
 20
60.58040014966334
 30
0.0
 10
354.0498207900256
 20
59.57156955854684
 30
0.0
 10
352.7552746904627
 20
59.31780259308244
 30
0.0
 10
350.3071628867486
 20
59.31780259308244
 30
0.0
 10
349.0126167871858
 20
59.57156955854684
 30
0.0
 10
346.6508163449831
 20
60.58040014966334
 30
0.0
 10
345.5823652142176
 20
61.33481261280464
 30
0.0
 10
343.9058503920616
 20
63.05527971739857
 30
0.0
 10
343.180413171831
 20
64.13835572372716
 30
0.0
 10
342.2148484130338
 20
66.5155615869329
 30
0.0
 10
341.9752351957464
 20
67.81042577191033
 30
0.0
 10
341.9752351957464
 20
70.24714933908393
 30
0.0
 10
342.2148484130338
 20
71.5420135240613
 30
0.0
 10
343.180413171831
 20
73.91921938726686
 30
0.0
 10
343.9058503920616
 20
75.00229539359532
 30
0.0
 10
345.5823652142176
 20
76.72276249818898
 30
0.0
 10
346.6508163449831
 20
77.47717496133012
 30
0.0
 10
349.0126167871858
 20
78.48600555244643
 30
0.0
 10
350.3071628867486
 20
78.73977251791076
 30
0.0
 10
351.5312187886057
 20
78.73977251791076
 30
0.0
  0
LINE
  5
1CE
330
70
100
AcDbEntity
  8
Visible Narrow (ISO)
100
AcDbLine
 10
361.9942198779746
 20
41.86735818912396
 30
0.0
 11
361.9942198779746
 21
96.19021692185654
 31
0.0
  0
LINE
  5
1CF
330
70
100
AcDbEntity
  8
Visible Narrow (ISO)
100
AcDbLine
 10
362.0681340772693
 20
96.18776139857757
 30
0.0
 11
362.0681340772693
 21
41.86981371240293
 31
0.0
  0
LINE
  5
1D0
330
70
100
AcDbEntity
  8
Visible Narrow (ISO)
100
AcDbLine
 10
385.5051329879003
 20
43.42879099518826
 30
0.0
 11
385.5051329879003
 21
94.62878411579211
 31
0.0
  0
LINE
  5
1D1
330
70
100
AcDbEntity
  8
Visible (ISO)
100
AcDbLine
 10
386.5312187886057
 20
93.85037742477301
 30
0.0
 11
386.5312187886057
 21
44.20719768620493
 31
0.0
  0
ARC
  5
1D2
330
70
100
AcDbEntity
  8
Visible (ISO)
100
AcDbCircle
 10
361.9942198779746
 20
42.62878755548896
 30
0.0
 40
1.099999999999999
100
AcDbArc
 50
270.0
 51
273.8528773337834
  0
ARC
  5
1D3
330
70
100
AcDbEntity
  8
Visible (ISO)
100
AcDbCircle
 10
361.9942198779746
 20
95.42878755548898
 30
0.0
 40
1.1
100
AcDbArc
 50
86.14712266621657
 51
90.0
  0
ARC
  5
1D4
330
70
100
AcDbEntity
  8
Visible (ISO)
100
AcDbCircle
 10
385.4312187886057
 20
93.85037742477301
 30
0.0
 40
1.099999999999999
100
AcDbArc
 50
0.0
 51
86.14712266621657
  0
ARC
  5
1D5
330
70
100
AcDbEntity
  8
Visible (ISO)
100
AcDbCircle
 10
385.4312187886057
 20
44.20719768620493
 30
0.0
 40
1.1
100
AcDbArc
 50
273.8528773337834
 51
0.0
  0
LINE
  5
1D6
330
70
100
AcDbEntity
  8
Visible Narrow (ISO)
100
AcDbLine
 10
338.5312187886057
 20
41.86735818912396
 30
0.0
 11
338.5312187886057
 21
96.19021692185654
 31
0.0
  0
LINE
  5
1D7
330
70
100
AcDbEntity
  8
Visible Narrow (ISO)
100
AcDbLine
 10
331.2731721737333
 20
43.79066473027172
 30
0.0
 11
331.2731721737333
 21
94.26691038070861
 31
0.0
  0
LINE
  5
1D8
330
70
100
AcDbEntity
  8
Visible (ISO)
100
AcDbLine
 10
338.5312187886057
 20
96.52878755548897
 30
0.0
 11
361.9942198779746
 21
96.52878755548897
 31
0.0
  0
LINE
  5
1D9
330
70
100
AcDbEntity
  8
Visible (ISO)
100
AcDbLine
 10
338.5312187886057
 20
41.52878755548897
 30
0.0
 11
361.9942198779746
 21
41.52878755548897
 31
0.0
  0
ARC
  5
1DA
330
70
100
AcDbEntity
  8
Visible (ISO)
100
AcDbCircle
 10
338.5312187886057
 20
56.02878755548897
 30
0.0
 40
14.5
100
AcDbArc
 50
239.9632787376989
 51
270.0
  0
ARC
  5
1DB
330
70
100
AcDbEntity
  8
Visible (ISO)
100
AcDbCircle
 10
338.5312187886057
 20
82.02878755548898
 30
0.0
 40
14.5
100
AcDbArc
 50
89.99999999999971
 51
120.0367212623011
  0
ARC
  5
1DC
330
70
100
AcDbEntity
  8
Visible (ISO)
100
AcDbCircle
 10
346.0478854552723
 20
69.02878755548897
 30
0.0
 40
29.51666666666663
100
AcDbArc
 50
120.0367212623012
 51
239.9632787376988
  0
LINE
  5
1DD
330
70
100
AcDbEntity
  8
Visible (ISO)
100
AcDbLine
 10
385.5051329879003
 20
43.10968381789044
 30
0.0
 11
362.0681340772693
 21
41.53127368717448
 31
0.0
  0
LINE
  5
1DE
330
70
100
AcDbEntity
  8
Visible (ISO)
100
AcDbLine
 10
385.5051329879003
 20
94.94789129308749
 30
0.0
 11
362.0681340772693
 21
96.52630142380346
 31
0.0
  0
INSERT
  5
1FF
330
70
100
AcDbEntity
  8
Section Line (ISO)
100
AcDbBlockReference
  2
2dTransSection0
 10
0.0
 20
0.0
 30
0.0
  0
ARC
  5
200
330
70
100
AcDbEntity
  8
Visible (ISO)
100
AcDbCircle
 10
385.4312187886056
 20
662.3751415745983
 30
0.0
 40
1.1
100
AcDbArc
 50
270.0
 51
0.0
  0
LINE
  5
201
330
70
100
AcDbEntity
  8
Visible (ISO)
100
AcDbLine
 10
386.5312187886056
 20
662.3751415745983
 30
0.0
 11
386.5312187886056
 21
666.0967314438823
 31
0.0
  0
ARC
  5
202
330
70
100
AcDbEntity
  8
Visible (ISO)
100
AcDbCircle
 10
385.4312187886056
 20
666.0967314438825
 30
0.0
 40
1.099999999999997
100
AcDbArc
 50
0.0
 51
86.14712266621657
  0
LINE
  5
203
330
70
100
AcDbEntity
  8
Visible (ISO)
100
AcDbLine
 10
385.5051329879002
 20
667.194245312197
 30
0.0
 11
384.5738333942161
 21
667.2569654889144
 31
0.0
  0
LINE
  5
204
330
70
100
AcDbEntity
  8
Visible (ISO)
100
AcDbLine
 10
384.5738333942161
 20
667.2569654889144
 30
0.0
 11
382.8312187886056
 21
687.1751415745984
 31
0.0
  0
LINE
  5
205
330
70
100
AcDbEntity
  8
Visible (ISO)
100
AcDbLine
 10
382.8312187886056
 20
687.1751415745984
 30
0.0
 11
380.3312187886056
 21
687.1751415745984
 31
0.0
  0
LINE
  5
206
330
70
100
AcDbEntity
  8
Visible (ISO)
100
AcDbLine
 10
380.3312187886056
 20
687.1751415745984
 30
0.0
 11
380.3312187886056
 21
673.1751415745984
 31
0.0
  0
LINE
  5
207
330
70
100
AcDbEntity
  8
Visible (ISO)
100
AcDbLine
 10
380.3312187886056
 20
673.1751415745984
 30
0.0
 11
377.3312187886056
 21
673.1751415745984
 31
0.0
  0
LINE
  5
208
330
70
100
AcDbEntity
  8
Visible (ISO)
100
AcDbLine
 10
377.3312187886056
 20
673.1751415745984
 30
0.0
 11
377.3312187886056
 21
684.1751415745984
 31
0.0
  0
LINE
  5
209
330
70
100
AcDbEntity
  8
Visible (ISO)
100
AcDbLine
 10
377.3312187886056
 20
684.1751415745984
 30
0.0
 11
373.3312187886056
 21
684.1751415745984
 31
0.0
  0
LINE
  5
20A
330
70
100
AcDbEntity
  8
Visible (ISO)
100
AcDbLine
 10
373.3312187886056
 20
684.1751415745984
 30
0.0
 11
373.3312187886056
 21
673.1751415745984
 31
0.0
  0
LINE
  5
20B
330
70
100
AcDbEntity
  8
Visible (ISO)
100
AcDbLine
 10
373.3312187886056
 20
673.1751415745984
 30
0.0
 11
370.3312187886056
 21
673.1751415745984
 31
0.0
  0
LINE
  5
20C
330
70
100
AcDbEntity
  8
Visible (ISO)
100
AcDbLine
 10
370.3312187886056
 20
673.1751415745984
 30
0.0
 11
370.3312187886056
 21
687.1751415745984
 31
0.0
  0
LINE
  5
20D
330
70
100
AcDbEntity
  8
Visible (ISO)
100
AcDbLine
 10
370.3312187886056
 20
687.1751415745984
 30
0.0
 11
367.8312187886056
 21
687.1751415745984
 31
0.0
  0
LINE
  5
20E
330
70
100
AcDbEntity
  8
Visible (ISO)
100
AcDbLine
 10
367.8312187886056
 20
687.1751415745984
 30
0.0
 11
366.1968828966229
 21
668.4945968489564
 31
0.0
  0
LINE
  5
20F
330
70
100
AcDbEntity
  8
Visible (ISO)
100
AcDbLine
 10
366.1968828966229
 20
668.4945968489564
 30
0.0
 11
362.0681340772693
 21
668.7726554429128
 31
0.0
  0
ARC
  5
210
330
70
100
AcDbEntity
  8
Visible (ISO)
100
AcDbCircle
 10
361.9942198779746
 20
667.6751415745984
 30
0.0
 40
1.099999999999971
100
AcDbArc
 50
86.14712266621657
 51
90.00000000000369
  0
LINE
  5
211
330
70
100
AcDbEntity
  8
Visible (ISO)
100
AcDbLine
 10
361.9942198779745
 20
668.7751415745983
 30
0.0
 11
361.0872023814648
 21
668.7751415745983
 31
0.0
  0
LINE
  5
212
330
70
100
AcDbEntity
  8
Visible (ISO)
100
AcDbLine
 10
361.0872023814648
 20
668.7751415745983
 30
0.0
 11
359.0312187886056
 21
692.2751415745984
 31
0.0
  0
LINE
  5
213
330
70
100
AcDbEntity
  8
Visible (ISO)
100
AcDbLine
 10
359.0312187886056
 20
692.2751415745984
 30
0.0
 11
356.5312187886056
 21
692.2751415745984
 31
0.0
  0
LINE
  5
214
330
70
100
AcDbEntity
  8
Visible (ISO)
100
AcDbLine
 10
356.5312187886056
 20
692.2751415745984
 30
0.0
 11
356.5312187886056
 21
678.2751415745984
 31
0.0
  0
LINE
  5
215
330
70
100
AcDbEntity
  8
Visible (ISO)
100
AcDbLine
 10
356.5312187886056
 20
678.2751415745984
 30
0.0
 11
353.5312187886057
 21
678.2751415745984
 31
0.0
  0
LINE
  5
216
330
70
100
AcDbEntity
  8
Visible (ISO)
100
AcDbLine
 10
353.5312187886057
 20
678.2751415745984
 30
0.0
 11
353.5312187886057
 21
689.2751415745983
 31
0.0
  0
LINE
  5
217
330
70
100
AcDbEntity
  8
Visible (ISO)
100
AcDbLine
 10
353.5312187886057
 20
689.2751415745983
 30
0.0
 11
349.5312187886055
 21
689.2751415745983
 31
0.0
  0
LINE
  5
218
330
70
100
AcDbEntity
  8
Visible (ISO)
100
AcDbLine
 10
349.5312187886055
 20
689.2751415745983
 30
0.0
 11
349.5312187886055
 21
678.2751415745984
 31
0.0
  0
LINE
  5
219
330
70
100
AcDbEntity
  8
Visible (ISO)
100
AcDbLine
 10
349.5312187886055
 20
678.2751415745984
 30
0.0
 11
346.5312187886056
 21
678.2751415745984
 31
0.0
  0
LINE
  5
21A
330
70
100
AcDbEntity
  8
Visible (ISO)
100
AcDbLine
 10
346.5312187886056
 20
678.2751415745984
 30
0.0
 11
346.5312187886056
 21
692.2751415745984
 31
0.0
  0
LINE
  5
21B
330
70
100
AcDbEntity
  8
Visible (ISO)
100
AcDbLine
 10
346.5312187886056
 20
692.2751415745984
 30
0.0
 11
344.0312187886056
 21
692.2751415745984
 31
0.0
  0
LINE
  5
21C
330
70
100
AcDbEntity
  8
Visible (ISO)
100
AcDbLine
 10
344.0312187886056
 20
692.2751415745984
 30
0.0
 11
341.9752351957464
 21
668.7751415745983
 31
0.0
  0
LINE
  5
21D
330
70
100
AcDbEntity
  8
Visible (ISO)
100
AcDbLine
 10
341.9752351957464
 20
668.7751415745983
 30
0.0
 11
338.5312187886057
 21
668.7751415745983
 31
0.0
  0
ARC
  5
21E
330
70
100
AcDbEntity
  8
Visible (ISO)
100
AcDbCircle
 10
338.5312187886057
 20
654.2751415745983
 30
0.0
 40
14.50000000000006
100
AcDbArc
 50
90.0
 51
120.0367212623009
  0
ARC
  5
21F
330
70
100
AcDbEntity
  8
Visible (ISO)
100
AcDbCircle
 10
346.0478854552722
 20
641.2751415745983
 30
0.0
 40
29.51666666666663
100
AcDbArc
 50
120.0367212623012
 51
239.9632787376988
  0
ARC
  5
220
330
70
100
AcDbEntity
  8
Visible (ISO)
100
AcDbCircle
 10
338.5312187886057
 20
628.2751415745984
 30
0.0
 40
14.50000000000006
100
AcDbArc
 50
239.9632787376984
 51
269.9999999999997
  0
LINE
  5
221
330
70
100
AcDbEntity
  8
Visible (ISO)
100
AcDbLine
 10
338.5312187886057
 20
613.7751415745984
 30
0.0
 11
361.9942198779745
 21
613.7751415745984
 31
0.0
  0
ARC
  5
222
330
70
100
AcDbEntity
  8
Visible (ISO)
100
AcDbCircle
 10
361.9942198779746
 20
614.8751415745985
 30
0.0
 40
1.100000000000038
100
AcDbArc
 50
270.0
 51
273.8528773337868
  0
LINE
  5
223
330
70
100
AcDbEntity
  8
Visible (ISO)
100
AcDbLine
 10
362.0681340772693
 20
613.7776277062839
 30
0.0
 11
385.5051329879002
 21
615.3560378369999
 31
0.0
  0
ARC
  5
224
330
70
100
AcDbEntity
  8
Visible (ISO)
100
AcDbCircle
 10
385.4312187886056
 20
616.4535517053143
 30
0.0
 40
1.100000000000005
100
AcDbArc
 50
273.8528773337871
 51
0.0
  0
LINE
  5
225
330
70
100
AcDbEntity
  8
Visible (ISO)
100
AcDbLine
 10
386.5312187886056
 20
616.4535517053143
 30
0.0
 11
386.5312187886056
 21
620.1751415745984
 31
0.0
  0
ARC
  5
226
330
70
100
AcDbEntity
  8
Visible (ISO)
100
AcDbCircle
 10
385.4312187886056
 20
620.1751415745984
 30
0.0
 40
1.100000000000004
100
AcDbArc
 50
0.0
 51
90.0
  0
LINE
  5
227
330
70
100
AcDbEntity
  8
Visible (ISO)
100
AcDbLine
 10
385.4312187886056
 20
621.2751415745984
 30
0.0
 11
377.1978854552722
 21
621.2751415745984
 31
0.0
  0
LINE
  5
228
330
70
100
AcDbEntity
  8
Visible (ISO)
100
AcDbLine
 10
377.1978854552722
 20
621.2751415745984
 30
0.0
 11
372.5312187886056
 21
620.2832109534717
 31
0.0
  0
LINE
  5
229
330
70
100
AcDbEntity
  8
Visible (ISO)
100
AcDbLine
 10
372.5312187886056
 20
620.2832109534717
 30
0.0
 11
372.5312187886056
 21
621.2751415745984
 31
0.0
  0
LINE
  5
22A
330
70
100
AcDbEntity
  8
Visible (ISO)
100
AcDbLine
 10
372.5312187886056
 20
621.2751415745984
 30
0.0
 11
338.5312187886057
 21
621.2751415745984
 31
0.0
  0
LINE
  5
22B
330
70
100
AcDbEntity
  8
Visible (ISO)
100
AcDbLine
 10
338.5312187886057
 20
621.2751415745984
 30
0.0
 11
338.5312187886057
 21
623.2751415745984
 31
0.0
  0
LINE
  5
22C
330
70
100
AcDbEntity
  8
Visible (ISO)
100
AcDbLine
 10
338.5312187886057
 20
623.2751415745984
 30
0.0
 11
333.3698094533267
 21
623.2751415745984
 31
0.0
  0
ARC
  5
22D
330
70
100
AcDbEntity
  8
Visible (ISO)
100
AcDbCircle
 10
346.0478854552722
 20
641.2751415745983
 30
0.0
 40
22.01666666666662
100
AcDbArc
 50
125.158474916089
 51
234.8415250839108
  0
LINE
  5
22E
330
70
100
AcDbEntity
  8
Visible (ISO)
100
AcDbLine
 10
333.3698094533267
 20
659.2751415745984
 30
0.0
 11
338.5312187886057
 21
659.2751415745984
 31
0.0
  0
LINE
  5
22F
330
70
100
AcDbEntity
  8
Visible (ISO)
100
AcDbLine
 10
338.5312187886057
 20
659.2751415745984
 30
0.0
 11
338.5312187886057
 21
661.2751415745983
 31
0.0
  0
LINE
  5
230
330
70
100
AcDbEntity
  8
Visible (ISO)
100
AcDbLine
 10
338.5312187886057
 20
661.2751415745983
 30
0.0
 11
372.5312187886056
 21
661.2751415745983
 31
0.0
  0
LINE
  5
231
330
70
100
AcDbEntity
  8
Visible (ISO)
100
AcDbLine
 10
372.5312187886056
 20
661.2751415745983
 30
0.0
 11
372.5312187886056
 21
662.2670721957251
 31
0.0
  0
LINE
  5
232
330
70
100
AcDbEntity
  8
Visible (ISO)
100
AcDbLine
 10
372.5312187886056
 20
662.2670721957251
 30
0.0
 11
377.1978854552723
 21
661.2751415745983
 31
0.0
  0
LINE
  5
233
330
70
100
AcDbEntity
  8
Visible (ISO)
100
AcDbLine
 10
377.1978854552723
 20
661.2751415745983
 30
0.0
 11
385.4312187886056
 21
661.2751415745983
 31
0.0
  0
LINE
  5
234
330
70
100
AcDbEntity
  8
Visible (ISO)
100
AcDbLine
 10
370.3312187886056
 20
687.1751415745984
 30
0.0
 11
380.3312187886056
 21
687.1751415745984
 31
0.0
  0
LINE
  5
235
330
70
100
AcDbEntity
  8
Visible (ISO)
100
AcDbLine
 10
338.5312187886057
 20
642.2751415745931
 30
0.0
 11
338.5312187886057
 21
640.2751415745931
 31
0.0
  0
LINE
  5
236
330
70
100
AcDbEntity
  8
Visible (ISO)
100
AcDbLine
 10
333.4093091465613
 20
642.2751415745931
 30
0.0
 11
338.5312187886057
 21
642.2751415745931
 31
0.0
  0
ARC
  5
237
330
70
100
AcDbEntity
  8
Visible (ISO)
100
AcDbCircle
 10
346.047885455272
 20
641.275141574593
 30
0.0
 40
12.67807600194536
100
AcDbArc
 50
175.4760204029144
 51
184.5239795970848
  0
LINE
  5
238
330
70
100
AcDbEntity
  8
Visible (ISO)
100
AcDbLine
 10
338.5312187886057
 20
640.2751415745931
 30
0.0
 11
333.4093091465613
 21
640.2751415745931
 31
0.0
  0
LINE
  5
239
330
70
100
AcDbEntity
  8
Visible (ISO)
100
AcDbLine
 10
346.5312187886056
 20
692.2751415745984
 30
0.0
 11
356.5312187886056
 21
692.2751415745984
 31
0.0
  0
LINE
  5
23A
330
70
100
AcDbEntity
  8
Visible (ISO)
100
AcDbLine
 10
386.5312187886056
 20
620.1751415745984
 30
0.0
 11
386.5312187886056
 21
662.3751415745983
 31
0.0
  0
LINE
  5
23B
330
70
100
AcDbEntity
  8
Visible (ISO)
100
AcDbLine
 10
377.1978854552722
 20
621.2751415745984
 30
0.0
 11
377.1978854552722
 21
661.2751415745983
 31
0.0
  0
LINE
  5
23C
330
70
100
AcDbEntity
  8
Visible (ISO)
100
AcDbLine
 10
372.5312187886056
 20
621.2751415745984
 30
0.0
 11
372.5312187886056
 21
661.2751415745983
 31
0.0
  0
MTEXT
  5
23D
330
70
100
AcDbEntity
  8
Symbol (ISO)
100
AcDbMText
 10
339.0923219258855
 20
710.7751416746002
 30
0.0
 40
3.499999940395355
 41
0.0
 46
0.0
 71
     7
 72
     1
  1
B-B ( 1 : 1 )
  7
Label Text (ISO)
 73
     1
 44
1.0
  0
HATCH
  5
272
330
70
100
AcDbEntity
  8
Hatch (ISO)
100
AcDbHatch
 10
0.0
 20
0.0
 30
0.0
210
0.0
220
0.0
230
1.0
  2
ANSI31
 70
     0
 71
     0
 91
        1
 92
        1
 93
       52
 72
     3
 10
385.4312187886056
 20
662.3751415745983
 11
0.0000000000000007
 21
-1.1
 40
1.0
 50
0.0
 51
89.99999999999994
 73
     1
 72
     1
 10
386.5312187886056
 20
662.3751415745983
 11
386.5312187886056
 21
666.0967314438823
 72
     3
 10
385.4312187886056
 20
666.0967314438823
 11
1.099999999999997
 21
-0.0000000000000044
 40
1.0
 50
0.0
 51
86.14712266621522
 73
     1
 72
     1
 10
385.5051329879002
 20
667.1942453121969
 11
384.573833394216
 21
667.2569654889143
 72
     1
 10
384.5738333942161
 20
667.2569654889143
 11
382.8312187886055
 21
687.1751415745983
 72
     1
 10
382.8312187886056
 20
687.1751415745983
 11
380.3312187886056
 21
687.1751415745983
 72
     1
 10
380.3312187886056
 20
687.1751415745983
 11
380.3312187886056
 21
673.1751415745983
 72
     1
 10
380.3312187886056
 20
673.1751415745984
 11
377.3312187886056
 21
673.1751415745984
 72
     1
 10
377.3312187886056
 20
673.1751415745984
 11
377.3312187886056
 21
684.1751415745984
 72
     1
 10
377.3312187886056
 20
684.1751415745983
 11
373.3312187886056
 21
684.1751415745983
 72
     1
 10
373.3312187886056
 20
684.1751415745983
 11
373.3312187886056
 21
673.1751415745983
 72
     1
 10
373.3312187886056
 20
673.1751415745984
 11
370.3312187886056
 21
673.1751415745984
 72
     1
 10
370.3312187886056
 20
673.1751415745984
 11
370.3312187886056
 21
687.1751415745984
 72
     1
 10
370.3312187886056
 20
687.1751415745983
 11
367.8312187886056
 21
687.1751415745983
 72
     1
 10
367.8312187886056
 20
687.1751415745983
 11
366.1968828966229
 21
668.4945968489564
 72
     1
 10
366.1968828966229
 20
668.4945968489564
 11
362.0681340772692
 21
668.7726554429128
 72
     3
 10
361.9942198779746
 20
667.6751415745984
 11
0.0739141992946246
 21
1.097513868314461
 40
1.0
 50
0.0000000000000009
 51
3.852877333785113
 73
     1
 72
     1
 10
361.9942198779745
 20
668.7751415745983
 11
361.0872023814648
 21
668.7751415745983
 72
     1
 10
361.0872023814648
 20
668.7751415745983
 11
359.0312187886056
 21
692.2751415745984
 72
     1
 10
359.0312187886056
 20
692.2751415745984
 11
356.5312187886056
 21
692.2751415745984
 72
     1
 10
356.5312187886056
 20
692.2751415745984
 11
356.5312187886056
 21
678.2751415745983
 72
     1
 10
356.5312187886056
 20
678.2751415745983
 11
353.5312187886056
 21
678.2751415745983
 72
     1
 10
353.5312187886057
 20
678.2751415745983
 11
353.5312187886057
 21
689.2751415745983
 72
     1
 10
353.5312187886057
 20
689.2751415745983
 11
349.5312187886057
 21
689.2751415745983
 72
     1
 10
349.5312187886055
 20
689.2751415745983
 11
349.5312187886055
 21
678.2751415745983
 72
     1
 10
349.5312187886055
 20
678.2751415745983
 11
346.5312187886055
 21
678.2751415745983
 72
     1
 10
346.5312187886056
 20
678.2751415745983
 11
346.5312187886056
 21
692.2751415745984
 72
     1
 10
346.5312187886056
 20
692.2751415745984
 11
344.0312187886056
 21
692.2751415745984
 72
     1
 10
344.0312187886056
 20
692.2751415745984
 11
341.9752351957464
 21
668.7751415745983
 72
     1
 10
341.9752351957464
 20
668.7751415745983
 11
338.5312187886056
 21
668.7751415745983
 72
     3
 10
338.5312187886057
 20
654.2751415745982
 11
-0.0000000000000178
 21
14.50000000000006
 40
1.0
 50
0.0
 51
30.03672126230111
 73
     1
 72
     3
 10
346.0478854552722
 20
641.2751415745983
 11
-14.77471328153897
 21
25.55271920088789
 40
1.0
 50
0.0
 51
119.9265574753975
 73
     1
 72
     3
 10
338.5312187886057
 20
628.2751415745984
 11
-7.258046614872357
 21
-12.55271920088798
 40
1.0
 50
0.0000000000000263
 51
30.03672126230111
 73
     1
 72
     1
 10
338.5312187886057
 20
613.7751415745984
 11
361.9942198779747
 21
613.7751415745984
 72
     3
 10
361.9942198779746
 20
614.8751415745984
 11
-0.0000000000000266
 21
-1.100000000000038
 40
1.0
 50
0.0
 51
3.85287733378511
 73
     1
 72
     1
 10
362.0681340772693
 20
613.7776277062839
 11
385.5051329879003
 21
615.3560378369998
 72
     3
 10
385.4312187886056
 20
616.4535517053143
 11
0.0739141992946635
 21
-1.097513868314492
 40
1.0
 50
0.0000000000000583
 51
86.14712266621415
 73
     1
 72
     1
 10
386.5312187886056
 20
616.4535517053143
 11
386.5312187886056
 21
620.1751415745983
 72
     3
 10
385.4312187886056
 20
620.1751415745983
 11
1.100000000000004
 21
0.0000000000000044
 40
1.0
 50
0.0
 51
89.99999999999932
 73
     1
 72
     1
 10
385.4312187886056
 20
621.2751415745984
 11
377.1978854552723
 21
621.2751415745984
 72
     1
 10
377.1978854552722
 20
621.2751415745984
 11
372.5312187886056
 21
620.2832109534715
 72
     1
 10
372.5312187886056
 20
620.2832109534715
 11
372.5312187886056
 21
621.2751415745984
 72
     1
 10
372.5312187886056
 20
621.2751415745984
 11
338.5312187886056
 21
621.2751415745984
 72
     1
 10
338.5312187886057
 20
621.2751415745984
 11
338.5312187886057
 21
623.2751415745983
 72
     1
 10
338.5312187886057
 20
623.2751415745983
 11
333.3698094533267
 21
623.2751415745983
 72
     3
 10
346.0478854552722
 20
641.2751415745983
 11
-12.67807600194559
 21
-18.00000000000001
 40
1.0
 50
0.0
 51
109.6830501678217
 73
     0
 72
     1
 10
333.3698094533267
 20
659.2751415745984
 11
338.5312187886056
 21
659.2751415745984
 72
     1
 10
338.5312187886057
 20
659.2751415745984
 11
338.5312187886057
 21
661.2751415745983
 72
     1
 10
338.5312187886057
 20
661.2751415745983
 11
372.5312187886057
 21
661.2751415745983
 72
     1
 10
372.5312187886056
 20
661.2751415745983
 11
372.5312187886056
 21
662.2670721957251
 72
     1
 10
372.5312187886056
 20
662.2670721957251
 11
377.1978854552723
 21
661.2751415745983
 72
     1
 10
377.1978854552723
 20
661.2751415745983
 11
385.4312187886056
 21
661.2751415745983
 97
        0
 75
     0
 76
     1
 52
0.0
 41
25.4
 77
     0
 78
     1
 53
45.0
 43
0.0
 44
0.0
 45
-2.245064030267288
 46
2.245064030267288
 79
     0
 98
        1
 10
351.5312187886056
 20
653.0251415745943
  0
DIMENSION
  5
273
330
70
100
AcDbEntity
  8
Dimension (ISO)
100
AcDbDimension
280
     0
  2
*D7
 10
412.8441303039496
 20
641.2751415745983
 30
0.0
 11
412.8441303039495
 21
661.2751415745983
 31
0.0
 70
   160
  1
<>
 42
51.0
 73
     0
 74
     0
 75
     0
  3
Default (ISO)
100
AcDbAlignedDimension
 13
356.5312187886056
 23
692.2751415745984
 33
0.0
 14
386.5312187886056
 24
641.2751415745983
 34
0.0
 50
90.0
100
AcDbRotatedDimension
1001
ACAD
1000
DSTYLE
1002
{
1070
   172
1070
     0
1070
   289
1070
     1
1070
   271
1070
     2
1070
   272
1070
     2
1070
    48
1040
0.0
1070
    47
1040
0.0
1002
}
  0
DIMENSION
  5
356
330
70
100
AcDbEntity
  8
Dimension (ISO)
100
AcDbDimension
280
     0
  2
*D8
 10
300.2917782712036
 20
613.7751415745984
 30
0.0
 11
300.2917782712036
 21
628.2751415745984
 31
0.0
 70
   160
  1
<>
 42
55.0
 73
     0
 74
     0
 75
     0
  3
Default (ISO)
100
AcDbAlignedDimension
 13
338.5312187886057
 23
668.7751415745983
 33
0.0
 14
338.5312187886057
 24
613.7751415745984
 34
0.0
 50
90.0
100
AcDbRotatedDimension
1001
ACAD
1000
DSTYLE
1002
{
1070
   172
1070
     0
1070
   289
1070
     1
1070
   271
1070
     2
1070
   272
1070
     2
1070
    48
1040
0.0
1070
    47
1040
0.0
1002
}
  0
DIMENSION
  5
438
330
70
100
AcDbEntity
  8
Dimension (ISO)
100
AcDbDimension
280
     0
  2
*D9
 10
316.5312187886056
 20
587.0978089679428
 30
0.0
 11
339.0312187886056
 21
587.0978089679428
 31
0.0
 70
   160
  1
<>
 42
70.0
 73
     0
 74
     0
 75
     0
  3
Default (ISO)
100
AcDbAlignedDimension
 13
386.5312187886056
 23
620.1751415745984
 33
0.0
 14
316.5312187886056
 24
641.2751415745983
 34
0.0
 50
180.0
100
AcDbRotatedDimension
1001
ACAD
1000
DSTYLE
1002
{
1070
   172
1070
     0
1070
   289
1070
     1
1070
   271
1070
     2
1070
   272
1070
     2
1070
    48
1040
0.0
1070
    47
1040
0.0
1002
}
  0
DIMENSION
  5
514
330
70
100
AcDbEntity
  8
Dimension (ISO)
100
AcDbDimension
280
     0
  2
*D10
 10
338.5312187886057
 20
606.7454110391879
 30
0.0
 11
355.5312187886056
 21
606.7454110391879
 31
0.0
 70
   160
  1
<>
 42
47.99999999999994
 73
     0
 74
     0
 75
     0
  3
Default (ISO)
100
AcDbAlignedDimension
 13
386.5312187886056
 23
620.1751415745984
 33
0.0
 14
338.5312187886057
 24
623.2751415745983
 34
0.0
 50
180.0
100
AcDbRotatedDimension
1001
ACAD
1000
DSTYLE
1002
{
1070
   172
1070
     0
1070
   289
1070
     1
1070
   271
1070
     2
1070
   272
1070
     2
1070
    48
1040
0.0
1070
    47
1040
0.0
1002
}
  0
DIMENSION
  5
5F6
330
70
100
AcDbEntity
  8
Dimension (ISO)
100
AcDbDimension
280
     0
  2
*D11
 10
392.2523204943185
 20
621.2751415745984
 30
0.0
 11
392.2523204943185
 21
629.7751415745985
 31
0.0
 70
   160
  1
<>
 42
40.0
 73
     0
 74
     0
 75
     0
  3
Default (ISO)
100
AcDbAlignedDimension
 13
385.4312187886056
 23
661.2751415745983
 33
0.0
 14
385.4312187886056
 24
621.2751415745984
 34
0.0
 50
270.0
100
AcDbRotatedDimension
1001
ACAD
1000
DSTYLE
1002
{
1070
   172
1070
     0
1070
   289
1070
     1
1070
   271
1070
     2
1070
   272
1070
     2
1070
    48
1040
0.0
1070
    47
1040
0.0
1002
}
  0
ELLIPSE
  5
6D8
330
70
100
AcDbEntity
  8
Visible (ISO)
100
AcDbEllipse
 10
573.5815508445893
 20
506.2224682163066
 30
0.0
 11
-2.0
 21
-0.0000000000000001
 31
0.0
210
0.0
220
0.0
230
1.0
 40
0.5758617009853119
 41
2.972903479732138
 42
6.451874481037234
  0
ELLIPSE
  5
6D9
330
70
100
AcDbEntity
  8
Visible (ISO)
100
AcDbEllipse
 10
556.752409452347
 20
500.7007005647475
 30
0.0
 11
-2.000000000000003
 21
-0.0000000000000001
 31
0.0
210
0.0
220
0.0
230
1.0
 40
0.5758617009853121
 41
2.972903479732078
 42
6.451874481037234
  0
ELLIPSE
  5
6DA
330
70
100
AcDbEntity
  8
Visible (ISO)
100
AcDbEllipse
 10
573.5815508445893
 20
508.6751095908343
 30
0.0
 11
5.0
 21
0.0
 31
0.0
210
0.0
220
0.0
230
1.0
 40
0.5758617009853121
 41
0.0
 42
6.283185307179586
  0
LINE
  5
6DB
330
70
100
AcDbEntity
  8
Visible (ISO)
100
AcDbLine
 10
575.5815508445892
 20
506.2224682163066
 30
0.0
 11
575.5815508445892
 21
506.036179756243
 31
0.0
  0
LINE
  5
6DC
330
70
100
AcDbEntity
  8
Visible (ISO)
100
AcDbLine
 10
571.5815508445892
 20
506.2224682163066
 30
0.0
 11
571.5815508445892
 21
506.036179756243
 31
0.0
  0
ELLIPSE
  5
6DD
330
70
100
AcDbEntity
  8
Visible (ISO)
100
AcDbEllipse
 10
573.5815508445893
 20
508.6751095908343
 30
0.0
 11
7.5
 21
-0.0000000000000006
 31
0.0
210
0.0
220
0.0
230
1.0
 40
0.5758617009853121
 41
0.0
 42
6.283185307179586
  0
SPLINE
  5
6DE
330
70
100
AcDbEntity
  8
Visible (ISO)
100
AcDbSpline
210
0.0
220
0.0
230
1.0
 70
     8
 71
     3
 72
    22
 73
    18
 74
     0
 42
0.000000001
 43
0.0000000001
 40
2.025462809620215
 40
2.025462809620215
 40
2.025462809620215
 40
2.025462809620215
 40
2.073942239101204
 40
2.073942239101204
 40
2.418389685328985
 40
2.418389685328985
 40
2.762837131556767
 40
2.762837131556767
 40
3.126303251096384
 40
3.126303251096384
 40
3.489769370636
 40
3.489769370636
 40
3.846039136387842
 40
3.846039136387842
 40
4.202308902139684
 40
4.202308902139684
 40
4.44657138861579
 40
4.44657138861579
 40
4.44657138861579
 40
4.44657138861579
 10
582.8568319226734
 20
492.2454906550506
 30
0.0
 10
582.8691373162839
 20
492.1335406873564
 30
0.0
 10
582.877009781366
 20
492.0222712650033
 30
0.0
 10
582.9049967522224
 20
491.1293193193468
 30
0.0
 10
582.7090741264496
 20
490.2942080674521
 30
0.0
 10
581.8394718662331
 20
488.842214346614
 30
0.0
 10
581.164944814804
 20
488.2299775646104
 30
0.0
 10
579.5395106715975
 20
487.369995807129
 30
0.0
 10
578.4772201739197
 20
487.0906441793604
 30
0.0
 10
576.15635275254
 20
486.9323981756176
 30
0.0
 10
574.8971438013016
 20
487.0476189855862
 30
0.0
 10
572.5582114500459
 20
487.4913419227856
 30
0.0
 10
571.3179126195001
 20
487.8456444567709
 30
0.0
 10
569.0200492444366
 20
488.7011074334497
 30
0.0
 10
567.9623358847145
 20
489.1998497977789
 30
0.0
 10
566.5468677918092
 20
490.01496366145
 30
0.0
 10
566.0262407328649
 20
490.3666462404939
 30
0.0
 10
565.6014795500687
 20
490.7192462380034
 30
0.0
  0
LINE
  5
6DF
330
70
100
AcDbEntity
  8
Visible (ISO)
100
AcDbLine
 10
581.0672961293754
 20
508.9412658241007
 30
0.0
 11
582.8573687419439
 21
492.2455346498265
 31
0.0
  0
LINE
  5
6E0
330
70
100
AcDbEntity
  8
Visible (ISO)
100
AcDbLine
 10
566.0958055598031
 20
508.9412658241007
 30
0.0
 11
564.8709654084472
 21
497.5173706396733
 31
0.0
  0
ELLIPSE
  5
6E1
330
70
100
AcDbEntity
  8
Visible (ISO)
100
AcDbEllipse
 10
556.752409452347
 20
503.153341939275
 30
0.0
 11
5.0
 21
0.0
 31
0.0
210
0.0
220
0.0
230
1.0
 40
0.5758617009853121
 41
0.0
 42
6.283185307179586
  0
LINE
  5
6E2
330
70
100
AcDbEntity
  8
Visible (ISO)
100
AcDbLine
 10
558.752409452347
 20
500.7007005647475
 30
0.0
 11
558.752409452347
 21
500.5144121046838
 31
0.0
  0
LINE
  5
6E3
330
70
100
AcDbEntity
  8
Visible (ISO)
100
AcDbLine
 10
554.7524094523469
 20
500.7007005647475
 30
0.0
 11
554.7524094523469
 21
500.5144121046838
 31
0.0
  0
ELLIPSE
  5
6E4
330
70
100
AcDbEntity
  8
Visible (ISO)
100
AcDbEllipse
 10
556.752409452347
 20
503.153341939275
 30
0.0
 11
7.5
 21
-0.0000000000000006
 31
0.0
210
0.0
220
0.0
230
1.0
 40
0.5758617009853121
 41
0.0
 42
6.283185307179586
  0
SPLINE
  5
6E5
330
70
100
AcDbEntity
  8
Visible (ISO)
100
AcDbSpline
210
0.0
220
0.0
230
1.0
 70
     8
 71
     3
 72
    26
 73
    22
 74
     0
 42
0.000000001
 43
0.0000000001
 40
2.133748098838661
 40
2.133748098838661
 40
2.133748098838661
 40
2.133748098838661
 40
2.196467681418421
 40
2.196467681418421
 40
2.563684451975549
 40
2.563684451975549
 40
2.930901222532677
 40
2.930901222532677
 40
3.298117993089805
 40
3.298117993089805
 40
3.665334763646933
 40
3.665334763646933
 40
4.030843298722974
 40
4.030843298722974
 40
4.396351833799015
 40
4.396351833799015
 40
4.761860368875057
 40
4.761860368875057
 40
5.127368903951098
 40
5.127368903951098
 40
5.184153261954017
 40
5.184153261954017
 40
5.184153261954017
 40
5.184153261954017
 10
566.354775461349
 20
483.6706256903609
 30
0.0
 10
566.3714599188319
 20
483.5189672826648
 30
0.0
 10
566.3811100185165
 20
483.3680767905966
 30
0.0
 10
566.3993460113394
 20
482.3447772363793
 30
0.0
 10
566.1772871399072
 20
481.4053147952129
 30
0.0
 10
565.2205929834629
 20
479.7488301155028
 30
0.0
 10
564.4846510000243
 20
479.0367165792814
 30
0.0
 10
562.7535745425149
 20
478.0398559459247
 30
0.0
 10
561.6587518748343
 20
477.6977022360492
 30
0.0
 10
559.2753558142963
 20
477.430756881964
 30
0.0
 10
557.9863966058669
 20
477.500081881442
 30
0.0
 10
555.584367649894
 20
477.8787157844825
 30
0.0
 10
554.3055556835285
 20
478.2125728460973
 30
0.0
 10
551.9418599087592
 20
479.0514053943382
 30
0.0
 10
550.8568205320405
 20
479.5537172492688
 30
0.0
 10
549.1337967738152
 20
480.5459406415188
 30
0.0
 10
548.387621658708
 20
481.0981550787203
 30
0.0
 10
547.3894406611795
 20
482.1952986070784
 30
0.0
 10
547.1365518503146
 20
482.7434893604404
 30
0.0
 10
547.1186400591594
 20
483.3327884849829
 30
0.0
 10
547.1219137911463
 20
483.4128096397042
 30
0.0
 10
547.1309387691347
 20
483.4934872374029
 30
0.0
  0
LINE
  5
6E6
330
70
100
AcDbEntity
  8
Visible (ISO)
100
AcDbLine
 10
564.238154737133
 20
503.4194981725415
 30
0.0
 11
566.3555668658932
 21
483.6707218163668
 31
0.0
  0
LINE
  5
6E7
330
70
100
AcDbEntity
  8
Visible (ISO)
100
AcDbLine
 10
549.2666641675608
 20
503.4194981725415
 30
0.0
 11
547.1302528290528
 21
483.493519117298
 31
0.0
  0
ELLIPSE
  5
6E8
330
70
100
AcDbEntity
  8
Visible Narrow (ISO)
100
AcDbEllipse
 10
564.1508684742031
 20
465.7189277693005
 30
0.0
 11
13.72338581856359
 21
-23.83104449399665
 31
0.0
210
0.0
220
0.0
230
1.0
 40
0.578093115915639
 41
0.0
 42
2.263176179349983
  0
ELLIPSE
  5
6E9
330
70
100
AcDbEntity
  8
Visible Narrow (ISO)
100
AcDbEllipse
 10
564.2031337057503
 20
465.7490253144416
 30
0.0
 11
13.7221451587717
 21
-23.82889005345709
 31
0.0
210
0.0
220
0.0
230
1.0
 40
0.5780931159156388
 41
0.0477315965209319
 42
2.266248787123423
  0
ELLIPSE
  5
6EA
330
70
100
AcDbEntity
  8
Visible Narrow (ISO)
100
AcDbEllipse
 10
580.7755945661217
 20
475.2924708150048
 30
0.0
 11
12.93446766045229
 21
-22.46106597873546
 31
0.0
210
0.0
220
0.0
230
1.0
 40
0.5780931159156389
 41
0.047731596521289
 42
2.262739292197418
  0
SPLINE
  5
6EB
330
70
100
AcDbEntity
  8
Visible (ISO)
100
AcDbSpline
210
0.0
220
0.0
230
1.0
 70
     8
 71
     3
 72
    16
 73
    12
 74
     0
 42
0.000000001
 43
0.0000000001
 40
2.310396602094441
 40
2.310396602094441
 40
2.310396602094441
 40
2.310396602094441
 40
2.319942921398629
 40
2.319942921398629
 40
2.329489240702816
 40
2.329489240702816
 40
2.339035560007003
 40
2.339035560007003
 40
2.348581879311191
 40
2.348581879311191
 40
2.358128198615378
 40
2.358128198615378
 40
2.358128198615378
 40
2.358128198615378
 10
578.5669184586915
 20
442.3257704604095
 30
0.0
 10
578.521923738785
 20
442.2946615358966
 30
0.0
 10
578.4766869032718
 20
442.2639318463899
 30
0.0
 10
578.3857355197132
 20
442.2032359508236
 30
0.0
 10
578.340020971949
 20
442.17326974506
 30
0.0
 10
578.2481208444202
 20
442.1141056487364
 30
0.0
 10
578.2019352649594
 20
442.0849077584532
 30
0.0
 10
578.1090999071251
 20
442.0272849339346
 30
0.0
 10
578.062450129076
 20
441.9988599999546
 30
0.0
 10
577.9686933502768
 20
441.9427875299804
 30
0.0
 10
577.9215863498697
 20
441.9151399942182
 30
0.0
 10
577.874254292768
 20
441.8878832753046
 30
0.0
  0
SPLINE
  5
6EC
330
70
100
AcDbEntity
  8
Visible (ISO)
100
AcDbSpline
210
0.0
220
0.0
230
1.0
 70
     8
 71
     3
 72
    22
 73
    18
 74
     0
 42
0.000000001
 43
0.0000000001
 40
3.972788705085144
 40
3.972788705085144
 40
3.972788705085144
 40
3.972788705085144
 40
4.268880612904068
 40
4.268880612904068
 40
4.582561742557216
 40
4.582561742557216
 40
4.908745610586084
 40
4.908745610586084
 40
5.235649371974822
 40
5.235649371974822
 40
5.561387122782479
 40
5.561387122782479
 40
5.88679828733784
 40
5.88679828733784
 40
6.212949970643831
 40
6.212949970643831
 40
6.217297811523918
 40
6.217297811523918
 40
6.217297811523918
 40
6.217297811523918
 10
594.314870475171
 20
453.2137557958466
 30
0.0
 10
595.6361974353685
 20
454.1273087804438
 30
0.0
 10
596.7294413775546
 20
455.3879014239242
 30
0.0
 10
598.4097584010807
 20
458.5096575628876
 30
0.0
 10
598.9679311928275
 20
460.4007237528856
 30
0.0
 10
599.480481382923
 20
464.6444457788278
 30
0.0
 10
599.4100880882839
 20
467.0142977215811
 30
0.0
 10
598.6377354448015
 20
471.9482308792342
 30
0.0
 10
597.9339201203775
 20
474.5121995796147
 30
0.0
 10
595.9735975056063
 20
479.5698336019198
 30
0.0
 10
594.7192651656114
 20
482.0627498519512
 30
0.0
 10
591.7861726250152
 20
486.7369251746679
 30
0.0
 10
590.1084175223311
 20
488.9176567133714
 30
0.0
 10
586.4870893982514
 20
492.755442138212
 30
0.0
 10
584.5437267365627
 20
494.4108685830957
 30
0.0
 10
582.5327299681086
 20
495.7324969110684
 30
0.0
 10
582.5062672678647
 20
495.7498213904992
 30
0.0
 10
582.4797974690945
 20
495.7670836788216
 30
0.0
  0
ELLIPSE
  5
6ED
330
70
100
AcDbEntity
  8
Visible Narrow (ISO)
100
AcDbEllipse
 10
547.5600212969204
 20
456.164894293006
 30
0.0
 11
-13.72338581856501
 21
23.83104449399583
 31
0.0
210
0.0
220
0.0
230
1.0
 40
0.5780931159156387
 41
3.141592653589794
 42
6.283185307179588
  0
ELLIPSE
  5
6EE
330
70
100
AcDbEntity
  8
Visible Narrow (ISO)
100
AcDbEllipse
 10
542.4278073173755
 20
453.2094488209254
 30
0.0
 11
-12.75162997480866
 21
22.14356320796146
 31
0.0
210
0.0
220
0.0
230
1.0
 40
0.5780931159156389
 41
2.719530401501049
 42
6.705247559268325
  0
LINE
  5
6EF
330
70
100
AcDbEntity
  8
Visible (ISO)
100
AcDbLine
 10
533.8366354783554
 20
479.9959387870018
 30
0.0
 11
547.6053656548559
 21
487.9248231668468
 31
0.0
  0
LINE
  5
6F0
330
70
100
AcDbEntity
  8
Visible (ISO)
100
AcDbLine
 10
561.2834071154854
 20
432.3338497990102
 30
0.0
 11
577.874254292768
 21
441.8878832753046
 31
0.0
  0
SPLINE
  5
6F1
330
70
100
AcDbEntity
  8
Visible (ISO)
100
AcDbSpline
210
0.0
220
0.0
230
1.0
 70
     8
 71
     3
 72
    16
 73
    12
 74
     0
 42
0.000000001
 43
0.0000000001
 40
2.358128198615378
 40
2.358128198615378
 40
2.358128198615378
 40
2.358128198615378
 40
2.442540649033126
 40
2.442540649033126
 40
2.526953099450873
 40
2.526953099450873
 40
2.611365549868621
 40
2.611365549868621
 40
2.695778000286369
 40
2.695778000286369
 40
2.780190450704118
 40
2.780190450704118
 40
2.780190450704118
 40
2.780190450704118
 10
561.2834071154854
 20
432.3338497990102
 30
0.0
 10
560.4885624554767
 20
431.8761292010787
 30
0.0
 10
559.6601384235407
 20
431.476999312854
 30
0.0
 10
557.9701823643084
 20
430.807593583255
 30
0.0
 10
557.1089086083829
 20
430.5372836726609
 30
0.0
 10
555.3869012357847
 20
430.1236071744472
 30
0.0
 10
554.5263196740097
 20
429.9800810877704
 30
0.0
 10
552.8318967279915
 20
429.8073850868082
 30
0.0
 10
551.9980716405989
 20
429.7780360182868
 30
0.0
 10
550.3733706514542
 20
429.8159179856209
 30
0.0
 10
549.582424713971
 20
429.8830232066016
 30
0.0
 10
548.8165800022596
 20
429.9893362598082
 30
0.0
  0
SPLINE
  5
6F2
330
70
100
AcDbEntity
  8
Visible (ISO)
100
AcDbSpline
210
0.0
220
0.0
230
1.0
 70
     8
 71
     3
 72
    16
 73
    12
 74
     0
 42
0.000000001
 43
0.0000000001
 40
5.07765860011643
 40
5.07765860011643
 40
5.07765860011643
 40
5.07765860011643
 40
5.162071050534178
 40
5.162071050534178
 40
5.246483500951926
 40
5.246483500951926
 40
5.330895951369674
 40
5.330895951369674
 40
5.415308401787422
 40
5.415308401787422
 40
5.499720852205171
 40
5.499720852205171
 40
5.499720852205171
 40
5.499720852205171
 10
525.5513307179245
 20
470.3900943663717
 30
0.0
 10
525.8437831825151
 20
471.1058402316713
 30
0.0
 10
526.1827458914772
 20
471.8236165677518
 30
0.0
 10
526.9654737316797
 20
473.2478445957545
 30
0.0
 10
527.4093828342667
 20
473.9542937112816
 30
0.0
 10
528.4092366432467
 20
475.3331285053775
 30
0.0
 10
528.9653281212925
 20
476.0054101651517
 30
0.0
 10
530.1874529850765
 20
477.2871466645063
 30
0.0
 10
530.8535480010439
 20
477.896389932926
 30
0.0
 10
532.2807670018939
 20
479.0220459356944
 30
0.0
 10
533.0417908183468
 20
479.5382181890703
 30
0.0
 10
533.8366354783554
 20
479.9959387870018
 30
0.0
  0
ARC
  5
6F3
330
70
100
AcDbEntity
  8
Visible (ISO)
100
AcDbCircle
 10
552.87510726884
 20
459.2256487416778
 30
0.0
 40
29.51666666666663
100
AcDbArc
 50
157.7751640379265
 51
262.0968204870437
  0
LINE
  5
6F4
330
70
100
AcDbEntity
  8
Visible (ISO)
100
AcDbLine
 10
594.314870475171
 20
453.2137557958466
 30
0.0
 11
578.5669184586915
 21
442.3257704604095
 31
0.0
  0
ENDSEC
  0
SECTION
  2
OBJECTS
  0
DICTIONARY
  5
C
330
0
100
AcDbDictionary
281
     1
  3
ACAD_CIP_PREVIOUS_PRODUCT_INFO
350
6F5
  3
ACAD_COLOR
350
63
  3
ACAD_DETAILVIEWSTYLE
350
6A
  3
ACAD_GROUP
350
D
  3
ACAD_LAYOUT
350
62
  3
ACAD_MATERIAL
350
10
  3
ACAD_MLEADERSTYLE
350
66
  3
ACAD_MLINESTYLE
350
5F
  3
ACAD_PLOTSETTINGS
350
61
  3
ACAD_PLOTSTYLENAME
350
E
  3
ACAD_SCALELIST
350
42
  3
ACAD_SECTIONVIEWSTYLE
350
68
  3
ACAD_TABLESTYLE
350
64
  3
ACAD_VISUALSTYLE
350
29
  3
ACDB_RECOMPOSE_DATA
350
70E
  3
AcDbVariableDictionary
350
6F6
  0
DICTIONARY
  5
6FE
330
16F
100
AcDbDictionary
280
     1
281
     1
  3
ACAD_MLATT
360
700
  3
ACAD_XREC_ROUNDTRIP
360
6FF
  0
DICTIONARY
  5
703
330
172
100
AcDbDictionary
280
     1
281
     1
  3
ACAD_MLATT
360
705
  3
ACAD_XREC_ROUNDTRIP
360
704
  0
DICTIONARY
  5
702
330
701
100
AcDbDictionary
280
     1
281
     1
  0
DICTIONARY
  5
706
330
175
100
AcDbDictionary
280
     1
281
     1
  3
ACAD_MLATT
360
708
  3
ACAD_XREC_ROUNDTRIP
360
707
  0
DICTIONARY
  5
70B
330
176
100
AcDbDictionary
280
     1
281
     1
  3
ACAD_MLATT
360
70D
  3
ACAD_XREC_ROUNDTRIP
360
70C
  0
DICTIONARY
  5
70A
330
709
100
AcDbDictionary
280
     1
281
     1
  0
XRECORD
  5
6F5
102
{ACAD_REACTORS
330
C
102
}
330
C
100
AcDbXrecord
280
     1
300
INVPROSA
300
2015
300
INVPROSA_F_S
  0
DICTIONARY
  5
63
102
{ACAD_REACTORS
330
C
102
}
330
C
100
AcDbDictionary
281
     1
  0
DICTIONARY
  5
6A
102
{ACAD_REACTORS
330
C
102
}
330
C
100
AcDbDictionary
281
     1
  3
Imperial24
350
6B
  0
DICTIONARY
  5
D
102
{ACAD_REACTORS
330
C
102
}
330
C
100
AcDbDictionary
281
     1
  0
DICTIONARY
  5
62
102
{ACAD_REACTORS
330
C
102
}
330
C
100
AcDbDictionary
281
     1
  3
Layout1
350
6F
  3
Layout2
350
77
  3
Model
350
73
  0
DICTIONARY
  5
10
102
{ACAD_REACTORS
330
C
102
}
330
C
100
AcDbDictionary
281
     1
  3
ByBlock
350
19
  3
ByLayer
350
11
  3
Global
350
21
  0
DICTIONARY
  5
66
102
{ACAD_REACTORS
330
C
102
}
330
C
100
AcDbDictionary
281
     1
  3
Standard
350
67
  0
DICTIONARY
  5
5F
102
{ACAD_REACTORS
330
C
102
}
330
C
100
AcDbDictionary
281
     1
  3
Standard
350
60
  0
DICTIONARY
  5
61
102
{ACAD_REACTORS
330
C
102
}
330
C
100
AcDbDictionary
281
     1
  0
ACDBDICTIONARYWDFLT
  5
E
102
{ACAD_REACTORS
330
C
102
}
330
C
100
AcDbDictionary
281
     1
  3
Normal
350
F
100
AcDbDictionaryWithDefault
340
F
  0
DICTIONARY
  5
42
102
{ACAD_REACTORS
330
C
102
}
330
C
100
AcDbDictionary
281
     1
  3
A0
350
43
  3
A1
350
44
  3
A2
350
45
  3
A3
350
46
  3
A4
350
47
  3
A5
350
48
  3
A6
350
49
  3
A7
350
4A
  3
A8
350
4B
  3
A9
350
4C
  3
B0
350
4D
  3
B1
350
4E
  3
B2
350
4F
  3
B3
350
50
  3
B4
350
51
  3
B5
350
52
  3
B6
350
53
  0
DICTIONARY
  5
68
102
{ACAD_REACTORS
330
C
102
}
330
C
100
AcDbDictionary
281
     1
  3
Imperial24
350
69
  0
DICTIONARY
  5
64
102
{ACAD_REACTORS
330
C
102
}
330
C
100
AcDbDictionary
281
     1
  3
Standard
350
65
  0
DICTIONARY
  5
29
102
{ACAD_REACTORS
330
C
102
}
330
C
100
AcDbDictionary
281
     1
  3
2dWireframe
350
2F
  3
Basic
350
2E
  3
Brighten
350
35
  3
ColorChange
350
39
  3
Conceptual
350
32
  3
Dim
350
34
  3
EdgeColorOff
350
41
  3
Facepattern
350
38
  3
Flat
350
2A
  3
FlatWithEdges
350
2B
  3
Gouraud
350
2C
  3
GouraudWithEdges
350
2D
  3
Hidden
350
31
  3
JitterOff
350
3F
  3
Linepattern
350
37
  3
OverhangOff
350
40
  3
Realistic
350
33
  3
Shaded
350
3E
  3
Shaded with edges
350
3D
  3
Shades of Gray
350
3A
  3
Sketchy
350
3B
  3
Thicken
350
36
  3
Wireframe
350
30
  3
X-Ray
350
3C
  0
XRECORD
  5
70E
102
{ACAD_REACTORS
330
C
102
}
330
C
100
AcDbXrecord
280
     1
 90
        1
330
65
330
16F
330
172
330
175
330
176
  0
DICTIONARY
  5
6F6
102
{ACAD_REACTORS
330
C
102
}
330
C
100
AcDbDictionary
281
     1
  3
CANNOSCALE
350
6FB
  3
CMLEADERSTYLE
350
6F8
  3
CTABLESTYLE
350
6F7
  3
CVIEWDETAILSTYLE
350
6F9
  3
CVIEWSECTIONSTYLE
350
6FA
  0
XRECORD
  5
700
102
{ACAD_REACTORS
330
6FE
102
}
330
6FE
100
AcDbXrecord
280
     1
 70
     4
 70
     0
 70
     0
 40
1.0
  2
PART_NUMBER
  1
Embedded Object
 10
34.22301799019188
 20
75.68699284482417
 30
0.0
 40
2.5
 41
181.6575261045072
 46
0.0
 71
     1
 72
     5
  1
494204040
  7
Note Text (ISO)
 73
     1
 44
1.0
  0
XRECORD
  5
6FF
102
{ACAD_REACTORS
330
6FE
102
}
330
6FE
100
AcDbXrecord
280
     1
102
ACAD_MATT_HEIGHT
140
2.5
  0
XRECORD
  5
705
102
{ACAD_REACTORS
330
703
102
}
330
703
100
AcDbXrecord
280
     1
 70
     4
 70
     0
 70
     1
340
701
 40
1.0
  2
DESCRIPTION
  1
Embedded Object
 10
34.09040614630361
 20
65.94981469493413
 30
0.0
 40
2.5
 41
50.87075514884978
 46
0.0
 71
     1
 72
     5
  1
PLASSON END CAP MONOLITHIC 40
  7
Note Text (ISO)
 73
     1
 44
1.0
  0
XRECORD
  5
704
102
{ACAD_REACTORS
330
703
102
}
330
703
100
AcDbXrecord
280
     1
102
ACAD_MATT_HEIGHT
140
2.5
  0
XRECORD
  5
708
102
{ACAD_REACTORS
330
706
102
}
330
706
100
AcDbXrecord
280
     1
 70
     2
 70
     0
 70
     0
 40
1.0
  2
PART_NUMBER
  1
Embedded Object
 10
855.2230179901917
 20
95.68699284482418
 30
0.0
 40
2.5
 41
181.6575261045072
 46
0.0
 71
     1
 72
     5
  1
494204040
  7
Note Text (ISO)
 73
     1
 44
1.0
  0
XRECORD
  5
707
102
{ACAD_REACTORS
330
706
102
}
330
706
100
AcDbXrecord
280
     1
102
ACAD_MATT_HEIGHT
140
2.5
  0
XRECORD
  5
70D
102
{ACAD_REACTORS
330
70B
102
}
330
70B
100
AcDbXrecord
280
     1
 70
     2
 70
     0
 70
     1
340
709
 40
1.0
  2
DESCRIPTION
  1
Embedded Object
 10
855.0904061463034
 20
85.94981469493413
 30
0.0
 40
2.5
 41
50.87075514884978
 46
0.0
 71
     1
 72
     5
  1
PLASSON END CAP MONOLITHIC 40
  7
Note Text (ISO)
 73
     1
 44
1.0
  0
XRECORD
  5
70C
102
{ACAD_REACTORS
330
70B
102
}
330
70B
100
AcDbXrecord
280
     1
102
ACAD_MATT_HEIGHT
140
2.5
  0
ACDBDETAILVIEWSTYLE
  5
6B
102
{ACAD_XDICTIONARY
360
743
102
}
102
{ACAD_REACTORS
330
6A
102
}
330
6A
100
AcDbModelDocViewStyle
 70
     0
  3
Imperial24
290
     0
100
AcDbDetailViewStyle
 70
     0
 71
     0
 90
        3
 71
     1
340
55
 62
   256
 40
0.24
340
0
 62
   256
 40
0.24
300

 40
0.36
280
     3
 71
     2
340
5D
 90
       25
 62
   256
 71
     3
340
55
 62
   256
 40
0.24
 90
        1
 40
0.75
 90
        1
300
%<\AcVar ViewType \f "%tc1">% %<\AcVar ViewDetailId>%\PSCALE %<\AcVar ViewScale \f "%sn">%
 71
     4
340
5D
 90
       25
 62
   256
340
5D
 90
       25
 62
   256
280
     0
  0
LAYOUT
  5
6F
102
{ACAD_REACTORS
330
62
102
}
330
62
100
AcDbPlotSettings
  1

  2

  4

  6

 40
0.0
 41
0.0
 42
0.0
 43
0.0
 44
0.0
 45
0.0
 46
0.0
 47
0.0
 48
0.0
 49
0.0
140
0.0
141
0.0
142
1.0
143
1.0
 70
   688
 72
     0
 73
     0
 74
     5
  7

 75
    16
147
1.0
 76
     0
 77
     2
 78
   300
148
0.0
149
0.0
100
AcDbLayout
  1
Layout1
 70
     1
 71
     1
 10
0.0
 20
0.0
 11
12.0
 21
9.0
 12
0.0
 22
0.0
 32
0.0
 14
0.0
 24
0.0
 34
0.0
 15
0.0
 25
0.0
 35
0.0
146
0.0
 13
0.0
 23
0.0
 33
0.0
 16
1.0
 26
0.0
 36
0.0
 17
0.0
 27
1.0
 37
0.0
 76
     0
330
6C
  0
LAYOUT
  5
77
102
{ACAD_REACTORS
330
62
102
}
330
62
100
AcDbPlotSettings
  1

  2

  4

  6

 40
0.0
 41
0.0
 42
0.0
 43
0.0
 44
0.0
 45
0.0
 46
0.0
 47
0.0
 48
0.0
 49
0.0
140
0.0
141
0.0
142
1.0
143
1.0
 70
   688
 72
     0
 73
     0
 74
     5
  7

 75
    16
147
1.0
 76
     0
 77
     2
 78
   300
148
0.0
149
0.0
100
AcDbLayout
  1
Layout2
 70
     1
 71
     2
 10
0.0
 20
0.0
 11
12.0
 21
9.0
 12
0.0
 22
0.0
 32
0.0
 14
0.0
 24
0.0
 34
0.0
 15
0.0
 25
0.0
 35
0.0
146
0.0
 13
0.0
 23
0.0
 33
0.0
 16
1.0
 26
0.0
 36
0.0
 17
0.0
 27
1.0
 37
0.0
 76
     0
330
74
  0
LAYOUT
  5
73
102
{ACAD_REACTORS
330
62
102
}
330
62
100
AcDbPlotSettings
  1

  2

  4

  6

 40
0.0
 41
0.0
 42
0.0
 43
0.0
 44
0.0
 45
0.0
 46
0.0
 47
0.0
 48
0.0
 49
0.0
140
0.0
141
0.0
142
1.0
143
1.0
 70
  1712
 72
     0
 73
     0
 74
     0
  7

 75
     0
147
1.0
 76
     0
 77
     2
 78
   300
148
0.0
149
0.0
100
AcDbLayout
  1
Model
 70
     1
 71
     0
 10
0.0
 20
0.0
 11
12.0
 21
9.0
 12
0.0
 22
0.0
 32
0.0
 14
0.0
 24
0.0
 34
0.0
 15
0.0
 25
0.0
 35
0.0
146
0.0
 13
0.0
 23
0.0
 33
0.0
 16
1.0
 26
0.0
 36
0.0
 17
0.0
 27
1.0
 37
0.0
 76
     0
330
70
  0
MATERIAL
  5
19
102
{ACAD_XDICTIONARY
360
1A
102
}
102
{ACAD_REACTORS
330
10
102
}
330
10
100
AcDbMaterial
  1
ByBlock
 72
     0
 43
0.0208333333333333
 43
0.0
 43
0.0
 43
0.0
 43
0.0
 43
0.0208333333333333
 43
0.0
 43
0.0
 43
0.0
 43
0.0
 43
1.0
 43
0.0
 43
0.0
 43
0.0
 43
0.0
 43
1.0
 77
     0
 47
0.0208333333333333
 47
0.0
 47
0.0
 47
0.0
 47
0.0
 47
0.0208333333333333
 47
0.0
 47
0.0
 47
0.0
 47
0.0
 47
1.0
 47
0.0
 47
0.0
 47
0.0
 47
0.0
 47
1.0
171
     0
 49
0.0208333333333333
 49
0.0
 49
0.0
 49
0.0
 49
0.0
 49
0.0208333333333333
 49
0.0
 49
0.0
 49
0.0
 49
0.0
 49
1.0
 49
0.0
 49
0.0
 49
0.0
 49
0.0
 49
1.0
175
     0
142
0.0208333333333333
142
0.0
142
0.0
142
0.0
142
0.0
142
0.0208333333333333
142
0.0
142
0.0
142
0.0
142
0.0
142
1.0
142
0.0
142
0.0
142
0.0
142
0.0
142
1.0
179
     0
144
0.0208333333333333
144
0.0
144
0.0
144
0.0
144
0.0
144
0.0208333333333333
144
0.0
144
0.0
144
0.0
144
0.0
144
1.0
144
0.0
144
0.0
144
0.0
144
0.0
144
1.0
147
0.0208333333333333
147
0.0
147
0.0
147
0.0
147
0.0
147
0.0208333333333333
147
0.0
147
0.0
147
0.0
147
0.0
147
1.0
147
0.0
147
0.0
147
0.0
147
0.0
147
1.0
  0
MATERIAL
  5
11
102
{ACAD_XDICTIONARY
360
12
102
}
102
{ACAD_REACTORS
330
10
102
}
330
10
100
AcDbMaterial
  1
ByLayer
 72
     0
 43
0.0208333333333333
 43
0.0
 43
0.0
 43
0.0
 43
0.0
 43
0.0208333333333333
 43
0.0
 43
0.0
 43
0.0
 43
0.0
 43
1.0
 43
0.0
 43
0.0
 43
0.0
 43
0.0
 43
1.0
 77
     0
 47
0.0208333333333333
 47
0.0
 47
0.0
 47
0.0
 47
0.0
 47
0.0208333333333333
 47
0.0
 47
0.0
 47
0.0
 47
0.0
 47
1.0
 47
0.0
 47
0.0
 47
0.0
 47
0.0
 47
1.0
171
     0
 49
0.0208333333333333
 49
0.0
 49
0.0
 49
0.0
 49
0.0
 49
0.0208333333333333
 49
0.0
 49
0.0
 49
0.0
 49
0.0
 49
1.0
 49
0.0
 49
0.0
 49
0.0
 49
0.0
 49
1.0
175
     0
142
0.0208333333333333
142
0.0
142
0.0
142
0.0
142
0.0
142
0.0208333333333333
142
0.0
142
0.0
142
0.0
142
0.0
142
1.0
142
0.0
142
0.0
142
0.0
142
0.0
142
1.0
179
     0
144
0.0208333333333333
144
0.0
144
0.0
144
0.0
144
0.0
144
0.0208333333333333
144
0.0
144
0.0
144
0.0
144
0.0
144
1.0
144
0.0
144
0.0
144
0.0
144
0.0
144
1.0
147
0.0208333333333333
147
0.0
147
0.0
147
0.0
147
0.0
147
0.0208333333333333
147
0.0
147
0.0
147
0.0
147
0.0
147
1.0
147
0.0
147
0.0
147
0.0
147
0.0
147
1.0
  0
MATERIAL
  5
21
102
{ACAD_XDICTIONARY
360
22
102
}
102
{ACAD_REACTORS
330
10
102
}
330
10
100
AcDbMaterial
  1
Global
 72
     0
 43
0.0208333333333333
 43
0.0
 43
0.0
 43
0.0
 43
0.0
 43
0.0208333333333333
 43
0.0
 43
0.0
 43
0.0
 43
0.0
 43
1.0
 43
0.0
 43
0.0
 43
0.0
 43
0.0
 43
1.0
 77
     0
 47
0.0208333333333333
 47
0.0
 47
0.0
 47
0.0
 47
0.0
 47
0.0208333333333333
 47
0.0
 47
0.0
 47
0.0
 47
0.0
 47
1.0
 47
0.0
 47
0.0
 47
0.0
 47
0.0
 47
1.0
171
     0
 49
0.0208333333333333
 49
0.0
 49
0.0
 49
0.0
 49
0.0
 49
0.0208333333333333
 49
0.0
 49
0.0
 49
0.0
 49
0.0
 49
1.0
 49
0.0
 49
0.0
 49
0.0
 49
0.0
 49
1.0
175
     0
142
0.0208333333333333
142
0.0
142
0.0
142
0.0
142
0.0
142
0.0208333333333333
142
0.0
142
0.0
142
0.0
142
0.0
142
1.0
142
0.0
142
0.0
142
0.0
142
0.0
142
1.0
179
     0
144
0.0208333333333333
144
0.0
144
0.0
144
0.0
144
0.0
144
0.0208333333333333
144
0.0
144
0.0
144
0.0
144
0.0
144
1.0
144
0.0
144
0.0
144
0.0
144
0.0
144
1.0
147
0.0208333333333333
147
0.0
147
0.0
147
0.0
147
0.0
147
0.0208333333333333
147
0.0
147
0.0
147
0.0
147
0.0
147
1.0
147
0.0
147
0.0
147
0.0
147
0.0
147
1.0
  0
MLEADERSTYLE
  5
67
102
{ACAD_XDICTIONARY
360
73F
102
}
102
{ACAD_REACTORS
330
66
102
}
330
66
100
AcDbMLeaderStyle
179
     2
170
     2
171
     1
172
     0
 90
        2
 40
0.0
 41
0.0
173
     1
 91
-1056964608
340
5B
 92
       -2
290
     1
 42
0.09
291
     1
 43
0.36
  3
Standard
 44
0.18
300

342
55
174
     1
178
     6
175
     1
176
     0
 93
-1056964608
 45
0.18
292
     0
297
     0
 46
0.18
 94
-1056964608
 47
1.0
 49
1.0
140
1.0
293
     1
141
0.0
294
     1
177
     0
142
1.0
295
     0
296
     0
143
0.125
271
     0
272
     9
273
     9
  0
MLINESTYLE
  5
60
102
{ACAD_REACTORS
330
5F
102
}
330
5F
100
AcDbMlineStyle
  2
STANDARD
 70
     0
  3

 62
   256
 51
90.0
 52
90.0
 71
     2
 49
0.5
 62
   256
  6
BYLAYER
 49
-0.5
 62
   256
  6
BYLAYER
  0
ACDBPLACEHOLDER
  5
F
102
{ACAD_REACTORS
330
E
102
}
330
E
  0
SCALE
  5
43
102
{ACAD_REACTORS
330
42
102
}
330
42
100
AcDbScale
 70
     0
300
1:1
140
1.0
141
1.0
290
     1
  0
SCALE
  5
44
102
{ACAD_REACTORS
330
42
102
}
330
42
100
AcDbScale
 70
     0
300
1/128" = 1'-0"
140
0.0078125
141
12.0
290
     0
  0
SCALE
  5
45
102
{ACAD_REACTORS
330
42
102
}
330
42
100
AcDbScale
 70
     0
300
1/64" = 1'-0"
140
0.015625
141
12.0
290
     0
  0
SCALE
  5
46
102
{ACAD_REACTORS
330
42
102
}
330
42
100
AcDbScale
 70
     0
300
1/32" = 1'-0"
140
0.03125
141
12.0
290
     0
  0
SCALE
  5
47
102
{ACAD_REACTORS
330
42
102
}
330
42
100
AcDbScale
 70
     0
300
1/16" = 1'-0"
140
0.0625
141
12.0
290
     0
  0
SCALE
  5
48
102
{ACAD_REACTORS
330
42
102
}
330
42
100
AcDbScale
 70
     0
300
3/32" = 1'-0"
140
0.09375
141
12.0
290
     0
  0
SCALE
  5
49
102
{ACAD_REACTORS
330
42
102
}
330
42
100
AcDbScale
 70
     0
300
1/8" = 1'-0"
140
0.125
141
12.0
290
     0
  0
SCALE
  5
4A
102
{ACAD_REACTORS
330
42
102
}
330
42
100
AcDbScale
 70
     0
300
3/16" = 1'-0"
140
0.1875
141
12.0
290
     0
  0
SCALE
  5
4B
102
{ACAD_REACTORS
330
42
102
}
330
42
100
AcDbScale
 70
     0
300
1/4" = 1'-0"
140
0.25
141
12.0
290
     0
  0
SCALE
  5
4C
102
{ACAD_REACTORS
330
42
102
}
330
42
100
AcDbScale
 70
     0
300
3/8" = 1'-0"
140
0.375
141
12.0
290
     0
  0
SCALE
  5
4D
102
{ACAD_REACTORS
330
42
102
}
330
42
100
AcDbScale
 70
     0
300
1/2" = 1'-0"
140
0.5
141
12.0
290
     0
  0
SCALE
  5
4E
102
{ACAD_REACTORS
330
42
102
}
330
42
100
AcDbScale
 70
     0
300
3/4" = 1'-0"
140
0.75
141
12.0
290
     0
  0
SCALE
  5
4F
102
{ACAD_REACTORS
330
42
102
}
330
42
100
AcDbScale
 70
     0
300
1" = 1'-0"
140
1.0
141
12.0
290
     0
  0
SCALE
  5
50
102
{ACAD_REACTORS
330
42
102
}
330
42
100
AcDbScale
 70
     0
300
1-1/2" = 1'-0"
140
1.5
141
12.0
290
     0
  0
SCALE
  5
51
102
{ACAD_REACTORS
330
42
102
}
330
42
100
AcDbScale
 70
     0
300
3" = 1'-0"
140
3.0
141
12.0
290
     0
  0
SCALE
  5
52
102
{ACAD_REACTORS
330
42
102
}
330
42
100
AcDbScale
 70
     0
300
6" = 1'-0"
140
6.0
141
12.0
290
     0
  0
SCALE
  5
53
102
{ACAD_REACTORS
330
42
102
}
330
42
100
AcDbScale
 70
     0
300
1'-0" = 1'-0"
140
12.0
141
12.0
290
     0
  0
ACDBSECTIONVIEWSTYLE
  5
69
102
{ACAD_XDICTIONARY
360
741
102
}
102
{ACAD_REACTORS
330
68
102
}
330
68
100
AcDbModelDocViewStyle
 70
     0
  3
Imperial24
290
     0
100
AcDbSectionViewStyle
 70
     0
 71
     0
 90
       78
 71
     1
340
55
 62
   256
 40
0.24
340
0
340
0
 62
   256
 40
0.24
300
I, O, Q, S, X, Z
 40
0.48
 90
        3
 40
0.18
 90
        1
 71
     2
340
5D
 90
       25
 62
   256
340
5D
 90
       50
 62
   256
 40
0.24
 40
0.0
 40
0.24
 71
     3
340
55
 62
   256
 40
0.24
 90
        1
 40
0.75
 90
        1
300
%<\AcVar ViewType \f "%tc1">% %<\AcVar ViewSectionStartId>%-%<\AcVar ViewSectionEndId>%\PSCALE %<\AcVar ViewScale \f "%sn">%
 71
     4
 62
   256
 62
   257
300
ANSI31
 40
1.0
 90
        0
290
     0
290
     0
 90
        6
 40
0.0
 40
1.570796326794896
 40
0.2617993877991494
 40
1.308996938995747
 40
-0.2617993877991494
 40
1.832595714594046
  0
TABLESTYLE
  5
65
102
{ACAD_XDICTIONARY
360
6FC
102
}
102
{ACAD_REACTORS
330
64
102
}
330
64
100
AcDbTableStyle
280
     0
  3
Standard
 70
     0
 71
     0
 40
0.06
 41
0.06
280
     0
281
     0
  7
Standard
140
0.18
170
     2
 62
     0
 63
     7
283
     0
 90
      512
 91
        0
  1

274
    -2
284
     1
 64
     0
275
    -2
285
     1
 65
     0
276
    -2
286
     1
 66
     0
277
    -2
287
     1
 67
     0
278
    -2
288
     1
 68
     0
279
    -2
289
     1
 69
     0
  7
Standard
140
0.25
170
     5
 62
     0
 63
     7
283
     0
 90
      512
 91
        0
  1

274
    -2
284
     1
 64
     0
275
    -2
285
     1
 65
     0
276
    -2
286
     1
 66
     0
277
    -2
287
     1
 67
     0
278
    -2
288
     1
 68
     0
279
    -2
289
     1
 69
     0
  7
Standard
140
0.18
170
     5
 62
     0
 63
     7
283
     0
 90
      512
 91
        0
  1

274
    -2
284
     1
 64
     0
275
    -2
285
     1
 65
     0
276
    -2
286
     1
 66
     0
277
    -2
287
     1
 67
     0
278
    -2
288
     1
 68
     0
279
    -2
289
     1
 69
     0
  0
VISUALSTYLE
  5
2F
102
{ACAD_XDICTIONARY
360
719
102
}
102
{ACAD_REACTORS
330
29
102
}
330
29
100
AcDbVisualStyle
  2
2dWireframe
 70
     4
177
     2
291
     0
 71
     0
176
     1
 72
     2
176
     1
 73
     0
176
     1
 90
        0
176
     1
 40
0.6
176
     1
 41
30.0
176
     1
 63
     7
421
 16777215
176
     1
 74
     1
176
     1
 91
        4
176
     1
 64
     7
176
     1
 65
   257
176
     1
 75
     1
176
     1
175
     1
176
     1
 42
1.0
176
     1
 92
        0
176
     1
 66
   257
176
     1
 43
1.0
176
     1
 76
     1
176
     1
 77
     6
176
     1
 78
     2
176
     1
 67
     7
176
     1
 79
     5
176
     1
170
     0
176
     1
171
     0
176
     1
290
     0
176
     1
 93
        1
176
     1
 44
0.0
176
     1
173
     0
176
     1
1001
ACAD
1000
AcDbSavedByObjectVersion
1070
     0
  0
VISUALSTYLE
  5
2E
102
{ACAD_XDICTIONARY
360
717
102
}
102
{ACAD_REACTORS
330
29
102
}
330
29
100
AcDbVisualStyle
  2
Basic
 70
     7
177
     2
291
     1
 71
     1
176
     1
 72
     0
176
     1
 73
     1
176
     1
 90
        0
176
     1
 40
0.6
176
     1
 41
30.0
176
     1
 63
     7
421
 16777215
176
     1
 74
     0
176
     1
 91
        4
176
     1
 64
     7
176
     1
 65
   257
176
     1
 75
     1
176
     1
175
     1
176
     1
 42
1.0
176
     1
 92
        8
176
     1
 66
     7
176
     1
 43
1.0
176
     1
 76
     1
176
     1
 77
     6
176
     1
 78
     2
176
     1
 67
     7
176
     1
 79
     5
176
     1
170
     0
176
     1
171
     0
176
     1
290
     0
176
     1
 93
        1
176
     1
 44
0.0
176
     1
173
     0
176
     1
1001
ACAD
1000
AcDbSavedByObjectVersion
1070
     0
  0
VISUALSTYLE
  5
35
102
{ACAD_XDICTIONARY
360
725
102
}
102
{ACAD_REACTORS
330
29
102
}
330
29
100
AcDbVisualStyle
  2
Brighten
 70
    12
177
     2
291
     1
 71
     2
176
     1
 72
     2
176
     1
 73
     0
176
     1
 90
        0
176
     1
 40
0.6
176
     1
 41
30.0
176
     1
 63
     7
421
 16777215
176
     1
 74
     1
176
     1
 91
        4
176
     1
 64
     7
176
     1
 65
   257
176
     1
 75
     1
176
     1
175
     1
176
     1
 42
1.0
176
     1
 92
        8
176
     1
 66
     7
176
     1
 43
1.0
176
     1
 76
     1
176
     1
 77
     6
176
     1
 78
     2
176
     1
 67
     7
176
     1
 79
     5
176
     1
170
     0
176
     1
171
     0
176
     1
290
     0
176
     1
 93
        1
176
     1
 44
50.0
176
     1
173
     0
176
     1
1001
ACAD
1000
AcDbSavedByObjectVersion
1070
     0
  0
VISUALSTYLE
  5
39
102
{ACAD_XDICTIONARY
360
72D
102
}
102
{ACAD_REACTORS
330
29
102
}
330
29
100
AcDbVisualStyle
  2
ColorChange
 70
    16
177
     2
291
     1
 71
     2
176
     1
 72
     2
176
     1
 73
     3
176
     1
 90
        0
176
     1
 40
0.6
176
     1
 41
30.0
176
     1
 63
     8
421
  8421504
176
     1
 74
     1
176
     1
 91
        4
176
     1
 64
     7
176
     1
 65
   257
176
     1
 75
     1
176
     1
175
     1
176
     1
 42
1.0
176
     1
 92
        8
176
     1
 66
     8
424
  8421504
176
     1
 43
1.0
176
     1
 76
     1
176
     1
 77
     6
176
     1
 78
     2
176
     1
 67
     7
176
     1
 79
     5
176
     1
170
     0
176
     1
171
     0
176
     1
290
     0
176
     1
 93
        1
176
     1
 44
0.0
176
     1
173
     0
176
     1
1001
ACAD
1000
AcDbSavedByObjectVersion
1070
     0
  0
VISUALSTYLE
  5
32
102
{ACAD_XDICTIONARY
360
71F
102
}
102
{ACAD_REACTORS
330
29
102
}
330
29
100
AcDbVisualStyle
  2
Conceptual
 70
     9
177
     2
291
     0
 71
     3
176
     1
 72
     2
176
     1
 73
     0
176
     1
 90
        0
176
     1
 40
0.6
176
     1
 41
30.0
176
     1
 63
     7
421
 16777215
176
     1
 74
     2
176
     1
 91
        2
176
     1
 64
     7
176
     1
 65
   257
176
     1
 75
     1
176
     1
175
     1
176
     1
 42
179.0
176
     1
 92
        8
176
     1
 66
     7
176
     1
 43
1.0
176
     1
 76
     1
176
     1
 77
     6
176
     1
 78
     2
176
     1
 67
     7
176
     1
 79
     3
176
     1
170
     0
176
     1
171
     0
176
     1
290
     0
176
     1
 93
        1
176
     1
 44
0.0
176
     1
173
     0
176
     1
1001
ACAD
1000
AcDbSavedByObjectVersion
1070
     0
  0
VISUALSTYLE
  5
34
102
{ACAD_XDICTIONARY
360
723
102
}
102
{ACAD_REACTORS
330
29
102
}
330
29
100
AcDbVisualStyle
  2
Dim
 70
    11
177
     2
291
     1
 71
     2
176
     1
 72
     2
176
     1
 73
     0
176
     1
 90
        0
176
     1
 40
0.6
176
     1
 41
30.0
176
     1
 63
     7
421
 16777215
176
     1
 74
     1
176
     1
 91
        4
176
     1
 64
     7
176
     1
 65
   257
176
     1
 75
     1
176
     1
175
     1
176
     1
 42
1.0
176
     1
 92
        8
176
     1
 66
     7
176
     1
 43
1.0
176
     1
 76
     1
176
     1
 77
     6
176
     1
 78
     2
176
     1
 67
     7
176
     1
 79
     5
176
     1
170
     0
176
     1
171
     0
176
     1
290
     0
176
     1
 93
        1
176
     1
 44
-50.0
176
     1
173
     0
176
     1
1001
ACAD
1000
AcDbSavedByObjectVersion
1070
     0
  0
VISUALSTYLE
  5
41
102
{ACAD_XDICTIONARY
360
73D
102
}
102
{ACAD_REACTORS
330
29
102
}
330
29
100
AcDbVisualStyle
  2
EdgeColorOff
 70
    22
177
     2
291
     1
 71
     2
176
     0
 72
     2
176
     0
 73
     0
176
     0
 90
        0
176
     0
 40
0.6
176
     0
 41
30.0
176
     0
 63
     7
421
 16777215
176
     0
 74
     1
176
     0
 91
        4
176
     0
 64
     7
176
     0
 65
   257
176
     0
 75
     1
176
     0
175
     1
176
     0
 42
1.0
176
     0
 92
        8
176
     2
 66
     7
176
     0
 43
1.0
176
     0
 76
     1
176
     0
 77
     6
176
     0
 78
     2
176
     0
 67
     7
176
     0
 79
     5
176
     0
170
     0
176
     0
171
     0
176
     0
290
     0
176
     0
 93
        1
176
     0
 44
0.0
176
     0
173
     0
176
     0
1001
ACAD
1000
AcDbSavedByObjectVersion
1070
     0
  0
VISUALSTYLE
  5
38
102
{ACAD_XDICTIONARY
360
72B
102
}
102
{ACAD_REACTORS
330
29
102
}
330
29
100
AcDbVisualStyle
  2
Facepattern
 70
    15
177
     2
291
     1
 71
     2
176
     1
 72
     2
176
     1
 73
     0
176
     1
 90
        0
176
     1
 40
0.6
176
     1
 41
30.0
176
     1
 63
     7
421
 16777215
176
     1
 74
     1
176
     1
 91
        4
176
     1
 64
     7
176
     1
 65
   257
176
     1
 75
     1
176
     1
175
     1
176
     1
 42
1.0
176
     1
 92
        8
176
     1
 66
     7
176
     1
 43
1.0
176
     1
 76
     1
176
     1
 77
     6
176
     1
 78
     2
176
     1
 67
     7
176
     1
 79
     5
176
     1
170
     0
176
     1
171
     0
176
     1
290
     0
176
     1
 93
        1
176
     1
 44
0.0
176
     1
173
     0
176
     1
1001
ACAD
1000
AcDbSavedByObjectVersion
1070
     0
  0
VISUALSTYLE
  5
2A
102
{ACAD_XDICTIONARY
360
70F
102
}
102
{ACAD_REACTORS
330
29
102
}
330
29
100
AcDbVisualStyle
  2
Flat
 70
     0
177
     2
291
     1
 71
     2
176
     1
 72
     1
176
     1
 73
     1
176
     1
 90
        2
176
     1
 40
0.6
176
     1
 41
30.0
176
     1
 63
     7
421
 16777215
176
     1
 74
     0
176
     1
 91
        0
176
     1
 64
     7
176
     1
 65
   257
176
     1
 75
     1
176
     1
175
     1
176
     1
 42
1.0
176
     1
 92
        8
176
     1
 66
     7
176
     1
 43
1.0
176
     1
 76
     1
176
     1
 77
     6
176
     1
 78
     2
176
     1
 67
     7
176
     1
 79
     5
176
     1
170
     0
176
     1
171
     0
176
     1
290
     0
176
     1
 93
       13
176
     1
 44
0.0
176
     1
173
     0
176
     1
1001
ACAD
1000
AcDbSavedByObjectVersion
1070
     0
  0
VISUALSTYLE
  5
2B
102
{ACAD_XDICTIONARY
360
711
102
}
102
{ACAD_REACTORS
330
29
102
}
330
29
100
AcDbVisualStyle
  2
FlatWithEdges
 70
     1
177
     2
291
     1
 71
     2
176
     1
 72
     1
176
     1
 73
     1
176
     1
 90
        2
176
     1
 40
0.6
176
     1
 41
30.0
176
     1
 63
     7
421
 16777215
176
     1
 74
     1
176
     1
 91
        0
176
     1
 64
     7
176
     1
 65
   257
176
     1
 75
     1
176
     1
175
     1
176
     1
 42
1.0
176
     1
 92
        0
176
     1
 66
   257
176
     1
 43
1.0
176
     1
 76
     1
176
     1
 77
     6
176
     1
 78
     2
176
     1
 67
     7
176
     1
 79
     5
176
     1
170
     0
176
     1
171
     0
176
     1
290
     0
176
     1
 93
       13
176
     1
 44
0.0
176
     1
173
     0
176
     1
1001
ACAD
1000
AcDbSavedByObjectVersion
1070
     0
  0
VISUALSTYLE
  5
2C
102
{ACAD_XDICTIONARY
360
713
102
}
102
{ACAD_REACTORS
330
29
102
}
330
29
100
AcDbVisualStyle
  2
Gouraud
 70
     2
177
     2
291
     1
 71
     2
176
     1
 72
     2
176
     1
 73
     1
176
     1
 90
        2
176
     1
 40
0.6
176
     1
 41
30.0
176
     1
 63
     7
421
 16777215
176
     1
 74
     0
176
     1
 91
        0
176
     1
 64
     7
176
     1
 65
   257
176
     1
 75
     1
176
     1
175
     1
176
     1
 42
1.0
176
     1
 92
        0
176
     1
 66
     7
176
     1
 43
1.0
176
     1
 76
     1
176
     1
 77
     6
176
     1
 78
     2
176
     1
 67
     7
176
     1
 79
     5
176
     1
170
     0
176
     1
171
     0
176
     1
290
     0
176
     1
 93
       13
176
     1
 44
0.0
176
     1
173
     0
176
     1
1001
ACAD
1000
AcDbSavedByObjectVersion
1070
     0
  0
VISUALSTYLE
  5
2D
102
{ACAD_XDICTIONARY
360
715
102
}
102
{ACAD_REACTORS
330
29
102
}
330
29
100
AcDbVisualStyle
  2
GouraudWithEdges
 70
     3
177
     2
291
     1
 71
     2
176
     1
 72
     2
176
     1
 73
     1
176
     1
 90
        2
176
     1
 40
0.6
176
     1
 41
30.0
176
     1
 63
     7
421
 16777215
176
     1
 74
     1
176
     1
 91
        0
176
     1
 64
     7
176
     1
 65
   257
176
     1
 75
     1
176
     1
175
     1
176
     1
 42
1.0
176
     1
 92
        0
176
     1
 66
   257
176
     1
 43
1.0
176
     1
 76
     1
176
     1
 77
     6
176
     1
 78
     2
176
     1
 67
     7
176
     1
 79
     5
176
     1
170
     0
176
     1
171
     0
176
     1
290
     0
176
     1
 93
       13
176
     1
 44
0.0
176
     1
173
     0
176
     1
1001
ACAD
1000
AcDbSavedByObjectVersion
1070
     0
  0
VISUALSTYLE
  5
31
102
{ACAD_XDICTIONARY
360
71D
102
}
102
{ACAD_REACTORS
330
29
102
}
330
29
100
AcDbVisualStyle
  2
Hidden
 70
     6
177
     2
291
     0
 71
     1
176
     1
 72
     2
176
     1
 73
     2
176
     1
 90
        0
176
     1
 40
0.6
176
     1
 41
30.0
176
     1
 63
     7
421
 16777215
176
     1
 74
     2
176
     1
 91
        2
176
     1
 64
     7
176
     1
 65
   257
176
     1
 75
     2
176
     1
175
     1
176
     1
 42
40.0
176
     1
 92
        0
176
     1
 66
   257
176
     1
 43
1.0
176
     1
 76
     1
176
     1
 77
     6
176
     1
 78
     2
176
     1
 67
     7
176
     1
 79
     3
176
     1
170
     0
176
     1
171
     0
176
     1
290
     0
176
     1
 93
        1
176
     1
 44
0.0
176
     1
173
     0
176
     1
1001
ACAD
1000
AcDbSavedByObjectVersion
1070
     0
  0
VISUALSTYLE
  5
3F
102
{ACAD_XDICTIONARY
360
739
102
}
102
{ACAD_REACTORS
330
29
102
}
330
29
100
AcDbVisualStyle
  2
JitterOff
 70
    20
177
     2
291
     1
 71
     2
176
     0
 72
     2
176
     0
 73
     0
176
     0
 90
        0
176
     0
 40
0.6
176
     0
 41
30.0
176
     0
 63
     7
421
 16777215
176
     0
 74
     1
176
     0
 91
        4
176
     0
 64
     7
176
     0
 65
   257
176
     0
 75
     1
176
     0
175
     1
176
     0
 42
1.0
176
     0
 92
       10
176
     2
 66
     7
176
     0
 43
1.0
176
     0
 76
     1
176
     0
 77
     6
176
     0
 78
     2
176
     0
 67
     7
176
     0
 79
     5
176
     0
170
     0
176
     0
171
     0
176
     0
290
     0
176
     0
 93
        1
176
     0
 44
0.0
176
     0
173
     0
176
     0
1001
ACAD
1000
AcDbSavedByObjectVersion
1070
     0
  0
VISUALSTYLE
  5
37
102
{ACAD_XDICTIONARY
360
729
102
}
102
{ACAD_REACTORS
330
29
102
}
330
29
100
AcDbVisualStyle
  2
Linepattern
 70
    14
177
     2
291
     1
 71
     2
176
     1
 72
     2
176
     1
 73
     0
176
     1
 90
        0
176
     1
 40
0.6
176
     1
 41
30.0
176
     1
 63
     7
421
 16777215
176
     1
 74
     1
176
     1
 91
        4
176
     1
 64
     7
176
     1
 65
   257
176
     1
 75
     7
176
     1
175
     7
176
     1
 42
1.0
176
     1
 92
        8
176
     1
 66
     7
176
     1
 43
1.0
176
     1
 76
     1
176
     1
 77
     6
176
     1
 78
     2
176
     1
 67
     7
176
     1
 79
     5
176
     1
170
     0
176
     1
171
     0
176
     1
290
     0
176
     1
 93
        1
176
     1
 44
0.0
176
     1
173
     0
176
     1
1001
ACAD
1000
AcDbSavedByObjectVersion
1070
     0
  0
VISUALSTYLE
  5
40
102
{ACAD_XDICTIONARY
360
73B
102
}
102
{ACAD_REACTORS
330
29
102
}
330
29
100
AcDbVisualStyle
  2
OverhangOff
 70
    21
177
     2
291
     1
 71
     2
176
     0
 72
     2
176
     0
 73
     0
176
     0
 90
        0
176
     0
 40
0.6
176
     0
 41
30.0
176
     0
 63
     7
421
 16777215
176
     0
 74
     1
176
     0
 91
        4
176
     0
 64
     7
176
     0
 65
   257
176
     0
 75
     1
176
     0
175
     1
176
     0
 42
1.0
176
     0
 92
        9
176
     2
 66
     7
176
     0
 43
1.0
176
     0
 76
     1
176
     0
 77
     6
176
     0
 78
     2
176
     0
 67
     7
176
     0
 79
     5
176
     0
170
     0
176
     0
171
     0
176
     0
290
     0
176
     0
 93
        1
176
     0
 44
0.0
176
     0
173
     0
176
     0
1001
ACAD
1000
AcDbSavedByObjectVersion
1070
     0
  0
VISUALSTYLE
  5
33
102
{ACAD_XDICTIONARY
360
721
102
}
102
{ACAD_REACTORS
330
29
102
}
330
29
100
AcDbVisualStyle
  2
Realistic
 70
     8
177
     2
291
     0
 71
     2
176
     1
 72
     3
176
     1
 73
     0
176
     1
 90
        2
176
     1
 40
0.6
176
     1
 41
30.0
176
     1
 63
     7
421
 16777215
176
     1
 74
     0
176
     1
 91
        0
176
     1
 64
     7
176
     1
 65
   257
176
     1
 75
     1
176
     1
175
     1
176
     1
 42
1.0
176
     1
 92
        8
176
     1
 66
   257
176
     1
 43
1.0
176
     1
 76
     1
176
     1
 77
     6
176
     1
 78
     2
176
     1
 67
     7
176
     1
 79
     3
176
     1
170
     0
176
     1
171
     0
176
     1
290
     0
176
     1
 93
       13
176
     1
 44
0.0
176
     1
173
     0
176
     1
1001
ACAD
1000
AcDbSavedByObjectVersion
1070
     0
  0
VISUALSTYLE
  5
3E
102
{ACAD_XDICTIONARY
360
737
102
}
102
{ACAD_REACTORS
330
29
102
}
330
29
100
AcDbVisualStyle
  2
Shaded
 70
    27
177
     2
291
     0
 71
     2
176
     1
 72
     2
176
     1
 73
     1
176
     1
 90
        2
176
     1
 40
0.6
176
     1
 41
30.0
176
     1
 63
     7
421
 16777215
176
     1
 74
     0
176
     1
 91
        4
176
     1
 64
     7
176
     1
 65
   257
176
     1
 75
     1
176
     1
175
     1
176
     1
 42
1.0
176
     1
 92
        8
176
     1
 66
   257
176
     1
 43
1.0
176
     1
 76
     1
176
     1
 77
     6
176
     1
 78
     2
176
     1
 67
     8
425
  7895160
176
     1
 79
     3
176
     1
170
     0
176
     1
171
     0
176
     1
290
     0
176
     1
 93
        5
176
     1
 44
0.0
176
     1
173
     0
176
     1
1001
ACAD
1000
AcDbSavedByObjectVersion
1070
     0
  0
VISUALSTYLE
  5
3D
102
{ACAD_XDICTIONARY
360
735
102
}
102
{ACAD_REACTORS
330
29
102
}
330
29
100
AcDbVisualStyle
  2
Shaded with edges
 70
    26
177
     2
291
     0
 71
     2
176
     1
 72
     2
176
     1
 73
     1
176
     1
 90
        2
176
     1
 40
0.6
176
     1
 41
30.0
176
     1
 63
     7
421
 16777215
176
     1
 74
     1
176
     1
 91
       10
176
     1
 64
     7
176
     1
 65
   257
176
     1
 75
     2
176
     1
175
     1
176
     1
 42
1.0
176
     1
 92
        8
176
     1
 66
   257
176
     1
 43
1.0
176
     1
 76
     1
176
     1
 77
     6
176
     1
 78
     2
176
     1
 67
     7
176
     1
 79
     3
176
     1
170
     0
176
     1
171
     0
176
     1
290
     0
176
     1
 93
        5
176
     1
 44
0.0
176
     1
173
     0
176
     1
1001
ACAD
1000
AcDbSavedByObjectVersion
1070
     0
  0
VISUALSTYLE
  5
3A
102
{ACAD_XDICTIONARY
360
72F
102
}
102
{ACAD_REACTORS
330
29
102
}
330
29
100
AcDbVisualStyle
  2
Shades of Gray
 70
    23
177
     2
291
     0
 71
     2
176
     1
 72
     2
176
     1
 73
     3
176
     1
 90
        0
176
     1
 40
0.6
176
     1
 41
30.0
176
     1
 63
     7
421
 16777215
176
     1
 74
     2
176
     1
 91
        2
176
     1
 64
     7
176
     1
 65
     7
176
     1
 75
     1
176
     1
175
     1
176
     1
 42
40.0
176
     1
 92
        8
176
     1
 66
     7
176
     1
 43
1.0
176
     1
 76
     1
176
     1
 77
     6
176
     1
 78
     2
176
     1
 67
     7
176
     1
 79
     3
176
     1
170
     0
176
     1
171
     0
176
     1
290
     0
176
     1
 93
        1
176
     1
 44
0.0
176
     1
173
     0
176
     1
1001
ACAD
1000
AcDbSavedByObjectVersion
1070
     0
  0
VISUALSTYLE
  5
3B
102
{ACAD_XDICTIONARY
360
731
102
}
102
{ACAD_REACTORS
330
29
102
}
330
29
100
AcDbVisualStyle
  2
Sketchy
 70
    24
177
     2
291
     0
 71
     1
176
     1
 72
     2
176
     1
 73
     2
176
     1
 90
        0
176
     1
 40
0.6
176
     1
 41
30.0
176
     1
 63
     7
421
 16777215
176
     1
 74
     2
176
     1
 91
        2
176
     1
 64
     7
176
     1
 65
     7
176
     1
 75
     1
176
     1
175
     1
176
     1
 42
40.0
176
     1
 92
       11
176
     1
 66
     7
176
     1
 43
1.0
176
     1
 76
     1
176
     1
 77
     6
176
     1
 78
     2
176
     1
 67
     7
176
     1
 79
     6
176
     1
170
     0
176
     1
171
     0
176
     1
290
     0
176
     1
 93
        1
176
     1
 44
0.0
176
     1
173
     0
176
     1
1001
ACAD
1000
AcDbSavedByObjectVersion
1070
     0
  0
VISUALSTYLE
  5
36
102
{ACAD_XDICTIONARY
360
727
102
}
102
{ACAD_REACTORS
330
29
102
}
330
29
100
AcDbVisualStyle
  2
Thicken
 70
    13
177
     2
291
     1
 71
     2
176
     1
 72
     2
176
     1
 73
     0
176
     1
 90
        0
176
     1
 40
0.6
176
     1
 41
30.0
176
     1
 63
     7
421
 16777215
176
     1
 74
     1
176
     1
 91
        4
176
     1
 64
     7
176
     1
 65
   257
176
     1
 75
     1
176
     1
175
     1
176
     1
 42
1.0
176
     1
 92
       12
176
     1
 66
     7
176
     1
 43
1.0
176
     1
 76
     1
176
     1
 77
     6
176
     1
 78
     2
176
     1
 67
     7
176
     1
 79
     5
176
     1
170
     0
176
     1
171
     0
176
     1
290
     0
176
     1
 93
        1
176
     1
 44
0.0
176
     1
173
     0
176
     1
1001
ACAD
1000
AcDbSavedByObjectVersion
1070
     0
  0
VISUALSTYLE
  5
30
102
{ACAD_XDICTIONARY
360
71B
102
}
102
{ACAD_REACTORS
330
29
102
}
330
29
100
AcDbVisualStyle
  2
Wireframe
 70
     5
177
     2
291
     0
 71
     0
176
     1
 72
     2
176
     1
 73
     0
176
     1
 90
        0
176
     1
 40
0.6
176
     1
 41
30.0
176
     1
 63
     7
421
 16777215
176
     1
 74
     1
176
     1
 91
        4
176
     1
 64
     7
176
     1
 65
   257
176
     1
 75
     1
176
     1
175
     1
176
     1
 42
1.0
176
     1
 92
        0
176
     1
 66
   257
176
     1
 43
1.0
176
     1
 76
     1
176
     1
 77
     6
176
     1
 78
     2
176
     1
 67
     7
176
     1
 79
     3
176
     1
170
     0
176
     1
171
     0
176
     1
290
     0
176
     1
 93
        1
176
     1
 44
0.0
176
     1
173
     0
176
     1
1001
ACAD
1000
AcDbSavedByObjectVersion
1070
     0
  0
VISUALSTYLE
  5
3C
102
{ACAD_XDICTIONARY
360
733
102
}
102
{ACAD_REACTORS
330
29
102
}
330
29
100
AcDbVisualStyle
  2
X-Ray
 70
    25
177
     2
291
     0
 71
     2
176
     1
 72
     2
176
     1
 73
     1
176
     1
 90
        1
176
     1
 40
0.5
176
     1
 41
30.0
176
     1
 63
     7
421
 16777215
176
     1
 74
     1
176
     1
 91
        0
176
     1
 64
     7
176
     1
 65
   257
176
     1
 75
     1
176
     1
175
     1
176
     1
 42
1.0
176
     1
 92
        8
176
     1
 66
     7
176
     1
 43
1.0
176
     1
 76
     1
176
     1
 77
     6
176
     1
 78
     2
176
     1
 67
     7
176
     1
 79
     3
176
     1
170
     0
176
     1
171
     0
176
     1
290
     0
176
     1
 93
       13
176
     1
 44
0.0
176
     1
173
     0
176
     1
1001
ACAD
1000
AcDbSavedByObjectVersion
1070
     0
  0
DICTIONARYVAR
  5
6FB
102
{ACAD_REACTORS
330
6F6
102
}
330
6F6
100
DictionaryVariables
280
     0
  1
1:1
  0
DICTIONARYVAR
  5
6F8
102
{ACAD_REACTORS
330
6F6
102
}
330
6F6
100
DictionaryVariables
280
     0
  1
STANDARD
  0
DICTIONARYVAR
  5
6F7
102
{ACAD_REACTORS
330
6F6
102
}
330
6F6
100
DictionaryVariables
280
     0
  1
STANDARD
  0
DICTIONARYVAR
  5
6F9
102
{ACAD_REACTORS
330
6F6
102
}
330
6F6
100
DictionaryVariables
280
     0
  1
Imperial24
  0
DICTIONARYVAR
  5
6FA
102
{ACAD_REACTORS
330
6F6
102
}
330
6F6
100
DictionaryVariables
280
     0
  1
Imperial24
  0
DICTIONARY
  5
743
330
6B
100
AcDbDictionary
280
     1
281
     1
  3
ACAD_XREC_ROUNDTRIP
360
744
  0
DICTIONARY
  5
1A
330
19
100
AcDbDictionary
280
     1
281
     1
  3
BUMPTILE
360
1C
  3
DIFFUSETILE
360
1B
  3
OPACITYTILE
360
1F
  3
REFLECTIONTILE
360
1E
  3
REFRACTIONTILE
360
20
  3
SPECULARTILE
360
1D
  0
DICTIONARY
  5
12
330
11
100
AcDbDictionary
280
     1
281
     1
  3
BUMPTILE
360
14
  3
DIFFUSETILE
360
13
  3
FBXASSET
360
EA
  3
OPACITYTILE
360
17
  3
REFLECTIONTILE
360
16
  3
REFRACTIONTILE
360
18
  3
SPECULARTILE
360
15
  0
DICTIONARY
  5
22
330
21
100
AcDbDictionary
280
     1
281
     1
  3
BUMPTILE
360
24
  3
DIFFUSETILE
360
23
  3
OPACITYTILE
360
27
  3
REFLECTIONTILE
360
26
  3
REFRACTIONTILE
360
28
  3
SPECULARTILE
360
25
  0
DICTIONARY
  5
73F
330
67
100
AcDbDictionary
280
     1
281
     1
  3
ACAD_XREC_ROUNDTRIP
360
740
  0
DICTIONARY
  5
741
330
69
100
AcDbDictionary
280
     1
281
     1
  3
ACAD_XREC_ROUNDTRIP
360
742
  0
DICTIONARY
  5
6FC
330
65
100
AcDbDictionary
280
     1
281
     1
  3
ACAD_ROUNDTRIP_2008_TABLESTYLE_CELLSTYLEMAP
360
6FD
  0
DICTIONARY
  5
719
330
2F
100
AcDbDictionary
280
     1
281
     1
  3
ACAD_XREC_ROUNDTRIP
360
71A
  0
DICTIONARY
  5
717
330
2E
100
AcDbDictionary
280
     1
281
     1
  3
ACAD_XREC_ROUNDTRIP
360
718
  0
DICTIONARY
  5
725
330
35
100
AcDbDictionary
280
     1
281
     1
  3
ACAD_XREC_ROUNDTRIP
360
726
  0
DICTIONARY
  5
72D
330
39
100
AcDbDictionary
280
     1
281
     1
  3
ACAD_XREC_ROUNDTRIP
360
72E
  0
DICTIONARY
  5
71F
330
32
100
AcDbDictionary
280
     1
281
     1
  3
ACAD_XREC_ROUNDTRIP
360
720
  0
DICTIONARY
  5
723
330
34
100
AcDbDictionary
280
     1
281
     1
  3
ACAD_XREC_ROUNDTRIP
360
724
  0
DICTIONARY
  5
73D
330
41
100
AcDbDictionary
280
     1
281
     1
  3
ACAD_XREC_ROUNDTRIP
360
73E
  0
DICTIONARY
  5
72B
330
38
100
AcDbDictionary
280
     1
281
     1
  3
ACAD_XREC_ROUNDTRIP
360
72C
  0
DICTIONARY
  5
70F
330
2A
100
AcDbDictionary
280
     1
281
     1
  3
ACAD_XREC_ROUNDTRIP
360
710
  0
DICTIONARY
  5
711
330
2B
100
AcDbDictionary
280
     1
281
     1
  3
ACAD_XREC_ROUNDTRIP
360
712
  0
DICTIONARY
  5
713
330
2C
100
AcDbDictionary
280
     1
281
     1
  3
ACAD_XREC_ROUNDTRIP
360
714
  0
DICTIONARY
  5
715
330
2D
100
AcDbDictionary
280
     1
281
     1
  3
ACAD_XREC_ROUNDTRIP
360
716
  0
DICTIONARY
  5
71D
330
31
100
AcDbDictionary
280
     1
281
     1
  3
ACAD_XREC_ROUNDTRIP
360
71E
  0
DICTIONARY
  5
739
330
3F
100
AcDbDictionary
280
     1
281
     1
  3
ACAD_XREC_ROUNDTRIP
360
73A
  0
DICTIONARY
  5
729
330
37
100
AcDbDictionary
280
     1
281
     1
  3
ACAD_XREC_ROUNDTRIP
360
72A
  0
DICTIONARY
  5
73B
330
40
100
AcDbDictionary
280
     1
281
     1
  3
ACAD_XREC_ROUNDTRIP
360
73C
  0
DICTIONARY
  5
721
330
33
100
AcDbDictionary
280
     1
281
     1
  3
ACAD_XREC_ROUNDTRIP
360
722
  0
DICTIONARY
  5
737
330
3E
100
AcDbDictionary
280
     1
281
     1
  3
ACAD_XREC_ROUNDTRIP
360
738
  0
DICTIONARY
  5
735
330
3D
100
AcDbDictionary
280
     1
281
     1
  3
ACAD_XREC_ROUNDTRIP
360
736
  0
DICTIONARY
  5
72F
330
3A
100
AcDbDictionary
280
     1
281
     1
  3
ACAD_XREC_ROUNDTRIP
360
730
  0
DICTIONARY
  5
731
330
3B
100
AcDbDictionary
280
     1
281
     1
  3
ACAD_XREC_ROUNDTRIP
360
732
  0
DICTIONARY
  5
727
330
36
100
AcDbDictionary
280
     1
281
     1
  3
ACAD_XREC_ROUNDTRIP
360
728
  0
DICTIONARY
  5
71B
330
30
100
AcDbDictionary
280
     1
281
     1
  3
ACAD_XREC_ROUNDTRIP
360
71C
  0
DICTIONARY
  5
733
330
3C
100
AcDbDictionary
280
     1
281
     1
  3
ACAD_XREC_ROUNDTRIP
360
734
  0
XRECORD
  5
744
102
{ACAD_REACTORS
330
743
102
}
330
743
100
AcDbXrecord
280
     1
102
DISPLAYNAME
  1
Imperial24
102
FLAGS
 90
        0
  0
XRECORD
  5
1C
102
{ACAD_REACTORS
330
1A
102
}
330
1A
100
AcDbXrecord
280
     1
270
     1
271
     1
  0
XRECORD
  5
1B
102
{ACAD_REACTORS
330
1A
102
}
330
1A
100
AcDbXrecord
280
     1
270
     1
271
     1
  0
XRECORD
  5
1F
102
{ACAD_REACTORS
330
1A
102
}
330
1A
100
AcDbXrecord
280
     1
270
     1
271
     1
  0
XRECORD
  5
1E
102
{ACAD_REACTORS
330
1A
102
}
330
1A
100
AcDbXrecord
280
     1
270
     1
271
     1
  0
XRECORD
  5
20
102
{ACAD_REACTORS
330
1A
102
}
330
1A
100
AcDbXrecord
280
     1
270
     1
271
     1
  0
XRECORD
  5
1D
102
{ACAD_REACTORS
330
1A
102
}
330
1A
100
AcDbXrecord
280
     1
270
     1
271
     1
  0
XRECORD
  5
14
102
{ACAD_REACTORS
330
12
102
}
330
12
100
AcDbXrecord
280
     1
270
     1
271
     1
  0
XRECORD
  5
13
102
{ACAD_REACTORS
330
12
102
}
330
12
100
AcDbXrecord
280
     1
270
     1
271
     1
  0
XRECORD
  5
EA
102
{ACAD_REACTORS
330
12
102
}
330
12
100
AcDbXrecord
280
     1
 70
     1
 90
1959938040
 71
     1
  1
3F52FC75-C2F4-4724-8F2A-20FD3BF8E9DF
311
504B030414000608080079711B4B95636459DA000000200100004F00000038383335423239412D373433392D344135432D384546372D4441423735313935394541342F4173736574446174612F446566696E6974696F6E4974657261746F7250726F706572746965732E62696E454E3D4FC33010352C8881817FC01F306E1D
311
5BB61108391F668105B62E9509471BC949ABD8117463E45FC3590DE2A477F7EEFB7D13427E66434A4E105FE82F303EC00063D7BEB45BE83D39C34A7978F40718339D9BA748735AC3BB9F42CA6B4F5D6C21043FC06E8A97FFA357BD4F78CF87EBBC748EF82BC47C6173FC96057C1C357D2225FE6D7F73EF638474C7B42E64C9
311
8DA54A14860A2B2BAA1BA7686D4B2597469AC60AF60C71378D2D445638C95DA524ADB81354282EA876DC52BE7075513ADD98DAB1B49DFAD7C177812DD82C61BD1F36CBD52D4B5D0FBF504B030414000608080079711B4B058B8CB1EB000000300200004500000038383335423239412D373433392D344135432D384546372D
311
4441423735313935394541342F4173736574446174612F496E7374616E636550726F706572746965732E62696EEB606060F80F0540260323103700495E20ED9E9A975A94991C9C9C919A9BA802143076333572733637D575367233D135313732D1B5703372D435327073317672B370B57471634768046B313471713532B5D4
311
35353131D635313332D475727372D13534373670367376B67474B504EA00DBCBA019D37FE8ABC6157B20CD04146B0062181F4C03F940F0C11EA29A8141C08141002C0426541C106CAC2CA046088033B02A030AC2157C6006F21A8018AAF50194E6010A610250382264E08660284CD9E98021862280A91564B406929A0FF62C
311
401E28B6F88038B83CB1243943D7A928312F25350524432B0000504B030414000608080079711B4B88E57597CD3F0000904100006B00000038383335423239412D373433392D344135432D384546372D4441423735313935394541342F5265736F75726365732F33463532464337352D433246342D343732342D384632412D
311
3230464433424638453944462F7468756D626E61696C2F302F67656E657269635F706E67355B773CD4FF1FBF73E71C0E67EF7576C9DEF3EC995D46C6A1EC5046649CBDF79E192942562825CE965D8A868C2842C8DE9FDFD1F7E7F138F7078FCF6B3F5FCFD7EBFDFEC41B196891913091804020321D6D7513FC77D8C5070EC3
311
FFEE51B21F068154CC75D455CC028A3EA68992803810109FDDE5D5CEC5521B28A1B422BF80741695D5B529DA1C2D058AD2388BDA9F476F7C2CADC939304173DBF48A452BF8A700C0C70C3D121C1AA15A5270C22E2B9E28763651F7DA0D12CE11077B2ECD0D560B5E3DE2368B1E65C5E1C87384A4CC5F2D9FB8BE39E9B77C75
311
3783A37998F5CEF1B4FEE553463245C9712270880DF339E0B882A6BA713D865F6F384C842D440934EF264F4A304F8DE4EEFA1E2BF5E2D91F5ADD9613D6E31DDB33ED31DB1D7916CAF091286EA3D31B9CFECB78BB0060245B943C4C040119FF780A74DD308BA9D028678674EB5504ECF284EE814DAED07440BAF649BE4B55DA
311
2890F4D73E2D489A59EE54FDB0A85B59F2F52C4858A02705C4815A792B0C4A996A2023ECB195073E115E3E3647F64243A8338F2000BCB58DA5692C7E7C3D413F963FEDF3CF00FBB0F831A9D51360FECA43819F527B89FA260EB63C5DA676830AA3626A3693B23F1A17A0DFFCE3EE164E31B5365EDF0C89EF64D8E38AB0BA9A
311
1117D7C3A0EC44F44F4023095E80BA610DE336D0F99593A88BFC5306E72DF98F7FD132ED95878DF2964EA7E43071359FD83B2BDF9C6B5BDF768F0F3C0FC351199526F53D9460A34511F75D1B63E488178569472C91A94497807A3FD4A390C6558F26D416365C3656DE6E769DA9D8FC73774E1709812842DD8EF96AED1960F7
311
9D21B395CDDFE6F92CB4EB962A4668C76990E2EF29798C8941D67DA50F4A5F947872460F1F6FDB794E8A29FD7AC0C0D6E0714339CE258FB17AE8535221E3464A10F29A0BE5EEECEFC5675926A89F49EB14E5711894F6586DB5754EB4D5DA9C6437EBA57DB97A24F8B8A8DB295FFD73266CF57E82694DF5166DDF93573AFE9C
311
9C5EB05F8FEF8E89E0A8917B0B3724DB7BEBB53252581EFC3E38166BA131A3A5B42FE2AD00A769BBFA4458D2DE7822F8C4F63D0B8E21B285AE13325F3410A435C648C9D91FDEB109E73CEDA7BC796961AF79175E1A3CE4C5E8B0D009B0C9E29EFD98BC8E97554E3D8D838424E270F7685226E5AC268E021EDE3522D583E8F2
311
0C0BDE2959EF5BBFEEDAB32FE9A3ED0E39F211A86AA9DEBFC68182EDED132AB8BB794442D2D7EA9F4D8BFF52BC4D55BB165124EE90A42D101E67BBBB292FFB4F66DE5BF2300E44546757DA7CEF8932BFC9F92A0707953491A55C5A5ACEDABD9FA1AEA01BAC3DC5A24E22E7C47213493996EFBC369D086ED9397C9BA6C7F985
311
5C7BD5E15BFC8C53DB3D2A4C5901A57ACD2FBDF4D1676E95338B2C2BCE65FDA4C64F5FEFDC7D9CA5AA1FCF11E193F2FDABF0F4916BF13FB916A224380E6462A9815F2300DC49CC4DF8D055CEF76462F4B7A7ACA7365C2707891370BC1D0AA6203C44CCAB47084FEC057F27FFCD57F89B8B9852459798A675C66BD7CE572CAF
311
71FF7E6D7ECF7BF62CAB7B3F1107DCD04DC55A3F9961700286141C94A4F771FEB2BCDA2DDEE0CB0BAE402FF1DB0100F8E475DFFFC074DDB4498AB7D186A7654DDB1CB680D703D47CEB4E72F8CB13D86A4AA68116E26387B93FD6738779B34FEDB8E517EDF2BAF28D9BE93A1D3A164320E07D42E514725C29515FF361754213
311
EDE06B079A2E99EB1CA82A02019EADEEB87B9AF005BD04BBCECB14AACD6B24EFBE482194A97DD32400685FF1FEF1544D1B14EFB1E7F08E6D2CD2AF52DE757F35F5E62332EE88EA26417AD5C3E0E319D68F25414E6D672BD4522B278C57D18F0113921C71D96527E091F00CEB15AE23D24667369BD3CEFA10C7549D930890BA
311
4366F4EBC55F01F746109F98ABCDD5A3EE06619C6AD78AB33E48E4C9BD21BF7478B385EC05C4F8987E2C1BFA0A60EBEDAA0AE0B015C2720ECE180FB6F2DEFBEB822D96338C9B63822183BBF52FB664A7AE57003AABCE512BF77E7E31BDA2E739AC4C131657DDFE5225E900FB56CC01CDE808FA4A9C9DA16AC679656BB64796
311
283D89812B8F91136AE18EE5EBBAF47A73BE3C153EB5D4CD491B4BFB4FE690A4CF9ABA08C0D8AA64220C438C96EA6CA80B58FE5761E697B3A292EB9FBDA502FA863E49FE694ADDFFF9D62C520BDD1A22014147A0903A05B9B729F54272EF83931FEEC057BFF8C8055C279EAC5C0011804828734024F6CFA319C9CC6867C727
311
184465CD9BB7ED386AFFD96B294A85E3802FAE47244602D8273615952B98C4F23F7EAE4463D9D638EEE374A20959E0FE519C4CFB0FBFE5DD80C2AA3F9DB961D1BDE57E67C9BB47B77FDD74EE3094F5DBBE3EBC1FBDB7393F5116263009E2EFE1AF9A221B2AE234C902BF70E9F280ED23E73908361565964333A3F01D0B006A
311
F32FB21AA1316744B489D5A198E85299241735BE559675130955C902A8ED761FC0DBE337A9F91919AF5CE32AF902ADF9AB2615E00E8A94586BA1A90839B61832FF1BFB76D2EFADE6DB1BA04CCAD3DA649E7E2A0219F592E22F2AD54847EEA8E42271011E9074F8F3DD9FBA6CDF88FFC9FC7E811AD1CA8F4557CE4AFC7BBEDC
311
F0114A48689F20A584520C74DA8127124B767E2FB91A6B186246727BE63C9445BAE02088D58B8EFDC0F1072407CD9B89A13F6303B4A928F593AD489B58E6869325790ADC406036C591729FE14021F94B7796BB11848D463536A092A26F077F94639F7CEEE2A724C66EC885F4A24F8B8A0AC321F8FD149BA529460FAA34E466
311
3C02D41FDF80BCA222D42F0ABFF8490F4FA74C673807C2051D8E467B47B616072860069A9A303ABA9B319D58404461401B0A0F9BE5E1E151C14BC33B32ABE03DDE91708DFAEB15E7C0D593C86BB7D7EC17BE56E57975F077BFD5525F3A1A361D584A75E08CF29FC7B44B2B3085014F3A5A14517377C3F6B8F37E59514C3B12
311
F8AACDEDDA4DFC49BE5710101534CD6FB6DE15B50F11A09472AABA727F0C49D9CB906B158030065F48EB3625E010CEC1D511D0053474B11E6A4F01C0D6EF1BED3A944FDEC70E0DDCDC756C86545910E0DAE3BE3AA9A404574C2995CD5CAF9549226BC94B4F4F0F5F9086F418F6B32346464610D8BC7391D3C3A3CCF04CFC1F
311
B2A3A3170E369511868F14EEA4E5E438CC73DB1F3248AA94B6B2FF33B222FF3D1E7BF146CAD229770158063BCE4F5391964DF62F7E52A7BE0EEA829C9E13C4C147D6F93FE59E111DAB5E4594D6F3CD1AD375EE039930EFE5AF2BB2D41C83C7DABD8C659BAFBE8FAB392CA634F3D15C1D945DB4588D2B0824A4EC928AAC5655
311
57CA2F0DAA588CA5BE30B3A8004F7BF005E96CBF891D7F18112A3619FDF530DC8AA64954258E1811789B5189B49B4EB53F5F89F7D37523894F3EB57B373763C91E502F52CC99EB7BDDF933FC324C4FFC2561DFFA7339FAFDD0A4BFBE6D3A8FF9ED1FC49898139864602458968913181918F719CCF5A68B2EE9C1FF050E34E6
311
3107003B8120FA982C21B30A874E4F5E4B38D5A8290C4B8D9BE48A0BE31EA995BDC37AC6DE90BA17D259DEF53605D55922FEB1855D915B659FBEB350EE0DFB2F9F766E1C84CC8964B75D08667445EAB966015F63A18A9E0A325C1B3DC628C0D3CB60F767FA93CC65F25458BD23C3B312716E5F40E5858AC06EBA9AB14F95DB
311
99147B832069201541D09A0D856E12C629CF32683760EE855537D1901988D5EBC156676C7DD51D7207CF3267AF1D76C2AD867315E44618015313A98B19941C696FED3461CAA9B5415F918556D7802EDACEFD6B2E45853A9735DFC9DBF7E440F9319F8B6805A973BCCDC76C069A9144E51F187EDCC12FC31B5DEAAF0A761371
311
99B106EC84ADA6B6EE697D4E6A96E007417F4E880E8B1E89B4BCE9D81EF611E2ED8F0C1A6C25F620FAFAAB656A7C42D464880E8AFAB0E0FC8EA38CA9A8AEEAEE3E4648BA4680270A89743CDD3E6C6CBF34B7B640EFA285ABC7EA0A1E28F3CC963D114A80123EE66D0AF7D5380EB41909B605AB4765B709B808590458157E69
311
BA1378FEC4B48CAF6A730E3BE3C5EF2DD1A5EAF94B1DDE50CEB55DDFD7EE9A16747FA4B223359FB1FCC69E1194892BABB93A1D5C4E807AC0EA2E30180811E77A2291F6E7F7FAA5E0F60215BC6024E48DE436C511F0628B8CA189982D4D83CCA17D305A7E923C37941CFDFDCD93ACAF735EF5F0E61BBD3E6C41A59B242790D3
311
A3BAC7064DCD89AA2E37214EC839820949D5CAA31E240D2948E48F690298974A96BA9A8432BC90F5071D6537C9666EA4564796B7AFFFA548077BEEA75F63083435074BA182F3699557397F71548383FDA8CA34D99B981E72835ECDA5DDDC151315173D05A21F651AAF8524E88209E2E7A737ED1045800CE3390050BCFB8BE5
311
88DF111617874C62575039CA588EEFDEFEFE319B739DE2EDC147092A262611E159650E787917885EF08F1F51B8F2D8A71D60B58B190FEF9541A1BE94BC19FEA50784DA1419FE4B0FB51B8D36B5FF8E1286FD8AF42B91E59A5F1CC4D60174E764045FD8C57B18209B217F89A62252BD20BE0E63E12B8E8F029FE19E0E8D0870
311
F58721A557082250D5424F7909369376E41666C0EE77CD87CB283F661D5FB6D0DA023CB67320A20DC7BE661E9E1BFE5463085C557DA1FF9BE835733766C3D139F2CF9E2208873AD0EB4814DE9E6BF2CAF81614D4D43906ED1C05A3265CABBFE192770FC2F64F940CB6B17B5F166F133C9AEEAD2641807C3E69515171DD74C4
311
A85311513D6EC9530B3B601B6BA3EBFF3B5C3D2F7D69765141E345F75433953D013ADDF8F6AA7DC3F4A7563FE5C7D367937E2900D7EAD0F9FC9A4A1A9B5BDF1FEF08532660C01C5D6DE22199AA774383E306DAB87E301ABB7D213887F9869D4942D0D71E94B27EDF216A318BD488D45DF84529EF575AF3C3938C0AAA0215B0
311
1994153E2054A0B894DA5C784980633AAD48576957CF4AEAEAFADC7C587368551C73DBE1E57C58AC713303A8BFC258BD04B51724459FF9E24C03A81E0E0679CEB9B348C0DC998FEB9C6D6EFA77D247CC8F92D3848599ED89A23218D0636465AD1CEEB7DC140D7426F83491C4E8E8281C2FB35240918FFECE880CA2A42D70E8
311
B20B34DF5221C7DB0CF90ECCB9C745B37A47E9B716FF7A97B7A252C1F3814DC7B1E1A7F72B8751D524EF7CAE45B0C73B3BE7D08ED39781B380DDFC9AA4A4749C9493DB5BAD07A6EA6C092FBD0E85DB004DF06B8C9D3089C5320187E4CE1846158C7EA7DDAE8AD9AFFF21AA3A1026BB06A259845E8232DEE62811A4DA9CEAB3
311
A4887320B76E2AE5615EAB7BDF738CBDD01F1E64064BC13D9EC53576751CA8CACD58B3CEB0E6CA585BD089B2A59B9FC101403387AADBDBE70586B93D64BF3AD4453EF9C3B6A93817E8346991798601344F79A83C51F3D50F7BF2683A3605F51A72449489E0EE6169C749C60B1035651103AEE24D24E51A759C840DD3FC6504
311
DA6FE107510E447B43461C79D22970B75DE5E1BD3007D1AFC619A4A4A69B5626AF5E9B8374E20677F77E2F8E73DF868E8BEC7EBA7B6A75EEF7205E1AB9486CB642741D6E03FF13FCCEDB1C4AC129886268B01CDF4B124AF797CF784F3C6DEC97A17D4B558070A0F1C04DA4FF9BDBF34159AEFE958479824B3F58EBD1E19088
311
A2AFDE501B6F2052368A3FD0E650A179EFAB1561E1D27527077136E652676C3670F42DCB3352F48F6BC86D2C3B0051727E41A0A4DC6CE2BE9D47F5CAA2935A3C0539AF080665997194ABECD723B08129CC5B6B21D2E7D54CD4D12610E7E9FB8306771A89576C7A982002775ED44F3F744CF21EEBB27A631671D921938AAEE3
311
EB0D19CD1E083727F607823E817BF599DCED5394E37EEBC2E88782E638920CA641EF74D4CDFCDEF06F4278ECB18E31E7E9876F2D783C8BF429C75395F57E98C2B495A3DA077EB3AC3C158608B6B57FE3EA48484D9A480096FCEE0DE880950E7E5A5714131C5C41AAA29FD19AE81AC145FA1B9E85C7169A5AB837B213493DF7
311
E9AA4B5FBF9CDEB36EBD21EF1181B7CF7366AB2A951D01E37AF4EB835D1BE8C117CFBE7625D2EBCDB0B20C5A4B45CED0BCDE3EE8DA9DA78C2E21DEAAFFD1197E463C33CC6A80FB785669B856EFF7A8CCCA2841B5A5369173320B1170C368B2748D81062EA0296E5E2D95D7667A4A46D98A6FF475C76AAB0A8C8D45E226FAFC
311
9FE0133EA9F60111F99CA81ACE03A1D14C89E8B0D69079C91464FA1D99E651D0EAF606F345C42A8A1AA9BA391031582B96D5B4176A77AADB01F12FD298A75DEEBB2C82F0B8650E880722F8DDD90C56A7A058E5FDEF1AC93545BA27367C76F5D8F9690CB6F8DAE141EDD7971F0FB548A2AE435F224D6E5954CA155512F73320
311
29D5A1230854B79F258EC5FFDB09F5F6343A8EB193229B7F7E79B3E48F8E183860B38C8269D1B53738FF1E0BACF6AADA6D4869E9DE708E79B5DADCC09B1BC76F649731CFAF59A83FD8BAE4C749D66FA87A3810D4D62FFE826FA400C0F325D2BC0F3CA35F5847B82A2ACC7961745C823E4D863D54460AF792CE6F79B5C7A33B
311
25C3AEA6CDE15A919B6367D781E9D44F61BF828672594A3E1D9EDD6DF179A81F27EAC05B936575D73E05C209DDD2115CFB705DF9BBF3C911589B3640735E9E618FC9C36A7326C82B2205E244C55D56FDB9D5DC93CE958D4BF8174D2B3DA54CB3C09F2C2A6DFF73D23B2197355761AD421EC581284A7EF8DE2CE3497C0C804D
311
49B41DFD6A7360844E5BEFFB495CFCDB97A4595911CDBA623274CE852B5E278AF0BEB1770E9D37CD977B2766A7DED0E94B840E1E95E8C77DE5CB6354AF7871427C28ADBEEF7BA0A28E19DE9ACD75F379FE373EAE6DDDAE3834692F9C2B03B4FCA8FCA9ABE8EEEBEBB725B88A7C90941E850682CA04061A7DF0CE82ED49BFAF
311
FD42C309818FAE14755CAAE78B0F73243ECCCAD7DF58FCB9CDFAE7A4D3E6671A613639130D056C8383C8F4FCF4808C331E544DD26E4755D09EA05253B3049A1E32587CC25D72E073E2CD96D04A71BBCB0038FEC3F53D254199C3CDC67CD66640269431860225392B2CB3ECD0B4498AAE78BA1994246AE1EE78F2EDFB79F6C6
311
CB6B5E279C4D373FBC21CB2698C9ACBBEB6A4BB6B39E16AB0E421CCBFC7654D81ED86022F9BB522146F9F4772E2D0E4FA70120C95A85A417BF5078B232F4754363EB1750B2AC2148EB46B1EA72AD9B4D23ADCBC589D70106C3EC2ABEEED84DFE28E718C6C83502C28E9FDD3B09DA0A6F6F7B72B706A31C9E2A331EE70DA56A
311
083D2177BFD63C55B11D8D949FAFCF90B23A1E24B9B5018B9A17E99F2890EC302F330FE7936E2C23F0D237EC8916F5166AB84B62A21BB0B950146962D754F92CC2C8877BED8FC7B7B25726DD19545392570B3A2C66B58F027BEF412E552D12A588C4A3CC5C3193FCB3485EFFF700D0B9EEC077754A33DC1FB9E25AF814628F
311
91DDFECB667D3F7690803F38D13F8AE39353523BB08FC6760144AFA2CE28236F65EDBB3D5F59A57D612B99E3D7E5F8A851666BF9B5A6658EFC96EEB37A378ABB0EB3FDDF1303AF32C41BD1C8560745D7BD81066B0D6313359CF488563D3BA3F8E2185D1FAA3EBA1397C9D0E3DD232180A4DCADB6AF25DB3AC3CC26589C8239
311
E66E81547BC7E2F328F9884764CA37EB5DBE390DFC03A5246B456A7C3684C4377D0EEF9A350680FA9A077E8B2957B489E09AB1AD41316944C2254B5984830F691C93CAA767EECF976FA5647538830B5E63236A6F0365C1E0F3E327F24FE35EDDBD7360B0F7374837409F7A6311BECC12B7026D4FA1AE204FA3F5FE904B1F42
311
0C7A9044AE58E403E7C4848E7DA25DC9EDAC79DD756FAA26B9EA83ACE8A214A2612A22AFA19DAE7DBAC5F8CDE1292A485F98DAC731A29FE01A3966E96BCB9FB5A4C8830E1B9AF0C54B87FBE221A097036E5D28D1F869F810C06A9BB0AC0612F69AEBAF893C6E7AD59460208BAB3A6B09CA4F6BDDAB8CF0D1F84B7248749839
311
5A70DCD754796E271099A567A55CF242BBED64696378BB6CF25EF0FCDB589F3A82F1116D010A9AB9FA4358809EE0C973A2B4229BAA876A70B03AB49CBA7FBE71DB1832FFD32F9BF2C8E98075CACAFB36921235D0F552B6A67E94E094097A5D7DF681B40623DA535ADA7A9AD8E9A62407D7C9A5AE51D62A17A83A23728DE86B
311
B56115804D3F2675F2C6B87541A0FC497BF0CA86420F558C9859EBE9FAD62747E323E3AADC03FDCDDFE7407B09DA90B44E3185723C5381EAEF589765E2F7A099BA46695BAD60CEF3491B8A171F5F56444F7CE9455312C3498C74173AEA0214EC029833B34B650CBB5A5508D5091665309642791708ECF27CF11DB3D797D6CF
311
E474453BD4BFADB768094B2147814D81C7CBAF8228DCAF5564B5891F5EF6A860EB2E323CB82AB868D8EA048880D63B0DE5341F1B3D53297B928A11E15F25E5148990F710747C3509ED14909C552EBE3973246FCE55D00564D8310BC3EBC5085D08D806799B77D6C57FDF5E55837F9E934F09C03C729271B64F12D0A9F9E938
311
107CAF7BF1EC8CF1BB9B42363D33070F4CACB425E605DDB0A34A12BB936DE286B9887A4E2E558F0886498BFF49C311D96C277CF6A9FC0D75AD0ECC5226D7E0E3572012E56D7FDE4410CEC7A6D0F997F225A2055B8B92E3956E875AE4993CB3D4C9063AF98FD45E1BAB165640A43439A2C9181A7C355B297C0A0CCFFAE19B6F
311
A3C2BA238A885FBC98B8F6DAF4B94B97304878DF4D8BFF6A4AEDF79E90ED4E68F00CD7299F4E0D83E35601AF0CBEF18C1E870E74758FA91F5131075004DB3CFCF09AE1DABC11957FD9808C92E8A678CE9DBE40DDA0E0D1D505AAFBCBA208232BFB6FB3704E8985E61ADE53DE74152F5C7DE74B1DEDCD37DC3E8FB30D7EBA8B
311
9EFFC3606BF90B8D438279CB7709FC7C00D327F41817EEA71CD9E49FE9C8C9A81C70915D9F0F15958EC5AA4C3BBFAF46986B90F188BDB24B89DE3C6F29EC3E6F66D84856EE96A35E657CA41B41EFD8DBFA16AD6E91439EA92B40B21C053249F51AE50EB0B24C770FFAF40DF12C8436366819C48E36547D4E7B72FE2BBF1082
311
8583057814A668BDF183F6B2E58DFB151103E56303E63D00F39C27C4661605DB644D19175D02E3F0241E8FC3458D17AAAADB117CE9EEA690D0DB01E634878C04C2C9310B69FCAB831151E3AD293BEF6E46B0ABCECB50F5939B39C613D41E81FAE8D34CAE3C4566B761D37185FE864AC32FCB71AEF39DAA5BAB88609BB980CD
311
2F07A8F941653B529567726E2B2A58D079DD57E1E5E31426CF184A04D7B03B985F276D47406AF276FE32E3328BA866EB1FD39BEF57863A317634AA5FE467409B3873F5069EF0D71AF00AD189D17BA1974ECDB2D623E9E14086386A6AAB5807825C37B015BFE892AFD154920EC437EB945D958E18622E1E0FE2FA06557CE4BB
311
9BBD05A2D40E774DA2B65473791E314B7D6C886820B2FCFE4AA272B3B8B15E7344A145E8AF919B5454D89D36D413E87211186BF6F645E5EC94DCCE8E1C799022E4EC9BC86D7A0F2AFB1FC4B2CE48F84B3F49ECE65BAD24CADCC07EFF39AB06BE9E6B27A059938EA7208838455383DDBCFCD967DDE4650EF92A14FF933C975D
311
B20BD7FEEBC4487576485963D757D16340D9599FEB362F775F38CA4185A86F74B629C81B133644A3B18FD056E997E0734F9BE26D11C0AAFC669E2AC9FC41D281F8B2E1C35AE27BCE05F3DA295488096688719D974DF1B5D182DB7792288697F8763CFB43562C1CDEE11C4AABD5C22B6E33F6F389CFC3477C5919DC0D533F8A
311
7A1846B7ADB60ABDC26C43D0CFC8910B7C15EE22675BD02702ED39DB77A87A192CA7A543E6205B979B9F5A6B512A3CA799E198B2D5797C0AF8D1D872CA455D4D431A7879D4DD76110B5FF7F4176B54477A9EB5E4A5D11214FDA585F0382751D8E2582BA5D2075053298FEB8F1537304E32CB22C2E2B693DC0A760B1DFCA751
311
BDC445AFDCBB12820ED85F6D5298933C7EF1211E9E057684056CDA3FEF3BB6052355E162DF27C59E965A8DDB7F9437EB72CDDA3A090DE65A5B2F50326247B7EC67B73ACC7047FC9B353D6EE990F772207C6EC52B39DC2F3C0754821DAB559F7C1809C7D0DD5B0499D0442E0A6E391B3D5DB46D11E731E6794EC77523FBDAA2
311
42ED67F9FA1FB684255671F63C9BCFE6E7E896D51001A6113EF2298BA494E0B0980D1FA5B9D60796554C02256B1E0345FB7C6186B6A19D2DCA270416262845FA4F42DB5D9B0A0B6F07FCA2E56C242522E001E0CEB734AF310FC8BFB57E38E03AACE93B3326A2197891E68452B26A6307FDABFEE0223D3C03C3C73D2D5BC054
311
C8311F12004CAE488E5C29287F8156A2CAA4AD0D7BE6B97264E4139F437CE73ADF52E5134C52B819777C18B323A5924E4F67AFD13B1CDC3A61793A79FAF5C0CEB718E441071E797C6DCCB9EFCF7E4A1E9F3DF3C2F9C9E8294E9586868788C972857FB0556D7A26941A7EEB9B580AD78EC40B85DC906B4120A563CA3B87797E
311
D612D3B035962BB75F6515A393F4CB057F564CDF54F2E5A024514E6A1F901DB80C7E70B1FC05E356A7E72FABF4775B3E3FB8F70A2A8E7B6A94542BB304157978CCC999E707A29CC795E67A59CC546A5D47B368954CA7B6E75EC9E1F6FC73CE3B4F71F8CB1A6B15923D61EAAEB14626AAA9D04A26EB9C66CD1BE86CA31A5D87
311
03DE04CD1EBCE4F5CCB62F93909AD11E55799A781A956ED27D3E738F4538CB04ADABC7DAEF20BC35BA6A90BCC1DC61BA05F20D8832FFB9BC9B15E2DB838A0AFBB7E0C82A562127E0446894F427794C3037186F622BF24DE1B00AA10A23BFA47B2A180D6DA5AD6F7326FEB8C100C2D7142EB2A0B2A9D1008A09BA343D70E054
311
AB69E2A7EDB783CBD92537FAF4A44D1296AC2792729104B3276C276C951D0CF3CF3F1E6B017720A7B8505A5FF9589365979678C36F1BAF759EAF57C60F1FF5FE9DCF5F8E764FF25A2D06CF25117A8FED51884C13B2B750DB0E4F5E3D64124FCF11F0AD8F1CC3B3DA4B38ED22BF1CB2585EE6BFEBBA63FBFD44F9537B9B37BD
311
D6B358720F98A8125AED4349CCFEB0E135F19E208A04CA7E2B10711185D72E381F448036EF57C9F874E54A971CA37A639E986AC0226DC5AA00D5B14FEA9192234B3DE617814FC221C92F33F1D392F297731B567FD98FD91D989379AF567A65B8ADF177591DB90FBEA99BF4ED11B16E50A0AB1DBF1156D034BBE04D69D08F93
311
9D8E92BF525A1DDAFF80ECBC95D8F45D3FDD289FD23F7D8B452F8EBB34EC082DEEE68E18EDDF072060FAD2AB1504DD4879BF67099FC58F6E9DEFBF645D16334A3E9A127C6F1AF6132CF287E433B43A0EE93812B4AA0B194E03EE3FF91EF9C6ED0074A2F6EB18A96A7C9890B1FCDA1F2095E944DB911ED54C60DF16FB74C8CE
311
9BDC7C54C4F14078CF73C2FFF1F1BBCCD7CF64F71407EA1683DBC410D226627F66E509060D5C0AFD611DE681D509DB8DD12FB1265B03C6F5C55FF4C30BD94187FF692B4F152982502F193098A789526A038AB529A52BC0DC4FB6285CBAC10A8B8DB75DCD9BDABBB221E27D1F8DA9F5EE5926A1C8AA9BA9BC09239C6A7F1291
311
4EA3B59EFF7AAEC3FFCCE56F1C5C2980AD072793527565E774F4631DB178CEEC691B1F367BEA0CF2907E1D6B854D527065979DDEF002D8B2ACEA7CE21AE297737EDE1D45B31233B73FEA35BCFDD0B09721FDBAF6432681F2FD10C3E9EFB246FD6E854B344ACC9D8A0EEF876A7314B49B6A499FC650B099D650DBFEC7638ADF
311
D245E2B7839DA5AC5F7D5623FC0ECEEC8653FC9B2BDD1AD4D00A566FBA7186DD3C9CD26512551637498CADB950FEC71ADB9A5524285DE328B8EC7EC75D2345AEC6A27C42AF6D9B92155315C80DBFCABBB7DA0FAE425C4FB896B15C9BFAC4FE67DF5A23D30C93DA4D8F36FB15D100050DA6062E22AEC5F4DAC4F6FEEF97AE05
311
DE63C6D38F9E068A20BC5E3B6BCD75320C5090924E7F93640A7735B1A43451C2D91EE62C6238B797349E59890AF3A520DF4A87095F3ABEC2E61F0593416CE46CDCBE0E00E2523FCCD04408588B5B6C9DB6459C786CE378770B54F51DA3A5E1DF2A3349BEAAC234A6CF8993B598B3B25B4B113E353A4D750FA7534749430F3E
311
BF2512E7EA3FD43C6AB9A1F765A58463B306721A15D224FAFE8C6F5E3432D57EE697DA0DD5A9D4866A8BCCAAA9DFF1F06047851408FEC060471D0E3EB86BFAF46E4B5E60311DC3E3CEA147C75CF971BE74689507154FF2D2E92F15CDB2B9182B11459FD8ACAC5A85F174BC94A7F4EE4C4F5CAFA7C02E37BF0BC77B7DCD0C04
311
7BC316F562A01A441AFA7931CC84A28CB9F4AA367EB515778F29BFE61195FA671F4352E5E46E3A64773F1F76EE5EB36D7BCE9BCEAD837A4D77F8DB8C92AEEF6711920D7C7D0F76B0FD0EB7AB83724CD35BCA7D36DDDF5FBB7FF6F04A91F3E2BB3B8F1A43CD659639507FF6331C5F697BCC782AE57D757A27D97F1AB9E0AEDB
311
43F92F1B2AACDF5FEC8ADBAF9F814E2027003BA2F9E144B1938A7A04050AE5D953B82C45619165C813A10E76DD6906B3C16438064D14CDA713AEC420034613E1AC7241904A49FBF87409AFB1FCB9B72FE7933A87D8FBEDACECE4EDCF6A4FE9FB94D5DEB74FAB7CFEAE17EE965DF980DCCA2D04134994F9A2E94D2265DA4FE6
311
AA7B7AC15FACAC2B5ABBCD7DFF542C5314FDAB2E1B9D8B65220B8E2B638BE008E8DCA22678C820C5053664D15E89F2D735B51A84955E81A443545E9FF787BE0FA700A76D136C27DA179A7C6E8939E01BE756E19CB292798063D8B97F44E8A27BCF3A614FEB8BE974A718E86F7EC99B53CA35FA24F61F2B07266684623A3D4C
311
F073E511F3A10A8FDAFAF0078C577F4DF9D339FE7862E5FA47CF4344209E5BF76D783B1B48E152AD281B15FCB934DCDA49CEC5706B1EE8B460F435324A5CAD154725E21AB8044B75A557A79F6C807B9340AA3D92503E866F4274412926C8C504E4D5EF8C0E68DD0B028781A6B4054F11CF18941F101C57CCC796773ABC8DED
311
9CD91FE5788806C05E548895354AEAC96546D55B0E94A59F148D061F42AA398D822CDECA4CDE79E13469BDCC44FDC990F366BA5978C15F97ED80CBFD73B0CD9B8B83A4F6845BDFBFAF034019473FB9A63BD55D3A4A7284757071574029A4D016DCCBE95DD679EF3C4880BF169422F8C89B68A988D2B13793CAED4F74DE7486
311
C72DC94DF46B8E93D8E02EFCB1FF9B3BA10C8AE7F653DF94F4AF466CDDCEF5776687F7C4C14B63E4EED1719DC2EC482D7DBCC7AE518CDE3D5FF86D39000EC3673C0044E1D308BF05F74D1B5F033A7D1BE7F74BC55BBE3E4A20F920946CA0271EB17BD2B80E5660ACB8A29A79F5E4BBA49D4D945B6EEF4A7EFEAA65E5555BBB
311
57A7E15D2F83C69F30BBB978D2B39F1F26FC097424D39BB33CA3D87ABF64E307938B685BAD44F71556A30B7E712CA4FE600613C3E554B69ADE949A7CFE214DF1FFF05CB82151EC6FC31950239F94CF7AD39DC473F6EA356E5EC2C4EFA04383CEFE985A127484366FBEE3C0EC4FEA363E4F6632AE781392FD45D67B63FB8DF7
311
0E82734F431FD3443172A0E30A83D60982D55FA6A2CF86DBA8382502ACC6CDEF3B907982EED1160E14863FA242F9757347E1544275CCDCF71ECD5F8621CBEA326B8BA884AD7F825781923E66971F04010D574C541D8427A438A37EEF8AF88240EED7362C953F5A81DE2D56109CDE2524EA0F5D2F87308C0C47BD97AD605878
311
AB8589E17CA83930CB5E0DCCD75853D68B1AB136594926DE426C367428E9334AFAFF90ECE221BB5DC9E5BB53D2CDEF954EAA9CD814F0E5725F1965DD458E5F8487683AD86B9D0076BE3EE91EB1CECC5331A67A3F79D8B27587C12EC2A6A70474749F27B4C0BBAFB94B34189E88DC18964BE4121B9137FD516C7755356E50D6
311
714E31ACD222621EBBCD1CFF81D87479056A9DA0E0B8EA19D24CF937DA89F78E8650CCBDC110AAB6C4E46DCBFD0446BA9E2060E81F314AC2031E88135E5476AC0160EF5C0DD2EEF1B8B5CB2D198BE9A554A9093B5F7D7E4B5407DDFCA1D9C152FD97F55BFFFDFE802954DFEC8995B983E28AC92F1971E28F531DC407A1280E
311
B125F64A72E617EFB27DFBCEDCDA2D6F2BDADA36873EE46B9BE1782998C63DA7182BC383FB6FD15DA472B175D7E8B4FC88F38D6E07FEAA3FA3CBB8F6B449ECF14D2175E5C5CCA3A42ABF24CA6C9395AF74535F4DDB38CB84F56614B0FD32D7E19CA5CF988DB4449C40E23DF2B16772594554579094450F56F253CD25EA7F77
311
366FB1CFE79696C428BB64D5A41E986189427E5E4D7E2DAE3D5BB4972B3DC44EAABDDDD63A2264ECFA5C786EB0EE1FDC5BE34FA0F08376869FD1E61EA06CAE15191135445EE8F0394161C3266A596AA035572BB0C8876180D8B9C77D307DF9DCDF7365ABDA6F3A2366436457A4DFC1F259666569A9E4A79C817BDD5610E520
311
0FCE894A358EC72858D50EF67545DA81C6FACE3D457BAF70367E1E6BDD9A952FB4F56247F58F523B97E640246051A72F79BE42FFA0B3187F63097F91C48B868586F714B0EBD5A00A8412C1236E1298F60C72BE6C96B82B404CADAA304AE9F303176B14BA53FBC2D5E86377E35542019E24D97B96A49B2C0E5006E7795954DE
311
AF5DA58958839043C6C70BD3B1B33B6DC5C31316D8A6923F142E26F6711A2258AF977DDF1F970ECC4F1F2B434B96D81BEB6E89BF3BBB3C7C8CC80505070723D6D7D7D3C8CA27CA164A26024FED94B12A86031867241DA53D929636DA600F050BC40CE48B8BA03D69224720DEE2ED2127390BDF5E6EA64527BBD4C4C63FA76B
311
B801FEEC0E61218EC98A8A86CD8313781617877E66692839B9468CF4DB8E50A73986E558E309C0D6F676F921BE02F1185454DC75B111572FF9D27D85EA14C05AD7271225B391C4275659CA4A43759D0BA44639BE4C30A84DB7F67A41399FB95CBF923B1B1672ABC807C1590557FB18D811983FA97F5E609516D62281D38B12
311
81F68FC75528C35E4CD7DF0F7DBB5E5DD69C414EBEA2F4A5B241B996BA77AE6C772E367408C633EA3E438B68563EA8BE7667F3A4C4FDEEA52ABD78A2820F443B7914A15F180018D231E64519C56A12F6CA7C8DAE18F06F6B769DBF92329EF6A5D18FBCE600F36BD8E8198DE5CDAA96181F3A756EBA5501CEE58F497EA4F418
311
A2B82565B9BCC611713C0B708CCA1F398B78C5F7D03B3437CC18F13061F55C7BEDADD5ACB1DB0E36D3CE47FF6EA1A563A57E9649EA5D14D1A50EAA457463381C073777EF1600607BAF6428A7DDC079D47A204EF1E1F1F0589FB054D45E02CE623B3823C317C601E589E22B1E88B448524B86A82828E32345EC18AE17214B42
311
F8C41C6D428016D9BA31DDCB47572561E5A402E5BA4FCE55F78AF7268524AA04130F3A20BA5D1E9F9948EA48FC8F5314FDB35E21898198060034ACE5E3E2BBCA34092518F275190AF65F45867FF0900AA4B81F25427414C372BF51DC29AA855C5428EE1EEDD6B849AD60F6E73475C2D2523F8A2772C840A478DED18A8C5C91
311
B085F255DC4F54EA7AA8947354FD17ECF8FB3B4A0DE7B483CAF3A1165EE05BBA413E5C1FEF3DE1D6B8F2F3F3251C17D9FCAB48A9AAF63AC773A0E413BBC46A9ADF84A566FC920E4D8C52C9769EE3301CADEEEDD92B312E02E2A7E35B7F1E7D203FE5A7D75578B06E99D0E46FFADB8FDA17ED8880390DA29094202D6F645F76
311
F6F96409CDA05495A96E84B04A00D1A6C6C81D7F3DE9376E828CCF144EE50E364ACCE7237EA0BFB5607ED1AC3CFE73794E5B61739D14DF1743441B1AC98F00ECEDE9E7301FA29755FBEFA68C91EF2B314CF510537EF1ABFC9A762496280B546F5EDAAF8A5B387D469FC9A878A92828C88608453ACEC6094DCA54111E7AD5B2
311
663DFE2DD151B7F123B9F4FEF8EE36AB125FD7AD52A59B1B765B3E3F73E3F73DEA93875004D2AFFE3CDE9493B87A9904DD052028949041A91DC0E1BA47BA714343FD5B25E0A6A09503AFC17C790058A836A324FE31D7893512E28230332F153181C1E018E1124EBE1BA262AA428A518237D1EA7275E48C5C561BD19ED6912E
311
DD8367DA0F31E40EEAE9683DA9257525AEA7B632B97119E17145A90231768A4F3B9120FF32E8319B015E3CBE26F1A754177D8185345817C096B0CE443A955D13AC15E1FB5DEEA0239EC32A3C92241A237B0B02FFCB4F93CF2B02570C8D192E2F2A68CEEB42F12E6F8CEEFF46C251E22B4341C56FB08CCE550E7A9D6F4D6564
311
B9EA52A83D5BF2C6E03FA19D2775E15A8A7ACF30A13C259EE7F5EF2AC3BA354F1500E1A07FC63FB4686E2F12EC69719F9ECF5FE3F35598DF2CE944008CE78F0911BA5BE5D0A34E0098FF038669C26030BA9B300303039852A8F6F496341737CA7E0D2E3AAA36DE0A70AA7D9CA0D54D9AD84B18A44C9E625475E1C97B93BEBB
311
38DCE7D227E67A2D00F531436136355F243D1FC0D712C5765754FA22FCFFAE97919161F46D6E61ACB37D83777B385889770B50765B127768443A5C4D3A4E35A3151111F146B7CA116F918A049F1C272F2CD7976C69A0068773451659A97E0F4A08FE604C3FF6CE7385DB19F4D3ABC8A0D80DA8A42096AC377DB49382B36E27
311
0B6FA7570188B4B7D1DDDDA82ACA487CCA5D38BD3BD039ADBAFA4ACFF27809239B722081E2EB9F145320553D183F28471C388BC8814E5045676767AB58A8E72D1CED2CA731379515D2E533E4CF0B39DFC625F97AC4836831A4DE330E87A8126FA17EBE583D614E71E22A8DBF2825599743E0640037303E8E1B1E8EA4E1ABFA
311
4F62907B5E4E0E5DCFDAB417C36C6848A2B8D15F1E505434C0707E16B1CFC2A1C36A42BBF55734F8F4301DDC2A5110CEE8C0747F69519265012A2174BF4E955ECD4FDE095A3ABC70536B7AD0B9D7892F81287D667C108703C9B66A221E9A0929D030008F77FF6F5D2108EF5706FC87A3069B976F7C9FC3239D13D283CDEA83
311
597461079FEEE049B0F392889898B7D87D31F8D60ED7B56B91823A8E4EDDB36C6172ECEE42BD42B12CD67994FA0F0DFAE9389356F4CD4425A4B8AA55CBF7ECD585C6A2C2316791E43D5C06841ADBB226A87FD61515FFBB0167B74E56BD7F3E90A57A97FEDCBDF483A0D6699A8C0849CAEB4947FAA90D8E332D9DEBD9F4738C
311
37DA0CAF9CF3DAA68BCB67C420459C7A64498D6E848E5CADE92BB6901F607AA331104A67F7CD650EE169B1DAE94D2C31C2F993632259B6957E246EFE4C5481107B07118607700040E5812A2A2A38DA0076875258C753F60E0F2662C748EDD5F3F3686B8FC3BD6FE631ECCAA1E8B1C1E565AD117E54893E79F4672E32F9E46B
311
2A183DFDCF3EECB4D4D077DBEA0DA254D256045109670050129E9B9B1A9E4A11344D61497A992778095151510C4BB7EF2009B63AA4360635312E4CF668B7E0D3D85A8688E2BD83B569439892ADB63461930D428E0DE42E4AC57CE48DA5CC1449530D8BD3D6A0F08DF20C8E8F570F2CFFFCEA286E30969B4654D498A58D9DA7
311
82E19FE3F002181838925592C4A1EF0B332D88B61A92C644547BED490D3A42CFFAB70E36D961F694F6307F72FF15A1C79D5B1B5CEFD353D9E2B52566DEC8F8F09CB3E8359C0F68EBBB7898243E34E12A015B2685AB303C04D3A9E00671FF3DFF0A184E4A2ABEB2B666AF5B3A209C73D8EF29DCDB069C9F391EEE9DD0F74C7B
311
CDE16F8F02E3B8816122BBEB50665775B600549D8BB33A54A6BF940C028118BC6878C79958D6784F9DEAA6E26748386FFAF8D0D0101E2847B6563F5D8DC1D78F787BE00E2C941AE12148D4A81599FE8F68D4DA5CDED75530ADE138240300EE13B0FC13A1687FED6774662C05A2B7DFB186732F0D7A93545D8B0A6390AE5054
311
D9CB582DA846D7A061B3358B45E2B52DDE63E114397EDB7E09233A579155D795BE76102CF277F4DF8B188C4F2879BEAE3C08347124BF9ED23B128259FE107D31E34A652F090B30B39E0D9AF917B76A2806135621A8A60681F16AF216514BBD02711585B5B1AE823F4B2D0369EA5B6BCB863072727FFC871CA6C9AB79A814D9
311
89057E9470A3D238BC87CBB4A0EA49AFE2B86F22E499793CAA9047080450166BDC357524561E258C77CB697F1ABB32562CF87C3B7AA12F911EF19FB3E5C02222E887D08202A60A17151F5E053A86B437771088B4FEE14D652C43E8D939995D34545E12E2FF93D4E366EAD25F10CB7DED141563C3D0C447AF06078A91135FD4
311
B9611583CB4BF3BD167F2399CEAB0E0100F8FFC305F00F1711717173138B4B48C83022295DE657EFEDD97F238ECA80F528AFB4F8D67AD4E2594B9A3AA86D7487EFC313BA95745C186F0CDD84CC12DC9CB0424B42203D351FD9C0A3AF10CC7F388E0329279087386421F194F4A29464C1DEF7EF8BE515E4A199DCD5B9093425
311
98D8FE6A231F71336248D5CEC5454455C7BE383B3BC7B260FED27F703FDC39A170F3827239102F59D4DEE7FEF82EAA1A5E4BA94DCC4CC44E7E2EDE20F24244E4454369D2E87C3F823F193FD4FD27E1C23984B01898D15ABC20711A8A558054951A6AE280096BA36CBA439603B7B0B4C45F248C14B2383B4B5CD8ECECE4FF85
311
9AD4A6CA2326D020EF090F4041D28DB66E5256B56232CC52829DE8060BAE6BBF37D4B7469B822454FE93210A3E8D15E69FFCF01123222611C51C4FD0A041A0CFA2471CF6BE38D2B20FA4C3525B5B8B586759475CF80ADFE67A284AC24651E52B8E683D24C2622642F27E7C3C22783BCF63648BC398BD6CD0D9C97E7E7E3EAC
311
B6126DB7A6C1FD9F1031302EE67ED96F22B77C7CA0239BB324207559B105E4693EB26EC46182A92C9C0DBD24F29B31C5C5AC1F84300E0E17CEEAC15F5736FA4A98971E2F1423BFCD68D4BBD5F86E74B40A369F39507C88FCDB35D2DD8DEBEA4AF999E23CF2816D204200DF6E611781B9884C1AC8888B4DE397320472959434
311
323A5A36B22A8E1F721A270DF3BD65E4A31C11FF048AFB0D8B7B6881423793963A23CFCE935FC189ED36FAE35C46DA3574C979E4394BE52084F3081837BE033396D2EBD80F1F691B273F660D2B32FA27A33B1DE4ADA5F0FA4651511102DFA410DDA86E065272CA314D5249DF91B06BB92807B28EFD54F08F7B525252782CD2
311
76DD02E6B0319B13DF87B1F6361AD6B28FC0D711CF445429B9E5A433CD493051C49A9E03DDB1B147D880253514A5DED88009018620EE229101C041950E2D8AA8E1F5F5438E0C0C0C60EEDEE9E3E0C051948C69F84BB7B2A48A1F3C8EB9E6864687F4F4F6F6E2FA87608ADAF9C5E117B7C1A737E710769DA1D15ECE6A84502A
311
A855398712D5FB51BE92E4EF824969CE18278798AC303C2C7980DD2500ADF8FB1E6D6C2FAAFF9987178923334A244758BAA01A9A1B70FA5097D01E1CC2A58DAD0EC94CE6430AA9B0C10D75E3C6BAC670EFBADEE1607739CE0FC18A2587E3EC3058562014C64219C69BC269082D5C2F4A659278D585755912176D78A1B64171
311
9C2A394CED495A1AC5D583FD2F5EDD93308EA7EAE8A6DD396598BDBD3D4CFED62D18A5BDFDE0DD5C80D1A89BA62697B131AE7CE9A6594138582F1B37D68F1749AC7CB67A70695D48A4A056AC1FBD4E82358CEAE38F54B95A9016F9000F9879C0D9D131768635CA798895F27D6F1614F11F2838A83611AA51C9A3DDB539D429
311
79C29F10465655C17BEC3E2760B80DCBF609198C7B171A531905F3EC218D696025975E986C6B4C666666787271F202805577DD5A3EF0CAFAF91B62DC4B2DB4217A7606282F31D8DDBC290593BAA93EA6353AFA9939B877978481E15CFC9F2755CDC00C538F63A4BA3E80AE009B73CA0185687D339A507D165B74290D6EE46D
311
5C58148F020C3668ABE9EF2F7549170DC80DB41FFC1D678FF19AEB10C7133832B104B80F691B3138F97A92D26E551F1F110400D45AC71A9B9AC41A1A1B1DAEED0B0810638EFFB511D46B121C6FEA0F38CD00E03CFFEB9713FE1F9C263E4DDEC160D0497FA9A132BA608584057FB15380825DE6C7FC3C667EE947D488A09898
311
D8E939C4953BF4EC9836344D2CC6B2971B2A21A572B06096F4982D2CC7232D46E8EA69DC83722E267754D777F97F96D5DA74E1E75178084D0E70F12AD33E5F71EF2AFA599B2BEBF60A5BE475F444F240CBFE8143C334E7ED9150FEEFEF7EB020C4DBED388DD1D6A167A76F3CBF119B578AE8CFA7736ACAFA4440A1C4718563
311
8A0D2F3EB5BDDEFDA958FB13CE4AA4923D5BF840392D45544329525749734866684BF7F8D9D54D892E19BCA9F829A0F8BFCBEEA6CFDFC61D74EA1A645ED7A1FF241739F15694BD835B66FEC5677E40FE69BD3F91AE402F036537218A401CB0828604AD189E575015C6F3F6BBC8AC79CF6C70653847254B31551EFCBEB5978B
311
9DB85D58D0FA41A9DFE9C624834AA04949D24B5AE6D299E072D152D12097920F14AA92C31C3B97E28B6C2E6E9C23D63043ECBBC0A60FDF5BD0C33C127EA8A3308B8B6AFFEB28B4455BF6E7AF4FC6222728357EB8E46E85053E6A8843AB23295BF838ABDA94658FEF3F832F147046B4ACD6F7D48E8FCC9618582961C898D1C7
311
A253C91BFECBDA6BA18A1FCF70755DCCEE2222F41B76D23CA98D0CB3D95F0CF66D57FFF65E2A90F5DF40FC3187621E981BD0BC1D992787212688976B94A8F0C6EF646624B570B78E068826F87CE27041A95C9A4871FF65CC17FCB1639629AD6A9517000D63AC231F3D741CB8430777E7ECF80CE7A3F73C0F162F7E56AA71F4
311
DA80A33CD6ACEE78E2C11FAC03DAFCE929B106F8F6B3ED2DC71FF994BD9CEF4E9A94896EF1B6E2B7B4978168BCF0847A3D2A4F1B0500B926E634B174548E9FBAD27153FB5FC36799B1E6C7C38A94E1F9E996796D7B485E635D5287A2AE76FBD11A341DB3F8F810385BB7296391973DC6C37C452A9305AEBBE0CDB6C566DB59
311
FE60C8E94B1FD090354BF51439FFD1B48D725228FFA88C84F686F547107A7A235665A4593B7C34D748C1AC8D56DD5DA861EEFBADDECBBD65117E65851F90351AEB65F0EFCFF4BCFEF24CB7A5879699FAC437A7AF9099186CF006BB923A59E37D7A36A29FD8D2CBB914A5E9D0A8FD212FBF796AE9A67958FF1D5D8B85F78F96
311
219D4714EB919929241B6C018AAE0C02069F8D919961EC5DDFBFB7573E3AC8E08BFB7C8534BE6DE045B3CD63DBD71F7638BA2309CAE398EA3A7D8F98BBBC7AEB367EFA5CFA27A9F8F2F52FE878058E6209C026453F8E7E8A237DFC389E9590F6059B397CFD65183BBF936E86896612A5B5FEE49DAC8455D026218AFEBEC12B
311
3523A45B57B82C9C97E02ACFA1184DB18E48CF615DBF39C3CC6F0B4AE6BBEEA2E39D944E290302FA3DE33FA7E40296E2EF7BF1CD855BBECFAD0FD622BEE9746FC4FDFDE545AE6E3BC234CADF83A0FB76DFB145BF3828AE3436368AC24989454F8FF70A177672C711CAA1A76107218CF948CA01F873520E7A2B118EBB161ABA
311
D432932029628B6761590C98AB590C8C8C79798CE9F715BA696E839E9131A4BB68BE923F1747FBFF165331FFDD4D05997ACD168F12CA75348DAC04C7F509FE83898A8B421181AF492861CE81E4A2DD0A30850CFA95E05F097FF70F9E777310D584A75BA7018922E271DAB1D785671157685B7D383D3E074DDB4F1E44EF04B0
311
7BAAC75A062077C54B9752C738C9D804D402E02851F3F89605AF189738C18C021D2139EAF72513824E10DDD3047BACC8521ED7E98B257D1166903B1B08FA6F918FD7E162913FEC7D0EF4787E29C35FBA8C6E2C9C20E9AB30AE42CA2A01A090E7D010C1B5BF9CEE2A304BF3A987FB40D836979B79E18D70F257DA61E808472D
311
D85B82761825779D6B90CAEB0F23360C6F80A7D7D77545E95B3DFF0CF96A827F9B5BCECD2C9698718417EF80FEEDEE938AFF55859D0D540B7FE09435583A6F04874A0C7E8CF234DF4879722000167F5872CEC6BF3EF7E5A8CC8121E6A359227C8A29C95212F9F735BC72A887D56B8F309FC525BFB4FD767AAEC4AEFF249CFB
311
BD2DE1AB9969A6155C7D8DABC307E47324C1F916C7BCFF40ABA5644E9FFB9238D19ADADA49D9610F01ABBA57E4DFCBDCCBB2B93C8953206C91DE01B0E2651A6D6C31721915B31F7B7CBCE55466F6D70402788FA91D73BE4ADCBA99A35F17D6B83383704917D6833F0FA3CD45C926ADB8BC17999A4A0AFBCE2541F7B8CF4C2F
311
5FBA611B3E626D64407CB32C122DFF4EF8674D6EDBB86C8F7C6A16D50FA685E2CCA34F8F7D1D8265BB0042E9D7F1F666F7BE5FAA5184DF58E12122A42EF02F461B3F369AC746F96528AD208512AB56844CF75B97F352DF7995024FB02855385854F3798670D01CAC771AC3E1889EC25F61A20C1F8CAB46898817F9C47E2CDA
311
1F286BF2F358298709FE567C91133E2638C8B53975E753EA8BFD3578B5F7186B7BF084EBA3F77BAC3132A5779902EC22AF2D2E79F42D324E083386DAEE9810D1B44A5DAA54513C7A71E52A4AB9257D975B621308FE4D2141CC3DCFE946C154A3C1DFCCA7629EC69ACFA831634ADDA93C0388D2A9A2DDAFCF957C6995BCE7FB
311
B6DC4EBAE79E63EB08E9A25F52F67076F7093CA545CA3053B5BF576DEAD4E0017143C5F759F32B2D6F145B52B67B48909B7C7FCA6586EE385A2189C16932CB6DDFD9152AE317C430492A578ED27B72D85D40C7C93C097939E1B50F4D67F05334FE9DC362C30B7FF561B95259138ECFD9274C8D695C31B14D4EAA9F3D7FA8DD
311
F652F8C5DEFA23284C799B7D94416DEE81E05A866302DC70192A5368EA65E1CED8BF107A1E2D3119A71E85DC1A7B0C1E93274CE04DD0F2ABC8AC7C987FDB002B6F81757B43502EF7A0D92E416494FAEEA4C9C090CD9557AA4D532F4996A272B94355C5A0E4974EEA9627476F30809B94D8D8D860062E02204643BEC7D0438A
311
F800FC7E2B26955D595421E83C69E1A07E0E3122285835F014AD538188CF9737CE76D464A353FA55A001AB2526B84E985083693BC76FE211CA1D000679C889E3C009832C87E1AC2EDD05C302557422DF0800E316FCAC86978A371F025A6C7DAA9F333E7BD160403A1A06EA75AA9888FF01504B030414000608080079711B4B
311
28BB58AF800100009E0500003D00000038383335423239412D373433392D344135432D384546372D4441423735313935394541342F536368656D61732F436F6D6D6F6E536368656D612E786D6CBD544D4FC23018BEFB2B96DE15493C78601010A34B880709DEDFB52FD0D8B54BD70DF6EFED3AC0B12E6442E2716BFB3CEFF3
311
D18E26FB440405EA8C2B1992E1C323095052C5B8DC842437EBFB673219DF8DA659866649B798C078B48AE6410122242F2A4994AC7F93815DF85C049C8564CA0A901499DD886B2EB9B1E02448F358701A9235880C49A0119892A20C89D1B9FD768815CAD268CB5E0355B40B1E47F3E37A2020464BED06AA57CE8FCC20C3C344
311
6D46761A2632A8C1283D07031EFF2AE7CCB1BFEEE916E406DFAC8E36FFD99A9D60A6944090EEDC3B670C7DC13DE86B6B2C5C240D6E503BB85ACD579D513F1B9F9A69DC9CC22AFA80C426D40AF0B21EA168559156B6276F0F726A6BFF04DCD513A87A62CAD41FB24FCB2858B3952E3D852084DA25B9303C15687973CC8E8AAE
311
11DF2836C38C6A9E765E8C1BA1BFB1DC29CDFE518C8B5A7655A4ED7E77291ABEB80DBD82EC866ADE1B8D05AF9E35CF09D7A061F38A986D9EC412B8F0F65E5D81534D9B231D1E5A8FE577A241F3A5FD01504B030414000608080079711B4B2CCEBD668A040000E01200003E00000038383335423239412D373433392D344135
311
432D384546372D4441423735313935394541342F536368656D61732F47656E65726963536368656D612E786D6CD5586D6FDB380CFE7EBF42F0F7A649B70E1B90744856B4970F450FCD7A5F05459613EDE4174872DADCAF3F522F8ED3B88D2F1D06AC4050DBA2493EE4438AF2F8EB73AEC8466823CB62928C06C384888297A9
311
2C5693A4B6D9D9E7E4EBD51FE3A931C22EF85AE4EC6AFC38BF261BA626C9AD288496DC3F4FCEAFC63366845F7A10452AF41DB320C0D44EC26EAB20918735565582695670811A6A49643A49A6E9069FA4604A64B29016DC4B48552F95E4932463CA888468C1D2B250DB4962750DF7CE273069CE8363F1FF4EDB00E0A2199957
311
4AE4A2B00C353B93F3BD4777B8A61ED8F604ABFEDD79CE56A2B7BDFBDBC50996E0ADDE16FED26223C5D30956C29BDF4A55EA686E5E58B112DA45CE67F76F4FA27EFA3FB672FD7372FC388FAECDCA5209E693CAD167BADCD272F943701B3812F8A3D852008B1D2E32DB927B2F833C6EA95879925356D254582695095A3CE982
311
924720BE5774A3CB9CDCDB350427D2DF20DA1B5532EBE2D5D6288D75D4F7E4FD9890A0EF8E3D93EBB8F8BA4758158EF6FB90A6F9520281C93DE7AAC6D24607DA296BB96018123F821A7D6A5C5884050C475DA4865442732C8B95684A50165CBB3A32F25F783A4A480ED59AD7F924B968AEA50131F46303223E6A397B0E5297
311
6030DC1DCA81D7E7C1EDEEA42C19FF27635C505E2BD5198A599020DF50A2330FCB3AAF28CB0124108429553EF1B228802E2265D8F7CC2401042B155BCC7070F1E5C55F13B4A9577362CCCE46C32174E010C3C378C44841A4BDA00FE3A12006CE11EE6AEC59894D3526DDE1CD59D503ECC324017F8061B7F162162FA62EDD81
311
AE3308617770796DCBDAD2B2625C5AE8A63DE20B2C8AA5E95E76E5730823955956E33E705425A2187C185D36489A1B44D3DCEC2172F6BA2105C3546287A7194B2331768EBBE64F6E70A9930ABE0ADEA89E9E2C38523B810287AD67A54A039C1606EAFE68F8304610BB9093DBDDABC0B2AE4E290DCDA15376D7E39F72B556F0
311
B32EAB5D3D498B4C41ABADEC3A1434C422D87E8025A84BDCB2B1417ED750FAE4DA8976863974C577C7F902D3F156AD354DEA3540DE6BEAE2BEA52F7A2EB4CA43802ECE5BF2CE2EDC9347179FFB023CE412E60BE16DA0BE29B374988A553F561DC04615DD35F7D2C8979F60E5955CE93DF29DED8AFA1EE6642D53418086C03C
311
47C377910F75F7E8F5EF665F70B60FFB22AEDF897D119E8423C773E819A3C1E55E550599EE6EDCA34D0C86FD72057DF2CD46F16A470682471C164E4346D5306BF12D7D12D82CFF673D41636C347443FEB51B50D72EA171A8E4A58623A4A16E0FA2B8B10A0D23268D87C33896EE8FB73305A74BF224EDBADFA0BD674AB354D6
311
3DB7BD5D83426761C077DE767728235446A552754EB93B755891C3C4CC6CADE37CF0E912A7BB38DBA010F9DE1282EDF470CA69A9CDA482E334C4A6EA4107987980B17E72F31730EBF88BBD39E7C629F56797A3C0009C2C5AE7951D9A05A02773440F02EEB4DE396A3B6A570C72CCFBCD823B0B8ED3F1D5CEDDFED772FA7023
311
6C83FB7D86C385D570B87107535572A60A96035F8F7C6A7192F13007246BBE0521855E6AC46F3E27689CEE7D186A6FD679D98CDCAD13333E04EBE7ED6F55FF01504B030414000608080079711B4B6180134D5F0100006B0300004500000038383335423239412D373433392D344135432D384546372D444142373531393539
311
4541342F536368656D61732F52656E6465724D6174657269616C536368656D612E786D6CA5934D6FC2300C86EFFB1551EEE343DBA41D1A103009551ADAD40EAE28A4A68D9426284961FCFBE5A340113B2071746D3F765EBF4DC6BFB5407BD0862B49F0B037C0082453059725C18DDD3EBFE3F1E829991803366715D474942C
311
D30FB4A782E00C64017A412D684E454CE3FE28995203B162A6EA5AC94B66997D225E109CD63B0135484BAD1B3C07E9080CA35DB3119C11BCA5C200461A68A1A438126C75E3E230D40FF81FB3F03C91D1E3A3A0AF79FE28E25BC39EC3E17E4C2A2D94A0833A51AF55BCCA7D88572FCBAC529C4140B020FC3AAFA886621DCED7
311
EAD7664CC86024E806DC297DA1BB393E4156543457A4537DB8817349A70F8ACBF09B3EEE2CB2F33E91B65D60786E4E3B39B77E3FEEEF5650424525DA657FB8B46BE6BF064646F0A0F7327C0BC1BC1B4CBBC1C419FA3CCB23500007872A2580CAAE5461865565294E4EDB4617B62FF579DF9A5B2F54E834076A597573A02091
311
2FED777F9B3F504B030414000608080079711B4B80D7823C51000000570000004700000038383335423239412D373433392D344135432D384546372D4441423735313935394541342F4173736574446174612F41737365745461626C654F66436F6E74656E74732E62696E536160603076333572733637D575367233D13531
311
3732D1B5703372D435327073317672B370B574711302AACB4D2C492DCA4CCC492C28484D2C4ACC4B4E050A82012F90744FCD03CA26072767A4E6260200504B030414000608080079711B4BF865834058000000680000004500000038383335423239412D373433392D344135432D384546372D444142373531393539454134
311
2F4173736574446174612F53747265616D56657273696F6E5461626C652E696E66558CBD0A80300C06F73E4B117FB66E451741D041DC5BF98480A492E4FDD18EAEC7DD4555D89EF28DF51A0B1BD8340C4DE7DD848B988C0ACF0649566493F2408C508DDEBB99D5129FF8F1AF8CF5B9503E20FAE5A16B5AF702504B03041400
311
0608080079711B4BC55566BC37010000A20400003600000038383335423239412D373433392D344135432D384546372D4441423735313935394541342F4173736574446174612F636E782E786D6CCD94314FC3301085FF4A648931711C815A558E2B044B2790A818D8AECEA55875ECC8BE20F8F7D86D0650115387AEA7EFEE
311
9E9FFC4EAE3F075B7C6088C6BB9689AA66053AED3BE3F62D9BA82F97AC582B19BCA71F182B1C0CD8B25C664AEE839FC6B9D4610F93CD556BDC612EDEC788B4859DC5A7FEC13B42479115DA428C2D8BFA1D07A86022DF613C541D1054A20A18FD1434A64964069C27E98040D831D5D46251D6CBB2596CC5ED4A88D59D78933C
311
934AEEBCB7336FD2B2E0C79BA6D6A7BD4CD5926740C9299899CAAF61EA2F95D5CE38C913A964A4905C993BE86B4C1D308ED668A0641EF79A90CA04210C929F60257976E197178FD81B6772CB264903F2E13909C44006AFD093FFD45EDE9B8D8B044EE3353B72AEF1F23EBC1C7FD1EB2996C7DC5C5F5ACE3556C6F517C80A3F
311
9E93149D7C5DD437504B030414000608080079711B4BC504666BE7000000600100006700000038383335423239412D373433392D344135432D384546372D4441423735313935394541342F5265736F75726365732F33463532464337352D433246342D343732342D384632412D3230464433424638453944462F7468756D62
311
6E61696C2F302F636E782E786D6C4D90C16EC4200C447F2542EA312144AD76B522EC4FF4D44BE5126F8A966004A66AFFBED072D8D358E327CB33FAFA7DF8E10B53761456A1A6590C182C6D2EECAB287C1BCF62B81A9D88F8011343800357D16C61F49EA8C46E6D7883E29BEB5DB87773C780C9D9F7187631580F39AF22DB4F
311
3C6082C2B461BE4F1B304C6A4A98A9248BF500BB03FB019B1018376196599DC6F93C2EA757F57C51EAF2A2DEB46CA4D11F44BEF32E30268A4FCB6CA98EA1FE336BD900A34B729D6A218479784ECBBA343A73AAF93BC43FB14210A37716B8D624C932F258218443CB7FD868D9F256F92BA36AEBC6FC02504B03041400060808
311
0079711B4BA233C2345D000000800000006500000038383335423239412D373433392D344135432D384546372D4441423735313935394541342F5265736F75726365732F33463532464337352D433246342D343732342D384632412D3230464433424638453944462F7468756D626E61696C2F636E782E786D6C4D8B490E80
311
201004BF42E6EE76F3C0F216234B883063108CCF170C074F95AE5473F5C4C06E932E4F28601967600677D21E9D8092EDB002539227A2FCCB80E1168D80A6417297A89C5D6963B7129A0D1E8F2EE73AA7B62BBEB8B27DE50B504B030414000608080079711B4BBE89762363000000880000005B00000038383335423239412D
311
373433392D344135432D384546372D4441423735313935394541342F5265736F75726365732F33463532464337352D433246342D343732342D384632412D3230464433424638453944462F636E782E786D6C4DCC3B0E80201004D0AB90EDFD75167CCE820A4A845D83603CBE602CAC26799919AEEEE0D965E2E908050C6D0F
311
CCE04C8BC355404EB6198129C92351FAD580A10E464065907C8D948F8F166375F655BDC3FDC3B4E530A176BE7057BDC43B2A593FE403504B030414000608080079711B4B2D6F35AE7E000000A30000003600000038383335423239412D373433392D344135432D384546372D4441423735313935394541342F5265736F7572
311
6365732F636E782E786D6C4D8CD10E822018465F85FDF794214EDA0057DAFF1E2ED1B1101A49EBF183E64557DF76F69D23BBCFEAC8DBC4970D5EC1E9500131FE1E26EB1705699BA900D2691943D8FE6E40FCB81A050583964B0CE9B9A3C9CC6372853AEB1F3BACB161D8B70DED1972CA5BC6A94076A1ACC2A1BEA2B89D07CC
311
C6B128797EBDBC25AFBF504B030414000608080079711B4B344690A00B010000550300003400000038383335423239412D373433392D344135432D384546372D4441423735313935394541342F536368656D61732F636E782E786D6CCD93314F04211085FFCA86C47261D968EE7261B9C2C2CA46ADEC10E64E72C06C8035FA
311
EF8595E22EB1D3E23A78F93279EFC188FDA777DD07C464314C84D3817410341A1B8E1359F2A1DF926E2F4544CC6718E982F230912A13298E1197B949060E6A715575369C9A788FDE6378D6EFE015E9B453294D24AD57AA968C06D2891A9515E53442C2256A2813B2F5D026E8082A8321721CF8A61FB6FDB879E1B73BCE7777
311
FC55B04A4AF186E81A6F438688F3CD38682CC7500C0D8255408A25DA46D514449EBBA3A50FC10A2145CAB1B4D0C8FC351752CDB3B35AE552165BC11F460A56C35E447E8000D1EA6BCD7C61EFDF423F4130101FCB4B45ABDCB566FFCDE5DF2A60EB06946F5017427E03504B030414000608080079711B4BE3603EBE7A000000
311
C20000002C00000038383335423239412D373433392D344135432D384546372D4441423735313935394541342F636E782E786D6C6DCD410EC2201085E1AB90D9DBEACE05D09878023D01A1D34A8419C380F1F82DA68B9AB8FDFEC93C3D7C52546FCC12980C9CBA232824CF63A0D9402DD3E10C6AB03A3397DD192872090D34
311
06ABE7CCF5B5D18893ABB1690CF4DCF02282E5EA8A5BB96FFE536F285CB347F95BEFFE81C9ED5AFF9D5B1FB575BB00504B030414000608080079711B4BD48812677E000000A300000007000000636E782E786D6C4D8CD10AC22018465F45FE7BAB35450575B85AEF319A1B92D3B0193D7E1ABBE8EA83C3778EEC3EAB476F9B
311
5E2E0605CDE104C8867B9C5C5814E46DC61C50A7658A71FBBB010AE36A15540C5A2E29E6E78E263B8FD957EA5D78EC90F396F667613023ADC0C4D00BE6C38DE1ABE9196D04158321C53856A5CCAF57B6E6F517504B030414000608080079711B4BCA1DF9C9A900000073010000130000005B436F6E74656E745F5479706573
311
5D2E786D6CA590410EC2300C04BF12E5DEBA70400835E500FC800F84E0B411AD13252E2ABF27A55740421CEDDDD9B55CEFA7A117778CC979527255565220197F75D42A39B22DB652EC9BFAFC089844F65252B2630E3B80643A1C742A7D40CA8AF571D09CC7D842D0E6A65B8475556DC07862242E78CE904D7D44ABC79EC569
311
CAEBA537E3521C16DF5CA5A40EA17746733E0B6615DE7217475F386F18B9481C510F1F021CD9FF027EA0E1F5C4E609504B030414000608080079711B4B3DEE336E64000000790000001B0000006175746F6465736B2D64657369676E2D7061636B6167652E786D6C35CBC10E83200C00D05F21DCA56CA76D41FC96062B1207
311
35B69A7DBE268BB7777961F8D5AF396893C2ADB70FE7ADA196782C2DF776D7A97B5933C430F15651E5469C55D70F80A4992A3ADC954792C525AE70A1E4D6AD9816CC044FEFDF01FE3FDE907802504B030414000608080079711B4B0B649DF8F9000000960100003700000038383335423239412D373433392D344135432D38
311
4546372D4441423735313935394541342F4173736574446174612F636F72652E786D6C8550CB6E833010FC15B4770306024E641C254DFB053DF566D90EB1126CE447D5CFAF1DA8D49E7ADAD5ECECECCED0E3D7FC283E95F3DA9A11705943A18CB0529B698418AE88407164D4591B7ED1A0307C56236418189D9C8DCB06096B
311
8232193556AA0DE4DEAB008578A466042F6E6AE6258F2131FCBD5CB8B8F34995B85C798CC6A8E5B6AA6552D357AD1C308CC9EBDBB9C7A87F211DEA76A70B227B32A07DBB6BFAA1AD7B72AE699597190D7AFEB92E9CE24149604D8D075413D40CEFB83B607CD8E10F5A6526A33EB8E4793B9ADD013BE5AF2F3C705AADD33FAA
311
7191FFAB466D42DB6CAAEB864F3ED293CF01A3554E29956784A9E644D937504B030414000608080079711B4B4003D6BCF20000008E0100006800000038383335423239412D373433392D344135432D384546372D4441423735313935394541342F5265736F75726365732F33463532464337352D433246342D343732342D38
311
4632412D3230464433424638453944462F7468756D626E61696C2F302F636F72652E786D6C8550CB6EC32010FC156BEFD8C64F1261A2A68F2FE8A93704C44189C1E251F5F30BB12BB5A79E76353B33BB3BF4F4B5DC8B4FE5BCB666025CD6502823ACD4669E20860B22509C1875D6865F34280C5FD4041906466767E3BA43C2
311
9AA04C468D956A07B9F72A4021EEA999C08BAB5A78C963480C7F2B572E6E7C56252E371EA3316AB94BB54C6EFAA295038631797D3B0F180DCFA4435DFFF482C8818CE8D0F6CD30B6F540CE35ADB298D1A0979FEDC2291E9404D6D478443541CDF88EBB23C6C71E7FD02A3319F5C1A59FF7A5F93B60C96B43FFB8C555FEEF16
311
B5096DB3BB6D0A9FEE4FC73D068C56399D541ED1A59A9364DF504B030414000608080079711B4B6BAAACFAF9000000960100006600000038383335423239412D373433392D344135432D384546372D4441423735313935394541342F5265736F75726365732F33463532464337352D433246342D343732342D384632412D32
311
30464433424638453944462F7468756D626E61696C2F636F72652E786D6C8550CB6EC32010FC156BEFD8C64F1261A2A48F2FE8A9376A88836283C5A3EAE71762576A4F3D2D9A9D9965869EBE9639FB94D629A307C0790999D4A3114A4F03047F4504B213A3D618FF8B0699E68B1C20C1C0E8644D58776834DA4B9D506D84DC
311
41EE9CF4908D737C0CE0C69B5C78CE838F0C77CF573EDEF924739C6F3C46435062972A11DDD455490B0C63F2F27AE930EA9E48839AF6FC8CC881F4E850B755D7D765472E252D929851AF969FEBA395DC4B01AC2A718F4A82AAFE0D37478C8F2D7EA7456232EABC8D99F7A3291D307F0BCB87E66AA6C5B6FDE31A56F1BF6B50
311
DAD7D5EEBA295CCC113FF958305AA496E2785418676A947D03504B030414000608080079711B4BD5FB3FAC0D010000B10100005C00000038383335423239412D373433392D344135432D384546372D4441423735313935394541342F5265736F75726365732F33463532464337352D433246342D343732342D384632412D32
311
30464433424638453944462F636F72652E786D6C8590CD6E842014855FC5B04705FF98093219757882AEBA23CA5832231881A68F5F186DD2AEBABAE4700E1FE7D2CBD7F24C3EE56695D12D40690E12A94733293DB7C0BB3B2420B930BA19E37ED940A2C5225B1065C0E8BC19BF1ED268B4933AAADA4CF21085B5D281647C86
311
430BECF82117910AEF82C33ED2558C0F31CB14A5BB8F51EFD57444D5145E53772537C0102237DED508D63D2961595D07484EA481A7A2C27553E435E9729AC530A34E2D3FF47193C2C909309CA306E604E2E60D956784CE157AA75974326ADD163A1FD0D80EB0825798F74D057BCC03AEC125241C5F21CEF950749CDC4E03A7
311
D91EFC03F4EBF43FD02BED0A7C00F7840D15C3FF5F178C66718161BCB61B665C36FB06504B030414000608080079711B4B9F38FAA5F8000000960100003700000038383335423239412D373433392D344135432D384546372D4441423735313935394541342F5265736F75726365732F636F72652E786D6C8550CB6EC32010
311
FC158B3BB6F1934498A8E9E303AA9E7A43B0715162B07854FDFC42EC4AEDA9A745B333B3CCB0D3D7722B3EC1796DCD844859A3028CB44A9B7942315C3045C58933676DF8454385110B4C28C388B3D9D9B8EE90B42680C9A8B10A7650780F0115F2961E13F2F20316518A1812C35FCB55C8AB98A124E5C6E32C46AD76A956C9
311
4D5F3438C409A1CF2FE781E0E19176B8EB1F9E303DD0111FDABE19C6B61EE8B96655167316F4F2735D3A100114E24D4D465C53DC8C6FA43B1272ECC93BAB3293331F5CCABC1FCDE9107F056FA393E059B56DFFB8C655FDEF1AB5096DB3BB6E0A9F72A44FDE179C55B9A534EE15A6991BE5DF504B030414000608080079711B
311
4B848C02A5F7000000940100003500000038383335423239412D373433392D344135432D384546372D4441423735313935394541342F536368656D61732F636F72652E786D6C8550CB6EC32010FC156BEFD8C64F1261A2A68F1F684FBD21202E4A0C168FAA9F5F705CA93DF5B4ABD9D9D99DA1A7AFE5567C2AE7B53513E0B2
311
86421961A536F304315C1081E2C4A8B336FCA24161F8A226C830303A3B1BD71D12D60465326AAC543BC8BD57010A714BCD045E7CA885973C86C4F0D772E5E2CA6755E2F2CE6334462DF7552D939ABE68E580614C9E5FCE0346C323E950D73F3C217220233AB47D338C6D3D90734DABBCCC68D0CBCF75E1140F4A026B6A3CA2
311
9AA0667CC3DD11E3638FDF6995998CFAE092E7FD687607EC75FBD3D3EA3EFBA31957F9BF66D426B4CDAE79DFF0C9457A711B305AE58C52D9024C35E7C9BE01504B030414000608080079711B4B6CF2618E02010000D70100002D00000038383335423239412D373433392D344135432D384546372D44414237353139353945
311
41342F636F72652E786D6C9591C16E842010865FC5CC1D1595A81B64E3B6DB27E8A9372AB32ED9158C40D3C72F569BB6B7F604F9F9FE19FE197E7C9FEEC91B2E4E5BD3014D7348D00C5669337610FC8534901C055FACF53F30488C9CB0835506C1C7C5867997066B3C9A553556E12E4AE7D04332DCE3A503375C7192A90C3E
311
12EE96CE72B8C911539A6E9CE05E4F5FD66141E9518128725A93BC2145FD4CAB03A507465F78B69282076D7C59ECCD707A4595D8D9C7482018CFB6D74805AD7646ABF8477DD1B880689A929D8AB6277555B6A4EAD90369CE4F3579EC4F35A32D6BCF7D158B44B3E0CE2F71327B9175067FB56FC65FC9C2ACFE996C733810F4
311
3B54B68E59F0EC7307F15C57223E00504B030414000608080079711B4B332AA97A04010000B201000008000000636F72652E786D6C8D50496EC32014BD0A628F6D3C920813351D4ED05577D41017C5068B216A6F5F88A9D4EEBAFAE8FD37F1E9E9735DC04D5AA78C1E212E2A08A49E8C507A1E61F017442038316A8DF1BF68
311
1068BECA112618323A5B13B60C4D467BA913AA8D9019E4CE490FC1B4C4C708DDF421575EF0E023C35D8B8D4F573ECB02173B8F51AFD61FE96425F75240565778401541F5F08ADB23C6C70EBFD13231190D41891CA5444C5717252D641893E797738F51FF485AD4760F4F881CC8800E4D57F74353F5E45CD132891975DEC63F
311
6793D8D303C76F299796FB8AD17763964C88A504307AF9822C3AA4C59FD26113FF28ADB46FEA6CB82B5CEC1C0BDD1731385D308EFB79E34CD766DF504B0102140014000608080079711B4B95636459DA000000200100004F000000000000000000000000000000000038383335423239412D373433392D344135432D384546
311
372D4441423735313935394541342F4173736574446174612F446566696E6974696F6E4974657261746F7250726F706572746965732E62696E504B0102140014000608080079711B4B058B8CB1EB0000003002000045000000000000000000000000004701000038383335423239412D373433392D344135432D384546372D
311
4441423735313935394541342F4173736574446174612F496E7374616E636550726F706572746965732E62696E504B0102140014000608080079711B4B88E57597CD3F0000904100006B000000000000000000000000009502000038383335423239412D373433392D344135432D384546372D444142373531393539454134
311
2F5265736F75726365732F33463532464337352D433246342D343732342D384632412D3230464433424638453944462F7468756D626E61696C2F302F67656E657269635F706E67504B0102140014000608080079711B4B28BB58AF800100009E0500003D00000000000000000000000000EB42000038383335423239412D37
311
3433392D344135432D384546372D4441423735313935394541342F536368656D61732F436F6D6D6F6E536368656D612E786D6C504B0102140014000608080079711B4B2CCEBD668A040000E01200003E00000000000000000000000000C644000038383335423239412D373433392D344135432D384546372D444142373531
311
3935394541342F536368656D61732F47656E65726963536368656D612E786D6C504B0102140014000608080079711B4B6180134D5F0100006B0300004500000000000000000000000000AC49000038383335423239412D373433392D344135432D384546372D4441423735313935394541342F536368656D61732F52656E64
311
65724D6174657269616C536368656D612E786D6C504B0102140014000608080079711B4B80D7823C510000005700000047000000000000000000000000006E4B000038383335423239412D373433392D344135432D384546372D4441423735313935394541342F4173736574446174612F41737365745461626C654F66436F
311
6E74656E74732E62696E504B0102140014000608080079711B4BF865834058000000680000004500000000000000000000000000244C000038383335423239412D373433392D344135432D384546372D4441423735313935394541342F4173736574446174612F53747265616D56657273696F6E5461626C652E696E66504B
311
0102140014000608080079711B4BC55566BC37010000A20400003600000000000000000000000000DF4C000038383335423239412D373433392D344135432D384546372D4441423735313935394541342F4173736574446174612F636E782E786D6C504B0102140014000608080079711B4BC504666BE70000006001000067
311
000000000000000000000000006A4E000038383335423239412D373433392D344135432D384546372D4441423735313935394541342F5265736F75726365732F33463532464337352D433246342D343732342D384632412D3230464433424638453944462F7468756D626E61696C2F302F636E782E786D6C504B0102140014
311
000608080079711B4BA233C2345D000000800000006500000000000000000000000000D64F000038383335423239412D373433392D344135432D384546372D4441423735313935394541342F5265736F75726365732F33463532464337352D433246342D343732342D384632412D3230464433424638453944462F7468756D
311
626E61696C2F636E782E786D6C504B0102140014000608080079711B4BBE89762363000000880000005B00000000000000000000000000B650000038383335423239412D373433392D344135432D384546372D4441423735313935394541342F5265736F75726365732F33463532464337352D433246342D343732342D3846
311
32412D3230464433424638453944462F636E782E786D6C504B0102140014000608080079711B4B2D6F35AE7E000000A300000036000000000000000000000000009251000038383335423239412D373433392D344135432D384546372D4441423735313935394541342F5265736F75726365732F636E782E786D6C504B0102
311
140014000608080079711B4B344690A00B0100005503000034000000000000000000000000006452000038383335423239412D373433392D344135432D384546372D4441423735313935394541342F536368656D61732F636E782E786D6C504B0102140014000608080079711B4BE3603EBE7A000000C20000002C00000000
311
000000000000000000C153000038383335423239412D373433392D344135432D384546372D4441423735313935394541342F636E782E786D6C504B0102140014000608080079711B4BD48812677E000000A3000000070000000000000000000000000085540000636E782E786D6C504B0102140014000608080079711B4BCA
311
1DF9C9A9000000730100001300000000000000000000000000285500005B436F6E74656E745F54797065735D2E786D6C504B0102140014000608080079711B4B3DEE336E64000000790000001B00000000000000000000000000025600006175746F6465736B2D64657369676E2D7061636B6167652E786D6C504B01021400
311
14000608080079711B4B0B649DF8F90000009601000037000000000000000000000000009F56000038383335423239412D373433392D344135432D384546372D4441423735313935394541342F4173736574446174612F636F72652E786D6C504B0102140014000608080079711B4B4003D6BCF20000008E01000068000000
311
00000000000000000000ED57000038383335423239412D373433392D344135432D384546372D4441423735313935394541342F5265736F75726365732F33463532464337352D433246342D343732342D384632412D3230464433424638453944462F7468756D626E61696C2F302F636F72652E786D6C504B01021400140006
311
08080079711B4B6BAAACFAF90000009601000066000000000000000000000000006559000038383335423239412D373433392D344135432D384546372D4441423735313935394541342F5265736F75726365732F33463532464337352D433246342D343732342D384632412D3230464433424638453944462F7468756D626E
311
61696C2F636F72652E786D6C504B0102140014000608080079711B4BD5FB3FAC0D010000B10100005C00000000000000000000000000E25A000038383335423239412D373433392D344135432D384546372D4441423735313935394541342F5265736F75726365732F33463532464337352D433246342D343732342D384632
311
412D3230464433424638453944462F636F72652E786D6C504B0102140014000608080079711B4B9F38FAA5F8000000960100003700000000000000000000000000695C000038383335423239412D373433392D344135432D384546372D4441423735313935394541342F5265736F75726365732F636F72652E786D6C504B01
311
02140014000608080079711B4B848C02A5F7000000940100003500000000000000000000000000B65D000038383335423239412D373433392D344135432D384546372D4441423735313935394541342F536368656D61732F636F72652E786D6C504B0102140014000608080079711B4B6CF2618E02010000D70100002D0000
311
0000000000000000000000005F000038383335423239412D373433392D344135432D384546372D4441423735313935394541342F636F72652E786D6C504B0102140014000608080079711B4B332AA97A04010000B201000008000000000000000000000000004D600000636F72652E786D6C504B0506000000001A001A0021
311
0B0000776100000000
310
504B030414000608080079711B4B000000000000000000000000370000006662782F31463446454231422D454632432D343730392D394537382D3338364142443846334135362F617474726962757465732E62696E504B030414000608080079711B4B000000000000000000000000350000006662782F3146344645423142
310
2D454632432D343730392D394537382D3338364142443846334135362F76657274696365732E62696E504B030414000608080079711B4BF270F1330600000004000000360000006662782F31463446454231422D454632432D343730392D394537382D3338364142443846334135362F747269616E676C65732E62696E6366
310
60600000504B030414000608080079711B4B88E57597CD3F000090410000420000006662782F31463446454231422D454632432D343730392D394537382D3338364142443846334135362F7265736F75726365732F322F305F67656E657269632E706E67355B773CD4FF1FBF73E71C0E67EF7576C9DEF3EC995D46C6A1EC50
310
46649CBDF79E192942562825CE965D8A868C2842C8DE9FDFD1F7E7F138F7078FCF6B3F5FCFD7EBFDFEC41B196891913091804020321D6D7513FC77D8C5070EC3FFEE51B21F068154CC75D455CC028A3EA68992803810109FDDE5D5CEC5521B28A1B422BF80741695D5B529DA1C2D058AD2388BDA9F476F7C2CADC939304173
310
DBF48A452BF8A700C0C70C3D121C1AA15A5270C22E2B9E28763651F7DA0D12CE11077B2ECD0D560B5E3DE2368B1E65C5E1C87384A4CC5F2D9FB8BE39E9B77C753783A37998F5CEF1B4FEE553463245C9712270880DF339E0B882A6BA713D865F6F384C842D440934EF264F4A304F8DE4EEFA1E2BF5E2D91F5ADD9613D6E31D
310
DB33ED31DB1D7916CAF091286EA3D31B9CFECB78BB0060245B943C4C040119FF780A74DD308BA9D028678674EB5504ECF284EE814DAED07440BAF649BE4B55DA2890F4D73E2D489A59EE54FDB0A85B59F2F52C4858A02705C4815A792B0C4A996A2023ECB195073E115E3E3647F64243A8338F2000BCB58DA5692C7E7C3D41
310
3F963FEDF3CF00FBB0F831A9D51360FECA43819F527B89FA260EB63C5DA676830AA3626A3693B23F1A17A0DFFCE3EE164E31B5365EDF0C89EF64D8E38AB0BA9A1117D7C3A0EC44F44F4023095E80BA610DE336D0F99593A88BFC5306E72DF98F7FD132ED95878DF2964EA7E43071359FD83B2BDF9C6B5BDF768F0F3C0FC351
310
199526F53D9460A34511F75D1B63E488178569472C91A94497807A3FD4A390C6558F26D416365C3656DE6E769DA9D8FC73774E1709812842DD8EF96AED1960F79D21B395CDDFE6F92CB4EB962A4668C76990E2EF29798C8941D67DA50F4A5F947872460F1F6FDB794E8A29FD7AC0C0D6E0714339CE258FB17AE8535221E346
310
4A10F29A0BE5EEECEFC5675926A89F49EB14E5711894F6586DB5754EB4D5DA9C6437EBA57DB97A24F8B8A8DB295FFD73266CF57E82694DF5166DDF93573AFE9C9C5EB05F8FEF8E89E0A8917B0B3724DB7BEBB53252581EFC3E38166BA131A3A5B42FE2AD00A769BBFA4458D2DE7822F8C4F63D0B8E21B285AE13325F3410A4
310
35C648C9D91FDEB109E73CEDA7BC796961AF79175E1A3CE4C5E8B0D009B0C9E29EFD98BC8E97554E3D8D838424E270F7685226E5AC268E021EDE3522D583E8F20C0BDE2959EF5BBFEEDAB32FE9A3ED0E39F211A86AA9DEBFC68182EDED132AB8BB794442D2D7EA9F4D8BFF52BC4D55BB165124EE90A42D101E67BBBB292FFB
310
4F66DE5BF2300E44546757DA7CEF8932BFC9F92A0707953491A55C5A5ACEDABD9FA1AEA01BAC3DC5A24E22E7C47213493996EFBC369D086ED9397C9BA6C7F9855C7BD5E15BFC8C53DB3D2A4C5901A57ACD2FBDF4D1676E95338B2C2BCE65FDA4C64F5FEFDC7D9CA5AA1FCF11E193F2FDABF0F4916BF13FB916A224380E6462
310
A9815F2300DC49CC4DF8D055CEF76462F4B7A7ACA7365C2707891370BC1D0AA6203C44CCAB47084FEC057F27FFCD57F89B8B9852459798A675C66BD7CE572CAF71FF7E6D7ECF7BF62CAB7B3F1107DCD04DC55A3F9961700286141C94A4F771FEB2BCDA2DDEE0CB0BAE402FF1DB0100F8E475DFFFC074DDB4498AB7D186A765
310
4DDB1CB680D703D47CEB4E72F8CB13D86A4AA68116E26387B93FD6738779B34FEDB8E517EDF2BAF28D9BE93A1D3A164320E07D42E514725C29515FF361754213EDE06B079A2E99EB1CA82A02019EADEEB87B9AF005BD04BBCECB14AACD6B24EFBE482194A97DD32400685FF1FEF1544D1B14EFB1E7F08E6D2CD2AF52DE757F
310
35F5E62332EE88EA26417AD5C3E0E319D68F25414E6D672BD4522B278C57D18F0113921C71D96527E091F00CEB15AE23D24667369BD3CEFA10C7549D930890BA4366F4EBC55F01F746109F98ABCDD5A3EE06619C6AD78AB33E48E4C9BD21BF7478B385EC05C4F8987E2C1BFA0A60EBEDAA0AE0B015C2720ECE180FB6F2DEFB
310
EB822D96338C9B63822183BBF52FB664A7AE57003AABCE512BF77E7E31BDA2E739AC4C131657DDFE5225E900FB56CC01CDE808FA4A9C9DA16AC679656BB64796283D89812B8F91136AE18EE5EBBAF47A73BE3C153EB5D4CD491B4BFB4FE690A4CF9ABA08C0D8AA64220C438C96EA6CA80B58FE5761E697B3A292EB9FBDA502
310
FA863E49FE694ADDFFF9D62C520BDD1A22014147A0903A05B9B729F54272EF83931FEEC057BFF8C8055C279EAC5C0011804828734024F6CFA319C9CC6867C727184465CD9BB7ED386AFFD96B294A85E3802FAE47244602D8273615952B98C4F23F7EAE4463D9D638EEE374A20959E0FE519C4CFB0FBFE5DD80C2AA3F9DB961
310
D1BDE57E67C9BB47B77FDD74EE3094F5DBBE3EBC1FBDB7393F5116263009E2EFE1AF9A221B2AE234C902BF70E9F280ED23E73908361565964333A3F01D0B006AF32FB21AA1316744B489D5A198E85299241735BE559675130955C902A8ED761FC0DBE337A9F91919AF5CE32AF902ADF9AB2615E00E8A94586BA1A90839B618
310
32FF1BFB76D2EFADE6DB1BA04CCAD3DA649E7E2A0219F592E22F2AD54847EEA8E42271011E9074F8F3DD9FBA6CDF88FFC9FC7E811AD1CA8F4557CE4AFC7BBEDCF0114A48689F20A584520C74DA8127124B767E2FB91A6B186246727BE63C9445BAE02088D58B8EFDC0F1072407CD9B89A13F6303B4A928F593AD489B58E686
310
9325790ADC406036C591729FE14021F94B7796BB11848D463536A092A26F077F94639F7CEEE2A724C66EC885F4A24F8B8A0AC321F8FD149BA529460FAA34E4663C02D41FDF80BCA222D42F0ABFF8490F4FA74C673807C2051D8E467B47B616072860069A9A303ABA9B319D58404461401B0A0F9BE5E1E151C14BC33B32ABE0
310
3DDE91708DFAEB15E7C0D593C86BB7D7EC17BE56E57975F077BFD5525F3A1A361D584A75E08CF29FC7B44B2B3085014F3A5A14517377C3F6B8F37E59514C3B12F8AACDEDDA4DFC49BE5710101534CD6FB6DE15B50F11A09472AABA727F0C49D9CB906B158030065F48EB3625E010CEC1D511D0053474B11E6A4F01C0D6EF1B
310
ED3A944FDEC70E0DDCDC756C86545910E0DAE3BE3AA9A404574C2995CD5CAF9549226BC94B4F4F0F5F9086F418F6B32346464610D8BC7391D3C3A3CCF04CFC1FB2A3A3170E369511868F14EEA4E5E438CC73DB1F3248AA94B6B2FF33B222FF3D1E7BF146CAD229770158063BCE4F5391964DF62F7E52A7BE0EEA829C9E13C4
310
C147D6F93FE59E111DAB5E4594D6F3CD1AD375EE039930EFE5AF2BB2D41C83C7DABD8C659BAFBE8FAB392CA634F3D15C1D945DB4588D2B0824A4EC928AAC565557CA2F0DAA588CA5BE30B3A8004F7BF005E96CBF891D7F18112A3619FDF530DC8AA64954258E1811789B5189B49B4EB53F5F89F7D37523894F3EB57B373763
310
C91E502F52CC99EB7BDDF933FC324C4FFC2561DFFA7339FAFDD0A4BFBE6D3A8FF9ED1FC49898139864602458968913181918F719CCF5A68B2EE9C1FF050E34E63107003B8120FA982C21B30A874E4F5E4B38D5A8290C4B8D9BE48A0BE31EA995BDC37AC6DE90BA17D259DEF53605D55922FEB1855D915B659FBEB350EE0DFB
310
2F9F766E1C84CC8964B75D08667445EAB966015F63A18A9E0A325C1B3DC628C0D3CB60F767FA93CC65F25458BD23C3B312716E5F40E5858AC06EBA9AB14F95DB99147B832069201541D09A0D856E12C629CF32683760EE855537D1901988D5EBC156676C7DD51D7207CF3267AF1D76C2AD867315E44618015313A98B19941C
310
696FED3461CAA9B5415F918556D7802EDACEFD6B2E45853A9735DFC9DBF7E440F9319F8B6805A973BCCDC76C069A9144E51F187EDCC12FC31B5DEAAF0A76137199B106EC84ADA6B6EE697D4E6A96E007417F4E880E8B1E89B4BCE9D81EF611E2ED8F0C1A6C25F620FAFAAB656A7C42D464880E8AFAB0E0FC8EA38CA9A8AEEA
310
EE3E4648BA4680270A89743CDD3E6C6CBF34B7B640EFA285ABC7EA0A1E28F3CC963D114A80123EE66D0AF7D5380EB41909B605AB4765B709B808590458157E69BA1378FEC4B48CAF6A730E3BE3C5EF2DD1A5EAF94B1DDE50CEB55DDFD7EE9A16747FA4B223359FB1FCC69E1194892BABB93A1D5C4E807AC0EA2E30180811E7
310
7A2291F6E7F7FAA5E0F60215BC6024E48DE436C511F0628B8CA189982D4D83CCA17D305A7E923C37941CFDFDCD93ACAF735EF5F0E61BBD3E6C41A59B242790D3A3BAC7064DCD89AA2E37214EC839820949D5CAA31E240D2948E48F690298974A96BA9A8432BC90F5071D6537C9666EA4564796B7AFFFA548077BEEA75F6308
310
3435074BA182F3699557397F71548383FDA8CA34D99B981E72835ECDA5DDDC151315173D05A21F651AAF8524E88209E2E7A737ED1045800CE3390050BCFB8BE588DF111617874C62575039CA588EEFDEFEFE319B739DE2EDC147092A262611E159650E787917885EF08F1F51B8F2D8A71D60B58B190FEF9541A1BE94BC19FE
310
A50784DA1419FE4B0FB51B8D36B5FF8E1286FD8AF42B91E59A5F1CC4D60174E764045FD8C57B18209B217F89A62252BD20BE0E63E12B8E8F029FE19E0E8D0870F58721A557082250D5424F7909369376E41666C0EE77CD87CB283F661D5FB6D0DA023CB67320A20DC7BE661E9E1BFE5463085C557DA1FF9BE835733766C3D1
310
39F2CF9E2208873AD0EB4814DE9E6BF2CAF81614D4D43906ED1C05A3265CABBFE192770FC2F64F940CB6B17B5F166F133C9AEEAD2641807C3E69515171DD74C4A85311513D6EC9530B3B601B6BA3EBFF3B5C3D2F7D69765141E345F75433953D013ADDF8F6AA7DC3F4A7563FE5C7D367937E2900D7EAD0F9FC9A4A1A9B5BDF
310
1FEF08532660C01C5D6DE22199AA774383E306DAB87E301ABB7D213887F9869D4942D0D71E94B27EDF216A318BD488D45DF84529EF575AF3C3938C0AAA0215B01994153E2054A0B894DA5C784980633AAD48576957CF4AEAEAFADC7C587368551C73DBE1E57C58AC713303A8BFC258BD04B51724459FF9E24C03A81E0E0679
310
CEB9B348C0DC998FEB9C6D6EFA77D247CC8F92D3848599ED89A23218D0636465AD1CEEB7DC140D7426F83491C4E8E8281C2FB35240918FFECE880CA2A42D70E8B20B34DF5221C7DB0CF90ECCB9C745B37A47E9B716FF7A97B7A252C1F3814DC7B1E1A7F72B8751D524EF7CAE45B0C73B3BE7D08ED39781B380DDFC9AA4A474
310
9C9493DB5BAD07A6EA6C092FBD0E85DB004DF06B8C9D3089C5320187E4CE1846158C7EA7DDAE8AD9AFFF21AA3A1026BB06A259845E8232DEE62811A4DA9CEAB3A4887320B76E2AE5615EAB7BDF738CBDD01F1E64064BC13D9EC53576751CA8CACD58B3CEB0E6CA585BD089B2A59B9FC101403387AADBDBE70586B93D64BF3A
310
D4453EF9C3B6A93817E8346991798601344F79A83C51F3D50F7BF2683A3605F51A72449489E0EE6169C749C60B1035651103AEE24D24E51A759C840DD3FC6504DA6FE107510E447B43461C79D22970B75DE5E1BD3007D1AFC619A4A4A69B5626AF5E9B8374E20677F77E2F8E73DF868E8BEC7EBA7B6A75EEF7205E1AB9486C
310
B642741D6E03FF13FCCEDB1C4AC129886268B01CDF4B124AF797CF784F3C6DEC97A17D4B558070A0F1C04DA4FF9BDBF34159AEFE958479824B3F58EBD1E19088A2AFDE501B6F2052368A3FD0E650A179EFAB1561E1D27527077136E652676C3670F42DCB3352F48F6BC86D2C3B0051727E41A0A4DC6CE2BE9D47F5CAA2935A
310
3C0539AF080665997194ABECD723B08129CC5B6B21D2E7D54CD4D12610E7E9FB8306771A89576C7A982002775ED44F3F744CF21EEBB27A631671D921938AAEE3EB0D19CD1E083727F607823E817BF599DCED5394E37EEBC2E88782E638920CA641EF74D4CDFCDEF06F4278ECB18E31E7E9876F2D783C8BF429C75395F57E98
310
C2B495A3DA077EB3AC3C158608B6B57FE3EA48484D9A480096FCEE0DE880950E7E5A5714131C5C41AAA29FD19AE81AC145FA1B9E85C7169A5AB837B213493DF7E9AA4B5FBF9CDEB36EBD21EF1181B7CF7366AB2A951D01E37AF4EB835D1BE8C117CFBE7625D2EBCDB0B20C5A4B45CED0BCDE3EE8DA9DA78C2E21DEAAFFD119
310
7E463C33CC6A80FB785669B856EFF7A8CCCA2841B5A5369173320B1170C368B2748D81062EA0296E5E2D95D7667A4A46D98A6FF475C76AAB0A8C8D45E226FAFC9FE0133EA9F60111F99CA81ACE03A1D14C89E8B0D69079C91464FA1D99E651D0EAF606F345C42A8A1AA9BA391031582B96D5B4176A77AADB01F12FD298A75D
310
EEBB2C82F0B8650E880722F8DDD90C56A7A058E5FDEF1AC93545BA27367C76F5D8F9690CB6F8DAE141EDD7971F0FB548A2AE435F224D6E5954CA155512F7332029D5A1230854B79F258EC5FFDB09F5F6343A8EB193229B7F7E79B3E48F8E183860B38C8269D1B53738FF1E0BACF6AADA6D4869E9DE708E79B5DADCC09B1BC7
310
6F649731CFAF59A83FD8BAE4C749D66FA87A3810D4D62FFE826FA400C0F325D2BC0F3CA35F5847B82A2ACC7961745C823E4D863D54460AF792CE6F79B5C7A33B25C3AEA6CDE15A919B6367D781E9D44F61BF828672594A3E1D9EDD6DF179A81F27EAC05B936575D73E05C209DDD2115CFB705DF9BBF3C911589B3640735E9E
310
618FC9C36A7326C82B2205E244C55D56FDB9D5DC93CE958D4BF8174D2B3DA54CB3C09F2C2A6DFF73D23B2197355761AD421EC581284A7EF8DE2CE3497C0C804D49B41DFD6A7360844E5BEFFB495CFCDB97A4595911CDBA623274CE852B5E278AF0BEB1770E9D37CD977B2766A7DED0E94B840E1E95E8C77DE5CB6354AF7871
310
427C28ADBEEF7BA0A28E19DE9ACD75F379FE373EAE6DDDAE3834692F9C2B03B4FCA8FCA9ABE8EEEBEBB725B88A7C90941E850682CA04061A7DF0CE82ED49BFAFFD42C309818FAE14755CAAE78B0F73243ECCCAD7DF58FCB9CDFAE7A4D3E6671A613639130D056C8383C8F4FCF4808C331E544DD26E4755D09EA05253B3049A
310
1E32587CC25D72E073E2CD96D04A71BBCB0038FEC3F53D254199C3CDC67CD66640269431860225392B2CB3ECD0B4498AAE78BA1994246AE1EE78F2EDFB79F6C6CB6B5E279C4D373FBC21CB2698C9ACBBEB6A4BB6B39E16AB0E421CCBFC7654D81ED86022F9BB522146F9F4772E2D0E4FA70120C95A85A417BF5078B232F475
310
4363EB1750B2AC2148EB46B1EA72AD9B4D23ADCBC589D70106C3EC2ABEEED84DFE28E718C6C83502C28E9FDD3B09DA0A6F6F7B72B706A31C9E2A331EE70DA56A083D2177BFD63C55B11D8D949FAFCF90B23A1E24B9B5018B9A17E99F2890EC302F330FE7936E2C23F0D237EC8916F5166AB84B62A21BB0B950146962D754F9
310
2CC2C8877BED8FC7B7B25726DD19545392570B3A2C66B58F027BEF412E552D12A588C4A3CC5C3193FCB3485EFFF700D0B9EEC077754A33DC1FB9E25AF814628F91DDFECB667D3F7690803F38D13F8AE39353523BB08FC6760144AFA2CE28236F65EDBB3D5F59A57D612B99E3D7E5F8A851666BF9B5A6658EFC96EEB37A378A
310
BB0EB3FDDF1303AF32C41BD1C8560745D7BD81066B0D6313359CF488563D3BA3F8E2185D1FAA3EBA1397C9D0E3DD232180A4DCADB6AF25DB3AC3CC26589C8239E66E81547BC7E2F328F9884764CA37EB5DBE390DFC03A5246B456A7C3684C4377D0EEF9A350680FA9A077E8B2957B489E09AB1AD41316944C2254B5984830F
310
691C93CAA767EECF976FA5647538830B5E63236A6F0365C1E0F3E327F24FE35EDDBD7360B0F7374837409F7A6311BECC12B7026D4FA1AE204FA3F5FE904B1F420C7A9044AE58E403E7C4848E7DA25DC9EDAC79DD756FAA26B9EA83ACE8A214A2612A22AFA19DAE7DBAC5F8CDE1292A485F98DAC731A29FE01A3966E96BCB9F
310
B5A4C8830E1B9AF0C54B87FBE221A097036E5D28D1F869F810C06A9BB0AC0612F69AEBAF893C6E7AD59460208BAB3A6B09CA4F6BDDAB8CF0D1F84B72487498395A70DCD754796E271099A567A55CF242BBED64696378BB6CF25EF0FCDB589F3A82F1116D010A9AB9FA4358809EE0C973A2B4229BAA876A70B03AB49CBA7FBE
310
71DB1832FFD32F9BF2C8E98075CACAFB36921235D0F552B6A67E94E094097A5D7DF681B40623DA535ADA7A9AD8E9A62407D7C9A5AE51D62A17A83A23728DE86BB56115804D3F2675F2C6B87541A0FC497BF0CA86420F558C9859EBE9FAD62747E323E3AADC03FDCDDFE7407B09DA90B44E3185723C5381EAEF589765E2F7A0
310
99BA46695BAD60CEF3491B8A171F5F56444F7CE9455312C3498C74173AEA0214EC029833B34B650CBB5A5508D5091665309642791708ECF27CF11DB3D797D6CFE474453BD4BFADB768094B2147814D81C7CBAF8228DCAF5564B5891F5EF6A860EB2E323CB82AB868D8EA048880D63B0DE5341F1B3D53297B928A11E15F25E5
310
148990F710747C3509ED14909C552EBE3973246FCE55D00564D8310BC3EBC5085D08D806799B77D6C57FDF5E55837F9E934F09C03C729271B64F12D0A9F9E938107CAF7BF1EC8CF1BB9B42363D33070F4CACB425E605DDB0A34A12BB936DE286B9887A4E2E558F0886498BFF49C311D96C277CF6A9FC0D75AD0ECC5226D7E0
310
E3572012E56D7FDE4410CEC7A6D0F997F225A2055B8B92E3956E875AE4993CB3D4C9063AF98FD45E1BAB165640A43439A2C9181A7C355B297C0A0CCFFAE19B6FA3C2BA238A885FBC98B8F6DAF4B94B97304878DF4D8BFF6A4AEDF79E90ED4E68F00CD7299F4E0D83E35601AF0CBEF18C1E870E74758FA91F5131075004DB3C
310
FCF09AE1DABC11957FD9808C92E8A678CE9DBE40DDA0E0D1D505AAFBCBA208232BFB6FB3704E8985E61ADE53DE74152F5C7DE74B1DEDCD37DC3E8FB30D7EBA8B9EFFC3606BF90B8D438279CB7709FC7C00D327F41817EEA71CD9E49FE9C8C9A81C70915D9F0F15958EC5AA4C3BBFAF46986B90F188BDB24B89DE3C6F29EC3E
310
6F66D84856EE96A35E657CA41B41EFD8DBFA16AD6E91439EA92B40B21C053249F51AE50EB0B24C770FFAF40DF12C8436366819C48E36547D4E7B72FE2BBF10828583057814A668BDF183F6B2E58DFB151103E56303E63D00F39C27C4661605DB644D19175D02E3F0241E8FC3458D17AAAADB117CE9EEA690D0DB01E634878C
310
04C2C9310B69FCAB831151E3AD293BEF6E46B0ABCECB50F5939B39C613D41E81FAE8D34CAE3C4566B761D37185FE864AC32FCB71AEF39DAA5BAB88609BB980CD2F07A8F941653B529567726E2B2A58D079DD57E1E5E31426CF184A04D7B03B985F276D47406AF276FE32E3328BA866EB1FD39BEF57863A317634AA5FE46740
310
9B3873F5069EF0D71AF00AD189D17BA1974ECDB2D623E9E14086386A6AAB5807825C37B015BFE892AFD154920EC437EB945D958E18622E1E0FE2FA06557CE4BB9BBD05A2D40E774DA2B65473791E314B7D6C886820B2FCFE4AA272B3B8B15E7344A145E8AF919B5454D89D36D413E87211186BF6F645E5EC94DCCE8E1C7990
310
22E4EC9BC86D7A0F2AFB1FC4B2CE48F84B3F49ECE65BAD24CADCC07EFF39AB06BE9E6B27A059938EA7208838455383DDBCFCD967DDE4650EF92A14FF933C975DB20BD7FEEBC4487576485963D757D16340D9599FEB362F775F38CA4185A86F74B629C81B133644A3B18FD056E997E0734F9BE26D11C0AAFC669E2AC9FC41D2
310
81F8B2E1C35AE27BCE05F3DA295488096688719D974DF1B5D182DB7792288697F8763CFB43562C1CDEE11C4AABD5C22B6E33F6F389CFC3477C5919DC0D533F8A7A1846B7ADB60ABDC26C43D0CFC8910B7C15EE22675BD02702ED39DB77A87A192CA7A543E6205B979B9F5A6B512A3CA799E198B2D5797C0AF8D1D872CA455D
310
4D431A7879D4DD76110B5FF7F4176B54477A9EB5E4A5D11214FDA585F0382751D8E2582BA5D2075053298FEB8F1537304E32CB22C2E2B693DC0A760B1DFCA751BDC445AFDCBB12820ED85F6D5298933C7EF1211E9E057684056CDA3FEF3BB6052355E162DF27C59E965A8DDB7F9437EB72CDDA3A090DE65A5B2F50326247B7
310
EC67B73ACC7047FC9B353D6EE990F772207C6EC52B39DC2F3C0754821DAB559F7C1809C7D0DD5B0499D0442E0A6E391B3D5DB46D11E731E6794EC77523FBDAA242ED67F9FA1FB684255671F63C9BCFE6E7E896D51001A6113EF2298BA494E0B0980D1FA5B9D60796554C02256B1E0345FB7C6186B6A19D2DCA270416262845
310
FA4F42DB5D9B0A0B6F07FCA2E56C242522E001E0CEB734AF310FC8BFB57E38E03AACE93B3326A2197891E68452B26A6307FDABFEE0223D3C03C3C73D2D5BC054C8311F12004CAE488E5C29287F8156A2CAA4AD0D7BE6B97264E4139F437CE73ADF52E5134C52B819777C18B323A5924E4F67AFD13B1CDC3A61793A79FAF5C0
310
CEB718E441071E797C6DCCB9EFCF7E4A1E9F3DF3C2F9C9E8294E9586868788C972857FB0556D7A26941A7EEB9B580AD78EC40B85DC906B4120A563CA3B87797ED612D3B035962BB75F6515A393F4CB057F564CDF54F2E5A024514E6A1F901DB80C7E70B1FC05E356A7E72FABF4775B3E3FB8F70A2A8E7B6A94542BB3041579
310
78CCC999E707A29CC795E67A59CC546A5D47B368954CA7B6E75EC9E1F6FC73CE3B4F71F8CB1A6B15923D61EAAEB14626AAA9D04A26EB9C66CD1BE86CA31A5D8703DE04CD1EBCE4F5CCB62F93909AD11E55799A781A956ED27D3E738F4538CB04ADABC7DAEF20BC35BA6A90BCC1DC61BA05F20D8832FFB9BC9B15E2DB838A0A
310
FBB7E0C82A562127E0446894F427794C3037186F622BF24DE1B00AA10A23BFA47B2A180D6DA5AD6F7326FEB8C100C2D7142EB2A0B2A9D1008A09BA343D70E054AB69E2A7EDB783CBD92537FAF4A44D1296AC2792729104B3276C276C951D0CF3CF3F1E6B017720A7B8505A5FF9589365979678C36F1BAF759EAF57C60F1FF5
310
FE9DCF5F8E764FF25A2D06CF25117A8FED51884C13B2B750DB0E4F5E3D64124FCF11F0AD8F1CC3B3DA4B38ED22BF1CB2585EE6BFEBBA63FBFD44F9537B9B37BDD6B358720F98A8125AED4349CCFEB0E135F19E208A04CA7E2B10711185D72E381F448036EF57C9F874E54A971CA37A639E986AC0226DC5AA00D5B14FEA9192
310
234B3DE617814FC221C92F33F1D392F297731B567FD98FD91D989379AF567A65B8ADF177591DB90FBEA99BF4ED11B16E50A0AB1DBF1156D034BBE04D69D08F939D8E92BF525A1DDAFF80ECBC95D8F45D3FDD289FD23F7D8B452F8EBB34EC082DEEE68E18EDDF072060FAD2AB1504DD4879BF67099FC58F6E9DEFBF645D1633
310
4A3E9A127C6F1AF6132CF287E433B43A0EE93812B4AA0B194E03EE3FF91EF9C6ED0074A2F6EB18A96A7C9890B1FCDA1F2095E944DB911ED54C60DF16FB74C8CE9BDC7C54C4F14078CF73C2FFF1F1BBCCD7CF64F71407EA1683DBC410D226627F66E509060D5C0AFD611DE681D509DB8DD12FB1265B03C6F5C55FF4C30BD941
310
87FF692B4F152982502F193098A789526A038AB529A52BC0DC4FB6285CBAC10A8B8DB75DCD9BDABBB221E27D1F8DA9F5EE5926A1C8AA9BA9BC09239C6A7F12914EA3B59EFF7AAEC3FFCCE56F1C5C2980AD072793527565E774F4631DB178CEEC691B1F367BEA0CF2907E1D6B854D527065979DDEF002D8B2ACEA7CE21AE297
310
737EDE1D45B31233B73FEA35BCFDD0B09721FDBAF6432681F2FD10C3E9EFB246FD6E854B344ACC9D8A0EEF876A7314B49B6A499FC650B099D650DBFEC7638ADFD245E2B7839DA5AC5F7D5623FC0ECEEC8653FC9B2BDD1AD4D00A566FBA7186DD3C9CD26512551637498CADB950FEC71ADB9A5524285DE328B8EC7EC75D2345
310
AEC6A27C42AF6D9B92155315C80DBFCABBB7DA0FAE425C4FB896B15C9BFAC4FE67DF5A23D30C93DA4D8F36FB15D100050DA6062E22AEC5F4DAC4F6FEEF97AE05DE63C6D38F9E068A20BC5E3B6BCD75320C5090924E7F93640A7735B1A43451C2D91EE62C6238B797349E59890AF3A520DF4A87095F3ABEC2E61F0593416CE4
310
6CDCBE0E00E2523FCCD04408588B5B6C9DB6459C786CE378770B54F51DA3A5E1DF2A3349BEAAC234A6CF8993B598B3B25B4B113E353A4D750FA7534749430F3EBF2512E7EA3FD43C6AB9A1F765A58463B306721A15D224FAFE8C6F5E3432D57EE697DA0DD5A9D4866A8BCCAAA9DFF1F06047851408FEC060471D0E3EB86BFA
310
F46E4B5E60311DC3E3CEA147C75CF971BE74689507154FF2D2E92F15CDB2B9182B11459FD8ACAC5A85F174BC94A7F4EE4C4F5CAFA7C02E37BF0BC77B7DCD0C047BC316F562A01A441AFA7931CC84A28CB9F4AA367EB515778F29BFE61195FA671F4352E5E46E3A64773F1F76EE5EB36D7BCE9BCEAD837A4D77F8DB8C92AEEF
310
6711920D7C7D0F76B0FD0EB7AB83724CD35BCA7D36DDDF5FBB7FF6F04A91F3E2BB3B8F1A43CD659639507FF6331C5F697BCC782AE57D757A27D97F1AB9E0AEDB43F92F1B2AACDF5FEC8ADBAF9F814E2027003BA2F9E144B1938A7A04050AE5D953B82C45619165C813A10E76DD6906B3C16438064D14CDA713AEC420034613
310
E1AC7241904A49FBF87409AFB1FCB9B72FE7933A87D8FBEDACECE4EDCF6A4FE9FB94D5DEB74FAB7CFEAE17EE965DF980DCCA2D04134994F9A2E94D2265DA4FE6AA7B7AC15FACAC2B5ABBCD7DFF542C5314FDAB2E1B9D8B65220B8E2B638BE008E8DCA22678C820C5053664D15E89F2D735B51A84955E81A443545E9FF787BE
310
0FA700A76D136C27DA179A7C6E8939E01BE756E19CB292798063D8B97F44E8A27BCF3A614FEB8BE974A718E86F7EC99B53CA35FA24F61F2B07266684623A3D4CF073E511F3A10A8FDAFAF0078C577F4DF9D339FE7862E5FA47CF4344209E5BF76D783B1B48E152AD281B15FCB934DCDA49CEC5706B1EE8B460F435324A5CAD
310
154725E21AB8044B75A557A79F6C807B9340AA3D92503E866F4274412926C8C504E4D5EF8C0E68DD0B028781A6B4054F11CF18941F101C57CCC796773ABC8DED9CD91FE5788806C05E548895354AEAC96546D55B0E94A59F148D061F42AA398D822CDECA4CDE79E13469BDCC44FDC990F366BA5978C15F97ED80CBFD73B0CD
310
9B8B83A4F6845BDFBFAF034019473FB9A63BD55D3A4A7284757071574029A4D016DCCBE95DD679EF3C4880BF169422F8C89B68A988D2B13793CAED4F74DE7486C72DC94DF46B8E93D8E02EFCB1FF9B3BA10C8AE7F653DF94F4AF466CDDCEF5776687F7C4C14B63E4EED1719DC2EC482D7DBCC7AE518CDE3D5FF86D39000EC3
310
673C0044E1D308BF05F74D1B5F033A7D1BE7F74BC55BBE3E4A20F920946CA0271EB17BD2B80E5660ACB8A29A79F5E4BBA49D4D945B6EEF4A7EFEAA65E5555BBB57A7E15D2F83C69F30BBB978D2B39F1F26FC097424D39BB33CA3D87ABF64E307938B685BAD44F71556A30B7E712CA4FE600613C3E554B69ADE949A7CFE214D
310
F1FFF05CB82151EC6FC31950239F94CF7AD39DC473F6EA356E5EC2C4EFA04383CEFE985A127484366FBEE3C0EC4FEA363E4F6632AE781392FD45D67B63FB8DF70E82734F431FD3443172A0E30A83D60982D55FA6A2CF86DBA8382502ACC6CDEF3B907982EED1160E14863FA242F9757347E1544275CCDCF71ECD5F8621CBEA
310
326B8BA884AD7F825781923E66971F04010D574C541D8427A438A37EEF8AF88240EED7362C953F5A81DE2D56109CDE2524EA0F5D2F87308C0C47BD97AD605878AB8589E17CA83930CB5E0DCCD75853D68B1AB136594926DE426C367428E9334AFAFF90ECE221BB5DC9E5BB53D2CDEF954EAA9CD814F0E5725F1965DD458E5F
310
8487683AD86B9D0076BE3EE91EB1CECC5331A67A3F79D8B27587C12EC2A6A70474749F27B4C0BBAFB94B34189E88DC18964BE4121B9137FD516C7755356E50D6714E31ACD222621EBBCD1CFF81D87479056A9DA0E0B8EA19D24CF937DA89F78E8650CCBDC110AAB6C4E46DCBFD0446BA9E2060E81F314AC2031E88135E5476
310
AC0160EF5C0DD2EEF1B8B5CB2D198BE9A554A9093B5F7D7E4B5407DDFCA1D9C152FD97F55BFFFDFE802954DFEC8995B983E28AC92F1971E28F531DC407A1280EB125F64A72E617EFB27DFBCEDCDA2D6F2BDADA36873EE46B9BE1782998C63DA7182BC383FB6FD15DA472B175D7E8B4FC88F38D6E07FEAA3FA3CBB8F6B449EC
310
F14D2175E5C5CCA3A42ABF24CA6C9395AF74535F4DDB38CB84F56614B0FD32D7E19CA5CF988DB4449C40E23DF2B16772594554579094450F56F253CD25EA7F77366FB1CFE79696C428BB64D5A41E986189427E5E4D7E2DAE3D5BB4972B3DC44EAABDDDD63A2264ECFA5C786EB0EE1FDC5BE34FA0F08376869FD1E61EA06CAE
310
15191135445EE8F0394161C3266A596AA035572BB0C8876180D8B9C77D307DF9DCDF7365ABDA6F3A2366436457A4DFC1F259666569A9E4A79C817BDD5610E5200FCE894A358EC72858D50EF67545DA81C6FACE3D457BAF70367E1E6BDD9A952FB4F56247F58F523B97E640246051A72F79BE42FFA0B3187F63097F91C48B86
310
8586F714B0EBD5A00A8412C1236E1298F60C72BE6C96B82B404CADAA304AE9F303176B14BA53FBC2D5E86377E35542019E24D97B96A49B2C0E5006E7795954DEAF5DA58958839043C6C70BD3B1B33B6DC5C31316D8A6923F142E26F6711A2258AF977DDF1F970ECC4F1F2B434B96D81BEB6E89BF3BBB3C7C8CC80505070723
310
D6D7D7D3C8CA27CA164A26024FED94B12A86031867241DA53D929636DA600F050BC40CE48B8BA03D69224720DEE2ED2127390BDF5E6EA64527BBD4C4C63FA76BB801FEEC0E61218EC98A8A86CD8313781617877E66692839B9468CF4DB8E50A73986E558E309C0D6F676F921BE02F1185454DC75B111572FF9D27D85EA14C0
310
5AD7271225B391C4275659CA4A43759D0BA44639BE4C30A84DB7F67A41399FB95CBF923B1B1672ABC807C1590557FB18D811983FA97F5E609516D62281D38B1281F68FC75528C35E4CD7DF0F7DBB5E5DD69C414EBEA2F4A5B241B996BA77AE6C772E367408C633EA3E438B68563EA8BE7667F3A4C4FDEEA52ABD78A2820F44
310
3B7914A15F180018D231E64519C56A12F6CA7C8DAE18F06F6B769DBF92329EF6A5D18FBCE600F36BD8E8198DE5CDAA96181F3A756EBA5501CEE58F497EA4F418A2B82565B9BCC611713C0B708CCA1F398B78C5F7D03B3437CC18F13061F55C7BEDADD5ACB1DB0E36D3CE47FF6EA1A563A57E9649EA5D14D1A50EAA45746338
310
1C073777EF1600607BAF6428A7DDC079D47A204EF1E1F1F0589FB054D45E02CE623B3823C317C601E589E22B1E88B448524B86A82828E32345EC18AE17214B42F8C41C6D428016D9BA31DDCB47572561E5A402E5BA4FCE55F78AF7268524AA04130F3A20BA5D1E9F9948EA48FC8F5314FDB35E21898198060034ACE5E3E2BB
310
CA34092518F275190AF65F45867FF0900AA4B81F25427414C372BF51DC29AA855C5428EE1EEDD6B849AD60F6E73475C2D2523F8A2772C840A478DED18A8C5C91B085F255DC4F54EA7AA8947354FD17ECF8FB3B4A0DE7B483CAF3A1165EE05BBA413E5C1FEF3DE1D6B8F2F3F3251C17D9FCAB48A9AAF63AC773A0E413BBC46A
310
9ADF84A566FC920E4D8C52C9769EE3301CADEEEDD92B312E02E2A7E35B7F1E7D203FE5A7D75578B06E99D0E46FFADB8FDA17ED8880390DA29094202D6F645F76F6F96409CDA05495A96E84B04A00D1A6C6C81D7F3DE9376E828CCF144EE50E364ACCE7237EA0BFB5607ED1AC3CFE73794E5B61739D14DF1743441B1AC98F00
310
ECEDE9E7301FA29755FBEFA68C91EF2B314CF510537EF1ABFC9A762496280B546F5EDAAF8A5B387D469FC9A878A92828C88608453ACEC6094DCA54111E7AD5B2663DFE2DD151B7F123B9F4FEF8EE36AB125FD7AD52A59B1B765B3E3F73E3F73DEA93875004D2AFFE3CDE9493B87A9904DD052028949041A91DC0E1BA47BA71
310
4343FD5B25E0A6A09503AFC17C790058A836A324FE31D7893512E28230332F153181C1E018E1124EBE1BA262AA428A518237D1EA7275E48C5C561BD19ED6912EDD8367DA0F31E40EEAE9683DA9257525AEA7B632B97119E17145A90231768A4F3B9120FF32E8319B015E3CBE26F1A754177D8185345817C096B0CE443A955D
310
13AC15E1FB5DEEA0239EC32A3C92241A237B0B02FFCB4F93CF2B02570C8D192E2F2A68CEEB42F12E6F8CEEFF46C251E22B4341C56FB08CCE550E7A9D6F4D6564B9EA52A83D5BF2C6E03FA19D2775E15A8A7ACF30A13C259EE7F5EF2AC3BA354F1500E1A07FC63FB4686E2F12EC69719F9ECF5FE3F35598DF2CE944008CE78F
310
0911BA5BE5D0A34E0098FF038669C26030BA9B300303039852A8F6F496341737CA7E0D2E3AAA36DE0A70AA7D9CA0D54D9AD84B18A44C9E625475E1C97B93BEBB38DCE7D227E67A2D00F531436136355F243D1FC0D712C5765754FA22FCFFAE97919161F46D6E61ACB37D83777B385889770B50765B127768443A5C4D3A4E35
310
A3151111F146B7CA116F918A049F1C272F2CD7976C69A0068773451659A97E0F4A08FE604C3FF6CE7385DB19F4D3ABC8A0D80DA8A42096AC377DB49382B36E270B6FA7570188B4B7D1DDDDA82ACA487CCA5D38BD3BD039ADBAFA4ACFF27809239B722081E2EB9F145320553D183F28471C388BC8814E5045676767AB58A8E7
310
2D1CED2CA731379515D2E533E4CF0B39DFC625F97AC4836831A4DE330E87A8126FA17EBE583D614E71E22A8DBF2825599743E0640037303E8E1B1E8EA4E1ABFA4F62907B5E4E0E5DCFDAB417C36C6848A2B8D15F1E505434C0707E16B1CFC2A1C36A42BBF55734F8F4301DDC2A5110CEE8C0747F69519265012A2174BF4E95
310
5ECD4FDE095A3ABC70536B7AD0B9D7892F81287D667C108703C9B66A221E9A0929D030008F77FF6F5D2108EF5706FC87A3069B976F7C9FC3239D13D283CDEA83597461079FEEE049B0F392889898B7D87D31F8D60ED7B56B91823A8E4EDDB36C6172ECEE42BD42B12CD67994FA0F0DFAE9389356F4CD4425A4B8AA55CBF7EC
310
D585C6A2C2316791E43D5C06841ADBB226A87FD61515FFBB0167B74E56BD7F3E90A57A97FEDCBDF483A0D6699A8C0849CAEB4947FAA90D8E332D9DEBD9F4738C37DA0CAF9CF3DAA68BCB67C420459C7A64498D6E848E5CADE92BB6901F607AA331104A67F7CD650EE169B1DAE94D2C31C2F993632259B6957E246EFE4C5481
310
107B07118607700040E5812A2A2A38DA0076875258C753F60E0F2662C748EDD5F3F3686B8FC3BD6FE631ECCAA1E8B1C1E565AD117E54893E79F4672E32F9E46B2A183DFDCF3EECB4D4D077DBEA0DA254D256045109670050129E9B9B1A9E4A11344D61497A992778095151510C4BB7EF2009B63AA4360635312E4CF668B7E0
310
D3D85A8688E2BD83B569439892ADB63461930D428E0DE42E4AC57CE48DA5CC1449530D8BD3D6A0F08DF20C8E8F570F2CFFFCEA286E30969B4654D498A58D9DA782E19FE3F002181838925592C4A1EF0B332D88B61A92C644547BED490D3A42CFFAB70E36D961F694F6307F72FF15A1C79D5B1B5CEFD353D9E2B52566DEC8F8
310
F09CB3E8359C0F68EBBB7898243E34E12A015B2685AB303C04D3A9E00671FF3DFF0A184E4A2ABEB2B666AF5B3A209C73D8EF29DCDB069C9F391EEE9DD0F74C7BCDE16F8F02E3B8816122BBEB50665775B600549D8BB33A54A6BF940C028118BC6878C79958D6784F9DEAA6E26748386FFAF8D0D0101E2847B6563F5D8DC1D7
310
8F787BE00E2C941AE12148D4A81599FE8F68D4DA5CDED75530ADE138240300EE13B0FC13A1687FED6774662C05A2B7DFB186732F0D7A93545D8B0A6390AE5054D9CB582DA846D7A061B3358B45E2B52DDE63E114397EDB7E09233A579155D795BE76102CF277F4DF8B188C4F2879BEAE3C08347124BF9ED23B128259FE107D
310
31E34A652F090B30B39E0D9AF917B76A2806135621A8A60681F16AF216514BBD02711585B5B1AE823F4B2D0369EA5B6BCB863072727FFC871CA6C9AB79A814D989057E9470A3D238BC87CBB4A0EA49AFE2B86F22E499793CAA9047080450166BDC357524561E258C77CB697F1ABB32562CF87C3B7AA12F911EF19FB3E5C022
310
22E887D08202A60A17151F5E053A86B437771088B4FEE14D652C43E8D939995D34545E12E2FF93D4E366EAD25F10CB7DED141563C3D0C447AF06078A91135FD4B9611583CB4BF3BD167F2399CEAB0E0100F8FFC305F00F1711717173138B4B48C83022295DE657EFEDD97F238ECA80F528AFB4F8D67AD4E2594B9A3AA86D74
310
87EFC313BA95745C186F0CDD84CC12DC9CB0424B42203D351FD9C0A3AF10CC7F388E0329279087386421F194F4A29464C1DEF7EF8BE515E4A199DCD5B909342598D8FE6A231F71336248D5CEC5454455C7BE383B3BC7B260FED27F703FDC39A170F3827239102F59D4DEE7FEF82EAA1A5E4BA94DCC4CC44E7E2EDE20F24244
310
E4454369D2E87C3F823F193FD4FD27E1C23984B01898D15ABC20711A8A558054951A6AE280096BA36CBA439603B7B0B4C45F248C14B2383B4B5CD8ECECE4FF859AD4A6CA2326D020EF090F4041D28DB66E5256B56232CC52829DE8060BAE6BBF37D4B7469B822454FE93210A3E8D15E69FFCF01123222611C51C4FD0A041A0
310
CFA2471CF6BE38D2B20FA4C3525B5B8B586759475CF80ADFE67A284AC24651E52B8E683D24C2622642F27E7C3C22783BCF63648BC398BD6CD0D9C97E7E7E3EACB6126DB7A6C1FD9F1031302EE67ED96F22B77C7CA0239BB324207559B105E4693EB26EC46182A92C9C0DBD24F29B31C5C5AC1F84300E0E17CEEAC15F5736FA
310
4A98971E2F1423BFCD68D4BBD5F86E74B40A369F39507C88FCDB35D2DD8DEBEA4AF999E23CF2816D204200DF6E611781B9884C1AC8888B4DE397320472959434323A5A36B22A8E1F721A270DF3BD65E4A31C11FF048AFB0D8B7B6881423793963A23CFCE935FC189ED36FAE35C46DA3574C979E4394BE52084F3081837BE03
310
3396D2EBD80F1F691B273F660D2B32FA27A33B1DE4ADA5F0FA4651511102DFA410DDA86E065272CA314D5249DF91B06BB92807B28EFD54F08F7B525252782CD276DD02E6B0319B13DF87B1F6361AD6B28FC0D711CF445429B9E5A433CD493051C49A9E03DDB1B147D880253514A5DED88009018620EE229101C041950E2D8A
310
A8E1F5F5438E0C0C0C60EEDEE9E3E0C051948C69F84BB7B2A48A1F3C8EB9E6864687F4F4F6F6E2FA87608ADAF9C5E117B7C1A737E710769DA1D15ECE6A84502AA855398712D5FB51BE92E4EF824969CE18278798AC303C2C7980DD2500ADF8FB1E6D6C2FAAFF9987178923334A244758BAA01A9A1B70FA5097D01E1CC2A58D
310
AD0EC94CE6430AA9B0C10D75E3C6BAC670EFBADEE1607739CE0FC18A2587E3EC3058562014C64219C69BC269082D5C2F4A659278D585755912176D78A1B641719C2A394CED495A1AC5D583FD2F5EDD93308EA7EAE8A6DD396598BDBD3D4CFED62D18A5BDFDE0DD5C80D1A89BA62697B131AE7CE9A6594138582F1B37D68F17
310
49AC7CB67A70695D48A4A056AC1FBD4E82358CEAE38F54B95A9016F9000F9879C0D9D131768635CA798895F27D6F1614F11F2838A83611AA51C9A3DDB539D42979C29F10465655C17BEC3E2760B80DCBF609198C7B171A531905F3EC218D696025975E986C6B4C666666787271F202805577DD5A3EF0CAFAF91B62DC4B2DB4
310
217A7606282F31D8DDBC290593BAA93EA6353AFA9939B877978481E15CFC9F2755CDC00C538F63A4BA3E80AE009B73CA0185687D339A507D165B74290D6EE46D5C58148F020C3668ABE9EF2F7549170DC80DB41FFC1D678FF19AEB10C7133832B104B80F691B3138F97A92D26E551F1F110400D45AC71A9B9AC41A1A1B1DAE
310
ED0B0810638EFFB511D46B121C6FEA0F38CD00E03CFFEB9713FE1F9C263E4DDEC160D0497FA9A132BA608584057FB15380825DE6C7FC3C667EE947D488A09898D8E939C4953BF4EC9836344D2CC6B2971B2A21A572B06096F4982D2CC7232D46E8EA69DC83722E267754D777F97F96D5DA74E1E75178084D0E70F12AD33E5F
310
71EF2AFA599B2BEBF60A5BE475F444F240CBFE8143C334E7ED9150FEEFEF7EB020C4DBED388DD1D6A167A76F3CBF119B578AE8CFA7736ACAFA4440A1C47185638A0D2F3EB5BDDEFDA958FB13CE4AA4923D5BF840392D45544329525749734866684BF7F8D9D54D892E19BCA9F829A0F8BFCBEEA6CFDFC61D74EA1A645ED7A1
310
FF241739F15694BD835B66FEC5677E40FE69BD3F91AE402F036537218A401CB0828604AD189E575015C6F3F6BBC8AC79CF6C70653847254B31551EFCBEB5978B9DB85D58D0FA41A9DFE9C624834AA04949D24B5AE6D299E072D152D12097920F14AA92C31C3B97E28B6C2E6E9C23D63043ECBBC0A60FDF5BD0C33C127EA8A3
310
308B8B6AFFEB28B4455BF6E7AF4FC6222728357EB8E46E85053E6A8843AB23295BF838ABDA94658FEF3F832F147046B4ACD6F7D48E8FCC9618582961C898D1C7A253C91BFECBDA6BA18A1FCF70755DCCEE2222F41B76D23CA98D0CB3D95F0CF66D57FFF65E2A90F5DF40FC3187621E981BD0BC1D992787212688976B94A8F0
310
C6EF646624B570B78E068826F87CE27041A95C9A4871FF65CC17FCB1639629AD6A9517000D63AC231F3D741CB8430777E7ECF80CE7A3F73C0F162F7E56AA71F4DA80A33CD6ACEE78E2C11FAC03DAFCE929B106F8F6B3ED2DC71FF994BD9CEF4E9A94896EF1B6E2B7B4978168BCF0847A3D2A4F1B0500B926E634B174548E9F
310
BAD27153FB5FC36799B1E6C7C38A94E1F9E996796D7B485E635D5287A2AE76FBD11A341DB3F8F810385BB7296391973DC6C37C452A9305AEBBE0CDB6C566DB59FE60C8E94B1FD090354BF51439FFD1B48D725228FFA88C84F686F547107A7A235665A4593B7C34D748C1AC8D56DD5DA861EEFBADDECBBD65117E65851F9035
310
1AEB65F0EFCFF4BCFEF24CB7A5879699FAC437A7AF9099186CF006BB923A59E37D7A36A29FD8D2CBB914A5E9D0A8FD212FBF796AE9A67958FF1D5D8B85F78F96219D4714EB919929241B6C018AAE0C02069F8D919961EC5DDFBFB7573E3AC8E08BFB7C8534BE6DE045B3CD63DBD71F7638BA2309CAE398EA3A7D8F98BBBC7A
310
EB367EFA5CFA27A9F8F2F52FE878058E6209C026453F8E7E8A237DFC389E9590F6059B397CFD65183BBF936E86896612A5B5FEE49DAC8455D026218AFEBEC12B3523A45B57B82C9C97E02ACFA1184DB18E48CF615DBF39C3CC6F0B4AE6BBEEA2E39D944E290302FA3DE33FA7E40296E2EF7BF1CD855BBECFAD0FD622BEE974
310
6FC4FDFDE545AE6E3BC234CADF83A0FB76DFB145BF3828AE3436368AC24989454F8FF70A177672C711CAA1A76107218CF948CA01F873520E7A2B118EBB161ABAD432932029628B6761590C98AB590C8C8C79798CE9F715BA696E839E9131A4BB68BE923F1747FBFF165331FFDD4D05997ACD168F12CA75348DAC04C7F509FE
310
83898A8B421181AF492861CE81E4A2DD0A30850CFA95E05F097FF70F9E777310D584A75BA7018922E271DAB1D785671157685B7D383D3E074DDB4F1E44EF04B07BAAC75A062077C54B9752C738C9D804D402E02851F3F89605AF189738C18C021D2139EAF72513824E10DDD3047BACC8521ED7E98B257D1166903B1B08FA6F
310
918FD7E162913FEC7D0EF4787E29C35FBA8C6E2C9C20E9AB30AE42CA2A01A090E7D010C1B5BF9CEE2A304BF3A987FB40D836979B79E18D70F257DA61E808472DD85B82761825779D6B90CAEB0F23360C6F80A7D7D77545E95B3DFF0CF96A827F9B5BCECD2C9698718417EF80FEEDEE938AFF55859D0D540B7FE09435583A6F
310
04874A0C7E8CF234DF4879722000167F5872CEC6BF3EF7E5A8CC8121E6A359227C8A29C95212F9F735BC72A887D56B8F309FC525BFB4FD767AAEC4AEFF249CFBBD2DE1AB9969A6155C7D8DABC307E47324C1F916C7BCFF40ABA5644E9FFB9238D19ADADA49D9610F01ABBA57E4DFCBDCCBB2B93C8953206C91DE01B0E2651A
310
6D6C31721915B31F7B7CBCE55466F6D70402788FA91D73BE4ADCBA99A35F17D6B83383704917D6833F0FA3CD45C926ADB8BC17999A4A0AFBCE2541F7B8CF4C2F5FBA611B3E626D64407CB32C122DFF4EF8674D6EDBB86C8F7C6A16D50FA685E2CCA34F8F7D1D8265BB0042E9D7F1F666F7BE5FAA5184DF58E12122A42EF02F
310
461B3F369AC746F96528AD208512AB56844CF75B97F352DF7995024FB02855385854F3798670D01CAC771AC3E1889EC25F61A20C1F8CAB46898817F9C47E2CDA1F286BF2F358298709FE567C91133E2638C8B53975E753EA8BFD3578B5F7186B7BF084EBA3F77BAC3132A5779902EC22AF2D2E79F42D324E083386DAEE9810
310
D1B44A5DAA54513C7A71E52A4AB9257D975B621308FE4D2141CC3DCFE946C154A3C1DFCCA7629EC69ACFA831634ADDA93C0388D2A9A2DDAFCF957C6995BCE7FBB6DC4EBAE79E63EB08E9A25F52F67076F7093CA545CA3053B5BF576DEAD4E0017143C5F759F32B2D6F145B52B67B48909B7C7FCA6586EE385A2189C16932CB
310
6DDFD9152AE317C430492A578ED27B72D85D40C7C93C097939E1B50F4D67F05334FE9DC362C30B7FF561B95259138ECFD9274C8D695C31B14D4EAA9F3D7FA8DDF652F8C5DEFA23284C799B7D94416DEE81E05A866302DC70192A5368EA65E1CED8BF107A1E2D3119A71E85DC1A7B0C1E93274CE04DD0F2ABC8AC7C987FDB00
310
2B6F81757B43502EF7A0D92E416494FAEEA4C9C090CD9557AA4D532F4996A272B94355C5A0E4974EEA9627476F30809B94D8D8D860062E02204643BEC7D0438AF800FC7E2B26955D595421E83C69E1A07E0E3122285835F014AD538188CF9737CE76D464A353FA55A001AB2526B84E985083693BC76FE211CA1D000679C889
310
E3C009832C87E1AC2EDD05C302557422DF0800E316FCAC86978A371F025A6C7DAA9F333E7BD160403A1A06EA75AA9888FF01504B030414000608080079711B4B51464CB48900000043010000360000006662782F31463446454231422D454632432D343730392D394537382D3338364142443846334135362F646972656374
310
6F72792E786D6C9D8F310EC2300C45AF127987122606C71DD918B841D4B851A43646695A717C52A85029031293A5A76FBF6FACEF7DA7264E43906840EF0FA03836E242F406C6DCEE4EA06AC22492573150D1F66C60C640E8938CB705396EEDD86DE9B5042FE27813D640EA63BB001C722AF6E55CB61E4863F58284D5D3F53D
310
D715CE1C3985E63FD7F1B7EBDD617E9F1E504B030414000608080079711B4B6F6DCB073E070000211C0000340000006662782F31463446454231422D454632432D343730392D394537382D3338364142443846334135362F6F626A656374732E786D6CDD595B6FE23814FE2B56F665F721572E85116554A08CD06C67468366
310
B56F9109867A9B9B9CA485FDF57BECD8214E03646ED268A95482E31C9FF39DFBC9E4ED210AD13361194DE25BC3B51C03913848B634DEDF1A45BE3347067A3B45139624796D9F81621C915B832F1BD3C99E25452A97B664878BB0B9BA9CFD8DB280C4C4404188B3ECD6C8824712610B1779B225D993B5C539B6F6BB83E55AE5
310
469DEC9EE1F4B171548A1989736015D663A0223970F59F20923D9DD87C83B6ADD76D9B77619B2D04D719A57196E33878C555E338EF0C578DE37A6E7F71EF0DC6E6A0DFEF99FDA1E79AB3E56C61BA373D673E9CCFC777F763034D279B24092B05A424DE82168FC6D49DD8FC4E25BE44A18DEF208963124834DB366C89A44B49
310
D6C44403D615A2D51452CA5A5BE87514FECCB64EA0682C69682BE1D477DD7A93CD3F0042D6C54A5946B8956739035D4BEC4B7F702676B9AAE9856628C23961148728A41B86192808B6960AD2C8706FE1A410C74C6851D1ABF30A867DDD97DAB8DC1561C8FDD7980A4FF3C11F499E09CEE8BF849DB8AF9F063C81B4058DF391
310
14363FA640623CB1C56279AFE7C99B25906817E23D580B88C937F5BC065E731E0B560B63FA7EB939AC797C683F3C65494A58CE2D4F38B3F43BA5C19A6981F17500A5C455D7DD0995CF00FD0740BEE2054D40738C1EFA87BE929DE138DB252C02ED2007990EFC7310BF7C7535B1AB87A70869B1F21CA6E0B63F08534D0CEDEC
310
1AA4D3C933187DC27A52B8758043B0E9071A733F07434161024B10EF779B83315D41308545780A87203DFC4D6C7E89E0ABA403F1A6A1A1B6F0DB4151CA619A7E76D2D53BB01946834A559A8CE7F01DFC107CEF16EBF7EB82ED70401EA4632FC88EC6348764DACE9006BAE6F25F561F8447CE8E7FE263DD07B55D019CB34F78
310
E068D1CB5AEA0509C5002B3C0F97AA112B0F14DC3D0C714C922293EB6D812A48C284F99BA35FFA70EB597F2923280F9316D01ACC20BB078CA61C14632AD5554542EB84530626869934C17DA9567F5344A98FA3A48879AC7D6D8B4D3E20D0705304AA829AB26CE5B68AEC96EE764506D1AB95E45C03523AB4225C9A781F0259
310
1BBF8CEC18862C9AC43E85240CDED27A82764005DE659E3312EE7C1A8645E4EF680889C48F707A867E4709EAA9EB891C5F12B66D25A85B96724A65431C7009AC0249A5AB32E84B9D32F24C799D29129A4A07DA0E59881AD3FE997CC153450BA0CA188599F796036F39BF1998736FD937FB375EDF1C2DBD3BD373968BDE6C39
310
BA1F2F964D3E55B8AA273C5025AF7334FFCB1F8B6813631AC20D2E36DEA66FDE8AF4796B436CB4DD657F793F7367E6FDD29BC3D9CED81CDFDF8CCCDE6878375B8C96BDBBC1D066244B0A1690CCF66CC7572699C6FB735C29EE5E0751A86BAE673BA5AFA630FFDF20FAAE99143425FEAA41B48A5D2D1561D720CA1F6D86501C
310
3CF11CE50750F6B5BA4F238836F9688B735F19971DABE7888FEB8E3D67EC8DC6C3CAD82F066A71CE77C7B9360902683C8BDC4F521CD0BC3DA13670E918A7BF2AB7583D7780009DEA7F75C8E53C230FF16984F7C4DF61DE26B404C66B12B4E6B07D9864198D4926DABC57E55F83A6634135A5E7DC1623A4991F911C7F8BFD89
310
BEA161D3109B431F1AD29C8F04AE56059541CB16E41C45DEFE42E216F21FFD0C476958B6BAD730703D05816A72DA2C8E33CD8F78067BF371EE3B5B222617D7A857ECABFAA0556B4DEAE36F267F061E55D7FC4478D411DD4B276BE08EF96704416538707B374A11D7B05247E5BC910B0B683D83A3FF42E8FEB153A1D94D27B5
310
92AD2CAA7312411F8BF38275F2D7E1C07975908C0B0D87A89DF495C5A168E0540B07E8890EEE5C795B3B06EA501AC3A0AB9320AFA4683561A10B31D4E3B3ABAFF0EB8BCAAE53FDEE78F9D32BE6BAF34562FA731D07A896CB002CA38F5653B756DD5A3D94BDE03C8040BA16DFE60C3C624BB6A7C64C23D756A2ABFAF45AF5BC
310
E2013582912DE671F6815F849F31A81ADAE7CC96459B5DAEAF7862B3603A7DE243635AA7F5F1DDBA4105563A3FFD8963445E1A14E4EA9C77C317487D599D9AFE060529D197D585C77F898E4229B03647837170968414A6F2648BF62481EC0D63870EDD068B4826B23218AF0C52EA954087A79FCBA16A8E37A17A3A78C43099
310
0E652F56043015858C796BC875F41BCC41F928524CA7AC2768C3640C3350C1E8AD01169B53E8B6AC0DCCB3C4F450506FCC2BC1B171BCE7F9BE7CAAFA7D7A8CA30351E92457B5A70B2E5232CD99A0B04DC58B02A8FACA1BD3C9B78BAED8413887CB4D9157C29C164ED24810D41B81523818FB3D49780F50505C96CBB5C41E0D
310
924EA3F98B7650523573CCF662BE5EC3FB6EF1C9E6A3F1D5479486C59EABF352F7AB513279D71D16E5146A028621C54C31AF21E76FEC4F2C81774C115A523002F4FB6134FCC39E275194C4E5927D27DF54A1F523BC77DADA6AE6076DBCE30E6C310590737D7F833362E16DF6040BA05A46F970B4845833802A9AD60C406984
310
EB021ED3F6AF1648D646B509493DEC7278C4501F8123F19739DC6DEA1B6A1348F005E04ADC3C5DA88589CD600A3EFD0F504B030414000608080079711B4BD14904CAE1000000550100003C0000006662782F31463446454231422D454632432D343730392D394537382D3338364142443846334135362F7265736F75726365
310
732F322F636E782E786D6C4D90C16EC32010447F0521F5680C56AB4411263FD1532E11C51B8A62B3D60255FAF785944A3DED6AE669353BFAFCD856F6059402C6992B213983E87009D1CFBCE4DB70E4EC6C3421E67F1867D16E30F32673A33D61D9BBB4C0CD96B5A96B88F72ECAAB870814DC758F9E33B7DA94669EDC276C56
310
D892718174178BCD56284190B090837A22870DFA094760332CDC4C521D06791CA6C3BB7A3D29757A53173D36D2E80FC4B5F3216620DC5F26E9B0AEB126927A6C80D18542A7DA1BD5F88B276A3C3D56DBE894A976D0B1FCBD572C6CD6C3F8447E5DA3C7F6641DCF06EA6C85981F504B030414000608080079711B4BFF15A4A4
310
5D000000800000003A0000006662782F31463446454231422D454632432D343730392D394537382D3338364142443846334135362F7265736F75726365732F636E782E786D6C4D8B3B0E80201005AF42B6F75B59F0390B113044D83508C6E30BC6C26AF226F3B8BA6360974DA7271430F523308B2B198F9B80925DB7005392
310
27A2FCCB80A18E5640D320F996A81C9F32D6E9129A0D1EF74FCE750E6D57BC7165FBCA07504B030414000608080079711B4B339FF20F4201000056050000300000006662782F31463446454231422D454632432D343730392D394537382D3338364142443846334135362F636E782E786D6CCD94C16A032110865F65117A5C
310
770D2D09C135D0439FA087D29BEB4EB626AE2E3A96E6EDABE9266929A13D04929B8C9FF0FF33BFC3571F8329DEC107ED6C4318AD490156B94EDBBE2111D7E582142BC1BD73F80D2385950334249789E0BD77719C4A1DAC6534B96AB4DD4E4589E8751B1102299491213424A837182495115D07614B3B899232EA21B8E815A4
310
F7A80798DE2B0F12A1236256B379592FCAD9FC99DD2F195B3EB0575E6552F0D63933F1DA227837DECD6AE5D2D1263935AF322078F47AA2B207224EDA68AB2DAFD2BDE021E9B5FDC4E16ECCDC381AAD24A646554E216099209003AFBE60C1ABECF887EFA7C797938674EAB40785CEEFAED60676AE0D47693425E27F5DD8837F
310
9977ED2659BEDEDCCF1A9E845DCCEE21B92145F77712529EA4EDCD2D7E80A3B4CBE73F2D16D4EA164D1F945DC873B55F8169F079238A4F504B030414000608080079711B4BA24AF3067F000000A30000000B0000006662782F636E782E786D6C4D8CD10E822018465F85FDF794A4296E809382F77089CE89D0485A8F1F342F
310
BAFAB6B3EF1CD67D368BDE26BC16EF38905301C8B8871F17377388FB8429A04EB0E0FDFE7703E486CD70C818049B838FCF038D661AA2CDD42E6E3D20D195569248ACF4E586ABA66871AB1A8A4B5AF7F24E75D95FEB649CB392E6D74B9BF3E20B504B030414000608080079711B4BA6D797065F000000820000000700000063
310
6E782E786D6C4DCB3B0E80201045D1AD90E9FD7516806B51190811670C8A61F982B1B0BAC9C97B72CA7B1037C6D3332918DA1E04D2CAC69353902EDB8C20262D23F3F59B81A079470595414B17391D1F19B4730A5583A7ED43BBE4025D9592775E5ADFFA01504B030414000608080079711B4BECFD112DA800000026010000
310
130000005B436F6E74656E745F54797065735D2E786D6C7D4F4B0EC22010BD0A61DF525D18634ABB506FE00510A79458060253536F2FD89D5197F3FED3F68B9BD80362B21E25DFD40D6780DADF2C1AC9671AAA3D677DD75E9E0112CB5A4C928F44E12044D22338956A1F003333F8E814E5331A1194BE2B0362DB343BA13D12
310
2055543278D79E6050F344ECBC6478EDCD76CE8EABAE5449AE4298AC56946789C28AAFBEABC53F3EAF09A84A1441B91F0101CD4780756578C173A578FFDDBD00504B030414000608080079711B4B3DEE336E64000000790000001B0000006175746F6465736B2D64657369676E2D7061636B6167652E786D6C35CBC10E8320
310
0C00D05F21DCA56CA76D41FC96062B120735B69A7DBE268BB7777961F8D5AF396893C2ADB70FE7ADA196782C2DF776D7A97B5933C430F15651E5469C55D70F80A4992A3ADC954792C525AE70A1E4D6AD9816CC044FEFDF01FE3FDE907802504B030414000608080079711B4BDA74A92EF40000008E0100003D000000666278
310
2F31463446454231422D454632432D343730392D394537382D3338364142443846334135362F7265736F75726365732F322F636F72652E786D6C8550CB6EC32010FC156BEFD8C6F133C24479345FD0536F08888B1283C5A3CAE71762576A4F3DED6A76667677C8E1393FB22F699D327A049C979049CD8D507A1A21F81BEA21
310
3B50628DF1BF68906936CB11120C944CD6846583B8D15EEA846A23E40632E7A4878C3F623382E39F7266390B3E32DC3D5F18BFB349E6385F799484A0C4265522BAA99B9216E8B1BD5C877657A3F67A6A51DD9403EABBE31995A776786B2EF5D0D43D29929812AFE69FEDDC4AE6A5005A95B843658FAAEE1DD77B8CF70DFE20
310
456252E2BC8D3F6F4BD377914E8A15FDE31616F1BF5B50DAEFAACD6D5538A0381EF71A5052A474627945176B4A927E03504B030414000608080079711B4BA6B71C48FA000000960100003B0000006662782F31463446454231422D454632432D343730392D394537382D3338364142443846334135362F7265736F75726365
310
732F636F72652E786D6C8550CB6E833010FC15B47703264020328E92A6F9829E7AB3CC865A0936F2A3EAE7D70E546A4F3DED6A76667677D8F16B7E649F689D327A009A9790A19666547A1A20F81BE9203B72668DF1BF68906931E3000906CE266BC2B241D2688F3AA1DA8CB881C239F490C9476C0670F20367918BE023C3DD
310
F345C8BB9830A7F9CAE32C04356E52354637755368819FDACBB56F773569AFE796D44DD9936E7F7A21E5B9ED5F9B4BDD3775C78A24E6CCABF967BBB4283C8EC0AB92EE49D9916AFF46EB03A58786BEB322313973DEC69FB7A5E93BE0169D0956A263C53AFDE31A96F17FD7A0B4DF559BEBAA70C0693CF239E0AC4829C5F28C
310
30D69428FF06504B030414000608080079711B4B451B8A58F3000000B1010000310000006662782F31463446454231422D454632432D343730392D394537382D3338364142443846334135362F636F72652E786D6C8D50CB6E833010FC15E4BB01030924328E420B5FD0536F96BD2156828DFCA8FAF9B5132AB5B79CD69A9D
310
F1CC0E3D7D2FF7EC0BAC5346F788E425CA400B23959E7B14FC0577283B316A8DF17F6828D37C811E2518313A5B13D60D12467BD009D546C20672E7C0A34CDCE3A3474E5C61E1390F3E32DC2D5FB9B8F11972923F798C7AB5FC4A8505EE41225695A4C56587ABF6833447428E3BF2498BC464340425372B25A3BBBA28B08891
310
A999C6810C789CAA37DCB4E5011FC6B6C375B73F0FEFDD549F777B5A2431A3CEDB78F3F649BAEE55F953F82F7358E50B9995F675B5193E152E7AC63C8F05A3452A308E47BB71A6B2D90F504B030414000608080079711B4BB92C251455010000DD0200000C0000006662782F636F72652E786D6C8D52CB6E833010FC15E43B
310
0F132010194749D37C414FBD39C6A156C046C646F9FCDA3C443934AD908C35BB3BB333323A3EDBC61B98EAB914258041043C26A8ACB8A84B60F4DDCF8177C44849A97FB4014F909695C0C100A35A49D3CD10954233E150212B3683A4EF99061E6DECA5043DFD622D0988D1B6A37F041DA10F52B30006531F46C6F06A1EE595
310
65E377CE14C0A7EC722DB25DE267D773E6276954F8F9FEF4E647E7AC784F2F499126390ADD30469AB78B3A558C6856011C4770EF47B91FEF3F607280F090C24F14BA4E8C7AADACE759D4B903F87E7BA270C2377CA6ABFEE6335CE85D3CF34D133DC0D0AE3716300A5D3EF63786B7CDD00ADBFC34B9358B8587850646B55489
310
AD54D2ACA581348659EAC81B3F144E55CB3C12FCC613BFE079CD618322A2B6AB116DAF37A39DFA76A78E297FD04F4F48D592665D6E5A713D57A18DA5659CCA46AAFF4C2F56973043F730F137504B030414000608080079711B4BE399A17308010000B201000008000000636F72652E786D6C8D50CB6EC32010FC15B4776C70
310
FC8C3051D2345FD0536FD41007C506CBE0A8FDFB42EC4AEDADA74533B33BC3B0C3E738A0879A9DB6A6059A1040CA74566AD3B7B0F82BAE011D389BADF5BF64808C18550B1106CEFAD92ED30675D67865226AAC541B289C531E503784470BAEBBA9512462F141E1EEC924BABBE855429355C799D7E3CF6A372BE195049E115A
310
6152E3AC7AA3F99ED27D41DF591A959C2D8B969B9596C15D5FB59A811FCBF3A52977392E2FA712E70569705D1D5F303995CD6B71CE9B22AF591A9739737E0E7FDE8E849C1E39F188BE2C5D29CE3EAC1D364108259135C31770C2D248FC09BD4CF21FA1B5F1BB6C3BB86E38E034047A12C1383618C6B3DE3063DBFC1B504B01
310
02140014000608080079711B4B0000000000000000000000003700000000000000000000000000000000006662782F31463446454231422D454632432D343730392D394537382D3338364142443846334135362F617474726962757465732E62696E504B0102140014000608080079711B4B00000000000000000000000035
310
00000000000000000000000000550000006662782F31463446454231422D454632432D343730392D394537382D3338364142443846334135362F76657274696365732E62696E504B0102140014000608080079711B4BF270F13306000000040000003600000000000000000000000000A80000006662782F31463446454231
310
422D454632432D343730392D394537382D3338364142443846334135362F747269616E676C65732E62696E504B0102140014000608080079711B4B88E57597CD3F0000904100004200000000000000000000000000020100006662782F31463446454231422D454632432D343730392D394537382D33383641424438463341
310
35362F7265736F75726365732F322F305F67656E657269632E706E67504B0102140014000608080079711B4B51464CB4890000004301000036000000000000000000000000002F4100006662782F31463446454231422D454632432D343730392D394537382D3338364142443846334135362F6469726563746F72792E786D
310
6C504B0102140014000608080079711B4B6F6DCB073E070000211C000034000000000000000000000000000C4200006662782F31463446454231422D454632432D343730392D394537382D3338364142443846334135362F6F626A656374732E786D6C504B0102140014000608080079711B4BD14904CAE100000055010000
310
3C000000000000000000000000009C4900006662782F31463446454231422D454632432D343730392D394537382D3338364142443846334135362F7265736F75726365732F322F636E782E786D6C504B0102140014000608080079711B4BFF15A4A45D000000800000003A00000000000000000000000000D74A0000666278
310
2F31463446454231422D454632432D343730392D394537382D3338364142443846334135362F7265736F75726365732F636E782E786D6C504B0102140014000608080079711B4B339FF20F420100005605000030000000000000000000000000008C4B00006662782F31463446454231422D454632432D343730392D394537
310
382D3338364142443846334135362F636E782E786D6C504B0102140014000608080079711B4BA24AF3067F000000A30000000B000000000000000000000000001C4D00006662782F636E782E786D6C504B0102140014000608080079711B4BA6D797065F000000820000000700000000000000000000000000C44D0000636E
310
782E786D6C504B0102140014000608080079711B4BECFD112DA8000000260100001300000000000000000000000000484E00005B436F6E74656E745F54797065735D2E786D6C504B0102140014000608080079711B4B3DEE336E64000000790000001B00000000000000000000000000214F00006175746F6465736B2D6465
310
7369676E2D7061636B6167652E786D6C504B0102140014000608080079711B4BDA74A92EF40000008E0100003D00000000000000000000000000BE4F00006662782F31463446454231422D454632432D343730392D394537382D3338364142443846334135362F7265736F75726365732F322F636F72652E786D6C504B0102
310
140014000608080079711B4BA6B71C48FA000000960100003B000000000000000000000000000D5100006662782F31463446454231422D454632432D343730392D394537382D3338364142443846334135362F7265736F75726365732F636F72652E786D6C504B0102140014000608080079711B4B451B8A58F3000000B101
310
00003100000000000000000000000000605200006662782F31463446454231422D454632432D343730392D394537382D3338364142443846334135362F636F72652E786D6C504B0102140014000608080079711B4BB92C251455010000DD0200000C00000000000000000000000000A25300006662782F636F72652E786D6C
310
504B0102140014000608080079711B4BE399A17308010000B2010000080000000000000000000000000021550000636F72652E786D6C504B050600000000120012002D0600004F5600000000
  0
XRECORD
  5
17
102
{ACAD_REACTORS
330
12
102
}
330
12
100
AcDbXrecord
280
     1
270
     1
271
     1
  0
XRECORD
  5
16
102
{ACAD_REACTORS
330
12
102
}
330
12
100
AcDbXrecord
280
     1
270
     1
271
     1
  0
XRECORD
  5
18
102
{ACAD_REACTORS
330
12
102
}
330
12
100
AcDbXrecord
280
     1
270
     1
271
     1
  0
XRECORD
  5
15
102
{ACAD_REACTORS
330
12
102
}
330
12
100
AcDbXrecord
280
     1
270
     1
271
     1
  0
XRECORD
  5
24
102
{ACAD_REACTORS
330
22
102
}
330
22
100
AcDbXrecord
280
     1
270
     1
271
     1
  0
XRECORD
  5
23
102
{ACAD_REACTORS
330
22
102
}
330
22
100
AcDbXrecord
280
     1
270
     1
271
     1
  0
XRECORD
  5
27
102
{ACAD_REACTORS
330
22
102
}
330
22
100
AcDbXrecord
280
     1
270
     1
271
     1
  0
XRECORD
  5
26
102
{ACAD_REACTORS
330
22
102
}
330
22
100
AcDbXrecord
280
     1
270
     1
271
     1
  0
XRECORD
  5
28
102
{ACAD_REACTORS
330
22
102
}
330
22
100
AcDbXrecord
280
     1
270
     1
271
     1
  0
XRECORD
  5
25
102
{ACAD_REACTORS
330
22
102
}
330
22
100
AcDbXrecord
280
     1
270
     1
271
     1
  0
XRECORD
  5
740
102
{ACAD_REACTORS
330
73F
102
}
330
73F
100
AcDbXrecord
280
     1
102
ACAD_ROUNDTRIP_2012_MLEADER_STYLE
298
     1
  0
XRECORD
  5
742
102
{ACAD_REACTORS
330
741
102
}
330
741
100
AcDbXrecord
280
     1
102
DISPLAYNAME
  1
Imperial24
102
FLAGS
 90
        0
  0
CELLSTYLEMAP
  5
6FD
102
{ACAD_REACTORS
330
6FC
102
}
330
6FC
100
AcDbCellStyleMap
 90
        3
300
CELLSTYLE
  1
TABLEFORMAT_BEGIN
 90
        5
170
     1
 91
        0
 92
    32768
 62
   257
 93
        1
300
CONTENTFORMAT
  1
CONTENTFORMAT_BEGIN
 90
        0
 91
        0
 92
      512
 93
        0
300

 40
0.0
140
1.0
 94
        5
 62
     0
340
55
144
0.25
309
CONTENTFORMAT_END
171
     0
 94
        0
309
TABLEFORMAT_END
  1
CELLSTYLE_BEGIN
 90
        1
 91
        1
300
_TITLE
309
CELLSTYLE_END
300
CELLSTYLE
  1
TABLEFORMAT_BEGIN
 90
        5
170
     1
 91
        0
 92
        0
 62
   257
 93
        1
300
CONTENTFORMAT
  1
CONTENTFORMAT_BEGIN
 90
        0
 91
        0
 92
      512
 93
        0
300

 40
0.0
140
1.0
 94
        5
 62
     0
340
55
144
0.18
309
CONTENTFORMAT_END
171
     0
 94
        0
309
TABLEFORMAT_END
  1
CELLSTYLE_BEGIN
 90
        2
 91
        1
300
_HEADER
309
CELLSTYLE_END
300
CELLSTYLE
  1
TABLEFORMAT_BEGIN
 90
        5
170
     1
 91
        0
 92
        0
 62
   257
 93
        1
300
CONTENTFORMAT
  1
CONTENTFORMAT_BEGIN
 90
        0
 91
        0
 92
      512
 93
        0
300

 40
0.0
140
1.0
 94
        2
 62
     0
340
55
144
0.18
309
CONTENTFORMAT_END
171
     0
 94
        0
309
TABLEFORMAT_END
  1
CELLSTYLE_BEGIN
 90
        3
 91
        2
300
_DATA
309
CELLSTYLE_END
  0
XRECORD
  5
71A
102
{ACAD_REACTORS
330
719
102
}
330
719
100
AcDbXrecord
280
     1
102
RTVSPost2010Prop28
280
     1
102
RTVSPost2010PropOp28
 70
     1
102
RTVSPost2010Prop29
280
     1
102
RTVSPost2010PropOp29
 70
     1
102
RTVSPost2010Prop30
280
     0
102
RTVSPost2010PropOp30
 70
     1
102
RTVSPost2010Prop31
280
     0
102
RTVSPost2010PropOp31
 70
     1
102
RTVSPost2010Prop32
280
     0
102
RTVSPost2010PropOp32
 70
     1
102
RTVSPost2010Prop33
280
     0
102
RTVSPost2010PropOp33
 70
     1
102
RTVSPost2010Prop34
280
     0
102
RTVSPost2010PropOp34
 70
     1
102
RTVSPost2010Prop35
280
     0
102
RTVSPost2010PropOp35
 70
     1
102
RTVSPost2010Prop36
280
     0
102
RTVSPost2010PropOp36
 70
     1
102
RTVSPost2010Prop37
 90
       50
102
RTVSPost2010PropOp37
 70
     1
102
RTVSPost2010Prop38
140
0.0
102
RTVSPost2010PropOp38
 70
     1
102
RTVSPost2010Prop39
140
1.0
102
RTVSPost2010PropOp39
 70
     1
102
RTVSPost2010Prop40
 90
        0
102
RTVSPost2010PropOp40
 70
     1
102
RTVSPost2010Prop41ColorIndex
 90
       18
102
RTVSPost2010Prop41ColorRGB
 90
        0
102
RTVSPost2010PropOp41
 70
     1
102
RTVSPost2010Prop42
 90
       50
102
RTVSPost2010PropOp42
 70
     1
102
RTVSPost2010Prop43
 90
        3
102
RTVSPost2010PropOp43
 70
     1
102
RTVSPost2010Prop44ColorIndex
 90
        5
102
RTVSPost2010Prop44ColorRGB
 90
      255
102
RTVSPost2010PropOp44
 70
     1
102
RTVSPost2010Prop45
280
     0
102
RTVSPost2010PropOp45
 70
     1
102
RTVSPost2010Prop46
 90
       50
102
RTVSPost2010PropOp46
 70
     1
102
RTVSPost2010Prop47
 90
       50
102
RTVSPost2010PropOp47
 70
     1
102
RTVSPost2010Prop48
 90
       50
102
RTVSPost2010PropOp48
 70
     1
102
RTVSPost2010Prop49
280
     0
102
RTVSPost2010PropOp49
 70
     1
102
RTVSPost2010Prop50
 90
       50
102
RTVSPost2010PropOp50
 70
     1
102
RTVSPost2010Prop51ColorIndex
 90
      256
102
RTVSPost2010Prop51ColorRGB
 90
-16777216
102
RTVSPost2010PropOp51
 70
     0
102
RTVSPost2010Prop52
140
1.0
102
RTVSPost2010PropOp52
 70
     0
102
RTVSPost2010Prop53
 90
        2
102
RTVSPost2010PropOp53
 70
     1
102
RTVSPost2010Prop54
  1
strokes_ogs.tif
102
RTVSPost2010PropOp54
 70
     1
102
RTVSPost2010Prop55
280
     0
102
RTVSPost2010PropOp55
 70
     1
102
RTVSPost2010Prop56
140
1.0
102
RTVSPost2010PropOp56
 70
     1
102
RTVSPost2010Prop57
140
1.0
102
RTVSPost2010PropOp57
 70
     1
  0
XRECORD
  5
718
102
{ACAD_REACTORS
330
717
102
}
330
717
100
AcDbXrecord
280
     1
102
RTVSPost2010Prop28
280
     0
102
RTVSPost2010PropOp28
 70
     1
102
RTVSPost2010Prop29
280
     1
102
RTVSPost2010PropOp29
 70
     1
102
RTVSPost2010Prop30
280
     1
102
RTVSPost2010PropOp30
 70
     1
102
RTVSPost2010Prop31
280
     0
102
RTVSPost2010PropOp31
 70
     1
102
RTVSPost2010Prop32
280
     0
102
RTVSPost2010PropOp32
 70
     1
102
RTVSPost2010Prop33
280
     0
102
RTVSPost2010PropOp33
 70
     1
102
RTVSPost2010Prop34
280
     0
102
RTVSPost2010PropOp34
 70
     1
102
RTVSPost2010Prop35
280
     0
102
RTVSPost2010PropOp35
 70
     1
102
RTVSPost2010Prop36
280
     0
102
RTVSPost2010PropOp36
 70
     1
102
RTVSPost2010Prop37
 90
       50
102
RTVSPost2010PropOp37
 70
     1
102
RTVSPost2010Prop38
140
0.0
102
RTVSPost2010PropOp38
 70
     1
102
RTVSPost2010Prop39
140
1.0
102
RTVSPost2010PropOp39
 70
     1
102
RTVSPost2010Prop40
 90
        0
102
RTVSPost2010PropOp40
 70
     1
102
RTVSPost2010Prop41ColorIndex
 90
       18
102
RTVSPost2010Prop41ColorRGB
 90
        0
102
RTVSPost2010PropOp41
 70
     1
102
RTVSPost2010Prop42
 90
       50
102
RTVSPost2010PropOp42
 70
     1
102
RTVSPost2010Prop43
 90
        3
102
RTVSPost2010PropOp43
 70
     1
102
RTVSPost2010Prop44ColorIndex
 90
        5
102
RTVSPost2010Prop44ColorRGB
 90
      255
102
RTVSPost2010PropOp44
 70
     1
102
RTVSPost2010Prop45
280
     0
102
RTVSPost2010PropOp45
 70
     1
102
RTVSPost2010Prop46
 90
       50
102
RTVSPost2010PropOp46
 70
     1
102
RTVSPost2010Prop47
 90
       50
102
RTVSPost2010PropOp47
 70
     1
102
RTVSPost2010Prop48
 90
       50
102
RTVSPost2010PropOp48
 70
     1
102
RTVSPost2010Prop49
280
     0
102
RTVSPost2010PropOp49
 70
     1
102
RTVSPost2010Prop50
 90
       50
102
RTVSPost2010PropOp50
 70
     1
102
RTVSPost2010Prop51ColorIndex
 90
      256
102
RTVSPost2010Prop51ColorRGB
 90
-16777216
102
RTVSPost2010PropOp51
 70
     0
102
RTVSPost2010Prop52
140
1.0
102
RTVSPost2010PropOp52
 70
     0
102
RTVSPost2010Prop53
 90
        2
102
RTVSPost2010PropOp53
 70
     1
102
RTVSPost2010Prop54
  1
strokes_ogs.tif
102
RTVSPost2010PropOp54
 70
     1
102
RTVSPost2010Prop55
280
     0
102
RTVSPost2010PropOp55
 70
     1
102
RTVSPost2010Prop56
140
1.0
102
RTVSPost2010PropOp56
 70
     1
102
RTVSPost2010Prop57
140
1.0
102
RTVSPost2010PropOp57
 70
     1
  0
XRECORD
  5
726
102
{ACAD_REACTORS
330
725
102
}
330
725
100
AcDbXrecord
280
     1
102
RTVSPost2010Prop28
280
     0
102
RTVSPost2010PropOp28
 70
     1
102
RTVSPost2010Prop29
280
     1
102
RTVSPost2010PropOp29
 70
     1
102
RTVSPost2010Prop30
280
     1
102
RTVSPost2010PropOp30
 70
     1
102
RTVSPost2010Prop31
280
     0
102
RTVSPost2010PropOp31
 70
     1
102
RTVSPost2010Prop32
280
     0
102
RTVSPost2010PropOp32
 70
     1
102
RTVSPost2010Prop33
280
     0
102
RTVSPost2010PropOp33
 70
     1
102
RTVSPost2010Prop34
280
     0
102
RTVSPost2010PropOp34
 70
     1
102
RTVSPost2010Prop35
280
     0
102
RTVSPost2010PropOp35
 70
     1
102
RTVSPost2010Prop36
280
     0
102
RTVSPost2010PropOp36
 70
     1
102
RTVSPost2010Prop37
 90
       50
102
RTVSPost2010PropOp37
 70
     1
102
RTVSPost2010Prop38
140
0.0
102
RTVSPost2010PropOp38
 70
     1
102
RTVSPost2010Prop39
140
1.0
102
RTVSPost2010PropOp39
 70
     1
102
RTVSPost2010Prop40
 90
        0
102
RTVSPost2010PropOp40
 70
     1
102
RTVSPost2010Prop41ColorIndex
 90
       18
102
RTVSPost2010Prop41ColorRGB
 90
        0
102
RTVSPost2010PropOp41
 70
     1
102
RTVSPost2010Prop42
 90
       50
102
RTVSPost2010PropOp42
 70
     1
102
RTVSPost2010Prop43
 90
        3
102
RTVSPost2010PropOp43
 70
     1
102
RTVSPost2010Prop44ColorIndex
 90
        5
102
RTVSPost2010Prop44ColorRGB
 90
      255
102
RTVSPost2010PropOp44
 70
     1
102
RTVSPost2010Prop45
280
     0
102
RTVSPost2010PropOp45
 70
     1
102
RTVSPost2010Prop46
 90
       50
102
RTVSPost2010PropOp46
 70
     1
102
RTVSPost2010Prop47
 90
       50
102
RTVSPost2010PropOp47
 70
     1
102
RTVSPost2010Prop48
 90
       50
102
RTVSPost2010PropOp48
 70
     1
102
RTVSPost2010Prop49
280
     0
102
RTVSPost2010PropOp49
 70
     1
102
RTVSPost2010Prop50
 90
       50
102
RTVSPost2010PropOp50
 70
     1
102
RTVSPost2010Prop51ColorIndex
 90
      256
102
RTVSPost2010Prop51ColorRGB
 90
-16777216
102
RTVSPost2010PropOp51
 70
     0
102
RTVSPost2010Prop52
140
1.0
102
RTVSPost2010PropOp52
 70
     0
102
RTVSPost2010Prop53
 90
        2
102
RTVSPost2010PropOp53
 70
     1
102
RTVSPost2010Prop54
  1
strokes_ogs.tif
102
RTVSPost2010PropOp54
 70
     1
102
RTVSPost2010Prop55
280
     0
102
RTVSPost2010PropOp55
 70
     1
102
RTVSPost2010Prop56
140
1.0
102
RTVSPost2010PropOp56
 70
     1
102
RTVSPost2010Prop57
140
1.0
102
RTVSPost2010PropOp57
 70
     1
  0
XRECORD
  5
72E
102
{ACAD_REACTORS
330
72D
102
}
330
72D
100
AcDbXrecord
280
     1
102
RTVSPost2010Prop28
280
     0
102
RTVSPost2010PropOp28
 70
     1
102
RTVSPost2010Prop29
280
     1
102
RTVSPost2010PropOp29
 70
     1
102
RTVSPost2010Prop30
280
     1
102
RTVSPost2010PropOp30
 70
     1
102
RTVSPost2010Prop31
280
     0
102
RTVSPost2010PropOp31
 70
     1
102
RTVSPost2010Prop32
280
     0
102
RTVSPost2010PropOp32
 70
     1
102
RTVSPost2010Prop33
280
     0
102
RTVSPost2010PropOp33
 70
     1
102
RTVSPost2010Prop34
280
     0
102
RTVSPost2010PropOp34
 70
     1
102
RTVSPost2010Prop35
280
     0
102
RTVSPost2010PropOp35
 70
     1
102
RTVSPost2010Prop36
280
     0
102
RTVSPost2010PropOp36
 70
     1
102
RTVSPost2010Prop37
 90
       50
102
RTVSPost2010PropOp37
 70
     1
102
RTVSPost2010Prop38
140
0.0
102
RTVSPost2010PropOp38
 70
     1
102
RTVSPost2010Prop39
140
1.0
102
RTVSPost2010PropOp39
 70
     1
102
RTVSPost2010Prop40
 90
        0
102
RTVSPost2010PropOp40
 70
     1
102
RTVSPost2010Prop41ColorIndex
 90
       18
102
RTVSPost2010Prop41ColorRGB
 90
        0
102
RTVSPost2010PropOp41
 70
     1
102
RTVSPost2010Prop42
 90
       50
102
RTVSPost2010PropOp42
 70
     1
102
RTVSPost2010Prop43
 90
        3
102
RTVSPost2010PropOp43
 70
     1
102
RTVSPost2010Prop44ColorIndex
 90
        5
102
RTVSPost2010Prop44ColorRGB
 90
      255
102
RTVSPost2010PropOp44
 70
     1
102
RTVSPost2010Prop45
280
     0
102
RTVSPost2010PropOp45
 70
     1
102
RTVSPost2010Prop46
 90
       50
102
RTVSPost2010PropOp46
 70
     1
102
RTVSPost2010Prop47
 90
       50
102
RTVSPost2010PropOp47
 70
     1
102
RTVSPost2010Prop48
 90
       50
102
RTVSPost2010PropOp48
 70
     1
102
RTVSPost2010Prop49
280
     0
102
RTVSPost2010PropOp49
 70
     1
102
RTVSPost2010Prop50
 90
       50
102
RTVSPost2010PropOp50
 70
     1
102
RTVSPost2010Prop51ColorIndex
 90
      256
102
RTVSPost2010Prop51ColorRGB
 90
-16777216
102
RTVSPost2010PropOp51
 70
     0
102
RTVSPost2010Prop52
140
1.0
102
RTVSPost2010PropOp52
 70
     0
102
RTVSPost2010Prop53
 90
        2
102
RTVSPost2010PropOp53
 70
     1
102
RTVSPost2010Prop54
  1
strokes_ogs.tif
102
RTVSPost2010PropOp54
 70
     1
102
RTVSPost2010Prop55
280
     0
102
RTVSPost2010PropOp55
 70
     1
102
RTVSPost2010Prop56
140
1.0
102
RTVSPost2010PropOp56
 70
     1
102
RTVSPost2010Prop57
140
1.0
102
RTVSPost2010PropOp57
 70
     1
  0
XRECORD
  5
720
102
{ACAD_REACTORS
330
71F
102
}
330
71F
100
AcDbXrecord
280
     1
102
RTVSPost2010Prop28
280
     0
102
RTVSPost2010PropOp28
 70
     1
102
RTVSPost2010Prop29
280
     1
102
RTVSPost2010PropOp29
 70
     1
102
RTVSPost2010Prop30
280
     1
102
RTVSPost2010PropOp30
 70
     1
102
RTVSPost2010Prop31
280
     0
102
RTVSPost2010PropOp31
 70
     1
102
RTVSPost2010Prop32
280
     0
102
RTVSPost2010PropOp32
 70
     1
102
RTVSPost2010Prop33
280
     0
102
RTVSPost2010PropOp33
 70
     1
102
RTVSPost2010Prop34
280
     0
102
RTVSPost2010PropOp34
 70
     1
102
RTVSPost2010Prop35
280
     0
102
RTVSPost2010PropOp35
 70
     1
102
RTVSPost2010Prop36
280
     0
102
RTVSPost2010PropOp36
 70
     1
102
RTVSPost2010Prop37
 90
       50
102
RTVSPost2010PropOp37
 70
     1
102
RTVSPost2010Prop38
140
0.0
102
RTVSPost2010PropOp38
 70
     1
102
RTVSPost2010Prop39
140
1.0
102
RTVSPost2010PropOp39
 70
     1
102
RTVSPost2010Prop40
 90
        0
102
RTVSPost2010PropOp40
 70
     1
102
RTVSPost2010Prop41ColorIndex
 90
       18
102
RTVSPost2010Prop41ColorRGB
 90
        0
102
RTVSPost2010PropOp41
 70
     1
102
RTVSPost2010Prop42
 90
       50
102
RTVSPost2010PropOp42
 70
     1
102
RTVSPost2010Prop43
 90
        3
102
RTVSPost2010PropOp43
 70
     1
102
RTVSPost2010Prop44ColorIndex
 90
        5
102
RTVSPost2010Prop44ColorRGB
 90
      255
102
RTVSPost2010PropOp44
 70
     1
102
RTVSPost2010Prop45
280
     0
102
RTVSPost2010PropOp45
 70
     1
102
RTVSPost2010Prop46
 90
       50
102
RTVSPost2010PropOp46
 70
     1
102
RTVSPost2010Prop47
 90
       50
102
RTVSPost2010PropOp47
 70
     1
102
RTVSPost2010Prop48
 90
       50
102
RTVSPost2010PropOp48
 70
     1
102
RTVSPost2010Prop49
280
     0
102
RTVSPost2010PropOp49
 70
     1
102
RTVSPost2010Prop50
 90
       50
102
RTVSPost2010PropOp50
 70
     1
102
RTVSPost2010Prop51ColorIndex
 90
      256
102
RTVSPost2010Prop51ColorRGB
 90
-16777216
102
RTVSPost2010PropOp51
 70
     0
102
RTVSPost2010Prop52
140
1.0
102
RTVSPost2010PropOp52
 70
     0
102
RTVSPost2010Prop53
 90
        2
102
RTVSPost2010PropOp53
 70
     1
102
RTVSPost2010Prop54
  1
strokes_ogs.tif
102
RTVSPost2010PropOp54
 70
     1
102
RTVSPost2010Prop55
280
     0
102
RTVSPost2010PropOp55
 70
     1
102
RTVSPost2010Prop56
140
1.0
102
RTVSPost2010PropOp56
 70
     1
102
RTVSPost2010Prop57
140
1.0
102
RTVSPost2010PropOp57
 70
     1
  0
XRECORD
  5
724
102
{ACAD_REACTORS
330
723
102
}
330
723
100
AcDbXrecord
280
     1
102
RTVSPost2010Prop28
280
     0
102
RTVSPost2010PropOp28
 70
     1
102
RTVSPost2010Prop29
280
     1
102
RTVSPost2010PropOp29
 70
     1
102
RTVSPost2010Prop30
280
     1
102
RTVSPost2010PropOp30
 70
     1
102
RTVSPost2010Prop31
280
     0
102
RTVSPost2010PropOp31
 70
     1
102
RTVSPost2010Prop32
280
     0
102
RTVSPost2010PropOp32
 70
     1
102
RTVSPost2010Prop33
280
     0
102
RTVSPost2010PropOp33
 70
     1
102
RTVSPost2010Prop34
280
     0
102
RTVSPost2010PropOp34
 70
     1
102
RTVSPost2010Prop35
280
     0
102
RTVSPost2010PropOp35
 70
     1
102
RTVSPost2010Prop36
280
     0
102
RTVSPost2010PropOp36
 70
     1
102
RTVSPost2010Prop37
 90
       50
102
RTVSPost2010PropOp37
 70
     1
102
RTVSPost2010Prop38
140
0.0
102
RTVSPost2010PropOp38
 70
     1
102
RTVSPost2010Prop39
140
1.0
102
RTVSPost2010PropOp39
 70
     1
102
RTVSPost2010Prop40
 90
        0
102
RTVSPost2010PropOp40
 70
     1
102
RTVSPost2010Prop41ColorIndex
 90
       18
102
RTVSPost2010Prop41ColorRGB
 90
        0
102
RTVSPost2010PropOp41
 70
     1
102
RTVSPost2010Prop42
 90
       50
102
RTVSPost2010PropOp42
 70
     1
102
RTVSPost2010Prop43
 90
        3
102
RTVSPost2010PropOp43
 70
     1
102
RTVSPost2010Prop44ColorIndex
 90
        5
102
RTVSPost2010Prop44ColorRGB
 90
      255
102
RTVSPost2010PropOp44
 70
     1
102
RTVSPost2010Prop45
280
     0
102
RTVSPost2010PropOp45
 70
     1
102
RTVSPost2010Prop46
 90
       50
102
RTVSPost2010PropOp46
 70
     1
102
RTVSPost2010Prop47
 90
       50
102
RTVSPost2010PropOp47
 70
     1
102
RTVSPost2010Prop48
 90
       50
102
RTVSPost2010PropOp48
 70
     1
102
RTVSPost2010Prop49
280
     0
102
RTVSPost2010PropOp49
 70
     1
102
RTVSPost2010Prop50
 90
       50
102
RTVSPost2010PropOp50
 70
     1
102
RTVSPost2010Prop51ColorIndex
 90
      256
102
RTVSPost2010Prop51ColorRGB
 90
-16777216
102
RTVSPost2010PropOp51
 70
     0
102
RTVSPost2010Prop52
140
1.0
102
RTVSPost2010PropOp52
 70
     0
102
RTVSPost2010Prop53
 90
        2
102
RTVSPost2010PropOp53
 70
     1
102
RTVSPost2010Prop54
  1
strokes_ogs.tif
102
RTVSPost2010PropOp54
 70
     1
102
RTVSPost2010Prop55
280
     0
102
RTVSPost2010PropOp55
 70
     1
102
RTVSPost2010Prop56
140
1.0
102
RTVSPost2010PropOp56
 70
     1
102
RTVSPost2010Prop57
140
1.0
102
RTVSPost2010PropOp57
 70
     1
  0
XRECORD
  5
73E
102
{ACAD_REACTORS
330
73D
102
}
330
73D
100
AcDbXrecord
280
     1
102
RTVSPost2010Prop28
280
     0
102
RTVSPost2010PropOp28
 70
     0
102
RTVSPost2010Prop29
280
     1
102
RTVSPost2010PropOp29
 70
     0
102
RTVSPost2010Prop30
280
     1
102
RTVSPost2010PropOp30
 70
     0
102
RTVSPost2010Prop31
280
     0
102
RTVSPost2010PropOp31
 70
     0
102
RTVSPost2010Prop32
280
     0
102
RTVSPost2010PropOp32
 70
     0
102
RTVSPost2010Prop33
280
     0
102
RTVSPost2010PropOp33
 70
     0
102
RTVSPost2010Prop34
280
     0
102
RTVSPost2010PropOp34
 70
     0
102
RTVSPost2010Prop35
280
     0
102
RTVSPost2010PropOp35
 70
     0
102
RTVSPost2010Prop36
280
     0
102
RTVSPost2010PropOp36
 70
     0
102
RTVSPost2010Prop37
 90
       50
102
RTVSPost2010PropOp37
 70
     0
102
RTVSPost2010Prop38
140
0.0
102
RTVSPost2010PropOp38
 70
     0
102
RTVSPost2010Prop39
140
1.0
102
RTVSPost2010PropOp39
 70
     0
102
RTVSPost2010Prop40
 90
        0
102
RTVSPost2010PropOp40
 70
     0
102
RTVSPost2010Prop41ColorIndex
 90
       18
102
RTVSPost2010Prop41ColorRGB
 90
        0
102
RTVSPost2010PropOp41
 70
     0
102
RTVSPost2010Prop42
 90
       50
102
RTVSPost2010PropOp42
 70
     0
102
RTVSPost2010Prop43
 90
        3
102
RTVSPost2010PropOp43
 70
     0
102
RTVSPost2010Prop44ColorIndex
 90
        5
102
RTVSPost2010Prop44ColorRGB
 90
      255
102
RTVSPost2010PropOp44
 70
     0
102
RTVSPost2010Prop45
280
     0
102
RTVSPost2010PropOp45
 70
     0
102
RTVSPost2010Prop46
 90
       50
102
RTVSPost2010PropOp46
 70
     0
102
RTVSPost2010Prop47
 90
       50
102
RTVSPost2010PropOp47
 70
     0
102
RTVSPost2010Prop48
 90
       50
102
RTVSPost2010PropOp48
 70
     0
102
RTVSPost2010Prop49
280
     0
102
RTVSPost2010PropOp49
 70
     0
102
RTVSPost2010Prop50
 90
       50
102
RTVSPost2010PropOp50
 70
     0
102
RTVSPost2010Prop51ColorIndex
 90
      256
102
RTVSPost2010Prop51ColorRGB
 90
-16777216
102
RTVSPost2010PropOp51
 70
     0
102
RTVSPost2010Prop52
140
1.0
102
RTVSPost2010PropOp52
 70
     0
102
RTVSPost2010Prop53
 90
        2
102
RTVSPost2010PropOp53
 70
     0
102
RTVSPost2010Prop54
  1
strokes_ogs.tif
102
RTVSPost2010PropOp54
 70
     0
102
RTVSPost2010Prop55
280
     0
102
RTVSPost2010PropOp55
 70
     0
102
RTVSPost2010Prop56
140
1.0
102
RTVSPost2010PropOp56
 70
     0
102
RTVSPost2010Prop57
140
1.0
102
RTVSPost2010PropOp57
 70
     0
  0
XRECORD
  5
72C
102
{ACAD_REACTORS
330
72B
102
}
330
72B
100
AcDbXrecord
280
     1
102
RTVSPost2010Prop28
280
     0
102
RTVSPost2010PropOp28
 70
     1
102
RTVSPost2010Prop29
280
     1
102
RTVSPost2010PropOp29
 70
     1
102
RTVSPost2010Prop30
280
     1
102
RTVSPost2010PropOp30
 70
     1
102
RTVSPost2010Prop31
280
     0
102
RTVSPost2010PropOp31
 70
     1
102
RTVSPost2010Prop32
280
     0
102
RTVSPost2010PropOp32
 70
     1
102
RTVSPost2010Prop33
280
     0
102
RTVSPost2010PropOp33
 70
     1
102
RTVSPost2010Prop34
280
     0
102
RTVSPost2010PropOp34
 70
     1
102
RTVSPost2010Prop35
280
     0
102
RTVSPost2010PropOp35
 70
     1
102
RTVSPost2010Prop36
280
     0
102
RTVSPost2010PropOp36
 70
     1
102
RTVSPost2010Prop37
 90
       50
102
RTVSPost2010PropOp37
 70
     1
102
RTVSPost2010Prop38
140
0.0
102
RTVSPost2010PropOp38
 70
     1
102
RTVSPost2010Prop39
140
1.0
102
RTVSPost2010PropOp39
 70
     1
102
RTVSPost2010Prop40
 90
        0
102
RTVSPost2010PropOp40
 70
     1
102
RTVSPost2010Prop41ColorIndex
 90
       18
102
RTVSPost2010Prop41ColorRGB
 90
        0
102
RTVSPost2010PropOp41
 70
     1
102
RTVSPost2010Prop42
 90
       50
102
RTVSPost2010PropOp42
 70
     1
102
RTVSPost2010Prop43
 90
        3
102
RTVSPost2010PropOp43
 70
     1
102
RTVSPost2010Prop44ColorIndex
 90
        5
102
RTVSPost2010Prop44ColorRGB
 90
      255
102
RTVSPost2010PropOp44
 70
     1
102
RTVSPost2010Prop45
280
     0
102
RTVSPost2010PropOp45
 70
     1
102
RTVSPost2010Prop46
 90
       50
102
RTVSPost2010PropOp46
 70
     1
102
RTVSPost2010Prop47
 90
       50
102
RTVSPost2010PropOp47
 70
     1
102
RTVSPost2010Prop48
 90
       50
102
RTVSPost2010PropOp48
 70
     1
102
RTVSPost2010Prop49
280
     0
102
RTVSPost2010PropOp49
 70
     1
102
RTVSPost2010Prop50
 90
       50
102
RTVSPost2010PropOp50
 70
     1
102
RTVSPost2010Prop51ColorIndex
 90
      256
102
RTVSPost2010Prop51ColorRGB
 90
-16777216
102
RTVSPost2010PropOp51
 70
     0
102
RTVSPost2010Prop52
140
1.0
102
RTVSPost2010PropOp52
 70
     0
102
RTVSPost2010Prop53
 90
        2
102
RTVSPost2010PropOp53
 70
     1
102
RTVSPost2010Prop54
  1
strokes_ogs.tif
102
RTVSPost2010PropOp54
 70
     1
102
RTVSPost2010Prop55
280
     0
102
RTVSPost2010PropOp55
 70
     1
102
RTVSPost2010Prop56
140
1.0
102
RTVSPost2010PropOp56
 70
     1
102
RTVSPost2010Prop57
140
1.0
102
RTVSPost2010PropOp57
 70
     1
  0
XRECORD
  5
710
102
{ACAD_REACTORS
330
70F
102
}
330
70F
100
AcDbXrecord
280
     1
102
RTVSPost2010Prop28
280
     0
102
RTVSPost2010PropOp28
 70
     1
102
RTVSPost2010Prop29
280
     1
102
RTVSPost2010PropOp29
 70
     1
102
RTVSPost2010Prop30
280
     1
102
RTVSPost2010PropOp30
 70
     1
102
RTVSPost2010Prop31
280
     0
102
RTVSPost2010PropOp31
 70
     1
102
RTVSPost2010Prop32
280
     0
102
RTVSPost2010PropOp32
 70
     1
102
RTVSPost2010Prop33
280
     0
102
RTVSPost2010PropOp33
 70
     1
102
RTVSPost2010Prop34
280
     0
102
RTVSPost2010PropOp34
 70
     1
102
RTVSPost2010Prop35
280
     0
102
RTVSPost2010PropOp35
 70
     1
102
RTVSPost2010Prop36
280
     0
102
RTVSPost2010PropOp36
 70
     1
102
RTVSPost2010Prop37
 90
       50
102
RTVSPost2010PropOp37
 70
     1
102
RTVSPost2010Prop38
140
0.0
102
RTVSPost2010PropOp38
 70
     1
102
RTVSPost2010Prop39
140
1.0
102
RTVSPost2010PropOp39
 70
     1
102
RTVSPost2010Prop40
 90
        0
102
RTVSPost2010PropOp40
 70
     1
102
RTVSPost2010Prop41ColorIndex
 90
       18
102
RTVSPost2010Prop41ColorRGB
 90
        0
102
RTVSPost2010PropOp41
 70
     1
102
RTVSPost2010Prop42
 90
       50
102
RTVSPost2010PropOp42
 70
     1
102
RTVSPost2010Prop43
 90
        3
102
RTVSPost2010PropOp43
 70
     1
102
RTVSPost2010Prop44ColorIndex
 90
        5
102
RTVSPost2010Prop44ColorRGB
 90
      255
102
RTVSPost2010PropOp44
 70
     1
102
RTVSPost2010Prop45
280
     0
102
RTVSPost2010PropOp45
 70
     1
102
RTVSPost2010Prop46
 90
       50
102
RTVSPost2010PropOp46
 70
     1
102
RTVSPost2010Prop47
 90
       50
102
RTVSPost2010PropOp47
 70
     1
102
RTVSPost2010Prop48
 90
       50
102
RTVSPost2010PropOp48
 70
     1
102
RTVSPost2010Prop49
280
     0
102
RTVSPost2010PropOp49
 70
     1
102
RTVSPost2010Prop50
 90
       50
102
RTVSPost2010PropOp50
 70
     1
102
RTVSPost2010Prop51ColorIndex
 90
      256
102
RTVSPost2010Prop51ColorRGB
 90
-16777216
102
RTVSPost2010PropOp51
 70
     0
102
RTVSPost2010Prop52
140
1.0
102
RTVSPost2010PropOp52
 70
     0
102
RTVSPost2010Prop53
 90
        2
102
RTVSPost2010PropOp53
 70
     1
102
RTVSPost2010Prop54
  1
strokes_ogs.tif
102
RTVSPost2010PropOp54
 70
     1
102
RTVSPost2010Prop55
280
     0
102
RTVSPost2010PropOp55
 70
     1
102
RTVSPost2010Prop56
140
1.0
102
RTVSPost2010PropOp56
 70
     1
102
RTVSPost2010Prop57
140
1.0
102
RTVSPost2010PropOp57
 70
     1
  0
XRECORD
  5
712
102
{ACAD_REACTORS
330
711
102
}
330
711
100
AcDbXrecord
280
     1
102
RTVSPost2010Prop28
280
     0
102
RTVSPost2010PropOp28
 70
     1
102
RTVSPost2010Prop29
280
     1
102
RTVSPost2010PropOp29
 70
     1
102
RTVSPost2010Prop30
280
     1
102
RTVSPost2010PropOp30
 70
     1
102
RTVSPost2010Prop31
280
     0
102
RTVSPost2010PropOp31
 70
     1
102
RTVSPost2010Prop32
280
     0
102
RTVSPost2010PropOp32
 70
     1
102
RTVSPost2010Prop33
280
     0
102
RTVSPost2010PropOp33
 70
     1
102
RTVSPost2010Prop34
280
     0
102
RTVSPost2010PropOp34
 70
     1
102
RTVSPost2010Prop35
280
     0
102
RTVSPost2010PropOp35
 70
     1
102
RTVSPost2010Prop36
280
     0
102
RTVSPost2010PropOp36
 70
     1
102
RTVSPost2010Prop37
 90
       50
102
RTVSPost2010PropOp37
 70
     1
102
RTVSPost2010Prop38
140
0.0
102
RTVSPost2010PropOp38
 70
     1
102
RTVSPost2010Prop39
140
1.0
102
RTVSPost2010PropOp39
 70
     1
102
RTVSPost2010Prop40
 90
        0
102
RTVSPost2010PropOp40
 70
     1
102
RTVSPost2010Prop41ColorIndex
 90
       18
102
RTVSPost2010Prop41ColorRGB
 90
        0
102
RTVSPost2010PropOp41
 70
     1
102
RTVSPost2010Prop42
 90
       50
102
RTVSPost2010PropOp42
 70
     1
102
RTVSPost2010Prop43
 90
        3
102
RTVSPost2010PropOp43
 70
     1
102
RTVSPost2010Prop44ColorIndex
 90
        5
102
RTVSPost2010Prop44ColorRGB
 90
      255
102
RTVSPost2010PropOp44
 70
     1
102
RTVSPost2010Prop45
280
     0
102
RTVSPost2010PropOp45
 70
     1
102
RTVSPost2010Prop46
 90
       50
102
RTVSPost2010PropOp46
 70
     1
102
RTVSPost2010Prop47
 90
       50
102
RTVSPost2010PropOp47
 70
     1
102
RTVSPost2010Prop48
 90
       50
102
RTVSPost2010PropOp48
 70
     1
102
RTVSPost2010Prop49
280
     0
102
RTVSPost2010PropOp49
 70
     1
102
RTVSPost2010Prop50
 90
       50
102
RTVSPost2010PropOp50
 70
     1
102
RTVSPost2010Prop51ColorIndex
 90
      256
102
RTVSPost2010Prop51ColorRGB
 90
-16777216
102
RTVSPost2010PropOp51
 70
     0
102
RTVSPost2010Prop52
140
1.0
102
RTVSPost2010PropOp52
 70
     0
102
RTVSPost2010Prop53
 90
        2
102
RTVSPost2010PropOp53
 70
     1
102
RTVSPost2010Prop54
  1
strokes_ogs.tif
102
RTVSPost2010PropOp54
 70
     1
102
RTVSPost2010Prop55
280
     0
102
RTVSPost2010PropOp55
 70
     1
102
RTVSPost2010Prop56
140
1.0
102
RTVSPost2010PropOp56
 70
     1
102
RTVSPost2010Prop57
140
1.0
102
RTVSPost2010PropOp57
 70
     1
  0
XRECORD
  5
714
102
{ACAD_REACTORS
330
713
102
}
330
713
100
AcDbXrecord
280
     1
102
RTVSPost2010Prop28
280
     0
102
RTVSPost2010PropOp28
 70
     1
102
RTVSPost2010Prop29
280
     1
102
RTVSPost2010PropOp29
 70
     1
102
RTVSPost2010Prop30
280
     1
102
RTVSPost2010PropOp30
 70
     1
102
RTVSPost2010Prop31
280
     0
102
RTVSPost2010PropOp31
 70
     1
102
RTVSPost2010Prop32
280
     0
102
RTVSPost2010PropOp32
 70
     1
102
RTVSPost2010Prop33
280
     0
102
RTVSPost2010PropOp33
 70
     1
102
RTVSPost2010Prop34
280
     0
102
RTVSPost2010PropOp34
 70
     1
102
RTVSPost2010Prop35
280
     0
102
RTVSPost2010PropOp35
 70
     1
102
RTVSPost2010Prop36
280
     0
102
RTVSPost2010PropOp36
 70
     1
102
RTVSPost2010Prop37
 90
       50
102
RTVSPost2010PropOp37
 70
     1
102
RTVSPost2010Prop38
140
0.0
102
RTVSPost2010PropOp38
 70
     1
102
RTVSPost2010Prop39
140
1.0
102
RTVSPost2010PropOp39
 70
     1
102
RTVSPost2010Prop40
 90
        0
102
RTVSPost2010PropOp40
 70
     1
102
RTVSPost2010Prop41ColorIndex
 90
       18
102
RTVSPost2010Prop41ColorRGB
 90
        0
102
RTVSPost2010PropOp41
 70
     1
102
RTVSPost2010Prop42
 90
       50
102
RTVSPost2010PropOp42
 70
     1
102
RTVSPost2010Prop43
 90
        3
102
RTVSPost2010PropOp43
 70
     1
102
RTVSPost2010Prop44ColorIndex
 90
        5
102
RTVSPost2010Prop44ColorRGB
 90
      255
102
RTVSPost2010PropOp44
 70
     1
102
RTVSPost2010Prop45
280
     0
102
RTVSPost2010PropOp45
 70
     1
102
RTVSPost2010Prop46
 90
       50
102
RTVSPost2010PropOp46
 70
     1
102
RTVSPost2010Prop47
 90
       50
102
RTVSPost2010PropOp47
 70
     1
102
RTVSPost2010Prop48
 90
       50
102
RTVSPost2010PropOp48
 70
     1
102
RTVSPost2010Prop49
280
     0
102
RTVSPost2010PropOp49
 70
     1
102
RTVSPost2010Prop50
 90
       50
102
RTVSPost2010PropOp50
 70
     1
102
RTVSPost2010Prop51ColorIndex
 90
      256
102
RTVSPost2010Prop51ColorRGB
 90
-16777216
102
RTVSPost2010PropOp51
 70
     0
102
RTVSPost2010Prop52
140
1.0
102
RTVSPost2010PropOp52
 70
     0
102
RTVSPost2010Prop53
 90
        2
102
RTVSPost2010PropOp53
 70
     1
102
RTVSPost2010Prop54
  1
strokes_ogs.tif
102
RTVSPost2010PropOp54
 70
     1
102
RTVSPost2010Prop55
280
     0
102
RTVSPost2010PropOp55
 70
     1
102
RTVSPost2010Prop56
140
1.0
102
RTVSPost2010PropOp56
 70
     1
102
RTVSPost2010Prop57
140
1.0
102
RTVSPost2010PropOp57
 70
     1
  0
XRECORD
  5
716
102
{ACAD_REACTORS
330
715
102
}
330
715
100
AcDbXrecord
280
     1
102
RTVSPost2010Prop28
280
     0
102
RTVSPost2010PropOp28
 70
     1
102
RTVSPost2010Prop29
280
     1
102
RTVSPost2010PropOp29
 70
     1
102
RTVSPost2010Prop30
280
     1
102
RTVSPost2010PropOp30
 70
     1
102
RTVSPost2010Prop31
280
     0
102
RTVSPost2010PropOp31
 70
     1
102
RTVSPost2010Prop32
280
     0
102
RTVSPost2010PropOp32
 70
     1
102
RTVSPost2010Prop33
280
     0
102
RTVSPost2010PropOp33
 70
     1
102
RTVSPost2010Prop34
280
     0
102
RTVSPost2010PropOp34
 70
     1
102
RTVSPost2010Prop35
280
     0
102
RTVSPost2010PropOp35
 70
     1
102
RTVSPost2010Prop36
280
     0
102
RTVSPost2010PropOp36
 70
     1
102
RTVSPost2010Prop37
 90
       50
102
RTVSPost2010PropOp37
 70
     1
102
RTVSPost2010Prop38
140
0.0
102
RTVSPost2010PropOp38
 70
     1
102
RTVSPost2010Prop39
140
1.0
102
RTVSPost2010PropOp39
 70
     1
102
RTVSPost2010Prop40
 90
        0
102
RTVSPost2010PropOp40
 70
     1
102
RTVSPost2010Prop41ColorIndex
 90
       18
102
RTVSPost2010Prop41ColorRGB
 90
        0
102
RTVSPost2010PropOp41
 70
     1
102
RTVSPost2010Prop42
 90
       50
102
RTVSPost2010PropOp42
 70
     1
102
RTVSPost2010Prop43
 90
        3
102
RTVSPost2010PropOp43
 70
     1
102
RTVSPost2010Prop44ColorIndex
 90
        5
102
RTVSPost2010Prop44ColorRGB
 90
      255
102
RTVSPost2010PropOp44
 70
     1
102
RTVSPost2010Prop45
280
     0
102
RTVSPost2010PropOp45
 70
     1
102
RTVSPost2010Prop46
 90
       50
102
RTVSPost2010PropOp46
 70
     1
102
RTVSPost2010Prop47
 90
       50
102
RTVSPost2010PropOp47
 70
     1
102
RTVSPost2010Prop48
 90
       50
102
RTVSPost2010PropOp48
 70
     1
102
RTVSPost2010Prop49
280
     0
102
RTVSPost2010PropOp49
 70
     1
102
RTVSPost2010Prop50
 90
       50
102
RTVSPost2010PropOp50
 70
     1
102
RTVSPost2010Prop51ColorIndex
 90
      256
102
RTVSPost2010Prop51ColorRGB
 90
-16777216
102
RTVSPost2010PropOp51
 70
     0
102
RTVSPost2010Prop52
140
1.0
102
RTVSPost2010PropOp52
 70
     0
102
RTVSPost2010Prop53
 90
        2
102
RTVSPost2010PropOp53
 70
     1
102
RTVSPost2010Prop54
  1
strokes_ogs.tif
102
RTVSPost2010PropOp54
 70
     1
102
RTVSPost2010Prop55
280
     0
102
RTVSPost2010PropOp55
 70
     1
102
RTVSPost2010Prop56
140
1.0
102
RTVSPost2010PropOp56
 70
     1
102
RTVSPost2010Prop57
140
1.0
102
RTVSPost2010PropOp57
 70
     1
  0
XRECORD
  5
71E
102
{ACAD_REACTORS
330
71D
102
}
330
71D
100
AcDbXrecord
280
     1
102
RTVSPost2010Prop28
280
     0
102
RTVSPost2010PropOp28
 70
     1
102
RTVSPost2010Prop29
280
     1
102
RTVSPost2010PropOp29
 70
     1
102
RTVSPost2010Prop30
280
     1
102
RTVSPost2010PropOp30
 70
     1
102
RTVSPost2010Prop31
280
     0
102
RTVSPost2010PropOp31
 70
     1
102
RTVSPost2010Prop32
280
     0
102
RTVSPost2010PropOp32
 70
     1
102
RTVSPost2010Prop33
280
     0
102
RTVSPost2010PropOp33
 70
     1
102
RTVSPost2010Prop34
280
     0
102
RTVSPost2010PropOp34
 70
     1
102
RTVSPost2010Prop35
280
     0
102
RTVSPost2010PropOp35
 70
     1
102
RTVSPost2010Prop36
280
     0
102
RTVSPost2010PropOp36
 70
     1
102
RTVSPost2010Prop37
 90
       50
102
RTVSPost2010PropOp37
 70
     1
102
RTVSPost2010Prop38
140
0.0
102
RTVSPost2010PropOp38
 70
     1
102
RTVSPost2010Prop39
140
1.0
102
RTVSPost2010PropOp39
 70
     1
102
RTVSPost2010Prop40
 90
        0
102
RTVSPost2010PropOp40
 70
     1
102
RTVSPost2010Prop41ColorIndex
 90
       18
102
RTVSPost2010Prop41ColorRGB
 90
        0
102
RTVSPost2010PropOp41
 70
     1
102
RTVSPost2010Prop42
 90
       50
102
RTVSPost2010PropOp42
 70
     1
102
RTVSPost2010Prop43
 90
        3
102
RTVSPost2010PropOp43
 70
     1
102
RTVSPost2010Prop44ColorIndex
 90
        5
102
RTVSPost2010Prop44ColorRGB
 90
      255
102
RTVSPost2010PropOp44
 70
     1
102
RTVSPost2010Prop45
280
     0
102
RTVSPost2010PropOp45
 70
     1
102
RTVSPost2010Prop46
 90
       50
102
RTVSPost2010PropOp46
 70
     1
102
RTVSPost2010Prop47
 90
       50
102
RTVSPost2010PropOp47
 70
     1
102
RTVSPost2010Prop48
 90
       50
102
RTVSPost2010PropOp48
 70
     1
102
RTVSPost2010Prop49
280
     0
102
RTVSPost2010PropOp49
 70
     1
102
RTVSPost2010Prop50
 90
       50
102
RTVSPost2010PropOp50
 70
     1
102
RTVSPost2010Prop51ColorIndex
 90
      256
102
RTVSPost2010Prop51ColorRGB
 90
-16777216
102
RTVSPost2010PropOp51
 70
     0
102
RTVSPost2010Prop52
140
1.0
102
RTVSPost2010PropOp52
 70
     0
102
RTVSPost2010Prop53
 90
        2
102
RTVSPost2010PropOp53
 70
     1
102
RTVSPost2010Prop54
  1
strokes_ogs.tif
102
RTVSPost2010PropOp54
 70
     1
102
RTVSPost2010Prop55
280
     0
102
RTVSPost2010PropOp55
 70
     1
102
RTVSPost2010Prop56
140
1.0
102
RTVSPost2010PropOp56
 70
     1
102
RTVSPost2010Prop57
140
1.0
102
RTVSPost2010PropOp57
 70
     1
  0
XRECORD
  5
73A
102
{ACAD_REACTORS
330
739
102
}
330
739
100
AcDbXrecord
280
     1
102
RTVSPost2010Prop28
280
     0
102
RTVSPost2010PropOp28
 70
     0
102
RTVSPost2010Prop29
280
     1
102
RTVSPost2010PropOp29
 70
     0
102
RTVSPost2010Prop30
280
     1
102
RTVSPost2010PropOp30
 70
     0
102
RTVSPost2010Prop31
280
     0
102
RTVSPost2010PropOp31
 70
     0
102
RTVSPost2010Prop32
280
     0
102
RTVSPost2010PropOp32
 70
     0
102
RTVSPost2010Prop33
280
     0
102
RTVSPost2010PropOp33
 70
     0
102
RTVSPost2010Prop34
280
     0
102
RTVSPost2010PropOp34
 70
     0
102
RTVSPost2010Prop35
280
     0
102
RTVSPost2010PropOp35
 70
     0
102
RTVSPost2010Prop36
280
     0
102
RTVSPost2010PropOp36
 70
     0
102
RTVSPost2010Prop37
 90
       50
102
RTVSPost2010PropOp37
 70
     0
102
RTVSPost2010Prop38
140
0.0
102
RTVSPost2010PropOp38
 70
     0
102
RTVSPost2010Prop39
140
1.0
102
RTVSPost2010PropOp39
 70
     0
102
RTVSPost2010Prop40
 90
        0
102
RTVSPost2010PropOp40
 70
     0
102
RTVSPost2010Prop41ColorIndex
 90
       18
102
RTVSPost2010Prop41ColorRGB
 90
        0
102
RTVSPost2010PropOp41
 70
     0
102
RTVSPost2010Prop42
 90
       50
102
RTVSPost2010PropOp42
 70
     0
102
RTVSPost2010Prop43
 90
        3
102
RTVSPost2010PropOp43
 70
     0
102
RTVSPost2010Prop44ColorIndex
 90
        5
102
RTVSPost2010Prop44ColorRGB
 90
      255
102
RTVSPost2010PropOp44
 70
     0
102
RTVSPost2010Prop45
280
     0
102
RTVSPost2010PropOp45
 70
     0
102
RTVSPost2010Prop46
 90
       50
102
RTVSPost2010PropOp46
 70
     0
102
RTVSPost2010Prop47
 90
       50
102
RTVSPost2010PropOp47
 70
     0
102
RTVSPost2010Prop48
 90
       50
102
RTVSPost2010PropOp48
 70
     0
102
RTVSPost2010Prop49
280
     0
102
RTVSPost2010PropOp49
 70
     0
102
RTVSPost2010Prop50
 90
       50
102
RTVSPost2010PropOp50
 70
     0
102
RTVSPost2010Prop51ColorIndex
 90
      256
102
RTVSPost2010Prop51ColorRGB
 90
-16777216
102
RTVSPost2010PropOp51
 70
     0
102
RTVSPost2010Prop52
140
1.0
102
RTVSPost2010PropOp52
 70
     0
102
RTVSPost2010Prop53
 90
        2
102
RTVSPost2010PropOp53
 70
     0
102
RTVSPost2010Prop54
  1
strokes_ogs.tif
102
RTVSPost2010PropOp54
 70
     0
102
RTVSPost2010Prop55
280
     0
102
RTVSPost2010PropOp55
 70
     0
102
RTVSPost2010Prop56
140
1.0
102
RTVSPost2010PropOp56
 70
     0
102
RTVSPost2010Prop57
140
1.0
102
RTVSPost2010PropOp57
 70
     0
  0
XRECORD
  5
72A
102
{ACAD_REACTORS
330
729
102
}
330
729
100
AcDbXrecord
280
     1
102
RTVSPost2010Prop28
280
     0
102
RTVSPost2010PropOp28
 70
     1
102
RTVSPost2010Prop29
280
     1
102
RTVSPost2010PropOp29
 70
     1
102
RTVSPost2010Prop30
280
     1
102
RTVSPost2010PropOp30
 70
     1
102
RTVSPost2010Prop31
280
     0
102
RTVSPost2010PropOp31
 70
     1
102
RTVSPost2010Prop32
280
     0
102
RTVSPost2010PropOp32
 70
     1
102
RTVSPost2010Prop33
280
     0
102
RTVSPost2010PropOp33
 70
     1
102
RTVSPost2010Prop34
280
     0
102
RTVSPost2010PropOp34
 70
     1
102
RTVSPost2010Prop35
280
     0
102
RTVSPost2010PropOp35
 70
     1
102
RTVSPost2010Prop36
280
     0
102
RTVSPost2010PropOp36
 70
     1
102
RTVSPost2010Prop37
 90
       50
102
RTVSPost2010PropOp37
 70
     1
102
RTVSPost2010Prop38
140
0.0
102
RTVSPost2010PropOp38
 70
     1
102
RTVSPost2010Prop39
140
1.0
102
RTVSPost2010PropOp39
 70
     1
102
RTVSPost2010Prop40
 90
        0
102
RTVSPost2010PropOp40
 70
     1
102
RTVSPost2010Prop41ColorIndex
 90
       18
102
RTVSPost2010Prop41ColorRGB
 90
        0
102
RTVSPost2010PropOp41
 70
     1
102
RTVSPost2010Prop42
 90
       50
102
RTVSPost2010PropOp42
 70
     1
102
RTVSPost2010Prop43
 90
        3
102
RTVSPost2010PropOp43
 70
     1
102
RTVSPost2010Prop44ColorIndex
 90
        5
102
RTVSPost2010Prop44ColorRGB
 90
      255
102
RTVSPost2010PropOp44
 70
     1
102
RTVSPost2010Prop45
280
     0
102
RTVSPost2010PropOp45
 70
     1
102
RTVSPost2010Prop46
 90
       50
102
RTVSPost2010PropOp46
 70
     1
102
RTVSPost2010Prop47
 90
       50
102
RTVSPost2010PropOp47
 70
     1
102
RTVSPost2010Prop48
 90
       50
102
RTVSPost2010PropOp48
 70
     1
102
RTVSPost2010Prop49
280
     0
102
RTVSPost2010PropOp49
 70
     1
102
RTVSPost2010Prop50
 90
       50
102
RTVSPost2010PropOp50
 70
     1
102
RTVSPost2010Prop51ColorIndex
 90
      256
102
RTVSPost2010Prop51ColorRGB
 90
-16777216
102
RTVSPost2010PropOp51
 70
     0
102
RTVSPost2010Prop52
140
1.0
102
RTVSPost2010PropOp52
 70
     0
102
RTVSPost2010Prop53
 90
        2
102
RTVSPost2010PropOp53
 70
     1
102
RTVSPost2010Prop54
  1
strokes_ogs.tif
102
RTVSPost2010PropOp54
 70
     1
102
RTVSPost2010Prop55
280
     0
102
RTVSPost2010PropOp55
 70
     1
102
RTVSPost2010Prop56
140
1.0
102
RTVSPost2010PropOp56
 70
     1
102
RTVSPost2010Prop57
140
1.0
102
RTVSPost2010PropOp57
 70
     1
  0
XRECORD
  5
73C
102
{ACAD_REACTORS
330
73B
102
}
330
73B
100
AcDbXrecord
280
     1
102
RTVSPost2010Prop28
280
     0
102
RTVSPost2010PropOp28
 70
     0
102
RTVSPost2010Prop29
280
     1
102
RTVSPost2010PropOp29
 70
     0
102
RTVSPost2010Prop30
280
     1
102
RTVSPost2010PropOp30
 70
     0
102
RTVSPost2010Prop31
280
     0
102
RTVSPost2010PropOp31
 70
     0
102
RTVSPost2010Prop32
280
     0
102
RTVSPost2010PropOp32
 70
     0
102
RTVSPost2010Prop33
280
     0
102
RTVSPost2010PropOp33
 70
     0
102
RTVSPost2010Prop34
280
     0
102
RTVSPost2010PropOp34
 70
     0
102
RTVSPost2010Prop35
280
     0
102
RTVSPost2010PropOp35
 70
     0
102
RTVSPost2010Prop36
280
     0
102
RTVSPost2010PropOp36
 70
     0
102
RTVSPost2010Prop37
 90
       50
102
RTVSPost2010PropOp37
 70
     0
102
RTVSPost2010Prop38
140
0.0
102
RTVSPost2010PropOp38
 70
     0
102
RTVSPost2010Prop39
140
1.0
102
RTVSPost2010PropOp39
 70
     0
102
RTVSPost2010Prop40
 90
        0
102
RTVSPost2010PropOp40
 70
     0
102
RTVSPost2010Prop41ColorIndex
 90
       18
102
RTVSPost2010Prop41ColorRGB
 90
        0
102
RTVSPost2010PropOp41
 70
     0
102
RTVSPost2010Prop42
 90
       50
102
RTVSPost2010PropOp42
 70
     0
102
RTVSPost2010Prop43
 90
        3
102
RTVSPost2010PropOp43
 70
     0
102
RTVSPost2010Prop44ColorIndex
 90
        5
102
RTVSPost2010Prop44ColorRGB
 90
      255
102
RTVSPost2010PropOp44
 70
     0
102
RTVSPost2010Prop45
280
     0
102
RTVSPost2010PropOp45
 70
     0
102
RTVSPost2010Prop46
 90
       50
102
RTVSPost2010PropOp46
 70
     0
102
RTVSPost2010Prop47
 90
       50
102
RTVSPost2010PropOp47
 70
     0
102
RTVSPost2010Prop48
 90
       50
102
RTVSPost2010PropOp48
 70
     0
102
RTVSPost2010Prop49
280
     0
102
RTVSPost2010PropOp49
 70
     0
102
RTVSPost2010Prop50
 90
       50
102
RTVSPost2010PropOp50
 70
     0
102
RTVSPost2010Prop51ColorIndex
 90
      256
102
RTVSPost2010Prop51ColorRGB
 90
-16777216
102
RTVSPost2010PropOp51
 70
     0
102
RTVSPost2010Prop52
140
1.0
102
RTVSPost2010PropOp52
 70
     0
102
RTVSPost2010Prop53
 90
        2
102
RTVSPost2010PropOp53
 70
     0
102
RTVSPost2010Prop54
  1
strokes_ogs.tif
102
RTVSPost2010PropOp54
 70
     0
102
RTVSPost2010Prop55
280
     0
102
RTVSPost2010PropOp55
 70
     0
102
RTVSPost2010Prop56
140
1.0
102
RTVSPost2010PropOp56
 70
     0
102
RTVSPost2010Prop57
140
1.0
102
RTVSPost2010PropOp57
 70
     0
  0
XRECORD
  5
722
102
{ACAD_REACTORS
330
721
102
}
330
721
100
AcDbXrecord
280
     1
102
RTVSPost2010Prop28
280
     0
102
RTVSPost2010PropOp28
 70
     1
102
RTVSPost2010Prop29
280
     1
102
RTVSPost2010PropOp29
 70
     1
102
RTVSPost2010Prop30
280
     1
102
RTVSPost2010PropOp30
 70
     1
102
RTVSPost2010Prop31
280
     0
102
RTVSPost2010PropOp31
 70
     1
102
RTVSPost2010Prop32
280
     0
102
RTVSPost2010PropOp32
 70
     1
102
RTVSPost2010Prop33
280
     0
102
RTVSPost2010PropOp33
 70
     1
102
RTVSPost2010Prop34
280
     0
102
RTVSPost2010PropOp34
 70
     1
102
RTVSPost2010Prop35
280
     0
102
RTVSPost2010PropOp35
 70
     1
102
RTVSPost2010Prop36
280
     0
102
RTVSPost2010PropOp36
 70
     1
102
RTVSPost2010Prop37
 90
       50
102
RTVSPost2010PropOp37
 70
     1
102
RTVSPost2010Prop38
140
0.0
102
RTVSPost2010PropOp38
 70
     1
102
RTVSPost2010Prop39
140
1.0
102
RTVSPost2010PropOp39
 70
     1
102
RTVSPost2010Prop40
 90
        0
102
RTVSPost2010PropOp40
 70
     1
102
RTVSPost2010Prop41ColorIndex
 90
       18
102
RTVSPost2010Prop41ColorRGB
 90
        0
102
RTVSPost2010PropOp41
 70
     1
102
RTVSPost2010Prop42
 90
       50
102
RTVSPost2010PropOp42
 70
     1
102
RTVSPost2010Prop43
 90
        3
102
RTVSPost2010PropOp43
 70
     1
102
RTVSPost2010Prop44ColorIndex
 90
        5
102
RTVSPost2010Prop44ColorRGB
 90
      255
102
RTVSPost2010PropOp44
 70
     1
102
RTVSPost2010Prop45
280
     0
102
RTVSPost2010PropOp45
 70
     1
102
RTVSPost2010Prop46
 90
       50
102
RTVSPost2010PropOp46
 70
     1
102
RTVSPost2010Prop47
 90
       50
102
RTVSPost2010PropOp47
 70
     1
102
RTVSPost2010Prop48
 90
       50
102
RTVSPost2010PropOp48
 70
     1
102
RTVSPost2010Prop49
280
     0
102
RTVSPost2010PropOp49
 70
     1
102
RTVSPost2010Prop50
 90
       50
102
RTVSPost2010PropOp50
 70
     1
102
RTVSPost2010Prop51ColorIndex
 90
      256
102
RTVSPost2010Prop51ColorRGB
 90
-16777216
102
RTVSPost2010PropOp51
 70
     0
102
RTVSPost2010Prop52
140
1.0
102
RTVSPost2010PropOp52
 70
     0
102
RTVSPost2010Prop53
 90
        2
102
RTVSPost2010PropOp53
 70
     1
102
RTVSPost2010Prop54
  1
strokes_ogs.tif
102
RTVSPost2010PropOp54
 70
     1
102
RTVSPost2010Prop55
280
     0
102
RTVSPost2010PropOp55
 70
     1
102
RTVSPost2010Prop56
140
1.0
102
RTVSPost2010PropOp56
 70
     1
102
RTVSPost2010Prop57
140
1.0
102
RTVSPost2010PropOp57
 70
     1
  0
XRECORD
  5
738
102
{ACAD_REACTORS
330
737
102
}
330
737
100
AcDbXrecord
280
     1
102
RTVSPost2010Prop28
280
     0
102
RTVSPost2010PropOp28
 70
     1
102
RTVSPost2010Prop29
280
     1
102
RTVSPost2010PropOp29
 70
     1
102
RTVSPost2010Prop30
280
     1
102
RTVSPost2010PropOp30
 70
     1
102
RTVSPost2010Prop31
280
     0
102
RTVSPost2010PropOp31
 70
     1
102
RTVSPost2010Prop32
280
     0
102
RTVSPost2010PropOp32
 70
     1
102
RTVSPost2010Prop33
280
     0
102
RTVSPost2010PropOp33
 70
     1
102
RTVSPost2010Prop34
280
     0
102
RTVSPost2010PropOp34
 70
     1
102
RTVSPost2010Prop35
280
     0
102
RTVSPost2010PropOp35
 70
     1
102
RTVSPost2010Prop36
280
     0
102
RTVSPost2010PropOp36
 70
     1
102
RTVSPost2010Prop37
 90
       50
102
RTVSPost2010PropOp37
 70
     1
102
RTVSPost2010Prop38
140
0.0
102
RTVSPost2010PropOp38
 70
     1
102
RTVSPost2010Prop39
140
1.0
102
RTVSPost2010PropOp39
 70
     1
102
RTVSPost2010Prop40
 90
        0
102
RTVSPost2010PropOp40
 70
     1
102
RTVSPost2010Prop41ColorIndex
 90
       18
102
RTVSPost2010Prop41ColorRGB
 90
        0
102
RTVSPost2010PropOp41
 70
     1
102
RTVSPost2010Prop42
 90
       50
102
RTVSPost2010PropOp42
 70
     1
102
RTVSPost2010Prop43
 90
        3
102
RTVSPost2010PropOp43
 70
     1
102
RTVSPost2010Prop44ColorIndex
 90
        5
102
RTVSPost2010Prop44ColorRGB
 90
      255
102
RTVSPost2010PropOp44
 70
     1
102
RTVSPost2010Prop45
280
     0
102
RTVSPost2010PropOp45
 70
     1
102
RTVSPost2010Prop46
 90
       50
102
RTVSPost2010PropOp46
 70
     1
102
RTVSPost2010Prop47
 90
       50
102
RTVSPost2010PropOp47
 70
     1
102
RTVSPost2010Prop48
 90
       50
102
RTVSPost2010PropOp48
 70
     1
102
RTVSPost2010Prop49
280
     0
102
RTVSPost2010PropOp49
 70
     1
102
RTVSPost2010Prop50
 90
       50
102
RTVSPost2010PropOp50
 70
     1
102
RTVSPost2010Prop51ColorIndex
 90
      256
102
RTVSPost2010Prop51ColorRGB
 90
-16777216
102
RTVSPost2010PropOp51
 70
     0
102
RTVSPost2010Prop52
140
1.0
102
RTVSPost2010PropOp52
 70
     0
102
RTVSPost2010Prop53
 90
        2
102
RTVSPost2010PropOp53
 70
     1
102
RTVSPost2010Prop54
  1
strokes_ogs.tif
102
RTVSPost2010PropOp54
 70
     1
102
RTVSPost2010Prop55
280
     0
102
RTVSPost2010PropOp55
 70
     1
102
RTVSPost2010Prop56
140
1.0
102
RTVSPost2010PropOp56
 70
     1
102
RTVSPost2010Prop57
140
1.0
102
RTVSPost2010PropOp57
 70
     1
  0
XRECORD
  5
736
102
{ACAD_REACTORS
330
735
102
}
330
735
100
AcDbXrecord
280
     1
102
RTVSPost2010Prop28
280
     0
102
RTVSPost2010PropOp28
 70
     1
102
RTVSPost2010Prop29
280
     1
102
RTVSPost2010PropOp29
 70
     1
102
RTVSPost2010Prop30
280
     1
102
RTVSPost2010PropOp30
 70
     1
102
RTVSPost2010Prop31
280
     0
102
RTVSPost2010PropOp31
 70
     1
102
RTVSPost2010Prop32
280
     0
102
RTVSPost2010PropOp32
 70
     1
102
RTVSPost2010Prop33
280
     0
102
RTVSPost2010PropOp33
 70
     1
102
RTVSPost2010Prop34
280
     0
102
RTVSPost2010PropOp34
 70
     1
102
RTVSPost2010Prop35
280
     0
102
RTVSPost2010PropOp35
 70
     1
102
RTVSPost2010Prop36
280
     0
102
RTVSPost2010PropOp36
 70
     1
102
RTVSPost2010Prop37
 90
       50
102
RTVSPost2010PropOp37
 70
     1
102
RTVSPost2010Prop38
140
0.0
102
RTVSPost2010PropOp38
 70
     1
102
RTVSPost2010Prop39
140
1.0
102
RTVSPost2010PropOp39
 70
     1
102
RTVSPost2010Prop40
 90
        0
102
RTVSPost2010PropOp40
 70
     1
102
RTVSPost2010Prop41ColorIndex
 90
       18
102
RTVSPost2010Prop41ColorRGB
 90
        0
102
RTVSPost2010PropOp41
 70
     1
102
RTVSPost2010Prop42
 90
       50
102
RTVSPost2010PropOp42
 70
     1
102
RTVSPost2010Prop43
 90
        3
102
RTVSPost2010PropOp43
 70
     1
102
RTVSPost2010Prop44ColorIndex
 90
        5
102
RTVSPost2010Prop44ColorRGB
 90
      255
102
RTVSPost2010PropOp44
 70
     1
102
RTVSPost2010Prop45
280
     0
102
RTVSPost2010PropOp45
 70
     1
102
RTVSPost2010Prop46
 90
       50
102
RTVSPost2010PropOp46
 70
     1
102
RTVSPost2010Prop47
 90
       50
102
RTVSPost2010PropOp47
 70
     1
102
RTVSPost2010Prop48
 90
       50
102
RTVSPost2010PropOp48
 70
     1
102
RTVSPost2010Prop49
280
     0
102
RTVSPost2010PropOp49
 70
     1
102
RTVSPost2010Prop50
 90
       50
102
RTVSPost2010PropOp50
 70
     1
102
RTVSPost2010Prop51ColorIndex
 90
      256
102
RTVSPost2010Prop51ColorRGB
 90
-16777216
102
RTVSPost2010PropOp51
 70
     0
102
RTVSPost2010Prop52
140
1.0
102
RTVSPost2010PropOp52
 70
     0
102
RTVSPost2010Prop53
 90
        2
102
RTVSPost2010PropOp53
 70
     1
102
RTVSPost2010Prop54
  1
strokes_ogs.tif
102
RTVSPost2010PropOp54
 70
     1
102
RTVSPost2010Prop55
280
     0
102
RTVSPost2010PropOp55
 70
     1
102
RTVSPost2010Prop56
140
1.0
102
RTVSPost2010PropOp56
 70
     1
102
RTVSPost2010Prop57
140
1.0
102
RTVSPost2010PropOp57
 70
     1
  0
XRECORD
  5
730
102
{ACAD_REACTORS
330
72F
102
}
330
72F
100
AcDbXrecord
280
     1
102
RTVSPost2010Prop28
280
     0
102
RTVSPost2010PropOp28
 70
     1
102
RTVSPost2010Prop29
280
     1
102
RTVSPost2010PropOp29
 70
     1
102
RTVSPost2010Prop30
280
     1
102
RTVSPost2010PropOp30
 70
     1
102
RTVSPost2010Prop31
280
     0
102
RTVSPost2010PropOp31
 70
     1
102
RTVSPost2010Prop32
280
     0
102
RTVSPost2010PropOp32
 70
     1
102
RTVSPost2010Prop33
280
     0
102
RTVSPost2010PropOp33
 70
     1
102
RTVSPost2010Prop34
280
     0
102
RTVSPost2010PropOp34
 70
     1
102
RTVSPost2010Prop35
280
     0
102
RTVSPost2010PropOp35
 70
     1
102
RTVSPost2010Prop36
280
     0
102
RTVSPost2010PropOp36
 70
     1
102
RTVSPost2010Prop37
 90
       50
102
RTVSPost2010PropOp37
 70
     1
102
RTVSPost2010Prop38
140
0.0
102
RTVSPost2010PropOp38
 70
     1
102
RTVSPost2010Prop39
140
1.0
102
RTVSPost2010PropOp39
 70
     1
102
RTVSPost2010Prop40
 90
        0
102
RTVSPost2010PropOp40
 70
     1
102
RTVSPost2010Prop41ColorIndex
 90
       18
102
RTVSPost2010Prop41ColorRGB
 90
        0
102
RTVSPost2010PropOp41
 70
     1
102
RTVSPost2010Prop42
 90
       50
102
RTVSPost2010PropOp42
 70
     1
102
RTVSPost2010Prop43
 90
        3
102
RTVSPost2010PropOp43
 70
     1
102
RTVSPost2010Prop44ColorIndex
 90
        5
102
RTVSPost2010Prop44ColorRGB
 90
      255
102
RTVSPost2010PropOp44
 70
     1
102
RTVSPost2010Prop45
280
     0
102
RTVSPost2010PropOp45
 70
     1
102
RTVSPost2010Prop46
 90
       50
102
RTVSPost2010PropOp46
 70
     1
102
RTVSPost2010Prop47
 90
       50
102
RTVSPost2010PropOp47
 70
     1
102
RTVSPost2010Prop48
 90
       50
102
RTVSPost2010PropOp48
 70
     1
102
RTVSPost2010Prop49
280
     0
102
RTVSPost2010PropOp49
 70
     1
102
RTVSPost2010Prop50
 90
       50
102
RTVSPost2010PropOp50
 70
     1
102
RTVSPost2010Prop51ColorIndex
 90
      256
102
RTVSPost2010Prop51ColorRGB
 90
-16777216
102
RTVSPost2010PropOp51
 70
     0
102
RTVSPost2010Prop52
140
1.0
102
RTVSPost2010PropOp52
 70
     0
102
RTVSPost2010Prop53
 90
        2
102
RTVSPost2010PropOp53
 70
     1
102
RTVSPost2010Prop54
  1
strokes_ogs.tif
102
RTVSPost2010PropOp54
 70
     1
102
RTVSPost2010Prop55
280
     0
102
RTVSPost2010PropOp55
 70
     1
102
RTVSPost2010Prop56
140
1.0
102
RTVSPost2010PropOp56
 70
     1
102
RTVSPost2010Prop57
140
1.0
102
RTVSPost2010PropOp57
 70
     1
  0
XRECORD
  5
732
102
{ACAD_REACTORS
330
731
102
}
330
731
100
AcDbXrecord
280
     1
102
RTVSPost2010Prop28
280
     0
102
RTVSPost2010PropOp28
 70
     1
102
RTVSPost2010Prop29
280
     1
102
RTVSPost2010PropOp29
 70
     1
102
RTVSPost2010Prop30
280
     1
102
RTVSPost2010PropOp30
 70
     1
102
RTVSPost2010Prop31
280
     0
102
RTVSPost2010PropOp31
 70
     1
102
RTVSPost2010Prop32
280
     0
102
RTVSPost2010PropOp32
 70
     1
102
RTVSPost2010Prop33
280
     0
102
RTVSPost2010PropOp33
 70
     1
102
RTVSPost2010Prop34
280
     0
102
RTVSPost2010PropOp34
 70
     1
102
RTVSPost2010Prop35
280
     0
102
RTVSPost2010PropOp35
 70
     1
102
RTVSPost2010Prop36
280
     0
102
RTVSPost2010PropOp36
 70
     1
102
RTVSPost2010Prop37
 90
       50
102
RTVSPost2010PropOp37
 70
     1
102
RTVSPost2010Prop38
140
0.0
102
RTVSPost2010PropOp38
 70
     1
102
RTVSPost2010Prop39
140
1.0
102
RTVSPost2010PropOp39
 70
     1
102
RTVSPost2010Prop40
 90
        0
102
RTVSPost2010PropOp40
 70
     1
102
RTVSPost2010Prop41ColorIndex
 90
       18
102
RTVSPost2010Prop41ColorRGB
 90
        0
102
RTVSPost2010PropOp41
 70
     1
102
RTVSPost2010Prop42
 90
       50
102
RTVSPost2010PropOp42
 70
     1
102
RTVSPost2010Prop43
 90
        3
102
RTVSPost2010PropOp43
 70
     1
102
RTVSPost2010Prop44ColorIndex
 90
        5
102
RTVSPost2010Prop44ColorRGB
 90
      255
102
RTVSPost2010PropOp44
 70
     1
102
RTVSPost2010Prop45
280
     0
102
RTVSPost2010PropOp45
 70
     1
102
RTVSPost2010Prop46
 90
       50
102
RTVSPost2010PropOp46
 70
     1
102
RTVSPost2010Prop47
 90
       50
102
RTVSPost2010PropOp47
 70
     1
102
RTVSPost2010Prop48
 90
       50
102
RTVSPost2010PropOp48
 70
     1
102
RTVSPost2010Prop49
280
     0
102
RTVSPost2010PropOp49
 70
     1
102
RTVSPost2010Prop50
 90
       50
102
RTVSPost2010PropOp50
 70
     1
102
RTVSPost2010Prop51ColorIndex
 90
      256
102
RTVSPost2010Prop51ColorRGB
 90
-16777216
102
RTVSPost2010PropOp51
 70
     0
102
RTVSPost2010Prop52
140
1.0
102
RTVSPost2010PropOp52
 70
     0
102
RTVSPost2010Prop53
 90
        2
102
RTVSPost2010PropOp53
 70
     1
102
RTVSPost2010Prop54
  1
strokes_ogs.tif
102
RTVSPost2010PropOp54
 70
     1
102
RTVSPost2010Prop55
280
     0
102
RTVSPost2010PropOp55
 70
     1
102
RTVSPost2010Prop56
140
1.0
102
RTVSPost2010PropOp56
 70
     1
102
RTVSPost2010Prop57
140
1.0
102
RTVSPost2010PropOp57
 70
     1
  0
XRECORD
  5
728
102
{ACAD_REACTORS
330
727
102
}
330
727
100
AcDbXrecord
280
     1
102
RTVSPost2010Prop28
280
     0
102
RTVSPost2010PropOp28
 70
     1
102
RTVSPost2010Prop29
280
     1
102
RTVSPost2010PropOp29
 70
     1
102
RTVSPost2010Prop30
280
     1
102
RTVSPost2010PropOp30
 70
     1
102
RTVSPost2010Prop31
280
     0
102
RTVSPost2010PropOp31
 70
     1
102
RTVSPost2010Prop32
280
     0
102
RTVSPost2010PropOp32
 70
     1
102
RTVSPost2010Prop33
280
     0
102
RTVSPost2010PropOp33
 70
     1
102
RTVSPost2010Prop34
280
     0
102
RTVSPost2010PropOp34
 70
     1
102
RTVSPost2010Prop35
280
     0
102
RTVSPost2010PropOp35
 70
     1
102
RTVSPost2010Prop36
280
     0
102
RTVSPost2010PropOp36
 70
     1
102
RTVSPost2010Prop37
 90
       50
102
RTVSPost2010PropOp37
 70
     1
102
RTVSPost2010Prop38
140
0.0
102
RTVSPost2010PropOp38
 70
     1
102
RTVSPost2010Prop39
140
1.0
102
RTVSPost2010PropOp39
 70
     1
102
RTVSPost2010Prop40
 90
        0
102
RTVSPost2010PropOp40
 70
     1
102
RTVSPost2010Prop41ColorIndex
 90
       18
102
RTVSPost2010Prop41ColorRGB
 90
        0
102
RTVSPost2010PropOp41
 70
     1
102
RTVSPost2010Prop42
 90
       50
102
RTVSPost2010PropOp42
 70
     1
102
RTVSPost2010Prop43
 90
        3
102
RTVSPost2010PropOp43
 70
     1
102
RTVSPost2010Prop44ColorIndex
 90
        5
102
RTVSPost2010Prop44ColorRGB
 90
      255
102
RTVSPost2010PropOp44
 70
     1
102
RTVSPost2010Prop45
280
     0
102
RTVSPost2010PropOp45
 70
     1
102
RTVSPost2010Prop46
 90
       50
102
RTVSPost2010PropOp46
 70
     1
102
RTVSPost2010Prop47
 90
       50
102
RTVSPost2010PropOp47
 70
     1
102
RTVSPost2010Prop48
 90
       50
102
RTVSPost2010PropOp48
 70
     1
102
RTVSPost2010Prop49
280
     0
102
RTVSPost2010PropOp49
 70
     1
102
RTVSPost2010Prop50
 90
       50
102
RTVSPost2010PropOp50
 70
     1
102
RTVSPost2010Prop51ColorIndex
 90
      256
102
RTVSPost2010Prop51ColorRGB
 90
-16777216
102
RTVSPost2010PropOp51
 70
     0
102
RTVSPost2010Prop52
140
1.0
102
RTVSPost2010PropOp52
 70
     0
102
RTVSPost2010Prop53
 90
        2
102
RTVSPost2010PropOp53
 70
     1
102
RTVSPost2010Prop54
  1
strokes_ogs.tif
102
RTVSPost2010PropOp54
 70
     1
102
RTVSPost2010Prop55
280
     0
102
RTVSPost2010PropOp55
 70
     1
102
RTVSPost2010Prop56
140
1.0
102
RTVSPost2010PropOp56
 70
     1
102
RTVSPost2010Prop57
140
1.0
102
RTVSPost2010PropOp57
 70
     1
  0
XRECORD
  5
71C
102
{ACAD_REACTORS
330
71B
102
}
330
71B
100
AcDbXrecord
280
     1
102
RTVSPost2010Prop28
280
     0
102
RTVSPost2010PropOp28
 70
     1
102
RTVSPost2010Prop29
280
     1
102
RTVSPost2010PropOp29
 70
     1
102
RTVSPost2010Prop30
280
     1
102
RTVSPost2010PropOp30
 70
     1
102
RTVSPost2010Prop31
280
     0
102
RTVSPost2010PropOp31
 70
     1
102
RTVSPost2010Prop32
280
     0
102
RTVSPost2010PropOp32
 70
     1
102
RTVSPost2010Prop33
280
     0
102
RTVSPost2010PropOp33
 70
     1
102
RTVSPost2010Prop34
280
     0
102
RTVSPost2010PropOp34
 70
     1
102
RTVSPost2010Prop35
280
     0
102
RTVSPost2010PropOp35
 70
     1
102
RTVSPost2010Prop36
280
     0
102
RTVSPost2010PropOp36
 70
     1
102
RTVSPost2010Prop37
 90
       50
102
RTVSPost2010PropOp37
 70
     1
102
RTVSPost2010Prop38
140
0.0
102
RTVSPost2010PropOp38
 70
     1
102
RTVSPost2010Prop39
140
1.0
102
RTVSPost2010PropOp39
 70
     1
102
RTVSPost2010Prop40
 90
        0
102
RTVSPost2010PropOp40
 70
     1
102
RTVSPost2010Prop41ColorIndex
 90
       18
102
RTVSPost2010Prop41ColorRGB
 90
        0
102
RTVSPost2010PropOp41
 70
     1
102
RTVSPost2010Prop42
 90
       50
102
RTVSPost2010PropOp42
 70
     1
102
RTVSPost2010Prop43
 90
        3
102
RTVSPost2010PropOp43
 70
     1
102
RTVSPost2010Prop44ColorIndex
 90
        5
102
RTVSPost2010Prop44ColorRGB
 90
      255
102
RTVSPost2010PropOp44
 70
     1
102
RTVSPost2010Prop45
280
     0
102
RTVSPost2010PropOp45
 70
     1
102
RTVSPost2010Prop46
 90
       50
102
RTVSPost2010PropOp46
 70
     1
102
RTVSPost2010Prop47
 90
       50
102
RTVSPost2010PropOp47
 70
     1
102
RTVSPost2010Prop48
 90
       50
102
RTVSPost2010PropOp48
 70
     1
102
RTVSPost2010Prop49
280
     0
102
RTVSPost2010PropOp49
 70
     1
102
RTVSPost2010Prop50
 90
       50
102
RTVSPost2010PropOp50
 70
     1
102
RTVSPost2010Prop51ColorIndex
 90
      256
102
RTVSPost2010Prop51ColorRGB
 90
-16777216
102
RTVSPost2010PropOp51
 70
     0
102
RTVSPost2010Prop52
140
1.0
102
RTVSPost2010PropOp52
 70
     0
102
RTVSPost2010Prop53
 90
        2
102
RTVSPost2010PropOp53
 70
     1
102
RTVSPost2010Prop54
  1
strokes_ogs.tif
102
RTVSPost2010PropOp54
 70
     1
102
RTVSPost2010Prop55
280
     0
102
RTVSPost2010PropOp55
 70
     1
102
RTVSPost2010Prop56
140
1.0
102
RTVSPost2010PropOp56
 70
     1
102
RTVSPost2010Prop57
140
1.0
102
RTVSPost2010PropOp57
 70
     1
  0
XRECORD
  5
734
102
{ACAD_REACTORS
330
733
102
}
330
733
100
AcDbXrecord
280
     1
102
RTVSPost2010Prop28
280
     0
102
RTVSPost2010PropOp28
 70
     1
102
RTVSPost2010Prop29
280
     1
102
RTVSPost2010PropOp29
 70
     1
102
RTVSPost2010Prop30
280
     1
102
RTVSPost2010PropOp30
 70
     1
102
RTVSPost2010Prop31
280
     0
102
RTVSPost2010PropOp31
 70
     1
102
RTVSPost2010Prop32
280
     0
102
RTVSPost2010PropOp32
 70
     1
102
RTVSPost2010Prop33
280
     0
102
RTVSPost2010PropOp33
 70
     1
102
RTVSPost2010Prop34
280
     0
102
RTVSPost2010PropOp34
 70
     1
102
RTVSPost2010Prop35
280
     0
102
RTVSPost2010PropOp35
 70
     1
102
RTVSPost2010Prop36
280
     0
102
RTVSPost2010PropOp36
 70
     1
102
RTVSPost2010Prop37
 90
       50
102
RTVSPost2010PropOp37
 70
     1
102
RTVSPost2010Prop38
140
0.0
102
RTVSPost2010PropOp38
 70
     1
102
RTVSPost2010Prop39
140
1.0
102
RTVSPost2010PropOp39
 70
     1
102
RTVSPost2010Prop40
 90
        0
102
RTVSPost2010PropOp40
 70
     1
102
RTVSPost2010Prop41ColorIndex
 90
       18
102
RTVSPost2010Prop41ColorRGB
 90
        0
102
RTVSPost2010PropOp41
 70
     1
102
RTVSPost2010Prop42
 90
       50
102
RTVSPost2010PropOp42
 70
     1
102
RTVSPost2010Prop43
 90
        3
102
RTVSPost2010PropOp43
 70
     1
102
RTVSPost2010Prop44ColorIndex
 90
        5
102
RTVSPost2010Prop44ColorRGB
 90
      255
102
RTVSPost2010PropOp44
 70
     1
102
RTVSPost2010Prop45
280
     0
102
RTVSPost2010PropOp45
 70
     1
102
RTVSPost2010Prop46
 90
       50
102
RTVSPost2010PropOp46
 70
     1
102
RTVSPost2010Prop47
 90
       50
102
RTVSPost2010PropOp47
 70
     1
102
RTVSPost2010Prop48
 90
       50
102
RTVSPost2010PropOp48
 70
     1
102
RTVSPost2010Prop49
280
     0
102
RTVSPost2010PropOp49
 70
     1
102
RTVSPost2010Prop50
 90
       50
102
RTVSPost2010PropOp50
 70
     1
102
RTVSPost2010Prop51ColorIndex
 90
      256
102
RTVSPost2010Prop51ColorRGB
 90
-16777216
102
RTVSPost2010PropOp51
 70
     0
102
RTVSPost2010Prop52
140
1.0
102
RTVSPost2010PropOp52
 70
     0
102
RTVSPost2010Prop53
 90
        2
102
RTVSPost2010PropOp53
 70
     1
102
RTVSPost2010Prop54
  1
strokes_ogs.tif
102
RTVSPost2010PropOp54
 70
     1
102
RTVSPost2010Prop55
280
     0
102
RTVSPost2010PropOp55
 70
     1
102
RTVSPost2010Prop56
140
1.0
102
RTVSPost2010PropOp56
 70
     1
102
RTVSPost2010Prop57
140
1.0
102
RTVSPost2010PropOp57
 70
     1
  0
ENDSEC
  0
EOF
