  0
SECTION
  2
HEADER
  9
$ACADVER
  1
AC1024
  9
$ACADMAINTVER
 70
   181
  9
$DWGCODEPAGE
  3
ANSI_1252
  9
$AUTHOR
  1
KIM
  9
$CUSTOMPROPERTYTAG
  1
Manager
  9
$CUSTOMPROPERTY
  1

  9
$CUSTOMPROPERTYTAG
  1
Company
  9
$CUSTOMPROPERTY
  1

  9
$CUSTOMPROPERTYTAG
  1
Category
  9
$CUSTOMPROPERTY
  1

  9
$CUSTOMPROPERTYTAG
  1
Part Number
  9
$CUSTOMPROPERTY
  1
491104_
  9
$CUSTOMPROPERTYTAG
  1
Description
  9
$CUSTOMPROPERTY
  1

  9
$CUSTOMPROPERTYTAG
  1
Project
  9
$CUSTOMPROPERTY
  1

  9
$CUSTOMPROPERTYTAG
  1
Designer
  9
$CUSTOMPROPERTY
  1
KIM
  9
$CUSTOMPROPERTYTAG
  1
Engineer
  9
$CUSTOMPROPERTY
  1

  9
$CUSTOMPROPERTYTAG
  1
Authority
  9
$CUSTOMPROPERTY
  1

  9
$CUSTOMPROPERTYTAG
  1
Cost Center
  9
$CUSTOMPROPERTY
  1

  9
$CUSTOMPROPERTYTAG
  1
Cost
  9
$CUSTOMPROPERTY
  1

  9
$CUSTOMPROPERTYTAG
  1
Vendor
  9
$CUSTOMPROPERTY
  1

  9
$CUSTOMPROPERTYTAG
  1
User Status
  9
$CUSTOMPROPERTY
  1

  9
$CUSTOMPROPERTYTAG
  1
Design Status
  9
$CUSTOMPROPERTY
  1
WorkInProgress
  9
$CUSTOMPROPERTYTAG
  1
Checked by
  9
$CUSTOMPROPERTY
  1

  9
$CUSTOMPROPERTYTAG
  1
Engr Approved by
  9
$CUSTOMPROPERTY
  1

  9
$CUSTOMPROPERTYTAG
  1
Mfg Approved by
  9
$CUSTOMPROPERTY
  1

  9
$CUSTOMPROPERTYTAG
  1
Date Created
  9
$CUSTOMPROPERTY
  1
08/29/2017
  9
$CUSTOMPROPERTYTAG
  1
Stock Number
  9
$CUSTOMPROPERTY
  1

  9
$INSBASE
 10
0.0
 20
0.0
 30
0.0
  9
$EXTMIN
 10
0.0
 20
0.0
 30
0.0
  9
$EXTMAX
 10
840.9999999999998
 20
594.0
 30
0.0
  9
$LIMMIN
 10
0.0
 20
0.0
  9
$LIMMAX
 10
840.9999999999998
 20
594.0
  9
$ORTHOMODE
 70
     0
  9
$REGENMODE
 70
     1
  9
$FILLMODE
 70
     1
  9
$QTEXTMODE
 70
     0
  9
$MIRRTEXT
 70
     0
  9
$LTSCALE
 40
1.0
  9
$ATTMODE
 70
     1
  9
$TEXTSIZE
 40
0.2
  9
$TRACEWID
 40
0.05
  9
$TEXTSTYLE
  7
Standard
  9
$CLAYER
  8
0
  9
$CELTYPE
  6
ByLayer
  9
$CECOLOR
 62
   256
  9
$CELTSCALE
 40
1.0
  9
$DISPSILH
 70
     0
  9
$DIMSCALE
 40
1.0
  9
$DIMASZ
 40
1.799999999999999
  9
$DIMEXO
 40
0.0625
  9
$DIMDLI
 40
0.38
  9
$DIMRND
 40
0.0
  9
$DIMDLE
 40
0.0
  9
$DIMEXE
 40
0.18
  9
$DIMTP
 40
0.0
  9
$DIMTM
 40
0.0
  9
$DIMTXT
 40
0.25
  9
$DIMCEN
 40
0.09
  9
$DIMTSZ
 40
0.0
  9
$DIMTOL
 70
     0
  9
$DIMLIM
 70
     0
  9
$DIMTIH
 70
     1
  9
$DIMTOH
 70
     1
  9
$DIMSE1
 70
     0
  9
$DIMSE2
 70
     0
  9
$DIMTAD
 70
     0
  9
$DIMZIN
 70
     0
  9
$DIMBLK
  1

  9
$DIMASO
 70
     1
  9
$DIMSHO
 70
     1
  9
$DIMPOST
  1

  9
$DIMAPOST
  1

  9
$DIMALT
 70
     0
  9
$DIMALTD
 70
     2
  9
$DIMALTF
 40
25.4
  9
$DIMLFAC
 40
1.0
  9
$DIMTOFL
 70
     0
  9
$DIMTVP
 40
0.0
  9
$DIMTIX
 70
     0
  9
$DIMSOXD
 70
     0
  9
$DIMSAH
 70
     0
  9
$DIMBLK1
  1

  9
$DIMBLK2
  1

  9
$DIMSTYLE
  2
Standard
  9
$DIMCLRD
 70
     0
  9
$DIMCLRE
 70
     0
  9
$DIMCLRT
 70
     0
  9
$DIMTFAC
 40
1.0
  9
$DIMGAP
 40
0.09
  9
$DIMJUST
 70
     0
  9
$DIMSD1
 70
     0
  9
$DIMSD2
 70
     0
  9
$DIMTOLJ
 70
     1
  9
$DIMTZIN
 70
     0
  9
$DIMALTZ
 70
     0
  9
$DIMALTTZ
 70
     0
  9
$DIMUPT
 70
     0
  9
$DIMDEC
 70
     4
  9
$DIMTDEC
 70
     4
  9
$DIMALTU
 70
     2
  9
$DIMALTTD
 70
     2
  9
$DIMTXSTY
  7
Standard
  9
$DIMAUNIT
 70
     0
  9
$DIMADEC
 70
     0
  9
$DIMALTRND
 40
0.0
  9
$DIMAZIN
 70
     0
  9
$DIMDSEP
 70
    46
  9
$DIMATFIT
 70
     3
  9
$DIMFRAC
 70
     0
  9
$DIMLDRBLK
  1

  9
$DIMLUNIT
 70
     2
  9
$DIMLWD
 70
    -2
  9
$DIMLWE
 70
    -2
  9
$DIMTMOVE
 70
     0
  9
$DIMFXL
 40
1.0
  9
$DIMFXLON
 70
     0
  9
$DIMJOGANG
 40
0.7853981633974483
  9
$DIMTFILL
 70
     0
  9
$DIMTFILLCLR
 70
     0
  9
$DIMARCSYM
 70
     0
  9
$DIMLTYPE
  6

  9
$DIMLTEX1
  6

  9
$DIMLTEX2
  6

  9
$DIMTXTDIRECTION
 70
     0
  9
$LUNITS
 70
     2
  9
$LUPREC
 70
     4
  9
$SKETCHINC
 40
0.1
  9
$FILLETRAD
 40
0.0
  9
$AUNITS
 70
     0
  9
$AUPREC
 70
     0
  9
$MENU
  1
.
  9
$ELEVATION
 40
0.0
  9
$PELEVATION
 40
0.0
  9
$THICKNESS
 40
0.0
  9
$LIMCHECK
 70
     0
  9
$CHAMFERA
 40
0.0
  9
$CHAMFERB
 40
0.0
  9
$CHAMFERC
 40
0.0
  9
$CHAMFERD
 40
0.0
  9
$SKPOLY
 70
     0
  9
$TDCREATE
 40
2457995.021212060
  9
$TDUCREATE
 40
2457994.896212060
  9
$TDUPDATE
 40
2457995.021212060
  9
$TDUUPDATE
 40
2457994.896212060
  9
$TDINDWG
 40
0.0000061111
  9
$TDUSRTIMER
 40
0.0000061111
  9
$USRTIMER
 70
     1
  9
$ANGBASE
 50
0.0
  9
$ANGDIR
 70
     0
  9
$PDMODE
 70
     0
  9
$PDSIZE
 40
0.0
  9
$PLINEWID
 40
0.0
  9
$SPLFRAME
 70
     0
  9
$SPLINETYPE
 70
     6
  9
$SPLINESEGS
 70
     8
  9
$HANDSEED
  5
A78
  9
$SURFTAB1
 70
     6
  9
$SURFTAB2
 70
     6
  9
$SURFTYPE
 70
     6
  9
$SURFU
 70
     6
  9
$SURFV
 70
     6
  9
$UCSBASE
  2

  9
$UCSNAME
  2

  9
$UCSORG
 10
0.0
 20
0.0
 30
0.0
  9
$UCSXDIR
 10
1.0
 20
0.0
 30
0.0
  9
$UCSYDIR
 10
0.0
 20
1.0
 30
0.0
  9
$UCSORTHOREF
  2

  9
$UCSORTHOVIEW
 70
     0
  9
$UCSORGTOP
 10
0.0
 20
0.0
 30
0.0
  9
$UCSORGBOTTOM
 10
0.0
 20
0.0
 30
0.0
  9
$UCSORGLEFT
 10
0.0
 20
0.0
 30
0.0
  9
$UCSORGRIGHT
 10
0.0
 20
0.0
 30
0.0
  9
$UCSORGFRONT
 10
0.0
 20
0.0
 30
0.0
  9
$UCSORGBACK
 10
0.0
 20
0.0
 30
0.0
  9
$PUCSBASE
  2

  9
$PUCSNAME
  2

  9
$PUCSORG
 10
0.0
 20
0.0
 30
0.0
  9
$PUCSXDIR
 10
1.0
 20
0.0
 30
0.0
  9
$PUCSYDIR
 10
0.0
 20
1.0
 30
0.0
  9
$PUCSORTHOREF
  2

  9
$PUCSORTHOVIEW
 70
     0
  9
$PUCSORGTOP
 10
0.0
 20
0.0
 30
0.0
  9
$PUCSORGBOTTOM
 10
0.0
 20
0.0
 30
0.0
  9
$PUCSORGLEFT
 10
0.0
 20
0.0
 30
0.0
  9
$PUCSORGRIGHT
 10
0.0
 20
0.0
 30
0.0
  9
$PUCSORGFRONT
 10
0.0
 20
0.0
 30
0.0
  9
$PUCSORGBACK
 10
0.0
 20
0.0
 30
0.0
  9
$USERI1
 70
     0
  9
$USERI2
 70
     0
  9
$USERI3
 70
     0
  9
$USERI4
 70
     0
  9
$USERI5
 70
     0
  9
$USERR1
 40
0.0
  9
$USERR2
 40
0.0
  9
$USERR3
 40
0.0
  9
$USERR4
 40
0.0
  9
$USERR5
 40
0.0
  9
$WORLDVIEW
 70
     1
  9
$SHADEDGE
 70
     3
  9
$SHADEDIF
 70
    70
  9
$TILEMODE
 70
     1
  9
$MAXACTVP
 70
    64
  9
$PINSBASE
 10
0.0
 20
0.0
 30
0.0
  9
$PLIMCHECK
 70
     0
  9
$PEXTMIN
 10
0.0
 20
0.0
 30
0.0
  9
$PEXTMAX
 10
840.9999999999998
 20
594.0
 30
0.0
  9
$PLIMMIN
 10
0.0
 20
0.0
  9
$PLIMMAX
 10
840.9999999999998
 20
594.0
  9
$UNITMODE
 70
     0
  9
$VISRETAIN
 70
     1
  9
$PLINEGEN
 70
     0
  9
$PSLTSCALE
 70
     1
  9
$TREEDEPTH
 70
  3020
  9
$CMLSTYLE
  2
Standard
  9
$CMLJUST
 70
     0
  9
$CMLSCALE
 40
1.0
  9
$PROXYGRAPHICS
 70
     1
  9
$MEASUREMENT
 70
     1
  9
$CELWEIGHT
370
    -1
  9
$ENDCAPS
280
     0
  9
$JOINSTYLE
280
     0
  9
$LWDISPLAY
290
     0
  9
$INSUNITS
 70
     4
  9
$HYPERLINKBASE
  1

  9
$STYLESHEET
  1

  9
$XEDIT
290
     1
  9
$CEPSNTYPE
380
     0
  9
$PSTYLEMODE
290
     1
  9
$FINGERPRINTGUID
  2
{2C4F4BD7-7599-4EEF-BB3F-ED2D82C25AE0}
  9
$VERSIONGUID
  2
{2F5A9DDF-E516-4D06-B778-32379A5949FF}
  9
$EXTNAMES
290
     1
  9
$PSVPSCALE
 40
0.0
  9
$OLESTARTUP
290
     0
  9
$SORTENTS
280
   127
  9
$INDEXCTL
280
     0
  9
$HIDETEXT
280
     1
  9
$XCLIPFRAME
280
     2
  9
$HALOGAP
280
     0
  9
$OBSCOLOR
 70
   257
  9
$OBSLTYPE
280
     0
  9
$INTERSECTIONDISPLAY
280
     0
  9
$INTERSECTIONCOLOR
 70
   257
  9
$DIMASSOC
280
     1
  9
$PROJECTNAME
  1

  9
$CAMERADISPLAY
290
     0
  9
$LENSLENGTH
 40
50.0
  9
$CAMERAHEIGHT
 40
0.0
  9
$STEPSPERSEC
 40
2.0
  9
$STEPSIZE
 40
6.0
  9
$3DDWFPREC
 40
2.0
  9
$PSOLWIDTH
 40
0.25
  9
$PSOLHEIGHT
 40
4.0
  9
$LOFTANG1
 40
1.570796326794896
  9
$LOFTANG2
 40
1.570796326794896
  9
$LOFTMAG1
 40
0.0
  9
$LOFTMAG2
 40
0.0
  9
$LOFTPARAM
 70
     7
  9
$LOFTNORMALS
280
     1
  9
$LATITUDE
 40
37.795
  9
$LONGITUDE
 40
-122.394
  9
$NORTHDIRECTION
 40
0.0
  9
$TIMEZONE
 70
 -8000
  9
$LIGHTGLYPHDISPLAY
280
     1
  9
$TILEMODELIGHTSYNCH
280
     1
  9
$CMATERIAL
347
11
  9
$SOLIDHIST
280
     0
  9
$SHOWHIST
280
     1
  9
$DWFFRAME
280
     2
  9
$DGNFRAME
280
     0
  9
$REALWORLDSCALE
290
     1
  9
$INTERFERECOLOR
 62
     1
  9
$INTERFEREOBJVS
345
33
  9
$INTERFEREVPVS
346
30
  9
$CSHADOW
280
     0
  9
$SHADOWPLANELOCATION
 40
0.0
  0
ENDSEC
  0
SECTION
  2
CLASSES
  0
CLASS
  1
ACDBDICTIONARYWDFLT
  2
AcDbDictionaryWithDefault
  3
ObjectDBX Classes
 90
        0
 91
        1
280
     0
281
     0
  0
CLASS
  1
MATERIAL
  2
AcDbMaterial
  3
ObjectDBX Classes
 90
     1153
 91
        3
280
     0
281
     0
  0
CLASS
  1
VISUALSTYLE
  2
AcDbVisualStyle
  3
ObjectDBX Classes
 90
     4095
 91
       24
280
     0
281
     0
  0
CLASS
  1
SCALE
  2
AcDbScale
  3
ObjectDBX Classes
 90
     1153
 91
       17
280
     0
281
     0
  0
CLASS
  1
TABLESTYLE
  2
AcDbTableStyle
  3
ObjectDBX Classes
 90
     4095
 91
        1
280
     0
281
     0
  0
CLASS
  1
MLEADERSTYLE
  2
AcDbMLeaderStyle
  3
ACDB_MLEADERSTYLE_CLASS
 90
     4095
 91
        1
280
     0
281
     0
  0
CLASS
  1
ACDBSECTIONVIEWSTYLE
  2
AcDbSectionViewStyle
  3
ObjectDBX Classes
 90
     1025
 91
        1
280
     0
281
     0
  0
CLASS
  1
ACDBDETAILVIEWSTYLE
  2
AcDbDetailViewStyle
  3
ObjectDBX Classes
 90
     1025
 91
        1
280
     0
281
     0
  0
CLASS
  1
DICTIONARYVAR
  2
AcDbDictionaryVar
  3
ObjectDBX Classes
 90
        0
 91
        5
280
     0
281
     0
  0
CLASS
  1
CELLSTYLEMAP
  2
AcDbCellStyleMap
  3
ObjectDBX Classes
 90
     1152
 91
        1
280
     0
281
     0
  0
ENDSEC
  0
SECTION
  2
TABLES
  0
TABLE
  2
VPORT
  5
8
330
0
100
AcDbSymbolTable
 70
     1
  0
VPORT
  5
57
330
8
100
AcDbSymbolTableRecord
100
AcDbViewportTableRecord
  2
*Active
 70
     0
 10
0.0
 20
0.0
 11
1.0
 21
1.0
 12
420.4999999999999
 22
297.0
 13
0.0
 23
0.0
 14
1.0
 24
1.0
 15
0.0
 25
0.0
 16
0.0
 26
0.0
 36
1.0
 17
0.0
 27
0.0
 37
0.0
 40
594.0
 41
1.415824915824915
 42
50.0
 43
0.0
 44
0.0
 50
0.0
 51
0.0
 71
     0
 72
   100
 73
     1
 74
     1
 75
     0
 76
     0
 77
     0
 78
     0
281
     0
 65
     1
110
0.0
120
0.0
130
0.0
111
1.0
121
0.0
131
0.0
112
0.0
122
1.0
132
0.0
 79
     0
146
0.0
 60
     3
 61
     5
292
     1
282
     1
141
0.0
142
0.0
 63
   250
421
  3355443
  0
ENDTAB
  0
TABLE
  2
LTYPE
  5
5
330
0
100
AcDbSymbolTable
 70
    59
  0
LTYPE
  5
5B
330
5
100
AcDbSymbolTableRecord
100
AcDbLinetypeTableRecord
  2
ByBlock
 70
     0
  3

 72
    65
 73
     0
 40
0.0
  0
LTYPE
  5
5C
330
5
100
AcDbSymbolTableRecord
100
AcDbLinetypeTableRecord
  2
ByLayer
 70
     0
  3

 72
    65
 73
     0
 40
0.0
  0
LTYPE
  5
5D
330
5
100
AcDbSymbolTableRecord
100
AcDbLinetypeTableRecord
  2
Continuous
 70
     0
  3
Solid line
 72
    65
 73
     0
 40
0.0
  0
LTYPE
  5
78
330
5
100
AcDbSymbolTableRecord
100
AcDbLinetypeTableRecord
  2
Section_View_Lines
 70
     0
  3
Section View Lines
 72
    65
 73
     4
 40
0.8406
 49
0.6614
 74
     0
 49
-0.0827
 74
     0
 49
0.0138
 74
     0
 49
-0.0827
 74
     0
  0
LTYPE
  5
79
330
5
100
AcDbSymbolTableRecord
100
AcDbLinetypeTableRecord
  2
CHAIN
 70
     0
  3
Chain ____ _ ____ _ ____ _ ____ _ ____ _ ____
 72
    65
 73
     4
 40
0.3543
 49
0.2362
 74
     0
 49
-0.0295
 74
     0
 49
0.0591
 74
     0
 49
-0.0295
 74
     0
  0
LTYPE
  5
7A
330
5
100
AcDbSymbolTableRecord
100
AcDbLinetypeTableRecord
  2
DASH_DOT
 70
     0
  3
Dash dot _._._._._._._._._._._._._._._.
 72
    65
 73
     4
 40
0.182
 49
0.1181
 74
     0
 49
-0.0295
 74
     0
 49
0.0049
 74
     0
 49
-0.0295
 74
     0
  0
LTYPE
  5
7B
330
5
100
AcDbSymbolTableRecord
100
AcDbLinetypeTableRecord
  2
DASH_DOUBLE_DOT
 70
     0
  3
Dash Double Dot __ __ . __ __ . __ __ . __ _
 72
    65
 73
     6
 40
0.2164
 49
0.1181
 74
     0
 49
-0.0295
 74
     0
 49
0.0049
 74
     0
 49
-0.0295
 74
     0
 49
0.0049
 74
     0
 49
-0.0295
 74
     0
  0
LTYPE
  5
7C
330
5
100
AcDbSymbolTableRecord
100
AcDbLinetypeTableRecord
  2
DASH_TRIPLE_DOT
 70
     0
  3
Dash Triple-Dot _ . . . _ . . . _ . . . _
 72
    65
 73
     8
 40
0.2508
 49
0.1181
 74
     0
 49
-0.0295
 74
     0
 49
0.0049
 74
     0
 49
-0.0295
 74
     0
 49
0.0049
 74
     0
 49
-0.0295
 74
     0
 49
0.0049
 74
     0
 49
-0.0295
 74
     0
  0
LTYPE
  5
7D
330
5
100
AcDbSymbolTableRecord
100
AcDbLinetypeTableRecord
  2
DASHED
 70
     0
  3
Dashed __ __ __ __ __ __ __ __ __ __ __ __ __ _
 72
    65
 73
     2
 40
0.2068
 49
0.1655
 74
     0
 49
-0.0413
 74
     0
  0
LTYPE
  5
7E
330
5
100
AcDbSymbolTableRecord
100
AcDbLinetypeTableRecord
  2
DASHED_SPACE
 70
     0
  3
Dashed Space __ __ __ __ __ __ __ __ __ __ __ _
 72
    65
 73
     2
 40
0.2067
 49
0.1654
 74
     0
 49
-0.0413
 74
     0
  0
LTYPE
  5
7F
330
5
100
AcDbSymbolTableRecord
100
AcDbLinetypeTableRecord
  2
DOTTED
 70
     0
  3
Dotted . . . . . . . . . . . . . . . . . . . . 
 72
    65
 73
     2
 40
0.0481
 49
0.0068
 74
     0
 49
-0.0413
 74
     0
  0
LTYPE
  5
80
330
5
100
AcDbSymbolTableRecord
100
AcDbLinetypeTableRecord
  2
DOUBLE_DASH_CHAIN
 70
     0
  3
Double Dash Chain ___ _ _ ___ _ _ ___ _ _ ___ _
 72
    65
 73
     6
 40
1.240299999999999
 49
0.6614
 74
     0
 49
-0.0827
 74
     0
 49
0.1654
 74
     0
 49
-0.0827
 74
     0
 49
0.1654
 74
     0
 49
-0.0827
 74
     0
  0
LTYPE
  5
81
330
5
100
AcDbSymbolTableRecord
100
AcDbLinetypeTableRecord
  2
DOUBLE_DASH_DOT
 70
     0
  3
Double Dash Dot __ __ . __ __ . __ __ . __ _
 72
    65
 73
     6
 40
0.3296
 49
0.1181
 74
     0
 49
-0.0295
 74
     0
 49
0.1181
 74
     0
 49
-0.0295
 74
     0
 49
0.0049
 74
     0
 49
-0.0295
 74
     0
  0
LTYPE
  5
82
330
5
100
AcDbSymbolTableRecord
100
AcDbLinetypeTableRecord
  2
DOUBLE_DASH_DOUBLE_DOT
 70
     0
  3
Double Dash Double Dot _ _ . . _ _ . . _ _
 72
    65
 73
     8
 40
0.364
 49
0.1181
 74
     0
 49
-0.0295
 74
     0
 49
0.1181
 74
     0
 49
-0.0295
 74
     0
 49
0.0049
 74
     0
 49
-0.0295
 74
     0
 49
0.0049
 74
     0
 49
-0.0295
 74
     0
  0
LTYPE
  5
83
330
5
100
AcDbSymbolTableRecord
100
AcDbLinetypeTableRecord
  2
DOUBLE_DASH_TRIPLE_DOT
 70
     0
  3
Double Dash Triple Dot __ __ . . . __ __ . . .
 72
    65
 73
    10
 40
0.3984
 49
0.1181
 74
     0
 49
-0.0295
 74
     0
 49
0.1181
 74
     0
 49
-0.0295
 74
     0
 49
0.0049
 74
     0
 49
-0.0295
 74
     0
 49
0.0049
 74
     0
 49
-0.0295
 74
     0
 49
0.0049
 74
     0
 49
-0.0295
 74
     0
  0
LTYPE
  5
84
330
5
100
AcDbSymbolTableRecord
100
AcDbLinetypeTableRecord
  2
LONG_DASH_DOTTED
 70
     0
  3
Long Dash Dotted ____ . ____ . ____ . ____ . _
 72
    65
 73
     4
 40
0.3001
 49
0.2362
 74
     0
 49
-0.0295
 74
     0
 49
0.0049
 74
     0
 49
-0.0295
 74
     0
  0
LTYPE
  5
85
330
5
100
AcDbSymbolTableRecord
100
AcDbLinetypeTableRecord
  2
LONG_DASH_DOUBLE_DOT
 70
     0
  3
Long Dash Double Dot ____ . . ____ . . ____ . .
 72
    65
 73
     6
 40
0.3345
 49
0.2362
 74
     0
 49
-0.0295
 74
     0
 49
0.0049
 74
     0
 49
-0.0295
 74
     0
 49
0.0049
 74
     0
 49
-0.0295
 74
     0
  0
LTYPE
  5
86
330
5
100
AcDbSymbolTableRecord
100
AcDbLinetypeTableRecord
  2
LONG_DASH_TRIPLE_DOT
 70
     0
  3
Long Dash Triple Dot ____ ... ____ ... ____
 72
    65
 73
     8
 40
0.3689
 49
0.2362
 74
     0
 49
-0.0295
 74
     0
 49
0.0049
 74
     0
 49
-0.0295
 74
     0
 49
0.0049
 74
     0
 49
-0.0295
 74
     0
 49
0.0049
 74
     0
 49
-0.0295
 74
     0
  0
LTYPE
  5
87
330
5
100
AcDbSymbolTableRecord
100
AcDbLinetypeTableRecord
  2
BORDER
 70
     0
  3
Border __ __ . __ __ . __ __ . __ __ . __ __ .
 72
    65
 73
     6
 40
44.45
 49
12.7
 74
     0
 49
-6.349999999999999
 74
     0
 49
12.7
 74
     0
 49
-6.349999999999999
 74
     0
 49
0.0
 74
     0
 49
-6.349999999999999
 74
     0
  0
LTYPE
  5
88
330
5
100
AcDbSymbolTableRecord
100
AcDbLinetypeTableRecord
  2
BORDER2
 70
     0
  3
Border (.5x) __.__.__.__.__.__.__.__.__.__.__.
 72
    65
 73
     6
 40
22.225
 49
6.349999999999999
 74
     0
 49
-3.174999999999999
 74
     0
 49
6.349999999999999
 74
     0
 49
-3.174999999999999
 74
     0
 49
0.0
 74
     0
 49
-3.174999999999999
 74
     0
  0
LTYPE
  5
89
330
5
100
AcDbSymbolTableRecord
100
AcDbLinetypeTableRecord
  2
BORDERX2
 70
     0
  3
Border (2x) ____  ____  .  ____  ____  .  ___
 72
    65
 73
     6
 40
88.9
 49
25.4
 74
     0
 49
-12.7
 74
     0
 49
25.4
 74
     0
 49
-12.7
 74
     0
 49
0.0
 74
     0
 49
-12.7
 74
     0
  0
LTYPE
  5
8A
330
5
100
AcDbSymbolTableRecord
100
AcDbLinetypeTableRecord
  2
CENTER
 70
     0
  3
Center ____ _ ____ _ ____ _ ____ _ ____ _ ____
 72
    65
 73
     4
 40
50.8
 49
31.75
 74
     0
 49
-6.349999999999999
 74
     0
 49
6.349999999999999
 74
     0
 49
-6.349999999999999
 74
     0
  0
LTYPE
  5
8B
330
5
100
AcDbSymbolTableRecord
100
AcDbLinetypeTableRecord
  2
CENTER2
 70
     0
  3
Center (.5x) ___ _ ___ _ ___ _ ___ _ ___ _ ___
 72
    65
 73
     4
 40
28.575
 49
19.05
 74
     0
 49
-3.174999999999999
 74
     0
 49
3.174999999999999
 74
     0
 49
-3.174999999999999
 74
     0
  0
LTYPE
  5
8C
330
5
100
AcDbSymbolTableRecord
100
AcDbLinetypeTableRecord
  2
CENTERX2
 70
     0
  3
Center (2x) ________  __  ________  __  _____
 72
    65
 73
     4
 40
101.6
 49
63.5
 74
     0
 49
-12.7
 74
     0
 49
12.7
 74
     0
 49
-12.7
 74
     0
  0
LTYPE
  5
8D
330
5
100
AcDbSymbolTableRecord
100
AcDbLinetypeTableRecord
  2
DASHDOT2
 70
     0
  3
Dash dot (.5x) _._._._._._._._._._._._._._._.
 72
    65
 73
     4
 40
12.7
 49
6.349999999999999
 74
     0
 49
-3.174999999999999
 74
     0
 49
0.0
 74
     0
 49
-3.174999999999999
 74
     0
  0
LTYPE
  5
8E
330
5
100
AcDbSymbolTableRecord
100
AcDbLinetypeTableRecord
  2
DASHDOTX2
 70
     0
  3
Dash dot (2x) ____  .  ____  .  ____  .  ___
 72
    65
 73
     4
 40
50.8
 49
25.4
 74
     0
 49
-12.7
 74
     0
 49
0.0
 74
     0
 49
-12.7
 74
     0
  0
LTYPE
  5
8F
330
5
100
AcDbSymbolTableRecord
100
AcDbLinetypeTableRecord
  2
DASHED2
 70
     0
  3
Dashed (.5x) _ _ _ _ _ _ _ _ _ _ _ _ _ _ _ _ _
 72
    65
 73
     2
 40
9.524999999999998
 49
6.349999999999999
 74
     0
 49
-3.174999999999999
 74
     0
  0
LTYPE
  5
90
330
5
100
AcDbSymbolTableRecord
100
AcDbLinetypeTableRecord
  2
DASHEDX2
 70
     0
  3
Dashed (2x) ____  ____  ____  ____  ____  ___
 72
    65
 73
     2
 40
38.1
 49
25.4
 74
     0
 49
-12.7
 74
     0
  0
LTYPE
  5
91
330
5
100
AcDbSymbolTableRecord
100
AcDbLinetypeTableRecord
  2
DIVIDE
 70
     0
  3
Divide ____ . . ____ . . ____ . . ____ . . ____
 72
    65
 73
     6
 40
31.75
 49
12.7
 74
     0
 49
-6.349999999999999
 74
     0
 49
0.0
 74
     0
 49
-6.349999999999999
 74
     0
 49
0.0
 74
     0
 49
-6.349999999999999
 74
     0
  0
LTYPE
  5
92
330
5
100
AcDbSymbolTableRecord
100
AcDbLinetypeTableRecord
  2
DIVIDE2
 70
     0
  3
Divide (.5x) __..__..__..__..__..__..__..__.._
 72
    65
 73
     6
 40
15.875
 49
6.349999999999999
 74
     0
 49
-3.174999999999999
 74
     0
 49
0.0
 74
     0
 49
-3.174999999999999
 74
     0
 49
0.0
 74
     0
 49
-3.174999999999999
 74
     0
  0
LTYPE
  5
93
330
5
100
AcDbSymbolTableRecord
100
AcDbLinetypeTableRecord
  2
DIVIDEX2
 70
     0
  3
Divide (2x) ________  .  .  ________  .  .  _
 72
    65
 73
     6
 40
63.49999999999999
 49
25.4
 74
     0
 49
-12.7
 74
     0
 49
0.0
 74
     0
 49
-12.7
 74
     0
 49
0.0
 74
     0
 49
-12.7
 74
     0
  0
LTYPE
  5
94
330
5
100
AcDbSymbolTableRecord
100
AcDbLinetypeTableRecord
  2
DOT
 70
     0
  3
Dot . . . . . . . . . . . . . . . . . . . . . .
 72
    65
 73
     2
 40
6.349999999999999
 49
0.0
 74
     0
 49
-6.349999999999999
 74
     0
  0
LTYPE
  5
95
330
5
100
AcDbSymbolTableRecord
100
AcDbLinetypeTableRecord
  2
DOT2
 70
     0
  3
Dot (.5x) .....................................
 72
    65
 73
     2
 40
3.174999999999999
 49
0.0
 74
     0
 49
-3.174999999999999
 74
     0
  0
LTYPE
  5
96
330
5
100
AcDbSymbolTableRecord
100
AcDbLinetypeTableRecord
  2
DOTX2
 70
     0
  3
Dot (2x) .  .  .  .  .  .  .  .  .  .  .  .  . 
 72
    65
 73
     2
 40
12.7
 49
0.0
 74
     0
 49
-12.7
 74
     0
  0
LTYPE
  5
97
330
5
100
AcDbSymbolTableRecord
100
AcDbLinetypeTableRecord
  2
HIDDEN
 70
     0
  3
Hidden __ __ __ __ __ __ __ __ __ __ __ __ __ _
 72
    65
 73
     2
 40
9.524999999999998
 49
6.349999999999999
 74
     0
 49
-3.174999999999999
 74
     0
  0
LTYPE
  5
98
330
5
100
AcDbSymbolTableRecord
100
AcDbLinetypeTableRecord
  2
HIDDEN2
 70
     0
  3
Hidden (.5x) _ _ _ _ _ _ _ _ _ _ _ _ _ _ _ _ _
 72
    65
 73
     2
 40
4.762499999999999
 49
3.174999999999999
 74
     0
 49
-1.587499999999999
 74
     0
  0
LTYPE
  5
99
330
5
100
AcDbSymbolTableRecord
100
AcDbLinetypeTableRecord
  2
HIDDENX2
 70
     0
  3
Hidden (2x) ____ ____ ____ ____ ____ ____ ____
 72
    65
 73
     2
 40
19.05
 49
12.7
 74
     0
 49
-6.349999999999999
 74
     0
  0
LTYPE
  5
9A
330
5
100
AcDbSymbolTableRecord
100
AcDbLinetypeTableRecord
  2
PHANTOM
 70
     0
  3
Phantom ______  __  __  ______  __  __  ______
 72
    65
 73
     6
 40
63.5
 49
31.75
 74
     0
 49
-6.349999999999999
 74
     0
 49
6.349999999999999
 74
     0
 49
-6.349999999999999
 74
     0
 49
6.349999999999999
 74
     0
 49
-6.349999999999999
 74
     0
  0
LTYPE
  5
9B
330
5
100
AcDbSymbolTableRecord
100
AcDbLinetypeTableRecord
  2
PHANTOM2
 70
     0
  3
Phantom (.5x) ___ _ _ ___ _ _ ___ _ _ ___ _ _
 72
    65
 73
     6
 40
31.75
 49
15.875
 74
     0
 49
-3.174999999999999
 74
     0
 49
3.174999999999999
 74
     0
 49
-3.174999999999999
 74
     0
 49
3.174999999999999
 74
     0
 49
-3.174999999999999
 74
     0
  0
LTYPE
  5
9C
330
5
100
AcDbSymbolTableRecord
100
AcDbLinetypeTableRecord
  2
PHANTOMX2
 70
     0
  3
Phantom (2x) ____________    ____    ____   _
 72
    65
 73
     6
 40
127.0
 49
63.5
 74
     0
 49
-12.7
 74
     0
 49
12.7
 74
     0
 49
-12.7
 74
     0
 49
12.7
 74
     0
 49
-12.7
 74
     0
  0
LTYPE
  5
9D
330
5
100
AcDbSymbolTableRecord
100
AcDbLinetypeTableRecord
  2
ACAD_ISO02W100
 70
     0
  3
ISO dash __ __ __ __ __ __ __ __ __ __ __ __ __
 72
    65
 73
     2
 40
15.0
 49
12.0
 74
     0
 49
-3.0
 74
     0
  0
LTYPE
  5
9E
330
5
100
AcDbSymbolTableRecord
100
AcDbLinetypeTableRecord
  2
ACAD_ISO03W100
 70
     0
  3
ISO dash space __    __    __    __    __    __
 72
    65
 73
     2
 40
30.0
 49
12.0
 74
     0
 49
-18.0
 74
     0
  0
LTYPE
  5
9F
330
5
100
AcDbSymbolTableRecord
100
AcDbLinetypeTableRecord
  2
ACAD_ISO04W100
 70
     0
  3
ISO long-dash dot ____ . ____ . ____ . ____ . _
 72
    65
 73
     4
 40
30.0
 49
24.0
 74
     0
 49
-3.0
 74
     0
 49
0.0
 74
     0
 49
-3.0
 74
     0
  0
LTYPE
  5
A0
330
5
100
AcDbSymbolTableRecord
100
AcDbLinetypeTableRecord
  2
ACAD_ISO05W100
 70
     0
  3
ISO long-dash double-dot ____ .. ____ .. ____ .
 72
    65
 73
     6
 40
33.0
 49
24.0
 74
     0
 49
-3.0
 74
     0
 49
0.0
 74
     0
 49
-3.0
 74
     0
 49
0.0
 74
     0
 49
-3.0
 74
     0
  0
LTYPE
  5
A1
330
5
100
AcDbSymbolTableRecord
100
AcDbLinetypeTableRecord
  2
ACAD_ISO06W100
 70
     0
  3
ISO long-dash triple-dot ____ ... ____ ... ____
 72
    65
 73
     8
 40
36.0
 49
24.0
 74
     0
 49
-3.0
 74
     0
 49
0.0
 74
     0
 49
-3.0
 74
     0
 49
0.0
 74
     0
 49
-3.0
 74
     0
 49
0.0
 74
     0
 49
-3.0
 74
     0
  0
LTYPE
  5
A2
330
5
100
AcDbSymbolTableRecord
100
AcDbLinetypeTableRecord
  2
ACAD_ISO07W100
 70
     0
  3
ISO dot . . . . . . . . . . . . . . . . . . . .
 72
    65
 73
     2
 40
3.0
 49
0.0
 74
     0
 49
-3.0
 74
     0
  0
LTYPE
  5
A3
330
5
100
AcDbSymbolTableRecord
100
AcDbLinetypeTableRecord
  2
ACAD_ISO08W100
 70
     0
  3
ISO long-dash short-dash ____ __ ____ __ ____ _
 72
    65
 73
     4
 40
36.0
 49
24.0
 74
     0
 49
-3.0
 74
     0
 49
6.0
 74
     0
 49
-3.0
 74
     0
  0
LTYPE
  5
A4
330
5
100
AcDbSymbolTableRecord
100
AcDbLinetypeTableRecord
  2
ACAD_ISO09W100
 70
     0
  3
ISO long-dash double-short-dash ____ __ __ ____
 72
    65
 73
     6
 40
45.0
 49
24.0
 74
     0
 49
-3.0
 74
     0
 49
6.0
 74
     0
 49
-3.0
 74
     0
 49
6.0
 74
     0
 49
-3.0
 74
     0
  0
LTYPE
  5
A5
330
5
100
AcDbSymbolTableRecord
100
AcDbLinetypeTableRecord
  2
ACAD_ISO10W100
 70
     0
  3
ISO dash dot __ . __ . __ . __ . __ . __ . __ .
 72
    65
 73
     4
 40
18.0
 49
12.0
 74
     0
 49
-3.0
 74
     0
 49
0.0
 74
     0
 49
-3.0
 74
     0
  0
LTYPE
  5
A6
330
5
100
AcDbSymbolTableRecord
100
AcDbLinetypeTableRecord
  2
ACAD_ISO11W100
 70
     0
  3
ISO double-dash dot __ __ . __ __ . __ __ . __ 
 72
    65
 73
     6
 40
33.0
 49
12.0
 74
     0
 49
-3.0
 74
     0
 49
12.0
 74
     0
 49
-3.0
 74
     0
 49
0.0
 74
     0
 49
-3.0
 74
     0
  0
LTYPE
  5
A7
330
5
100
AcDbSymbolTableRecord
100
AcDbLinetypeTableRecord
  2
ACAD_ISO12W100
 70
     0
  3
ISO dash double-dot __ . . __ . . __ . . __ . .
 72
    65
 73
     6
 40
21.0
 49
12.0
 74
     0
 49
-3.0
 74
     0
 49
0.0
 74
     0
 49
-3.0
 74
     0
 49
0.0
 74
     0
 49
-3.0
 74
     0
  0
LTYPE
  5
A8
330
5
100
AcDbSymbolTableRecord
100
AcDbLinetypeTableRecord
  2
ACAD_ISO13W100
 70
     0
  3
ISO double-dash double-dot __ __ . . __ __ . . 
 72
    65
 73
     8
 40
36.0
 49
12.0
 74
     0
 49
-3.0
 74
     0
 49
12.0
 74
     0
 49
-3.0
 74
     0
 49
0.0
 74
     0
 49
-3.0
 74
     0
 49
0.0
 74
     0
 49
-3.0
 74
     0
  0
LTYPE
  5
A9
330
5
100
AcDbSymbolTableRecord
100
AcDbLinetypeTableRecord
  2
ACAD_ISO14W100
 70
     0
  3
ISO dash triple-dot __ . . . __ . . . __ . . . 
 72
    65
 73
     8
 40
24.0
 49
12.0
 74
     0
 49
-3.0
 74
     0
 49
0.0
 74
     0
 49
-3.0
 74
     0
 49
0.0
 74
     0
 49
-3.0
 74
     0
 49
0.0
 74
     0
 49
-3.0
 74
     0
  0
LTYPE
  5
AA
330
5
100
AcDbSymbolTableRecord
100
AcDbLinetypeTableRecord
  2
ACAD_ISO15W100
 70
     0
  3
ISO double-dash triple-dot __ __ . . . __ __ . 
 72
    65
 73
    10
 40
39.0
 49
12.0
 74
     0
 49
-3.0
 74
     0
 49
12.0
 74
     0
 49
-3.0
 74
     0
 49
0.0
 74
     0
 49
-3.0
 74
     0
 49
0.0
 74
     0
 49
-3.0
 74
     0
 49
0.0
 74
     0
 49
-3.0
 74
     0
  0
LTYPE
  5
AD
330
5
100
AcDbSymbolTableRecord
100
AcDbLinetypeTableRecord
  2
FENCELINE1
 70
     0
  3
Fenceline circle ----0-----0----0-----0----0---
 72
    65
 73
     4
 40
36.83
 49
6.349999999999999
 74
     0
 49
-2.54
 74
     4
 75
   133
340
AC
 46
2.54
 50
0.0
 44
-2.54
 45
0.0
 49
-2.54
 74
     0
 49
25.4
 74
     0
  0
LTYPE
  5
AE
330
5
100
AcDbSymbolTableRecord
100
AcDbLinetypeTableRecord
  2
FENCELINE2
 70
     0
  3
Fenceline square ----[]-----[]----[]-----[]----
 72
    65
 73
     4
 40
36.83
 49
6.349999999999999
 74
     0
 49
-2.54
 74
     4
 75
   132
340
AC
 46
2.54
 50
0.0
 44
-2.54
 45
0.0
 49
-2.54
 74
     0
 49
25.4
 74
     0
  0
LTYPE
  5
AF
330
5
100
AcDbSymbolTableRecord
100
AcDbLinetypeTableRecord
  2
TRACKS
 70
     0
  3
Tracks -|-|-|-|-|-|-|-|-|-|-|-|-|-|-|-|-|-|-|-|
 72
    65
 73
     2
 40
7.62
 49
3.81
 74
     4
 75
   130
340
AC
 46
6.349999999999999
 50
0.0
 44
0.0
 45
0.0
 49
3.81
 74
     0
  0
LTYPE
  5
B0
330
5
100
AcDbSymbolTableRecord
100
AcDbLinetypeTableRecord
  2
BATTING
 70
     0
  3
Batting SSSSSSSSSSSSSSSSSSSSSSSSSSSSSSSSSSSSSSS
 72
    65
 73
     4
 40
10.16254
 49
0.00254
 74
     0
 49
-2.54
 74
     4
 75
   134
340
AC
 46
2.54
 50
0.0
 44
-2.54
 45
0.0
 49
-5.08
 74
     4
 75
   134
340
AC
 46
2.54
 50
180.0
 44
2.54
 45
0.0
 49
-2.54
 74
     0
  0
LTYPE
  5
B1
330
5
100
AcDbSymbolTableRecord
100
AcDbLinetypeTableRecord
  2
HOT_WATER_SUPPLY
 70
     0
  3
Hot water supply ---- HW ---- HW ---- HW ----
 72
    65
 73
     3
 40
22.86
 49
12.7
 74
     0
 49
-5.08
 74
     2
 75
     0
340
55
 46
2.54
 50
0.0
 44
-2.54
 45
-1.27
  9
HW
 49
-5.08
 74
     0
  0
LTYPE
  5
B2
330
5
100
AcDbSymbolTableRecord
100
AcDbLinetypeTableRecord
  2
GAS_LINE
 70
     0
  3
Gas line ----GAS----GAS----GAS----GAS----GAS---
 72
    65
 73
     3
 40
24.13
 49
12.7
 74
     0
 49
-5.08
 74
     2
 75
     0
340
55
 46
2.54
 50
0.0
 44
-2.54
 45
-1.27
  9
GAS
 49
-6.349999999999999
 74
     0
  0
LTYPE
  5
B3
330
5
100
AcDbSymbolTableRecord
100
AcDbLinetypeTableRecord
  2
ZIGZAG
 70
     0
  3
Zig zag /\/\/\/\/\/\/\/\/\/\/\/\/\/\/\/\/\/\/\/
 72
    65
 73
     4
 40
20.32254
 49
0.00254
 74
     0
 49
-5.08
 74
     4
 75
   131
340
AC
 46
5.08
 50
0.0
 44
-5.08
 45
0.0
 49
-10.16
 74
     4
 75
   131
340
AC
 46
5.08
 50
180.0
 44
5.08
 45
0.0
 49
-5.08
 74
     0
  0
ENDTAB
  0
TABLE
  2
LAYER
  5
2
330
0
100
AcDbSymbolTable
 70
    27
  0
LAYER
  5
54
330
2
100
AcDbSymbolTableRecord
100
AcDbLayerTableRecord
  2
0
 70
     0
 62
     7
  6
Continuous
370
    -3
390
F
347
21
  0
LAYER
  5
B7
330
2
100
AcDbSymbolTableRecord
100
AcDbLayerTableRecord
  2
Border (ISO)
 70
     0
 62
     7
  6
Continuous
370
    70
390
F
347
21
  0
LAYER
  5
BC
330
2
100
AcDbSymbolTableRecord
100
AcDbLayerTableRecord
  2
Dimension (ISO)
 70
     0
 62
     7
  6
Continuous
370
    25
390
F
347
21
  0
LAYER
  5
BD
330
2
100
AcDbSymbolTableRecord
100
AcDbLayerTableRecord
  2
Hatch (ISO)
 70
     0
 62
     7
  6
Continuous
370
    18
390
F
347
21
  0
LAYER
  5
C3
330
2
100
AcDbSymbolTableRecord
100
AcDbLayerTableRecord
  2
Section Line (ISO)
 70
     0
 62
     7
  6
CHAIN
370
    70
390
F
347
21
  0
LAYER
  5
C5
330
2
100
AcDbSymbolTableRecord
100
AcDbLayerTableRecord
  2
Symbol (ISO)
 70
     0
 62
     7
  6
Continuous
370
    25
390
F
347
21
  0
LAYER
  5
C6
330
2
100
AcDbSymbolTableRecord
100
AcDbLayerTableRecord
  2
Title (ISO)
 70
     0
 62
     7
  6
Continuous
370
    50
390
F
347
21
  0
LAYER
  5
C8
330
2
100
AcDbSymbolTableRecord
100
AcDbLayerTableRecord
  2
Visible (ISO)
 70
     0
 62
     7
  6
Continuous
370
    50
390
F
347
21
  0
LAYER
  5
27C
330
2
100
AcDbSymbolTableRecord
100
AcDbLayerTableRecord
  2
Defpoints
 70
     0
 62
     7
  6
Continuous
290
     0
370
    -3
390
F
347
21
  0
ENDTAB
  0
TABLE
  2
STYLE
  5
3
330
0
100
AcDbSymbolTable
 70
     5
  0
STYLE
  5
55
330
3
100
AcDbSymbolTableRecord
100
AcDbTextStyleTableRecord
  2
Standard
 70
     0
 40
0.0
 41
1.0
 50
0.0
 71
     0
 42
0.2
  3
tahoma.ttf
  4

1001
ACAD
1000
Tahoma
1071
      256
  0
STYLE
  5
5A
330
3
100
AcDbSymbolTableRecord
100
AcDbTextStyleTableRecord
  2
Annotative
 70
     0
 40
0.0
 41
1.0
 50
0.0
 71
     0
 42
0.2
  3
txt
  4

1001
AcadAnnotative
1000
AnnotativeData
1002
{
1070
     1
1070
     1
1002
}
  0
STYLE
  5
AC
330
3
100
AcDbSymbolTableRecord
100
AcDbTextStyleTableRecord
  2

 70
     1
 40
0.0
 41
1.0
 50
0.0
 71
     0
 42
0.2
  3
ltypeshp.shx
  4

  0
STYLE
  5
CD
330
3
100
AcDbSymbolTableRecord
100
AcDbTextStyleTableRecord
  2
Label Text (ISO)
 70
     0
 40
0.0
 41
1.0
 50
0.0
 71
     0
 42
0.2
  3
tahoma.ttf
  4

1001
ACAD
1000
Tahoma
1071
      256
  0
STYLE
  5
CE
330
3
100
AcDbSymbolTableRecord
100
AcDbTextStyleTableRecord
  2
Note Text (ISO)
 70
     0
 40
0.0
 41
1.0
 50
0.0
 71
     0
 42
0.2
  3
tahoma.ttf
  4

1001
ACAD
1000
Tahoma
1071
      256
  0
ENDTAB
  0
TABLE
  2
VIEW
  5
6
330
0
100
AcDbSymbolTable
 70
     0
  0
ENDTAB
  0
TABLE
  2
UCS
  5
7
330
0
100
AcDbSymbolTable
 70
     0
  0
ENDTAB
  0
TABLE
  2
APPID
  5
9
330
0
100
AcDbSymbolTable
 70
     3
  0
APPID
  5
56
330
9
100
AcDbSymbolTableRecord
100
AcDbRegAppTableRecord
  2
ACAD
 70
     0
  0
APPID
  5
5E
330
9
100
AcDbSymbolTableRecord
100
AcDbRegAppTableRecord
  2
AcadAnnotative
 70
     0
  0
APPID
  5
171
330
9
100
AcDbSymbolTableRecord
100
AcDbRegAppTableRecord
  2
AcadAnnoPO
 70
     0
  0
ENDTAB
  0
TABLE
  2
DIMSTYLE
  5
A
330
0
100
AcDbSymbolTable
 70
    15
100
AcDbDimStyleTable
 71
     2
340
D7
340
58
  0
DIMSTYLE
105
58
330
A
100
AcDbSymbolTableRecord
100
AcDbDimStyleTableRecord
  2
Standard
 70
     0
340
55
  0
DIMSTYLE
105
59
330
A
100
AcDbSymbolTableRecord
100
AcDbDimStyleTableRecord
  2
Annotative
 70
     0
340
55
1001
AcadAnnotative
1000
AnnotativeData
1002
{
1070
     1
1070
     1
1002
}
  0
DIMSTYLE
105
CF
330
A
100
AcDbSymbolTableRecord
100
AcDbDimStyleTableRecord
  2
Default - Method 1b (ISO)
 70
     0
 41
2.5
 42
0.0
 43
5.999999999999999
 44
3.174999999999999
 45
0.00000001
 46
10.0
 73
     0
 77
     1
 78
     8
 79
     2
140
2.5
143
0.03937
146
1.399999976158142
147
0.762
171
     3
172
     1
176
   256
177
   256
178
   232
179
     2
271
     2
272
     2
274
     3
278
    44
284
     8
286
     8
340
CE
371
    -1
372
    -1
  0
DIMSTYLE
105
D0
330
A
100
AcDbSymbolTableRecord
100
AcDbDimStyleTableRecord
  2
Default - Method 1b (ISO)$7
 70
     0
 41
2.5
 42
0.0
 43
5.999999999999999
 44
3.174999999999999
 45
0.00000001
 46
10.0
 73
     0
 77
     1
 78
     8
 79
     2
140
2.5
143
0.03937
146
1.399999976158142
147
0.762
171
     3
172
     1
176
   256
177
   256
178
   232
179
     2
271
     2
272
     2
274
     3
278
    44
284
     8
286
     8
340
CE
371
    -1
372
    -1
  0
DIMSTYLE
105
D1
330
A
100
AcDbSymbolTableRecord
100
AcDbDimStyleTableRecord
  2
Default - Method 2a (ISO)
 70
     0
 41
2.5
 42
0.0
 43
5.999999999999999
 44
3.174999999999999
 45
0.00000001
 46
10.0
 77
     1
 78
     8
 79
     2
140
2.5
143
0.03937
146
1.399999976158142
147
0.762
171
     3
172
     1
176
   256
177
   256
178
   232
179
     2
271
     2
272
     2
274
     3
278
    44
284
     8
286
     8
340
CE
371
    -1
372
    -1
  0
DIMSTYLE
105
D2
330
A
100
AcDbSymbolTableRecord
100
AcDbDimStyleTableRecord
  2
Default - Method 2a (ISO)$7
 70
     0
 41
2.5
 42
0.0
 43
5.999999999999999
 44
3.174999999999999
 45
0.00000001
 46
10.0
 77
     1
 78
     8
 79
     2
140
2.5
143
0.03937
146
1.399999976158142
147
0.762
171
     3
172
     1
176
   256
177
   256
178
   232
179
     2
271
     2
272
     2
274
     3
278
    44
284
     8
286
     8
340
CE
371
    -1
372
    -1
  0
DIMSTYLE
105
D3
330
A
100
AcDbSymbolTableRecord
100
AcDbDimStyleTableRecord
  2
Default - Method 2b (ISO)
 70
     0
 41
2.5
 42
0.0
 43
5.999999999999999
 44
3.174999999999999
 45
0.00000001
 46
10.0
 77
     1
 78
     8
 79
     2
140
2.5
143
0.03937
147
0.762
171
     3
172
     1
176
   256
177
   256
178
   232
179
     2
271
     2
272
     1
274
     3
278
    44
284
     8
286
     8
340
CE
371
    -1
372
    -1
  0
DIMSTYLE
105
D4
330
A
100
AcDbSymbolTableRecord
100
AcDbDimStyleTableRecord
  2
Default - Method 2b (ISO)$7
 70
     0
 41
2.5
 42
0.0
 43
5.999999999999999
 44
3.174999999999999
 45
0.00000001
 46
10.0
 77
     1
 78
     8
 79
     2
140
2.5
143
0.03937
147
0.762
171
     3
172
     1
176
   256
177
   256
178
   232
179
     2
271
     2
272
     1
274
     3
278
    44
284
     8
286
     8
340
CE
371
    -1
372
    -1
  0
DIMSTYLE
105
D5
330
A
100
AcDbSymbolTableRecord
100
AcDbDimStyleTableRecord
  2
Default - mm [in] (ISO)
 70
     0
  4
 in
 41
2.5
 42
0.0
 43
5.999999999999999
 44
3.174999999999999
 45
0.00000001
 46
10.0
 73
     0
 74
     0
 77
     1
 78
     8
 79
     2
140
2.5
143
0.03937
146
1.399999976158142
147
0.762
170
     1
171
     3
172
     1
176
   256
177
   256
178
   232
179
     3
271
     3
272
     2
274
     3
275
     1
278
    44
284
     8
285
     8
286
     8
340
CE
371
    -1
372
    -1
  0
DIMSTYLE
105
D6
330
A
100
AcDbSymbolTableRecord
100
AcDbDimStyleTableRecord
  2
Default - mm [in] (ISO)$7
 70
     0
  4
 in
 41
2.5
 42
0.0
 43
5.999999999999999
 44
3.174999999999999
 45
0.00000001
 46
10.0
 73
     0
 74
     0
 77
     1
 78
     8
 79
     2
140
2.5
143
0.03937
146
1.399999976158142
147
0.762
170
     1
171
     3
172
     1
176
   256
177
   256
178
   232
179
     3
271
     3
272
     2
274
     3
275
     1
278
    44
284
     8
285
     8
286
     8
340
CE
371
    -1
372
    -1
  0
DIMSTYLE
105
D7
102
{ACAD_REACTORS
330
27B
330
355
330
426
330
4F7
330
5CD
330
6A3
330
77F
330
857
330
92D
102
}
330
A
100
AcDbSymbolTableRecord
100
AcDbDimStyleTableRecord
  2
Default (ISO)
 70
     0
 41
2.5
 42
0.0
 43
5.999999999999999
 44
3.174999999999999
 45
0.00000001
 46
10.0
 73
     0
 74
     0
 77
     1
140
2.5
143
0.03937
146
1.402080059051513
147
0.762
171
     3
172
     1
176
   256
177
   256
178
   232
179
     2
271
     2
272
     2
274
     3
278
    44
340
CE
371
    -1
372
    -1
  0
DIMSTYLE
105
D8
330
A
100
AcDbSymbolTableRecord
100
AcDbDimStyleTableRecord
  2
Default (ISO)$7
 70
     0
 41
2.5
 42
0.0
 43
5.999999999999999
 44
3.174999999999999
 45
0.00000001
 46
10.0
 73
     0
 74
     0
 77
     1
140
2.5
143
0.03937
146
1.402080059051513
147
0.762
171
     3
172
     1
176
   256
177
   256
178
   232
179
     2
271
     2
272
     2
274
     3
278
    44
340
CE
371
    -1
372
    -1
  0
DIMSTYLE
105
D9
330
A
100
AcDbSymbolTableRecord
100
AcDbDimStyleTableRecord
  2
Alternate (ISO)
 70
     0
 41
2.5
340
55
342
DA
  0
DIMSTYLE
105
EC
330
A
100
AcDbSymbolTableRecord
100
AcDbDimStyleTableRecord
  2
Datum (ISO)
 70
     0
 41
2.5
340
55
342
DA
  0
DIMSTYLE
105
FB
330
A
100
AcDbSymbolTableRecord
100
AcDbDimStyleTableRecord
  2
Large (ISO)
 70
     0
 41
5.0
340
55
342
DA
  0
ENDTAB
  0
TABLE
  2
BLOCK_RECORD
  5
1
330
0
100
AcDbSymbolTable
 70
    16
  0
BLOCK_RECORD
  5
70
330
1
100
AcDbSymbolTableRecord
100
AcDbBlockTableRecord
  2
*Model_Space
340
73
 70
     0
280
     1
281
     0
  0
BLOCK_RECORD
  5
6C
330
1
100
AcDbSymbolTableRecord
100
AcDbBlockTableRecord
  2
*Paper_Space
340
6F
 70
     0
280
     1
281
     0
  0
BLOCK_RECORD
  5
74
330
1
100
AcDbSymbolTableRecord
100
AcDbBlockTableRecord
  2
*Paper_Space0
340
77
 70
     0
280
     1
281
     0
  0
BLOCK_RECORD
  5
DA
330
1
100
AcDbSymbolTableRecord
100
AcDbBlockTableRecord
  2
_Closed
340
0
 70
     0
280
     1
281
     0
  0
BLOCK_RECORD
  5
E1
330
1
100
AcDbSymbolTableRecord
100
AcDbBlockTableRecord
  2
DatumFilled45
340
0
 70
     0
280
     1
281
     0
  0
BLOCK_RECORD
  5
ED
330
1
100
AcDbSymbolTableRecord
100
AcDbBlockTableRecord
  2
Filled-1
340
0
 70
     0
280
     1
281
     0
  0
BLOCK_RECORD
  5
FC
330
1
100
AcDbSymbolTableRecord
100
AcDbBlockTableRecord
  2
Borders Default Border
340
0
102
{BLKREFS
331
16B
102
}
 70
     0
280
     1
281
     0
  0
BLOCK_RECORD
  5
16C
330
1
100
AcDbSymbolTableRecord
100
AcDbBlockTableRecord
  2
Title Blocks ISO
340
0
102
{BLKREFS
331
173
102
}
 70
     0
280
     1
281
     0
  0
BLOCK_RECORD
  5
1D1
330
1
100
AcDbSymbolTableRecord
100
AcDbBlockTableRecord
  2
2dTransSection0
340
0
102
{BLKREFS
331
1F1
102
}
 70
     0
280
     1
281
     0
  0
BLOCK_RECORD
  5
27D
330
1
100
AcDbSymbolTableRecord
100
AcDbBlockTableRecord
  2
*D7
340
0
 70
     0
280
     1
281
     0
  0
BLOCK_RECORD
  5
356
330
1
100
AcDbSymbolTableRecord
100
AcDbBlockTableRecord
  2
*D8
340
0
 70
     0
280
     1
281
     0
  0
BLOCK_RECORD
  5
427
330
1
100
AcDbSymbolTableRecord
100
AcDbBlockTableRecord
  2
*D9
340
0
 70
     0
280
     1
281
     0
  0
BLOCK_RECORD
  5
4F8
330
1
100
AcDbSymbolTableRecord
100
AcDbBlockTableRecord
  2
*D10
340
0
 70
     0
280
     1
281
     0
  0
BLOCK_RECORD
  5
5CE
330
1
100
AcDbSymbolTableRecord
100
AcDbBlockTableRecord
  2
*D11
340
0
 70
     0
280
     1
281
     0
  0
BLOCK_RECORD
  5
6A4
330
1
100
AcDbSymbolTableRecord
100
AcDbBlockTableRecord
  2
*D12
340
0
 70
     0
280
     1
281
     0
  0
BLOCK_RECORD
  5
780
330
1
100
AcDbSymbolTableRecord
100
AcDbBlockTableRecord
  2
*D13
340
0
 70
     0
280
     1
281
     0
  0
BLOCK_RECORD
  5
858
330
1
100
AcDbSymbolTableRecord
100
AcDbBlockTableRecord
  2
*D14
340
0
 70
     0
280
     1
281
     0
  0
BLOCK_RECORD
  5
92E
330
1
100
AcDbSymbolTableRecord
100
AcDbBlockTableRecord
  2
*D15
340
0
 70
     0
280
     1
281
     0
  0
ENDTAB
  0
ENDSEC
  0
SECTION
  2
BLOCKS
  0
BLOCK
  5
71
330
70
100
AcDbEntity
  8
0
100
AcDbBlockBegin
  2
*Model_Space
 70
     0
 10
0.0
 20
0.0
 30
0.0
  3
*Model_Space
  1

  0
ENDBLK
  5
72
330
70
100
AcDbEntity
  8
0
100
AcDbBlockEnd
  0
BLOCK
  5
6D
330
6C
100
AcDbEntity
 67
     1
  8
0
100
AcDbBlockBegin
  2
*Paper_Space
 70
     0
 10
0.0
 20
0.0
 30
0.0
  3
*Paper_Space
  1

  0
ENDBLK
  5
6E
330
6C
100
AcDbEntity
 67
     1
  8
0
100
AcDbBlockEnd
  0
BLOCK
  5
75
330
74
100
AcDbEntity
 67
     1
  8
0
100
AcDbBlockBegin
  2
*Paper_Space0
 70
     0
 10
0.0
 20
0.0
 30
0.0
  3
*Paper_Space0
  1

  0
ENDBLK
  5
76
330
74
100
AcDbEntity
 67
     1
  8
0
100
AcDbBlockEnd
  0
BLOCK
  5
DF
330
DA
100
AcDbEntity
  8
0
100
AcDbBlockBegin
  2
_Closed
 70
     0
 10
0.0
 20
0.0
 30
0.0
  3
_Closed
  1

  0
LINE
  5
DB
330
DA
100
AcDbEntity
  8
0
  6
ByBlock
 62
     0
370
    -2
100
AcDbLine
 10
-1.0
 20
0.1666666666666666
 30
0.0
 11
0.0
 21
0.0
 31
0.0
  0
LINE
  5
DC
330
DA
100
AcDbEntity
  8
0
  6
ByBlock
 62
     0
370
    -2
100
AcDbLine
 10
0.0
 20
0.0
 30
0.0
 11
-1.0
 21
-0.1666666666666666
 31
0.0
  0
LINE
  5
DD
330
DA
100
AcDbEntity
  8
0
  6
ByBlock
 62
     0
370
    -2
100
AcDbLine
 10
-1.0
 20
0.1666666666666666
 30
0.0
 11
-1.0
 21
-0.1666666666666666
 31
0.0
  0
LINE
  5
DE
330
DA
100
AcDbEntity
  8
0
  6
ByBlock
 62
     0
370
    -2
100
AcDbLine
 10
0.0
 20
0.0
 30
0.0
 11
-1.0
 21
0.0
 31
0.0
  0
ENDBLK
  5
E0
330
DA
100
AcDbEntity
  8
0
100
AcDbBlockEnd
  0
BLOCK
  5
E2
330
E1
100
AcDbEntity
  8
0
100
AcDbBlockBegin
  2
DatumFilled45
 70
     0
 10
0.0
 20
0.0
 30
0.0
  3
DatumFilled45
  1

  0
POLYLINE
  5
E4
330
E1
100
AcDbEntity
  8
0
 62
     0
100
AcDb2dPolyline
 66
     1
 10
0.0
 20
0.0
 30
0.0
 70
   128
  0
VERTEX
  5
E5
330
E4
100
AcDbEntity
  8
0
 62
     0
100
AcDbVertex
100
AcDb2dVertex
 10
0.0
 20
1.0
 30
0.0
  0
VERTEX
  5
E6
330
E4
100
AcDbEntity
  8
0
 62
     0
100
AcDbVertex
100
AcDb2dVertex
 10
0.0
 20
-1.0
 30
0.0
  0
VERTEX
  5
E8
330
E4
100
AcDbEntity
  8
0
 62
     0
100
AcDbVertex
100
AcDb2dVertex
 10
-1.0
 20
0.0
 30
0.0
  0
VERTEX
  5
E9
330
E4
100
AcDbEntity
  8
0
 62
     0
100
AcDbVertex
100
AcDb2dVertex
 10
0.0
 20
1.0
 30
0.0
  0
SEQEND
  5
E7
330
E4
100
AcDbEntity
  8
0
 62
     0
  0
SOLID
  5
EB
330
E1
100
AcDbEntity
  8
0
 62
     0
100
AcDbTrace
 10
0.0
 20
1.0
 30
0.0
 11
0.0
 21
-1.0
 31
0.0
 12
-1.0
 22
0.0
 32
0.0
 13
0.0
 23
1.0
 33
0.0
  0
ENDBLK
  5
E3
330
E1
100
AcDbEntity
  8
0
100
AcDbBlockEnd
  0
BLOCK
  5
EE
330
ED
100
AcDbEntity
  8
0
100
AcDbBlockBegin
  2
Filled-1
 70
     0
 10
0.0
 20
0.0
 30
0.0
  3
Filled-1
  1

  0
LINE
  5
F0
330
ED
100
AcDbEntity
  8
0
 62
     0
100
AcDbLine
 10
-1.0
 20
0.0
 30
0.0
 11
0.0
 21
0.0
 31
0.0
  0
POLYLINE
  5
F1
330
ED
100
AcDbEntity
  8
0
 62
     0
100
AcDb2dPolyline
 66
     1
 10
0.0
 20
0.0
 30
0.0
 70
   128
  0
VERTEX
  5
F2
330
F1
100
AcDbEntity
  8
0
 62
     0
100
AcDbVertex
100
AcDb2dVertex
 10
-1.0
 20
-0.1
 30
0.0
  0
VERTEX
  5
F3
330
F1
100
AcDbEntity
  8
0
 62
     0
100
AcDbVertex
100
AcDb2dVertex
 10
0.0
 20
0.0
 30
0.0
  0
VERTEX
  5
F5
330
F1
100
AcDbEntity
  8
0
 62
     0
100
AcDbVertex
100
AcDb2dVertex
 10
-1.0
 20
0.1
 30
0.0
  0
VERTEX
  5
F6
330
F1
100
AcDbEntity
  8
0
 62
     0
100
AcDbVertex
100
AcDb2dVertex
 10
-1.0
 20
-0.1
 30
0.0
  0
SEQEND
  5
F4
330
F1
100
AcDbEntity
  8
0
 62
     0
  0
SOLID
  5
F7
330
ED
100
AcDbEntity
  8
0
 62
     0
100
AcDbTrace
 10
-1.0
 20
-0.1
 30
0.0
 11
0.0
 21
0.0
 31
0.0
 12
-1.0
 22
0.1
 32
0.0
 13
-1.0
 23
-0.1
 33
0.0
  0
LINE
  5
F8
330
ED
100
AcDbEntity
  8
0
 62
     0
100
AcDbLine
 10
-1.0
 20
-0.1
 30
0.0
 11
0.0
 21
0.0
 31
0.0
  0
LINE
  5
F9
330
ED
100
AcDbEntity
  8
0
 62
     0
100
AcDbLine
 10
0.0
 20
0.0
 30
0.0
 11
-1.0
 21
0.1
 31
0.0
  0
LINE
  5
FA
330
ED
100
AcDbEntity
  8
0
 62
     0
100
AcDbLine
 10
-1.0
 20
0.1
 30
0.0
 11
-1.0
 21
-0.1
 31
0.0
  0
ENDBLK
  5
EF
330
ED
100
AcDbEntity
  8
0
100
AcDbBlockEnd
  0
BLOCK
  5
FD
330
FC
100
AcDbEntity
  8
0
100
AcDbBlockBegin
  2
Borders Default Border
 70
     0
 10
0.0
 20
0.0
 30
0.0
  3
Borders Default Border
  1

  0
POLYLINE
  5
FF
330
FC
100
AcDbEntity
  8
Border (ISO)
100
AcDb2dPolyline
 66
     1
 10
0.0
 20
0.0
 30
0.0
 70
   128
  0
VERTEX
  5
100
330
FF
100
AcDbEntity
  8
Border (ISO)
100
AcDbVertex
100
AcDb2dVertex
 10
20.0
 20
20.0
 30
0.0
  0
VERTEX
  5
101
330
FF
100
AcDbEntity
  8
Border (ISO)
100
AcDbVertex
100
AcDb2dVertex
 10
20.0
 20
574.000015258789
 30
0.0
  0
VERTEX
  5
103
330
FF
100
AcDbEntity
  8
Border (ISO)
100
AcDbVertex
100
AcDb2dVertex
 10
820.999984741211
 20
574.000015258789
 30
0.0
  0
VERTEX
  5
104
330
FF
100
AcDbEntity
  8
Border (ISO)
100
AcDbVertex
100
AcDb2dVertex
 10
820.999984741211
 20
20.0
 30
0.0
  0
VERTEX
  5
105
330
FF
100
AcDbEntity
  8
Border (ISO)
100
AcDbVertex
100
AcDb2dVertex
 10
20.0
 20
20.0
 30
0.0
  0
SEQEND
  5
102
330
FF
100
AcDbEntity
  8
Border (ISO)
  0
POLYLINE
  5
106
330
FC
100
AcDbEntity
  8
Border (ISO)
100
AcDb2dPolyline
 66
     1
 10
0.0
 20
0.0
 30
0.0
 70
   128
  0
VERTEX
  5
107
330
106
100
AcDbEntity
  8
Border (ISO)
100
AcDbVertex
100
AcDb2dVertex
 10
420.4999923706054
 20
0.0
 30
0.0
  0
VERTEX
  5
108
330
106
100
AcDbEntity
  8
Border (ISO)
100
AcDbVertex
100
AcDb2dVertex
 10
420.4999923706054
 20
20.0
 30
0.0
  0
VERTEX
  5
10A
330
106
100
AcDbEntity
  8
Border (ISO)
100
AcDbVertex
100
AcDb2dVertex
 10
414.7264862060547
 20
10.0
 30
0.0
  0
VERTEX
  5
10B
330
106
100
AcDbEntity
  8
Border (ISO)
100
AcDbVertex
100
AcDb2dVertex
 10
426.2734985351562
 20
10.0
 30
0.0
  0
VERTEX
  5
10C
330
106
100
AcDbEntity
  8
Border (ISO)
100
AcDbVertex
100
AcDb2dVertex
 10
420.4999923706054
 20
20.0
 30
0.0
  0
SEQEND
  5
109
330
106
100
AcDbEntity
  8
Border (ISO)
  0
POLYLINE
  5
10D
330
FC
100
AcDbEntity
  8
Border (ISO)
100
AcDb2dPolyline
 66
     1
 10
0.0
 20
0.0
 30
0.0
 70
   128
  0
VERTEX
  5
10E
330
10D
100
AcDbEntity
  8
Border (ISO)
100
AcDbVertex
100
AcDb2dVertex
 10
420.4999923706054
 20
594.0000152587891
 30
0.0
  0
VERTEX
  5
10F
330
10D
100
AcDbEntity
  8
Border (ISO)
100
AcDbVertex
100
AcDb2dVertex
 10
420.4999923706054
 20
574.000015258789
 30
0.0
  0
VERTEX
  5
111
330
10D
100
AcDbEntity
  8
Border (ISO)
100
AcDbVertex
100
AcDb2dVertex
 10
414.7264862060547
 20
584.000015258789
 30
0.0
  0
VERTEX
  5
112
330
10D
100
AcDbEntity
  8
Border (ISO)
100
AcDbVertex
100
AcDb2dVertex
 10
426.2734985351562
 20
584.000015258789
 30
0.0
  0
VERTEX
  5
113
330
10D
100
AcDbEntity
  8
Border (ISO)
100
AcDbVertex
100
AcDb2dVertex
 10
420.4999923706054
 20
574.000015258789
 30
0.0
  0
SEQEND
  5
110
330
10D
100
AcDbEntity
  8
Border (ISO)
  0
POLYLINE
  5
114
330
FC
100
AcDbEntity
  8
Border (ISO)
100
AcDb2dPolyline
 66
     1
 10
0.0
 20
0.0
 30
0.0
 70
   128
  0
VERTEX
  5
115
330
114
100
AcDbEntity
  8
Border (ISO)
100
AcDbVertex
100
AcDb2dVertex
 10
0.0
 20
297.0000076293946
 30
0.0
  0
VERTEX
  5
116
330
114
100
AcDbEntity
  8
Border (ISO)
100
AcDbVertex
100
AcDb2dVertex
 10
20.0
 20
297.0000076293946
 30
0.0
  0
VERTEX
  5
118
330
114
100
AcDbEntity
  8
Border (ISO)
100
AcDbVertex
100
AcDb2dVertex
 10
10.0
 20
302.773494720459
 30
0.0
  0
VERTEX
  5
119
330
114
100
AcDbEntity
  8
Border (ISO)
100
AcDbVertex
100
AcDb2dVertex
 10
10.0
 20
291.2265014648438
 30
0.0
  0
VERTEX
  5
11A
330
114
100
AcDbEntity
  8
Border (ISO)
100
AcDbVertex
100
AcDb2dVertex
 10
20.0
 20
297.0000076293946
 30
0.0
  0
SEQEND
  5
117
330
114
100
AcDbEntity
  8
Border (ISO)
  0
POLYLINE
  5
11B
330
FC
100
AcDbEntity
  8
Border (ISO)
100
AcDb2dPolyline
 66
     1
 10
0.0
 20
0.0
 30
0.0
 70
   128
  0
VERTEX
  5
11C
330
11B
100
AcDbEntity
  8
Border (ISO)
100
AcDbVertex
100
AcDb2dVertex
 10
840.9999847412109
 20
297.0000076293946
 30
0.0
  0
VERTEX
  5
11D
330
11B
100
AcDbEntity
  8
Border (ISO)
100
AcDbVertex
100
AcDb2dVertex
 10
820.999984741211
 20
297.0000076293946
 30
0.0
  0
VERTEX
  5
11F
330
11B
100
AcDbEntity
  8
Border (ISO)
100
AcDbVertex
100
AcDb2dVertex
 10
830.9999847412109
 20
302.773494720459
 30
0.0
  0
VERTEX
  5
120
330
11B
100
AcDbEntity
  8
Border (ISO)
100
AcDbVertex
100
AcDb2dVertex
 10
830.9999847412109
 20
291.2265014648438
 30
0.0
  0
VERTEX
  5
121
330
11B
100
AcDbEntity
  8
Border (ISO)
100
AcDbVertex
100
AcDb2dVertex
 10
820.999984741211
 20
297.0000076293946
 30
0.0
  0
SEQEND
  5
11E
330
11B
100
AcDbEntity
  8
Border (ISO)
  0
LINE
  5
122
330
FC
100
AcDbEntity
  8
Border (ISO)
100
AcDbLine
 10
70.08333206176757
 20
20.0
 30
0.0
 11
70.08333206176757
 21
17.10000038146972
 31
0.0
  0
LINE
  5
123
330
FC
100
AcDbEntity
  8
Border (ISO)
100
AcDbLine
 10
70.08333206176757
 20
574.000015258789
 30
0.0
 11
70.08333206176757
 21
576.8999862670898
 31
0.0
  0
LINE
  5
124
330
FC
100
AcDbEntity
  8
Border (ISO)
100
AcDbLine
 10
140.1666641235351
 20
20.0
 30
0.0
 11
140.1666641235351
 21
17.10000038146972
 31
0.0
  0
LINE
  5
125
330
FC
100
AcDbEntity
  8
Border (ISO)
100
AcDbLine
 10
140.1666641235351
 20
574.000015258789
 30
0.0
 11
140.1666641235351
 21
576.8999862670898
 31
0.0
  0
LINE
  5
126
330
FC
100
AcDbEntity
  8
Border (ISO)
100
AcDbLine
 10
210.2499961853027
 20
20.0
 30
0.0
 11
210.2499961853027
 21
17.10000038146972
 31
0.0
  0
LINE
  5
127
330
FC
100
AcDbEntity
  8
Border (ISO)
100
AcDbLine
 10
210.2499961853027
 20
574.000015258789
 30
0.0
 11
210.2499961853027
 21
576.8999862670898
 31
0.0
  0
LINE
  5
128
330
FC
100
AcDbEntity
  8
Border (ISO)
100
AcDbLine
 10
280.3333282470703
 20
20.0
 30
0.0
 11
280.3333282470703
 21
17.10000038146972
 31
0.0
  0
LINE
  5
129
330
FC
100
AcDbEntity
  8
Border (ISO)
100
AcDbLine
 10
280.3333282470703
 20
574.000015258789
 30
0.0
 11
280.3333282470703
 21
576.8999862670898
 31
0.0
  0
LINE
  5
12A
330
FC
100
AcDbEntity
  8
Border (ISO)
100
AcDbLine
 10
350.4166793823242
 20
20.0
 30
0.0
 11
350.4166793823242
 21
17.10000038146972
 31
0.0
  0
LINE
  5
12B
330
FC
100
AcDbEntity
  8
Border (ISO)
100
AcDbLine
 10
350.4166793823242
 20
574.000015258789
 30
0.0
 11
350.4166793823242
 21
576.8999862670898
 31
0.0
  0
LINE
  5
12C
330
FC
100
AcDbEntity
  8
Border (ISO)
100
AcDbLine
 10
490.5833435058593
 20
20.0
 30
0.0
 11
490.5833435058593
 21
17.10000038146972
 31
0.0
  0
LINE
  5
12D
330
FC
100
AcDbEntity
  8
Border (ISO)
100
AcDbLine
 10
490.5833435058593
 20
574.000015258789
 30
0.0
 11
490.5833435058593
 21
576.8999862670898
 31
0.0
  0
LINE
  5
12E
330
FC
100
AcDbEntity
  8
Border (ISO)
100
AcDbLine
 10
560.6666564941406
 20
20.0
 30
0.0
 11
560.6666564941406
 21
17.10000038146972
 31
0.0
  0
LINE
  5
12F
330
FC
100
AcDbEntity
  8
Border (ISO)
100
AcDbLine
 10
560.6666564941406
 20
574.000015258789
 30
0.0
 11
560.6666564941406
 21
576.8999862670898
 31
0.0
  0
LINE
  5
130
330
FC
100
AcDbEntity
  8
Border (ISO)
100
AcDbLine
 10
630.7500076293945
 20
20.0
 30
0.0
 11
630.7500076293945
 21
17.10000038146972
 31
0.0
  0
LINE
  5
131
330
FC
100
AcDbEntity
  8
Border (ISO)
100
AcDbLine
 10
630.7500076293945
 20
574.000015258789
 30
0.0
 11
630.7500076293945
 21
576.8999862670898
 31
0.0
  0
LINE
  5
132
330
FC
100
AcDbEntity
  8
Border (ISO)
100
AcDbLine
 10
700.8333587646484
 20
20.0
 30
0.0
 11
700.8333587646484
 21
17.10000038146972
 31
0.0
  0
LINE
  5
133
330
FC
100
AcDbEntity
  8
Border (ISO)
100
AcDbLine
 10
700.8333587646484
 20
574.000015258789
 30
0.0
 11
700.8333587646484
 21
576.8999862670898
 31
0.0
  0
LINE
  5
134
330
FC
100
AcDbEntity
  8
Border (ISO)
100
AcDbLine
 10
770.9166717529297
 20
20.0
 30
0.0
 11
770.9166717529297
 21
17.10000038146972
 31
0.0
  0
LINE
  5
135
330
FC
100
AcDbEntity
  8
Border (ISO)
100
AcDbLine
 10
770.9166717529297
 20
574.000015258789
 30
0.0
 11
770.9166717529297
 21
576.8999862670898
 31
0.0
  0
MTEXT
  5
136
330
FC
100
AcDbEntity
  8
Border (ISO)
 62
   232
420
 13238372
100
AcDbMText
 10
34.47766113364014
 20
574.3999999999999
 30
0.0
 40
2.5
 41
0.0
 46
0.0
 71
     7
 72
     1
  1
1
  7
Note Text (ISO)
 73
     1
 44
1.0
  0
MTEXT
  5
138
330
FC
100
AcDbEntity
  8
Border (ISO)
 62
   232
420
 13238372
100
AcDbMText
 10
34.47766113364014
 20
17.1
 30
0.0
 40
2.5
 41
0.0
 46
0.0
 71
     7
 72
     1
  1
1
  7
Note Text (ISO)
 73
     1
 44
1.0
  0
MTEXT
  5
139
330
FC
100
AcDbEntity
  8
Border (ISO)
 62
   232
420
 13238372
100
AcDbMText
 10
104.3669939703322
 20
574.3999999999999
 30
0.0
 40
2.5
 41
0.0
 46
0.0
 71
     7
 72
     1
  1
2
  7
Note Text (ISO)
 73
     1
 44
1.0
  0
MTEXT
  5
13A
330
FC
100
AcDbEntity
  8
Border (ISO)
 62
   232
420
 13238372
100
AcDbMText
 10
104.3669939703322
 20
17.1
 30
0.0
 40
2.5
 41
0.0
 46
0.0
 71
     7
 72
     1
  1
2
  7
Note Text (ISO)
 73
     1
 44
1.0
  0
MTEXT
  5
13B
330
FC
100
AcDbEntity
  8
Border (ISO)
 62
   232
420
 13238372
100
AcDbMText
 10
174.4303272524654
 20
574.3473257688805
 30
0.0
 40
2.5
 41
0.0
 46
0.0
 71
     7
 72
     1
  1
3
  7
Note Text (ISO)
 73
     1
 44
1.0
  0
MTEXT
  5
13C
330
FC
100
AcDbEntity
  8
Border (ISO)
 62
   232
420
 13238372
100
AcDbMText
 10
174.4303272524654
 20
17.04732576888055
 30
0.0
 40
2.5
 41
0.0
 46
0.0
 71
     7
 72
     1
  1
3
  7
Note Text (ISO)
 73
     1
 44
1.0
  0
MTEXT
  5
13D
330
FC
100
AcDbEntity
  8
Border (ISO)
 62
   232
420
 13238372
100
AcDbMText
 10
244.4196603451581
 20
574.3999999999999
 30
0.0
 40
2.5
 41
0.0
 46
0.0
 71
     7
 72
     1
  1
4
  7
Note Text (ISO)
 73
     1
 44
1.0
  0
MTEXT
  5
13E
330
FC
100
AcDbEntity
  8
Border (ISO)
 62
   232
420
 13238372
100
AcDbMText
 10
244.4196603451581
 20
17.1
 30
0.0
 40
2.5
 41
0.0
 46
0.0
 71
     7
 72
     1
  1
4
  7
Note Text (ISO)
 73
     1
 44
1.0
  0
MTEXT
  5
13F
330
FC
100
AcDbEntity
  8
Border (ISO)
 62
   232
420
 13238372
100
AcDbMText
 10
314.6429940368923
 20
574.3473257688805
 30
0.0
 40
2.5
 41
0.0
 46
0.0
 71
     7
 72
     1
  1
5
  7
Note Text (ISO)
 73
     1
 44
1.0
  0
MTEXT
  5
140
330
FC
100
AcDbEntity
  8
Border (ISO)
 62
   232
420
 13238372
100
AcDbMText
 10
314.6429940368923
 20
17.04732576888055
 30
0.0
 40
2.5
 41
0.0
 46
0.0
 71
     7
 72
     1
  1
5
  7
Note Text (ISO)
 73
     1
 44
1.0
  0
MTEXT
  5
141
330
FC
100
AcDbEntity
  8
Border (ISO)
 62
   232
420
 13238372
100
AcDbMText
 10
384.6603272012653
 20
574.3473257688805
 30
0.0
 40
2.5
 41
0.0
 46
0.0
 71
     7
 72
     1
  1
6
  7
Note Text (ISO)
 73
     1
 44
1.0
  0
MTEXT
  5
142
330
FC
100
AcDbEntity
  8
Border (ISO)
 62
   232
420
 13238372
100
AcDbMText
 10
384.6603272012653
 20
17.04732576888055
 30
0.0
 40
2.5
 41
0.0
 46
0.0
 71
     7
 72
     1
  1
6
  7
Note Text (ISO)
 73
     1
 44
1.0
  0
MTEXT
  5
143
330
FC
100
AcDbEntity
  8
Border (ISO)
 62
   232
420
 13238372
100
AcDbMText
 10
454.7676605960387
 20
574.3999999999999
 30
0.0
 40
2.5
 41
0.0
 46
0.0
 71
     7
 72
     1
  1
7
  7
Note Text (ISO)
 73
     1
 44
1.0
  0
MTEXT
  5
144
330
FC
100
AcDbEntity
  8
Border (ISO)
 62
   232
420
 13238372
100
AcDbMText
 10
454.7676605960387
 20
17.1
 30
0.0
 40
2.5
 41
0.0
 46
0.0
 71
     7
 72
     1
  1
7
  7
Note Text (ISO)
 73
     1
 44
1.0
  0
MTEXT
  5
145
330
FC
100
AcDbEntity
  8
Border (ISO)
 62
   232
420
 13238372
100
AcDbMText
 10
524.8089938218518
 20
574.3432739056646
 30
0.0
 40
2.5
 41
0.0
 46
0.0
 71
     7
 72
     1
  1
8
  7
Note Text (ISO)
 73
     1
 44
1.0
  0
MTEXT
  5
146
330
FC
100
AcDbEntity
  8
Border (ISO)
 62
   232
420
 13238372
100
AcDbMText
 10
524.8089938218518
 20
17.04327390566468
 30
0.0
 40
2.5
 41
0.0
 46
0.0
 71
     7
 72
     1
  1
8
  7
Note Text (ISO)
 73
     1
 44
1.0
  0
MTEXT
  5
147
330
FC
100
AcDbEntity
  8
Border (ISO)
 62
   232
420
 13238372
100
AcDbMText
 10
594.882327129585
 20
574.3513776320964
 30
0.0
 40
2.5
 41
0.0
 46
0.0
 71
     7
 72
     1
  1
9
  7
Note Text (ISO)
 73
     1
 44
1.0
  0
MTEXT
  5
148
330
FC
100
AcDbEntity
  8
Border (ISO)
 62
   232
420
 13238372
100
AcDbMText
 10
594.882327129585
 20
17.05137763209641
 30
0.0
 40
2.5
 41
0.0
 46
0.0
 71
     7
 72
     1
  1
9
  7
Note Text (ISO)
 73
     1
 44
1.0
  0
MTEXT
  5
149
330
FC
100
AcDbEntity
  8
Border (ISO)
 62
   232
420
 13238372
100
AcDbMText
 10
664.2896546431711
 20
574.3473257688805
 30
0.0
 40
2.5
 41
0.0
 46
0.0
 71
     7
 72
     1
  1
10
  7
Note Text (ISO)
 73
     1
 44
1.0
  0
MTEXT
  5
14A
330
FC
100
AcDbEntity
  8
Border (ISO)
 62
   232
420
 13238372
100
AcDbMText
 10
664.2896546431711
 20
17.04732576888055
 30
0.0
 40
2.5
 41
0.0
 46
0.0
 71
     7
 72
     1
  1
10
  7
Note Text (ISO)
 73
     1
 44
1.0
  0
MTEXT
  5
14B
330
FC
100
AcDbEntity
  8
Border (ISO)
 62
   232
420
 13238372
100
AcDbMText
 10
734.3729879765045
 20
574.3999999999999
 30
0.0
 40
2.5
 41
0.0
 46
0.0
 71
     7
 72
     1
  1
11
  7
Note Text (ISO)
 73
     1
 44
1.0
  0
MTEXT
  5
14C
330
FC
100
AcDbEntity
  8
Border (ISO)
 62
   232
420
 13238372
100
AcDbMText
 10
734.3729879765045
 20
17.1
 30
0.0
 40
2.5
 41
0.0
 46
0.0
 71
     7
 72
     1
  1
11
  7
Note Text (ISO)
 73
     1
 44
1.0
  0
MTEXT
  5
14D
330
FC
100
AcDbEntity
  8
Border (ISO)
 62
   232
420
 13238372
100
AcDbMText
 10
804.4563213098378
 20
574.3999999999999
 30
0.0
 40
2.5
 41
0.0
 46
0.0
 71
     7
 72
     1
  1
12
  7
Note Text (ISO)
 73
     1
 44
1.0
  0
MTEXT
  5
14E
330
FC
100
AcDbEntity
  8
Border (ISO)
 62
   232
420
 13238372
100
AcDbMText
 10
804.4563213098378
 20
17.1
 30
0.0
 40
2.5
 41
0.0
 46
0.0
 71
     7
 72
     1
  1
12
  7
Note Text (ISO)
 73
     1
 44
1.0
  0
LINE
  5
14F
330
FC
100
AcDbEntity
  8
Border (ISO)
100
AcDbLine
 10
20.0
 20
74.25000190734863
 30
0.0
 11
17.10000038146972
 21
74.25000190734863
 31
0.0
  0
LINE
  5
150
330
FC
100
AcDbEntity
  8
Border (ISO)
100
AcDbLine
 10
820.999984741211
 20
74.25000190734863
 30
0.0
 11
823.8999938964843
 21
74.25000190734863
 31
0.0
  0
LINE
  5
151
330
FC
100
AcDbEntity
  8
Border (ISO)
100
AcDbLine
 10
20.0
 20
148.5000038146973
 30
0.0
 11
17.10000038146972
 21
148.5000038146973
 31
0.0
  0
LINE
  5
152
330
FC
100
AcDbEntity
  8
Border (ISO)
100
AcDbLine
 10
820.999984741211
 20
148.5000038146973
 30
0.0
 11
823.8999938964843
 21
148.5000038146973
 31
0.0
  0
LINE
  5
153
330
FC
100
AcDbEntity
  8
Border (ISO)
100
AcDbLine
 10
20.0
 20
222.7499961853027
 30
0.0
 11
17.10000038146972
 21
222.7499961853027
 31
0.0
  0
LINE
  5
154
330
FC
100
AcDbEntity
  8
Border (ISO)
100
AcDbLine
 10
820.999984741211
 20
222.7499961853027
 30
0.0
 11
823.8999938964843
 21
222.7499961853027
 31
0.0
  0
LINE
  5
155
330
FC
100
AcDbEntity
  8
Border (ISO)
100
AcDbLine
 10
20.0
 20
371.25
 30
0.0
 11
17.10000038146972
 21
371.25
 31
0.0
  0
LINE
  5
156
330
FC
100
AcDbEntity
  8
Border (ISO)
100
AcDbLine
 10
820.999984741211
 20
371.25
 30
0.0
 11
823.8999938964843
 21
371.25
 31
0.0
  0
LINE
  5
157
330
FC
100
AcDbEntity
  8
Border (ISO)
100
AcDbLine
 10
20.0
 20
445.4999923706054
 30
0.0
 11
17.10000038146972
 21
445.4999923706054
 31
0.0
  0
LINE
  5
158
330
FC
100
AcDbEntity
  8
Border (ISO)
100
AcDbLine
 10
820.999984741211
 20
445.4999923706054
 30
0.0
 11
823.8999938964843
 21
445.4999923706054
 31
0.0
  0
LINE
  5
159
330
FC
100
AcDbEntity
  8
Border (ISO)
100
AcDbLine
 10
20.0
 20
519.7499847412109
 30
0.0
 11
17.10000038146972
 21
519.7499847412109
 31
0.0
  0
LINE
  5
15A
330
FC
100
AcDbEntity
  8
Border (ISO)
100
AcDbLine
 10
820.999984741211
 20
519.7499847412109
 30
0.0
 11
823.8999938964843
 21
519.7499847412109
 31
0.0
  0
MTEXT
  5
15B
330
FC
100
AcDbEntity
  8
Border (ISO)
 62
   232
420
 13238372
100
AcDbMText
 10
17.28659316639921
 20
555.625
 30
0.0
 40
2.5
 41
0.0
 46
0.0
 71
     7
 72
     1
  1
A
  7
Note Text (ISO)
 73
     1
 44
1.0
  0
MTEXT
  5
15C
330
FC
100
AcDbEntity
  8
Border (ISO)
 62
   232
420
 13238372
100
AcDbMText
 10
821.5865931663993
 20
555.625
 30
0.0
 40
2.5
 41
0.0
 46
0.0
 71
     7
 72
     1
  1
A
  7
Note Text (ISO)
 73
     1
 44
1.0
  0
MTEXT
  5
15D
330
FC
100
AcDbEntity
  8
Border (ISO)
 62
   232
420
 13238372
100
AcDbMText
 10
17.58703467771087
 20
481.3749999999999
 30
0.0
 40
2.5
 41
0.0
 46
0.0
 71
     7
 72
     1
  1
B
  7
Note Text (ISO)
 73
     1
 44
1.0
  0
MTEXT
  5
15E
330
FC
100
AcDbEntity
  8
Border (ISO)
 62
   232
420
 13238372
100
AcDbMText
 10
821.8870346777109
 20
481.3749999999999
 30
0.0
 40
2.5
 41
0.0
 46
0.0
 71
     7
 72
     1
  1
B
  7
Note Text (ISO)
 73
     1
 44
1.0
  0
MTEXT
  5
15F
330
FC
100
AcDbEntity
  8
Border (ISO)
 62
   232
420
 13238372
100
AcDbMText
 10
17.42778797951198
 20
407.0804294999689
 30
0.0
 40
2.5
 41
0.0
 46
0.0
 71
     7
 72
     1
  1
C
  7
Note Text (ISO)
 73
     1
 44
1.0
  0
MTEXT
  5
160
330
FC
100
AcDbEntity
  8
Border (ISO)
 62
   232
420
 13238372
100
AcDbMText
 10
821.7277879795119
 20
407.0804294999689
 30
0.0
 40
2.5
 41
0.0
 46
0.0
 71
     7
 72
     1
  1
C
  7
Note Text (ISO)
 73
     1
 44
1.0
  0
MTEXT
  5
161
330
FC
100
AcDbEntity
  8
Border (ISO)
 62
   232
420
 13238372
100
AcDbMText
 10
17.43407686575924
 20
332.8750000000001
 30
0.0
 40
2.5
 41
0.0
 46
0.0
 71
     7
 72
     1
  1
D
  7
Note Text (ISO)
 73
     1
 44
1.0
  0
MTEXT
  5
162
330
FC
100
AcDbEntity
  8
Border (ISO)
 62
   232
420
 13238372
100
AcDbMText
 10
821.7340768657592
 20
332.8750000000001
 30
0.0
 40
2.5
 41
0.0
 46
0.0
 71
     7
 72
     1
  1
D
  7
Note Text (ISO)
 73
     1
 44
1.0
  0
MTEXT
  5
163
330
FC
100
AcDbEntity
  8
Border (ISO)
 62
   232
420
 13238372
100
AcDbMText
 10
17.63565709218059
 20
258.6250000000001
 30
0.0
 40
2.5
 41
0.0
 46
0.0
 71
     7
 72
     1
  1
E
  7
Note Text (ISO)
 73
     1
 44
1.0
  0
MTEXT
  5
164
330
FC
100
AcDbEntity
  8
Border (ISO)
 62
   232
420
 13238372
100
AcDbMText
 10
821.9356570921807
 20
258.6250000000001
 30
0.0
 40
2.5
 41
0.0
 46
0.0
 71
     7
 72
     1
  1
E
  7
Note Text (ISO)
 73
     1
 44
1.0
  0
MTEXT
  5
165
330
FC
100
AcDbEntity
  8
Border (ISO)
 62
   232
420
 13238372
100
AcDbMText
 10
17.70352577194248
 20
184.375
 30
0.0
 40
2.5
 41
0.0
 46
0.0
 71
     7
 72
     1
  1
F
  7
Note Text (ISO)
 73
     1
 44
1.0
  0
MTEXT
  5
166
330
FC
100
AcDbEntity
  8
Border (ISO)
 62
   232
420
 13238372
100
AcDbMText
 10
822.0035257719425
 20
184.375
 30
0.0
 40
2.5
 41
0.0
 46
0.0
 71
     7
 72
     1
  1
F
  7
Note Text (ISO)
 73
     1
 44
1.0
  0
MTEXT
  5
167
330
FC
100
AcDbEntity
  8
Border (ISO)
 62
   232
420
 13238372
100
AcDbMText
 10
17.31230986621833
 20
110.0763776320965
 30
0.0
 40
2.5
 41
0.0
 46
0.0
 71
     7
 72
     1
  1
G
  7
Note Text (ISO)
 73
     1
 44
1.0
  0
MTEXT
  5
168
330
FC
100
AcDbEntity
  8
Border (ISO)
 62
   232
420
 13238372
100
AcDbMText
 10
821.6123098662183
 20
110.0763776320965
 30
0.0
 40
2.5
 41
0.0
 46
0.0
 71
     7
 72
     1
  1
G
  7
Note Text (ISO)
 73
     1
 44
1.0
  0
MTEXT
  5
169
330
FC
100
AcDbEntity
  8
Border (ISO)
 62
   232
420
 13238372
100
AcDbMText
 10
17.43914169594322
 20
35.87500000000007
 30
0.0
 40
2.5
 41
0.0
 46
0.0
 71
     7
 72
     1
  1
H
  7
Note Text (ISO)
 73
     1
 44
1.0
  0
MTEXT
  5
16A
330
FC
100
AcDbEntity
  8
Border (ISO)
 62
   232
420
 13238372
100
AcDbMText
 10
821.7391416959433
 20
35.87500000000007
 30
0.0
 40
2.5
 41
0.0
 46
0.0
 71
     7
 72
     1
  1
H
  7
Note Text (ISO)
 73
     1
 44
1.0
  0
ENDBLK
  5
FE
330
FC
100
AcDbEntity
  8
0
100
AcDbBlockEnd
  0
BLOCK
  5
16D
330
16C
100
AcDbEntity
  8
0
100
AcDbBlockBegin
  2
Title Blocks ISO
 70
     2
 10
0.0
 20
0.0
 30
0.0
  3
Title Blocks ISO
  1

  0
ATTDEF
  5
16F
102
{ACAD_XDICTIONARY
360
A31
102
}
330
16C
100
AcDbEntity
  8
Title (ISO)
 62
   232
420
 13238372
100
AcDbText
 10
34.15585882339947
 20
73.13662348588249
 30
0.0
 40
2.5
  1
491104110090
  7
Note Text (ISO)
100
AcDbAttributeDefinition
280
     0
  3
PART NUMBER
  2
PART_NUMBER_001
 70
     0
280
     0
  0
ATTDEF
  5
172
102
{ACAD_XDICTIONARY
360
A36
102
}
330
16C
100
AcDbEntity
  8
Title (ISO)
 62
   232
420
 13238372
100
AcDbText
 10
33.83688029166227
 20
63.39776635682264
 30
0.0
 40
2.5
  1
PLASSON REDUCING COUPLER
  7
Note Text (ISO)
100
AcDbAttributeDefinition
280
     0
  3
DESCRIPTION
  2
DESCRIPTION_001
 70
     0
280
     0
  0
ATTDEF
  5
A34
102
{ACAD_XDICTIONARY
360
A35
102
}
330
16C
100
AcDbEntity
  8
Title (ISO)
 62
   232
420
 13238372
100
AcDbText
 10
33.71095685392651
 20
59.1807303312143
 30
0.0
 40
2.5
  1
110-90
  7
Note Text (ISO)
100
AcDbAttributeDefinition
280
     0
  3
DESCRIPTION
  2
DESCRIPTION_002
 70
     0
280
     0
  0
ENDBLK
  5
16E
330
16C
100
AcDbEntity
  8
0
100
AcDbBlockEnd
  0
BLOCK
  5
1D2
330
1D1
100
AcDbEntity
  8
0
100
AcDbBlockBegin
  2
2dTransSection0
 70
     0
 10
0.0
 20
0.0
 30
0.0
  3
2dTransSection0
  1

  0
LINE
  5
1D4
330
1D1
100
AcDbEntity
  8
Section Line (ISO)
  6
CHAIN
 48
46.62152481079101
100
AcDbLine
 10
164.3843097684158
 20
40.02878755550763
 30
0.0
 11
538.6984484604604
 21
40.02878755550763
 31
0.0
  0
LINE
  5
1D5
330
1D1
100
AcDbEntity
  8
Section Line (ISO)
  6
Continuous
370
   140
100
AcDbLine
 10
164.3843097684158
 20
40.02878755550763
 30
0.0
 11
175.3023157985047
 21
40.02878755550763
 31
0.0
  0
LINE
  5
1D6
330
1D1
100
AcDbEntity
  8
Section Line (ISO)
  6
Continuous
370
   140
100
AcDbLine
 10
527.7804424303715
 20
40.02878755550763
 30
0.0
 11
538.6984484604604
 21
40.02878755550763
 31
0.0
  0
LINE
  5
1D7
330
1D1
100
AcDbEntity
  8
Section Line (ISO)
  6
Continuous
100
AcDbLine
 10
169.8433127834602
 20
37.52878755550764
 30
0.0
 11
169.8433127834602
 21
40.02878755550763
 31
0.0
  0
POLYLINE
  5
1D8
330
1D1
100
AcDbEntity
  8
Section Line (ISO)
  6
Continuous
100
AcDb2dPolyline
 66
     1
 10
0.0
 20
0.0
 30
0.0
 70
   128
  0
VERTEX
  5
1D9
330
1D8
100
AcDbEntity
  8
Section Line (ISO)
  6
Continuous
100
AcDbVertex
100
AcDb2dVertex
 10
170.343310615982
 20
37.52878755549251
 30
0.0
  0
VERTEX
  5
1DA
330
1D8
100
AcDbEntity
  8
Section Line (ISO)
  6
Continuous
100
AcDbVertex
100
AcDb2dVertex
 10
169.8433182453765
 20
40.02878755550763
 30
0.0
  0
VERTEX
  5
1DC
330
1D8
100
AcDbEntity
  8
Section Line (ISO)
  6
Continuous
100
AcDbVertex
100
AcDb2dVertex
 10
169.3433068012847
 20
37.52878755549251
 30
0.0
  0
VERTEX
  5
1DD
330
1D8
100
AcDbEntity
  8
Section Line (ISO)
  6
Continuous
100
AcDbVertex
100
AcDb2dVertex
 10
170.343310615982
 20
37.52878755549251
 30
0.0
  0
SEQEND
  5
1DB
330
1D8
100
AcDbEntity
  8
Section Line (ISO)
  6
Continuous
  0
SOLID
  5
1DE
330
1D1
100
AcDbEntity
  8
Section Line (ISO)
100
AcDbTrace
 10
170.343310615982
 20
37.52878755549251
 30
0.0
 11
169.8433182453765
 21
40.02878755550763
 31
0.0
 12
169.3433068012847
 22
37.52878755549251
 32
0.0
 13
170.343310615982
 23
37.52878755549251
 33
0.0
  0
LINE
  5
1DF
330
1D1
100
AcDbEntity
  8
Section Line (ISO)
  6
Continuous
100
AcDbLine
 10
170.3433127834603
 20
37.52878755550764
 30
0.0
 11
169.8433127834602
 21
40.02878755550763
 31
0.0
  0
LINE
  5
1E0
330
1D1
100
AcDbEntity
  8
Section Line (ISO)
  6
Continuous
100
AcDbLine
 10
169.8433127834602
 20
40.02878755550763
 30
0.0
 11
169.3433127834602
 21
37.52878755550764
 31
0.0
  0
LINE
  5
1E1
330
1D1
100
AcDbEntity
  8
Section Line (ISO)
  6
Continuous
100
AcDbLine
 10
169.3433127834602
 20
37.52878755550764
 30
0.0
 11
170.3433127834603
 21
37.52878755550764
 31
0.0
  0
LINE
  5
1E2
330
1D1
100
AcDbEntity
  8
Section Line (ISO)
  6
Continuous
100
AcDbLine
 10
169.8433127834602
 20
32.62603712622364
 30
0.0
 11
169.8433127834602
 21
37.52878755550764
 31
0.0
  0
LINE
  5
1E3
330
1D1
100
AcDbEntity
  8
Section Line (ISO)
  6
Continuous
100
AcDbLine
 10
533.2394454454159
 20
37.52878755550764
 30
0.0
 11
533.2394454454159
 21
40.02878755550763
 31
0.0
  0
POLYLINE
  5
1E4
330
1D1
100
AcDbEntity
  8
Section Line (ISO)
  6
Continuous
100
AcDb2dPolyline
 66
     1
 10
0.0
 20
0.0
 30
0.0
 70
   128
  0
VERTEX
  5
1E5
330
1E4
100
AcDbEntity
  8
Section Line (ISO)
  6
Continuous
100
AcDbVertex
100
AcDb2dVertex
 10
533.7394497608794
 20
37.52878755549251
 30
0.0
  0
VERTEX
  5
1E6
330
1E4
100
AcDbEntity
  8
Section Line (ISO)
  6
Continuous
100
AcDbVertex
100
AcDb2dVertex
 10
533.2394478535308
 20
40.02878755550763
 30
0.0
  0
VERTEX
  5
1E8
330
1E4
100
AcDbEntity
  8
Section Line (ISO)
  6
Continuous
100
AcDbVertex
100
AcDb2dVertex
 10
532.7394459461821
 20
37.52878755549251
 30
0.0
  0
VERTEX
  5
1E9
330
1E4
100
AcDbEntity
  8
Section Line (ISO)
  6
Continuous
100
AcDbVertex
100
AcDb2dVertex
 10
533.7394497608794
 20
37.52878755549251
 30
0.0
  0
SEQEND
  5
1E7
330
1E4
100
AcDbEntity
  8
Section Line (ISO)
  6
Continuous
  0
SOLID
  5
1EA
330
1D1
100
AcDbEntity
  8
Section Line (ISO)
100
AcDbTrace
 10
533.7394497608794
 20
37.52878755549251
 30
0.0
 11
533.2394478535308
 21
40.02878755550763
 31
0.0
 12
532.7394459461821
 22
37.52878755549251
 32
0.0
 13
533.7394497608794
 23
37.52878755549251
 33
0.0
  0
LINE
  5
1EB
330
1D1
100
AcDbEntity
  8
Section Line (ISO)
  6
Continuous
100
AcDbLine
 10
533.739445445416
 20
37.52878755550764
 30
0.0
 11
533.2394454454159
 21
40.02878755550763
 31
0.0
  0
LINE
  5
1EC
330
1D1
100
AcDbEntity
  8
Section Line (ISO)
  6
Continuous
100
AcDbLine
 10
533.2394454454159
 20
40.02878755550763
 30
0.0
 11
532.7394454454159
 21
37.52878755550764
 31
0.0
  0
LINE
  5
1ED
330
1D1
100
AcDbEntity
  8
Section Line (ISO)
  6
Continuous
100
AcDbLine
 10
532.7394454454159
 20
37.52878755550764
 30
0.0
 11
533.739445445416
 21
37.52878755550764
 31
0.0
  0
LINE
  5
1EE
330
1D1
100
AcDbEntity
  8
Section Line (ISO)
  6
Continuous
100
AcDbLine
 10
533.2394454454159
 20
32.62603712622364
 30
0.0
 11
533.2394454454159
 21
37.52878755550764
 31
0.0
  0
MTEXT
  5
1EF
330
1D1
100
AcDbEntity
  8
Section Line (ISO)
100
AcDbMText
 10
168.3545430975913
 20
28.02878731708906
 30
0.0
 40
3.499999940395355
 41
0.0
 46
0.0
 71
     7
 72
     1
  1
A
  7
Label Text (ISO)
 73
     1
 44
1.0
  0
MTEXT
  5
1F0
330
1D1
100
AcDbEntity
  8
Section Line (ISO)
100
AcDbMText
 10
531.7506757595469
 20
28.02878731708906
 30
0.0
 40
3.499999940395355
 41
0.0
 46
0.0
 71
     7
 72
     1
  1
A
  7
Label Text (ISO)
 73
     1
 44
1.0
  0
ENDBLK
  5
1D3
330
1D1
100
AcDbEntity
  8
0
100
AcDbBlockEnd
  0
BLOCK
  5
27E
330
27D
100
AcDbEntity
  8
0
100
AcDbBlockBegin
  2
*D7
 70
     1
 10
0.0
 20
0.0
 30
0.0
  3
*D7
  1

  0
LINE
  5
34C
330
27D
100
AcDbEntity
  8
Dimension (ISO)
440
 16777216
100
AcDbLine
 10
465.0312187885894
 20
814.1926081922294
 30
0.0
 11
490.2062187885896
 21
814.1926081922294
 31
0.0
  0
LINE
  5
34D
330
27D
100
AcDbEntity
  8
Dimension (ISO)
440
 16777216
100
AcDbLine
 10
465.0312187885894
 20
704.1926081922293
 30
0.0
 11
490.2062187885896
 21
704.1926081922293
 31
0.0
  0
LINE
  5
34E
330
27D
100
AcDbEntity
  8
Dimension (ISO)
440
 16777216
100
AcDbLine
 10
487.0312187885896
 20
811.6926081922294
 30
0.0
 11
487.0312187885896
 21
706.6926081922294
 31
0.0
  0
SOLID
  5
34F
330
27D
100
AcDbEntity
  8
Dimension (ISO)
440
 16777216
100
AcDbTrace
 10
486.6145521219229
 20
811.6926081922294
 30
0.0
 11
487.4478854552562
 21
811.6926081922294
 31
0.0
 12
487.0312187885896
 22
814.1926081922294
 32
0.0
 13
487.0312187885896
 23
814.1926081922294
 33
0.0
  0
SOLID
  5
350
330
27D
100
AcDbEntity
  8
Dimension (ISO)
440
 16777216
100
AcDbTrace
 10
486.6145521219229
 20
706.6926081922294
 30
0.0
 11
487.4478854552562
 21
706.6926081922294
 31
0.0
 12
487.0312187885896
 22
704.1926081922293
 32
0.0
 13
487.0312187885896
 23
704.1926081922293
 33
0.0
  0
MTEXT
  5
351
330
27D
100
AcDbEntity
  8
Dimension (ISO)
 62
   232
420
 13238372
440
 16777216
100
AcDbMText
 10
482.5077208555794
 20
752.698858430872
 30
0.0
 40
2.5
 41
0.0
 46
0.0
 71
     1
 72
     1
  1
\A1;\fAIGDT|b0|i0;\H2.5000;\ln\fTahoma|b0|i0;\H2.5000;110,00
  7
Note Text (ISO)
 11
0.0000000000000001
 21
1.0
 31
0.0
 73
     1
 44
1.0
  0
POINT
  5
352
330
27D
100
AcDbEntity
  8
Defpoints
 62
     0
440
 16777216
100
AcDbPoint
 10
465.0312187885894
 20
814.1926081922294
 30
0.0
  0
POINT
  5
353
330
27D
100
AcDbEntity
  8
Defpoints
 62
     0
440
 16777216
100
AcDbPoint
 10
465.0312187885894
 20
704.1926081922293
 30
0.0
  0
POINT
  5
354
330
27D
100
AcDbEntity
  8
Defpoints
 62
     0
440
 16777216
100
AcDbPoint
 10
487.0312187885896
 20
704.1926081922293
 30
0.0
  0
ENDBLK
  5
27F
330
27D
100
AcDbEntity
  8
0
100
AcDbBlockEnd
  0
BLOCK
  5
357
330
356
100
AcDbEntity
  8
0
100
AcDbBlockBegin
  2
*D8
 70
     1
 10
0.0
 20
0.0
 30
0.0
  3
*D8
  1

  0
LINE
  5
41F
330
356
100
AcDbEntity
  8
Dimension (ISO)
440
 16777216
100
AcDbLine
 10
462.5312187885895
 20
753.0353657658695
 30
0.0
 11
389.5312187885895
 21
753.0353657658695
 31
0.0
  0
SOLID
  5
420
330
356
100
AcDbEntity
  8
Dimension (ISO)
440
 16777216
100
AcDbTrace
 10
462.5312187885895
 20
753.4520324325361
 30
0.0
 11
462.5312187885895
 21
752.6186990992028
 31
0.0
 12
465.0312187885894
 22
753.0353657658695
 32
0.0
 13
465.0312187885894
 23
753.0353657658695
 33
0.0
  0
SOLID
  5
421
330
356
100
AcDbEntity
  8
Dimension (ISO)
440
 16777216
100
AcDbTrace
 10
389.5312187885895
 20
753.4520324325361
 30
0.0
 11
389.5312187885895
 21
752.6186990992028
 31
0.0
 12
387.0312187885895
 22
753.0353657658695
 32
0.0
 13
387.0312187885895
 23
753.0353657658695
 33
0.0
  0
MTEXT
  5
422
330
356
100
AcDbEntity
  8
Dimension (ISO)
 62
   232
420
 13238372
440
 16777216
100
AcDbMText
 10
421.9093249267054
 20
756.9756733343202
 30
0.0
 40
2.5
 41
0.0
 46
0.0
 71
     1
 72
     1
  1
\A1;78,00
  7
Note Text (ISO)
 73
     1
 44
1.0
  0
POINT
  5
423
330
356
100
AcDbEntity
  8
Defpoints
 62
     0
440
 16777216
100
AcDbPoint
 10
465.0312187885894
 20
759.1926081922293
 30
0.0
  0
POINT
  5
424
330
356
100
AcDbEntity
  8
Defpoints
 62
     0
440
 16777216
100
AcDbPoint
 10
387.0312187885895
 20
759.1926081922293
 30
0.0
  0
POINT
  5
425
330
356
100
AcDbEntity
  8
Defpoints
 62
     0
440
 16777216
100
AcDbPoint
 10
387.0312187885895
 20
753.0353657658695
 30
0.0
  0
ENDBLK
  5
358
330
356
100
AcDbEntity
  8
0
100
AcDbBlockEnd
  0
BLOCK
  5
428
330
427
100
AcDbEntity
  8
0
100
AcDbBlockBegin
  2
*D9
 70
     1
 10
0.0
 20
0.0
 30
0.0
  3
*D9
  1

  0
LINE
  5
4F0
330
427
100
AcDbEntity
  8
Dimension (ISO)
440
 16777216
100
AcDbLine
 10
373.5312187885895
 20
753.0353657658695
 30
0.0
 11
306.5312187885895
 21
753.0353657658695
 31
0.0
  0
SOLID
  5
4F1
330
427
100
AcDbEntity
  8
Dimension (ISO)
440
 16777216
100
AcDbTrace
 10
373.5312187885895
 20
753.4520324325361
 30
0.0
 11
373.5312187885895
 21
752.6186990992028
 31
0.0
 12
376.0312187885895
 22
753.0353657658695
 32
0.0
 13
376.0312187885895
 23
753.0353657658695
 33
0.0
  0
SOLID
  5
4F2
330
427
100
AcDbEntity
  8
Dimension (ISO)
440
 16777216
100
AcDbTrace
 10
306.5312187885895
 20
753.4520324325361
 30
0.0
 11
306.5312187885895
 21
752.6186990992028
 31
0.0
 12
304.0312187885895
 22
753.0353657658695
 32
0.0
 13
304.0312187885895
 23
753.0353657658695
 33
0.0
  0
MTEXT
  5
4F3
330
427
100
AcDbEntity
  8
Dimension (ISO)
 62
   232
420
 13238372
440
 16777216
100
AcDbMText
 10
335.9093249267055
 20
756.9706363968107
 30
0.0
 40
2.5
 41
0.0
 46
0.0
 71
     1
 72
     1
  1
\A1;72,00
  7
Note Text (ISO)
 73
     1
 44
1.0
  0
POINT
  5
4F4
330
427
100
AcDbEntity
  8
Defpoints
 62
     0
440
 16777216
100
AcDbPoint
 10
376.0312187885895
 20
759.1926081922293
 30
0.0
  0
POINT
  5
4F5
330
427
100
AcDbEntity
  8
Defpoints
 62
     0
440
 16777216
100
AcDbPoint
 10
304.0312187885895
 20
759.1926081922293
 30
0.0
  0
POINT
  5
4F6
330
427
100
AcDbEntity
  8
Defpoints
 62
     0
440
 16777216
100
AcDbPoint
 10
304.0312187885895
 20
753.0353657658695
 30
0.0
  0
ENDBLK
  5
429
330
427
100
AcDbEntity
  8
0
100
AcDbBlockEnd
  0
BLOCK
  5
4F9
330
4F8
100
AcDbEntity
  8
0
100
AcDbBlockBegin
  2
*D10
 70
     1
 10
0.0
 20
0.0
 30
0.0
  3
*D10
  1

  0
LINE
  5
5C4
330
4F8
100
AcDbEntity
  8
Dimension (ISO)
440
 16777216
100
AcDbLine
 10
418.2312187885894
 20
828.6926081922295
 30
0.0
 11
518.9791310017212
 21
828.6926081922295
 31
0.0
  0
LINE
  5
5C5
330
4F8
100
AcDbEntity
  8
Dimension (ISO)
440
 16777216
100
AcDbLine
 10
418.2312187885894
 20
689.6926081922294
 30
0.0
 11
518.9791310017211
 21
689.6926081922294
 31
0.0
  0
LINE
  5
5C6
330
4F8
100
AcDbEntity
  8
Dimension (ISO)
440
 16777216
100
AcDbLine
 10
515.8041310017213
 20
826.1926081922295
 30
0.0
 11
515.8041310017211
 21
692.1926081922293
 31
0.0
  0
SOLID
  5
5C7
330
4F8
100
AcDbEntity
  8
Dimension (ISO)
440
 16777216
100
AcDbTrace
 10
515.3874643350547
 20
826.1926081922295
 30
0.0
 11
516.2207976683879
 21
826.1926081922295
 31
0.0
 12
515.8041310017213
 22
828.6926081922295
 32
0.0
 13
515.8041310017213
 23
828.6926081922295
 33
0.0
  0
SOLID
  5
5C8
330
4F8
100
AcDbEntity
  8
Dimension (ISO)
440
 16777216
100
AcDbTrace
 10
515.3874643350546
 20
692.1926081922293
 30
0.0
 11
516.2207976683878
 21
692.1926081922293
 31
0.0
 12
515.8041310017211
 22
689.6926081922294
 32
0.0
 13
515.8041310017211
 23
689.6926081922294
 33
0.0
  0
MTEXT
  5
5C9
330
4F8
100
AcDbEntity
  8
Dimension (ISO)
 62
   232
420
 13238372
440
 16777216
100
AcDbMText
 10
511.8688603707798
 20
754.2387801517044
 30
0.0
 40
2.5
 41
0.0
 46
0.0
 71
     1
 72
     1
  1
\A1;139,00
  7
Note Text (ISO)
 11
0.0000000000000001
 21
1.0
 31
0.0
 73
     1
 44
1.0
  0
POINT
  5
5CA
330
4F8
100
AcDbEntity
  8
Defpoints
 62
     0
440
 16777216
100
AcDbPoint
 10
418.2312187885894
 20
828.6926081922295
 30
0.0
  0
POINT
  5
5CB
330
4F8
100
AcDbEntity
  8
Defpoints
 62
     0
440
 16777216
100
AcDbPoint
 10
418.2312187885894
 20
689.6926081922294
 30
0.0
  0
POINT
  5
5CC
330
4F8
100
AcDbEntity
  8
Defpoints
 62
     0
440
 16777216
100
AcDbPoint
 10
515.8041310017211
 20
689.6926081922294
 30
0.0
  0
ENDBLK
  5
4FA
330
4F8
100
AcDbEntity
  8
0
100
AcDbBlockEnd
  0
BLOCK
  5
5CF
330
5CE
100
AcDbEntity
  8
0
100
AcDbBlockBegin
  2
*D11
 70
     1
 10
0.0
 20
0.0
 30
0.0
  3
*D11
  1

  0
LINE
  5
69A
330
5CE
100
AcDbEntity
  8
Dimension (ISO)
440
 16777216
100
AcDbLine
 10
453.9312187885895
 20
843.1926081922295
 30
0.0
 11
535.7973714850758
 21
843.1926081922295
 31
0.0
  0
LINE
  5
69B
330
5CE
100
AcDbEntity
  8
Dimension (ISO)
440
 16777216
100
AcDbLine
 10
465.0312187885894
 20
759.1926081922293
 30
0.0
 11
535.7973714850756
 21
759.1926081922293
 31
0.0
  0
LINE
  5
69C
330
5CE
100
AcDbEntity
  8
Dimension (ISO)
440
 16777216
100
AcDbLine
 10
532.6223714850758
 20
840.6926081922295
 30
0.0
 11
532.6223714850757
 21
761.6926081922294
 31
0.0
  0
SOLID
  5
69D
330
5CE
100
AcDbEntity
  8
Dimension (ISO)
440
 16777216
100
AcDbTrace
 10
532.2057048184092
 20
840.6926081922295
 30
0.0
 11
533.0390381517425
 21
840.6926081922295
 31
0.0
 12
532.6223714850758
 22
843.1926081922295
 32
0.0
 13
532.6223714850758
 23
843.1926081922295
 33
0.0
  0
SOLID
  5
69E
330
5CE
100
AcDbEntity
  8
Dimension (ISO)
440
 16777216
100
AcDbTrace
 10
532.2057048184091
 20
761.6926081922294
 30
0.0
 11
533.0390381517424
 21
761.6926081922294
 31
0.0
 12
532.6223714850757
 22
759.1926081922293
 32
0.0
 13
532.6223714850757
 23
759.1926081922293
 33
0.0
  0
MTEXT
  5
69F
330
5CE
100
AcDbEntity
  8
Dimension (ISO)
 62
   232
420
 13238372
440
 16777216
100
AcDbMText
 10
528.682063916625
 20
797.0497270907229
 30
0.0
 40
2.5
 41
0.0
 46
0.0
 71
     1
 72
     1
  1
\A1;84,00
  7
Note Text (ISO)
 11
0.0000000000000001
 21
1.0
 31
0.0
 73
     1
 44
1.0
  0
POINT
  5
6A0
330
5CE
100
AcDbEntity
  8
Defpoints
 62
     0
440
 16777216
100
AcDbPoint
 10
453.9312187885895
 20
843.1926081922295
 30
0.0
  0
POINT
  5
6A1
330
5CE
100
AcDbEntity
  8
Defpoints
 62
     0
440
 16777216
100
AcDbPoint
 10
465.0312187885894
 20
759.1926081922293
 30
0.0
  0
POINT
  5
6A2
330
5CE
100
AcDbEntity
  8
Defpoints
 62
     0
440
 16777216
100
AcDbPoint
 10
532.6223714850757
 20
759.1926081922293
 30
0.0
  0
ENDBLK
  5
5D0
330
5CE
100
AcDbEntity
  8
0
100
AcDbBlockEnd
  0
BLOCK
  5
6A5
330
6A4
100
AcDbEntity
  8
0
100
AcDbBlockBegin
  2
*D12
 70
     1
 10
0.0
 20
0.0
 30
0.0
  3
*D12
  1

  0
LINE
  5
776
330
6A4
100
AcDbEntity
  8
Dimension (ISO)
440
 16777216
100
AcDbLine
 10
315.1312187885896
 20
833.1926081922295
 30
0.0
 11
290.8562187885896
 21
833.1926081922295
 31
0.0
  0
LINE
  5
777
330
6A4
100
AcDbEntity
  8
Dimension (ISO)
440
 16777216
100
AcDbLine
 10
304.0312187885895
 20
759.1926081922293
 30
0.0
 11
290.8562187885896
 21
759.1926081922293
 31
0.0
  0
LINE
  5
778
330
6A4
100
AcDbEntity
  8
Dimension (ISO)
440
 16777216
100
AcDbLine
 10
294.0312187885896
 20
830.6926081922295
 30
0.0
 11
294.0312187885896
 21
761.6926081922294
 31
0.0
  0
SOLID
  5
779
330
6A4
100
AcDbEntity
  8
Dimension (ISO)
440
 16777216
100
AcDbTrace
 10
293.6145521219229
 20
830.6926081922295
 30
0.0
 11
294.4478854552563
 21
830.6926081922295
 31
0.0
 12
294.0312187885896
 22
833.1926081922295
 32
0.0
 13
294.0312187885896
 23
833.1926081922295
 33
0.0
  0
SOLID
  5
77A
330
6A4
100
AcDbEntity
  8
Dimension (ISO)
440
 16777216
100
AcDbTrace
 10
293.6145521219229
 20
761.6926081922294
 30
0.0
 11
294.4478854552563
 21
761.6926081922294
 31
0.0
 12
294.0312187885896
 22
759.1926081922293
 32
0.0
 13
294.0312187885896
 23
759.1926081922293
 33
0.0
  0
MTEXT
  5
77B
330
6A4
100
AcDbEntity
  8
Dimension (ISO)
 62
   232
420
 13238372
440
 16777216
100
AcDbMText
 10
290.0976271368181
 20
792.0707143303454
 30
0.0
 40
2.5
 41
0.0
 46
0.0
 71
     1
 72
     1
  1
\A1;74,00
  7
Note Text (ISO)
 11
0.0000000000000001
 21
1.0
 31
0.0
 73
     1
 44
1.0
  0
POINT
  5
77C
330
6A4
100
AcDbEntity
  8
Defpoints
 62
     0
440
 16777216
100
AcDbPoint
 10
315.1312187885896
 20
833.1926081922295
 30
0.0
  0
POINT
  5
77D
330
6A4
100
AcDbEntity
  8
Defpoints
 62
     0
440
 16777216
100
AcDbPoint
 10
304.0312187885895
 20
759.1926081922293
 30
0.0
  0
POINT
  5
77E
330
6A4
100
AcDbEntity
  8
Defpoints
 62
     0
440
 16777216
100
AcDbPoint
 10
294.0312187885896
 20
759.1926081922293
 30
0.0
  0
ENDBLK
  5
6A6
330
6A4
100
AcDbEntity
  8
0
100
AcDbBlockEnd
  0
BLOCK
  5
781
330
780
100
AcDbEntity
  8
0
100
AcDbBlockBegin
  2
*D13
 70
     1
 10
0.0
 20
0.0
 30
0.0
  3
*D13
  1

  0
LINE
  5
84E
330
780
100
AcDbEntity
  8
Dimension (ISO)
440
 16777216
100
AcDbLine
 10
304.0312187885895
 20
804.1926081922294
 30
0.0
 11
295.9950064754557
 21
804.1926081922294
 31
0.0
  0
LINE
  5
84F
330
780
100
AcDbEntity
  8
Dimension (ISO)
440
 16777216
100
AcDbLine
 10
304.0312187885895
 20
714.1926081922293
 30
0.0
 11
295.9950064754557
 21
714.1926081922293
 31
0.0
  0
LINE
  5
850
330
780
100
AcDbEntity
  8
Dimension (ISO)
440
 16777216
100
AcDbLine
 10
299.1700064754557
 20
801.6926081922294
 30
0.0
 11
299.1700064754557
 21
716.6926081922293
 31
0.0
  0
SOLID
  5
851
330
780
100
AcDbEntity
  8
Dimension (ISO)
440
 16777216
100
AcDbTrace
 10
298.753339808789
 20
801.6926081922294
 30
0.0
 11
299.5866731421224
 21
801.6926081922294
 31
0.0
 12
299.1700064754557
 22
804.1926081922294
 32
0.0
 13
299.1700064754557
 23
804.1926081922294
 33
0.0
  0
SOLID
  5
852
330
780
100
AcDbEntity
  8
Dimension (ISO)
440
 16777216
100
AcDbTrace
 10
298.753339808789
 20
716.6926081922293
 30
0.0
 11
299.5866731421224
 21
716.6926081922293
 31
0.0
 12
299.1700064754557
 22
714.1926081922293
 32
0.0
 13
299.1700064754557
 23
714.1926081922293
 33
0.0
  0
MTEXT
  5
853
330
780
100
AcDbEntity
  8
Dimension (ISO)
 62
   232
420
 13238372
440
 16777216
100
AcDbMText
 10
294.6465085424455
 20
753.6374077867959
 30
0.0
 40
2.5
 41
0.0
 46
0.0
 71
     1
 72
     1
  1
\A1;\fAIGDT|b0|i0;\H2.5000;\ln\fTahoma|b0|i0;\H2.5000;90,00
  7
Note Text (ISO)
 11
0.0000000000000001
 21
1.0
 31
0.0
 73
     1
 44
1.0
  0
POINT
  5
854
330
780
100
AcDbEntity
  8
Defpoints
 62
     0
440
 16777216
100
AcDbPoint
 10
304.0312187885895
 20
804.1926081922294
 30
0.0
  0
POINT
  5
855
330
780
100
AcDbEntity
  8
Defpoints
 62
     0
440
 16777216
100
AcDbPoint
 10
304.0312187885895
 20
714.1926081922293
 30
0.0
  0
POINT
  5
856
330
780
100
AcDbEntity
  8
Defpoints
 62
     0
440
 16777216
100
AcDbPoint
 10
299.1700064754557
 20
714.1926081922293
 30
0.0
  0
ENDBLK
  5
782
330
780
100
AcDbEntity
  8
0
100
AcDbBlockEnd
  0
BLOCK
  5
859
330
858
100
AcDbEntity
  8
0
100
AcDbBlockBegin
  2
*D14
 70
     1
 10
0.0
 20
0.0
 30
0.0
  3
*D14
  1

  0
LINE
  5
924
330
858
100
AcDbEntity
  8
Dimension (ISO)
440
 16777216
100
AcDbLine
 10
347.2312187885896
 20
817.1926081922293
 30
0.0
 11
276.7309027902081
 21
817.1926081922293
 31
0.0
  0
LINE
  5
925
330
858
100
AcDbEntity
  8
Dimension (ISO)
440
 16777216
100
AcDbLine
 10
347.2312187885896
 20
701.1926081922295
 30
0.0
 11
276.7309027902081
 21
701.1926081922295
 31
0.0
  0
LINE
  5
926
330
858
100
AcDbEntity
  8
Dimension (ISO)
440
 16777216
100
AcDbLine
 10
279.9059027902081
 20
814.6926081922293
 30
0.0
 11
279.9059027902081
 21
703.6926081922294
 31
0.0
  0
SOLID
  5
927
330
858
100
AcDbEntity
  8
Dimension (ISO)
440
 16777216
100
AcDbTrace
 10
279.4892361235414
 20
814.6926081922293
 30
0.0
 11
280.3225694568748
 21
814.6926081922293
 31
0.0
 12
279.9059027902081
 22
817.1926081922293
 32
0.0
 13
279.9059027902081
 23
817.1926081922293
 33
0.0
  0
SOLID
  5
928
330
858
100
AcDbEntity
  8
Dimension (ISO)
440
 16777216
100
AcDbTrace
 10
279.4892361235414
 20
703.6926081922294
 30
0.0
 11
280.3225694568748
 21
703.6926081922294
 31
0.0
 12
279.9059027902081
 22
701.1926081922295
 32
0.0
 13
279.9059027902081
 23
701.1926081922295
 33
0.0
  0
MTEXT
  5
929
330
858
100
AcDbEntity
  8
Dimension (ISO)
 62
   232
420
 13238372
440
 16777216
100
AcDbMText
 10
275.9723111384365
 20
754.2387801517044
 30
0.0
 40
2.5
 41
0.0
 46
0.0
 71
     1
 72
     1
  1
\A1;116,00
  7
Note Text (ISO)
 11
0.0000000000000001
 21
1.0
 31
0.0
 73
     1
 44
1.0
  0
POINT
  5
92A
330
858
100
AcDbEntity
  8
Defpoints
 62
     0
440
 16777216
100
AcDbPoint
 10
347.2312187885896
 20
817.1926081922293
 30
0.0
  0
POINT
  5
92B
330
858
100
AcDbEntity
  8
Defpoints
 62
     0
440
 16777216
100
AcDbPoint
 10
347.2312187885896
 20
701.1926081922295
 30
0.0
  0
POINT
  5
92C
330
858
100
AcDbEntity
  8
Defpoints
 62
     0
440
 16777216
100
AcDbPoint
 10
279.9059027902081
 20
701.1926081922295
 30
0.0
  0
ENDBLK
  5
85A
330
858
100
AcDbEntity
  8
0
100
AcDbBlockEnd
  0
BLOCK
  5
92F
330
92E
100
AcDbEntity
  8
0
100
AcDbBlockBegin
  2
*D15
 70
     1
 10
0.0
 20
0.0
 30
0.0
  3
*D15
  1

  0
LINE
  5
9FA
330
92E
100
AcDbEntity
  8
Dimension (ISO)
440
 16777216
100
AcDbLine
 10
465.0312187885894
 20
704.1926081922293
 30
0.0
 11
465.0312187885894
 21
671.0176081922294
 31
0.0
  0
LINE
  5
9FB
330
92E
100
AcDbEntity
  8
Dimension (ISO)
440
 16777216
100
AcDbLine
 10
304.0312187885895
 20
714.1926081922293
 30
0.0
 11
304.0312187885895
 21
671.0176081922294
 31
0.0
  0
LINE
  5
9FC
330
92E
100
AcDbEntity
  8
Dimension (ISO)
440
 16777216
100
AcDbLine
 10
462.5312187885895
 20
674.1926081922294
 30
0.0
 11
306.5312187885895
 21
674.1926081922294
 31
0.0
  0
SOLID
  5
9FD
330
92E
100
AcDbEntity
  8
Dimension (ISO)
440
 16777216
100
AcDbTrace
 10
462.5312187885895
 20
674.609274858896
 30
0.0
 11
462.5312187885895
 21
673.7759415255627
 31
0.0
 12
465.0312187885894
 22
674.1926081922294
 32
0.0
 13
465.0312187885894
 23
674.1926081922294
 33
0.0
  0
SOLID
  5
9FE
330
92E
100
AcDbEntity
  8
Dimension (ISO)
440
 16777216
100
AcDbTrace
 10
306.5312187885895
 20
674.609274858896
 30
0.0
 11
306.5312187885895
 21
673.7759415255627
 31
0.0
 12
304.0312187885895
 22
674.1926081922294
 32
0.0
 13
304.0312187885895
 23
674.1926081922294
 33
0.0
  0
MTEXT
  5
9FF
330
92E
100
AcDbEntity
  8
Dimension (ISO)
 62
   232
420
 13238372
440
 16777216
100
AcDbMText
 10
379.5773907480645
 20
678.1261998440007
 30
0.0
 40
2.5
 41
0.0
 46
0.0
 71
     1
 72
     1
  1
\A1;161,00
  7
Note Text (ISO)
 73
     1
 44
1.0
  0
POINT
  5
A00
330
92E
100
AcDbEntity
  8
Defpoints
 62
     0
440
 16777216
100
AcDbPoint
 10
465.0312187885894
 20
704.1926081922293
 30
0.0
  0
POINT
  5
A01
330
92E
100
AcDbEntity
  8
Defpoints
 62
     0
440
 16777216
100
AcDbPoint
 10
304.0312187885895
 20
714.1926081922293
 30
0.0
  0
POINT
  5
A02
330
92E
100
AcDbEntity
  8
Defpoints
 62
     0
440
 16777216
100
AcDbPoint
 10
304.0312187885895
 20
674.1926081922294
 30
0.0
  0
ENDBLK
  5
930
330
92E
100
AcDbEntity
  8
0
100
AcDbBlockEnd
  0
ENDSEC
  0
SECTION
  2
ENTITIES
  0
INSERT
  5
16B
330
70
100
AcDbEntity
  8
0
100
AcDbBlockReference
  2
Borders Default Border
 10
0.0
 20
0.0
 30
0.0
  0
INSERT
  5
173
330
70
100
AcDbEntity
  8
0
100
AcDbBlockReference
 66
     1
  2
Title Blocks ISO
 10
821.0
 20
20.0
 30
0.0
  0
ATTRIB
  5
175
102
{ACAD_XDICTIONARY
360
A39
102
}
330
173
100
AcDbEntity
  8
Title (ISO)
 62
   232
420
 13238372
100
AcDbText
 10
855.1558588233993
 20
93.1366234858825
 30
0.0
 40
2.5
  1
491104110090
  7
Note Text (ISO)
100
AcDbAttribute
280
     0
  2
PART_NUMBER_001
 70
     0
280
     0
  0
ATTRIB
  5
176
102
{ACAD_XDICTIONARY
360
A3E
102
}
330
173
100
AcDbEntity
  8
Title (ISO)
 62
   232
420
 13238372
100
AcDbText
 10
854.8368802916622
 20
83.39776635682264
 30
0.0
 40
2.5
  1
PLASSON REDUCING COUPLER
  7
Note Text (ISO)
100
AcDbAttribute
280
     0
  2
DESCRIPTION_001
 70
     0
280
     0
  0
ATTRIB
  5
A3C
102
{ACAD_XDICTIONARY
360
A3D
102
}
330
173
100
AcDbEntity
  8
Title (ISO)
 62
   232
420
 13238372
100
AcDbText
 10
854.7109568539264
 20
79.18073033121429
 30
0.0
 40
2.5
  1
110-90
  7
Note Text (ISO)
100
AcDbAttribute
280
     0
  2
DESCRIPTION_002
 70
     0
280
     1
  0
SEQEND
  5
174
330
173
100
AcDbEntity
  8
0
  0
LINE
  5
177
330
70
100
AcDbEntity
  8
Visible (ISO)
100
AcDbLine
 10
441.4312187886633
 20
365.4273716077983
 30
0.0
 11
456.4312187886632
 21
365.4273716077983
 31
0.0
  0
SPLINE
  5
178
330
70
100
AcDbEntity
  8
Visible (ISO)
100
AcDbSpline
210
0.0
220
0.0
230
1.0
 70
     8
 71
     3
 72
    22
 73
    18
 74
     0
 42
0.000000001
 43
0.0000000001
 40
1.369586261292325
 40
1.369586261292325
 40
1.369586261295565
 40
1.369586261295565
 40
1.712184965888168
 40
1.712184965888168
 40
2.054783670484011
 40
2.054783670484011
 40
2.396978096534331
 40
2.396978096534331
 40
2.739172522584651
 40
2.739172522584651
 40
3.09812011739086
 40
3.09812011739086
 40
3.457067712197069
 40
3.457067712197069
 40
3.808782577103639
 40
3.808782577103639
 40
4.16049744201021
 40
4.16049744201021
 40
4.16049744201021
 40
4.16049744201021
 10
458.2193477932597
 20
344.9889635611754
 30
0.0
 10
458.2193477932555
 20
344.9889635611754
 30
0.0
 10
457.9958006869538
 20
344.9882135930005
 30
0.0
 10
457.0832878174547
 20
345.000512889
 30
0.0
 10
456.3942715278832
 20
345.0153209908153
 30
0.0
 10
454.8021279214444
 20
345.0870674716179
 30
0.0
 10
453.7922442705951
 20
345.1491267479868
 30
0.0
 10
451.5775140662304
 20
345.35324557246
 30
0.0
 10
450.3728810325762
 20
345.4970322174713
 30
0.0
 10
448.0610934730267
 20
345.8368569529681
 30
0.0
 10
446.8018636194569
 20
346.0584400495799
 30
0.0
 10
444.4873960001564
 20
346.5282124874824
 30
0.0
 10
443.4316894189699
 20
346.7745185363375
 30
0.0
 10
441.7795030044382
 20
347.1857370205702
 30
0.0
 10
441.0663753115689
 20
347.3788566119442
 30
0.0
 10
440.1171532896166
 20
347.6429828948921
 30
0.0
 10
439.8813451902491
 20
347.712235315255
 30
0.0
 10
439.8813451902491
 20
347.712235315255
 30
0.0
  0
LINE
  5
179
330
70
100
AcDbEntity
  8
Visible (ISO)
100
AcDbLine
 10
456.4312187886632
 20
365.4273716077983
 30
0.0
 11
458.2193477932597
 21
344.9889635611754
 31
0.0
  0
LINE
  5
17A
330
70
100
AcDbEntity
  8
Visible (ISO)
100
AcDbLine
 10
441.4312187886633
 20
365.4273716077983
 30
0.0
 11
439.8813451902491
 21
347.712235315255
 31
0.0
  0
LINE
  5
17B
330
70
100
AcDbEntity
  8
Visible (ISO)
100
AcDbLine
 10
312.6312187886633
 20
355.4273716077983
 30
0.0
 11
327.6312187886633
 21
355.4273716077983
 31
0.0
  0
SPLINE
  5
17C
330
70
100
AcDbEntity
  8
Visible (ISO)
100
AcDbSpline
210
0.0
220
0.0
230
1.0
 70
     8
 71
     3
 72
    14
 73
    10
 74
     0
 42
0.000000001
 43
0.0000000001
 40
0.0
 40
0.0
 40
0.0
 40
0.0
 40
0.3560836034615358
 40
0.3560836034615358
 40
0.7121672069230716
 40
0.7121672069230716
 40
1.069813256664776
 40
1.069813256664776
 40
1.427459306406481
 40
1.427459306406481
 40
1.427459306406481
 40
1.427459306406481
 10
319.7667227647981
 20
334.8752679282565
 30
0.0
 10
318.590332605662
 20
334.7198413250538
 30
0.0
 10
317.3352747776952
 20
334.5978325563032
 30
0.0
 10
315.0306957142249
 20
334.4527244674787
 30
0.0
 10
313.9813460054888
 20
334.4272715726348
 30
0.0
 10
312.3263298736608
 20
334.4209912260317
 30
0.0
 10
311.6102092926069
 20
334.4394636899292
 30
0.0
 10
310.6621948122277
 20
334.473342208994
 30
0.0
 10
310.4302444987954
 20
334.4865000596215
 30
0.0
 10
310.4302444987954
 20
334.4865000596215
 30
0.0
  0
SPLINE
  5
17D
330
70
100
AcDbEntity
  8
Visible (ISO)
100
AcDbSpline
210
0.0
220
0.0
230
1.0
 70
     8
 71
     3
 72
    14
 73
    10
 74
     0
 42
0.000000001
 43
0.0000000001
 40
4.343400687707089
 40
4.343400687707089
 40
4.343400687754342
 40
4.343400687754342
 40
4.711310381419329
 40
4.711310381419329
 40
5.079220075131567
 40
5.079220075131567
 40
5.455551418866392
 40
5.455551418866392
 40
5.831882762601217
 40
5.831882762601217
 40
5.831882762601217
 40
5.831882762601217
 10
329.5622176580096
 20
337.0551446041457
 30
0.0
 10
329.5622176579465
 20
337.0551446041258
 30
0.0
 10
329.3163899221507
 20
336.9775355699125
 30
0.0
 10
328.3271990092416
 20
336.6839986218254
 30
0.0
 10
327.5841781205281
 20
336.4702933675793
 30
0.0
 10
325.8597984097593
 20
336.0211647357083
 30
0.0
 10
324.7555399639247
 20
335.7548699197017
 30
0.0
 10
322.3309695641265
 20
335.2627626751931
 30
0.0
 10
321.0100051991491
 20
335.0395324489107
 30
0.0
 10
319.7667227647981
 20
334.8752679282565
 30
0.0
  0
LINE
  5
17E
330
70
100
AcDbEntity
  8
Visible (ISO)
100
AcDbLine
 10
327.6312187886633
 20
355.4273716077983
 30
0.0
 11
329.5622176580096
 21
337.0551446041457
 31
0.0
  0
LINE
  5
17F
330
70
100
AcDbEntity
  8
Visible (ISO)
100
AcDbLine
 10
312.6312187886633
 20
355.4273716077983
 30
0.0
 11
310.4302444987954
 21
334.4865000596215
 31
0.0
  0
LINE
  5
180
330
70
100
AcDbEntity
  8
Visible (ISO)
100
AcDbLine
 10
372.0812187886633
 20
223.4273716077983
 30
0.0
 11
372.0812187886633
 21
339.4273716077983
 31
0.0
  0
LINE
  5
181
330
70
100
AcDbEntity
  8
Visible (ISO)
100
AcDbLine
 10
347.2312187886633
 20
223.4273716077983
 30
0.0
 11
347.2312187886633
 21
339.4273716077983
 31
0.0
  0
LINE
  5
182
330
70
100
AcDbEntity
  8
Visible (ISO)
100
AcDbLine
 10
383.5812187886633
 20
211.9273716077983
 30
0.0
 11
383.5812187886633
 21
350.9273716077982
 31
0.0
  0
LINE
  5
183
330
70
100
AcDbEntity
  8
Visible (ISO)
100
AcDbLine
 10
418.2312187886632
 20
211.9273716077984
 30
0.0
 11
418.2312187886632
 21
350.9273716077982
 31
0.0
  0
LINE
  5
184
330
70
100
AcDbEntity
  8
Visible (ISO)
100
AcDbLine
 10
465.0312187886632
 20
218.8773716077983
 30
0.0
 11
465.0312187886632
 21
343.9773716077983
 31
0.0
  0
LINE
  5
185
330
70
100
AcDbEntity
  8
Visible (ISO)
100
AcDbLine
 10
304.0312187886633
 20
229.2273716077982
 30
0.0
 11
304.0312187886633
 21
333.6273716077983
 31
0.0
  0
LINE
  5
186
330
70
100
AcDbEntity
  8
Visible (ISO)
100
AcDbLine
 10
347.2312187886632
 20
339.4273716077983
 30
0.0
 11
372.0812187886633
 21
339.4273716077983
 31
0.0
  0
LINE
  5
187
330
70
100
AcDbEntity
  8
Visible (ISO)
100
AcDbLine
 10
347.2312187886633
 20
223.4273716077983
 30
0.0
 11
372.0812187886633
 21
223.4273716077983
 31
0.0
  0
LINE
  5
188
330
70
100
AcDbEntity
  8
Visible (ISO)
100
AcDbLine
 10
372.0812187886633
 20
339.4273716077983
 30
0.0
 11
383.5812187886633
 21
350.9273716077982
 31
0.0
  0
LINE
  5
189
330
70
100
AcDbEntity
  8
Visible (ISO)
100
AcDbLine
 10
372.0812187886633
 20
223.4273716077983
 30
0.0
 11
383.5812187886633
 21
211.9273716077983
 31
0.0
  0
LINE
  5
18A
330
70
100
AcDbEntity
  8
Visible (ISO)
100
AcDbLine
 10
383.5812187886633
 20
350.9273716077982
 30
0.0
 11
418.2312187886632
 21
350.9273716077982
 31
0.0
  0
LINE
  5
18B
330
70
100
AcDbEntity
  8
Visible (ISO)
100
AcDbLine
 10
383.5812187886633
 20
211.9273716077983
 30
0.0
 11
418.2312187886632
 21
211.9273716077983
 31
0.0
  0
LINE
  5
18C
330
70
100
AcDbEntity
  8
Visible (ISO)
100
AcDbLine
 10
465.0312187886632
 20
218.8773716077983
 30
0.0
 11
418.2312187886632
 21
211.9273716077983
 31
0.0
  0
LINE
  5
18D
330
70
100
AcDbEntity
  8
Visible (ISO)
100
AcDbLine
 10
465.0312187886632
 20
343.9773716077983
 30
0.0
 11
458.2193477932597
 21
344.9889635611754
 31
0.0
  0
LINE
  5
18E
330
70
100
AcDbEntity
  8
Visible (ISO)
100
AcDbLine
 10
439.8813451902491
 20
347.712235315255
 30
0.0
 11
418.2312187886632
 21
350.9273716077982
 31
0.0
  0
LINE
  5
18F
330
70
100
AcDbEntity
  8
Visible (ISO)
100
AcDbLine
 10
304.0312187886633
 20
333.6273716077983
 30
0.0
 11
310.4302444987954
 21
334.4865000596215
 31
0.0
  0
LINE
  5
190
330
70
100
AcDbEntity
  8
Visible (ISO)
100
AcDbLine
 10
329.5622176580096
 20
337.0551446041457
 30
0.0
 11
347.2312187886632
 21
339.4273716077983
 31
0.0
  0
LINE
  5
191
330
70
100
AcDbEntity
  8
Visible (ISO)
100
AcDbLine
 10
304.0312187886633
 20
229.2273716077982
 30
0.0
 11
347.2312187886633
 21
223.4273716077983
 31
0.0
  0
LINE
  5
192
330
70
100
AcDbEntity
  8
Visible (ISO)
100
AcDbLine
 10
655.4637468901854
 20
365.4273716077983
 30
0.0
 11
670.4637468901855
 21
365.4273716077983
 31
0.0
  0
LINE
  5
193
330
70
100
AcDbEntity
  8
Visible (ISO)
100
AcDbLine
 10
670.4637468901855
 20
365.4273716077983
 30
0.0
 11
671.7814694607983
 21
350.3657337051655
 31
0.0
  0
LINE
  5
194
330
70
100
AcDbEntity
  8
Visible (ISO)
100
AcDbLine
 10
655.4637468901854
 20
365.4273716077983
 30
0.0
 11
654.1460243195728
 21
350.3657337051655
 31
0.0
  0
LINE
  5
195
330
70
100
AcDbEntity
  8
Visible (ISO)
100
AcDbLine
 10
655.4637468901473
 20
355.4273716077983
 30
0.0
 11
670.4637468901474
 21
355.4273716077983
 31
0.0
  0
SPLINE
  5
196
330
70
100
AcDbEntity
  8
Visible (ISO)
100
AcDbSpline
210
0.0
220
0.0
230
1.0
 70
     8
 71
     3
 72
    24
 73
    20
 74
     0
 42
0.000000001
 43
0.0000000001
 40
0.0
 40
0.0
 40
0.0
 40
0.0
 40
0.3560836034615358
 40
0.3560836034615358
 40
0.7121672069230716
 40
0.7121672069230716
 40
1.069813256664776
 40
1.069813256664776
 40
1.427459306406481
 40
1.427459306406481
 40
1.785105356148186
 40
1.785105356148186
 40
2.142751405889891
 40
2.142751405889891
 40
2.498835009351427
 40
2.498835009351427
 40
2.854918612812963
 40
2.854918612812963
 40
2.891488525312561
 40
2.891488525312561
 40
2.891488525312561
 40
2.891488525312561
 10
672.6169809872122
 20
334.8752679282565
 30
0.0
 10
672.5889093606575
 20
334.7198413250538
 30
0.0
 10
672.3257860702541
 20
334.5978325563032
 30
0.0
 10
671.315125518161
 20
334.4527244674787
 30
0.0
 10
670.567536427591
 20
334.4272715726348
 30
0.0
 10
668.8584450110158
 20
334.4209912260317
 30
0.0
 10
667.7808036950022
 20
334.4394636899292
 30
0.0
 10
665.4295359391313
 20
334.473342208994
 30
0.0
 10
664.1559003892835
 20
334.4865000596215
 30
0.0
 10
661.7715933910053
 20
334.4865000596215
 30
0.0
 10
660.4979578411577
 20
334.473342208994
 30
0.0
 10
658.1466900852874
 20
334.4394636899292
 30
0.0
 10
657.0690487692741
 20
334.4209912260317
 30
0.0
 10
655.3599573526999
 20
334.4272715726348
 30
0.0
 10
654.6123682621306
 20
334.4527244674787
 30
0.0
 10
653.6017077100388
 20
334.5978325563032
 30
0.0
 10
653.3385844196362
 20
334.7198413250538
 30
0.0
 10
653.3076298270685
 20
334.8912302955882
 30
0.0
 10
653.307176713112
 20
334.907749472322
 30
0.0
 10
653.3091571439745
 20
334.924792293726
 30
0.0
  0
SPLINE
  5
197
330
70
100
AcDbEntity
  8
Visible (ISO)
100
AcDbSpline
210
0.0
220
0.0
230
1.0
 70
     8
 71
     3
 72
     8
 73
     4
 74
     0
 42
0.000000001
 43
0.0000000001
 40
5.795312850101618
 40
5.795312850101618
 40
5.795312850101618
 40
5.795312850101618
 40
5.831882762601217
 40
5.831882762601217
 40
5.831882762601217
 40
5.831882762601217
 10
672.6183366363202
 20
334.924792293726
 30
0.0
 10
672.6203170671826
 20
334.907749472322
 30
0.0
 10
672.6198639532261
 20
334.8912302955882
 30
0.0
 10
672.6169809872122
 20
334.8752679282565
 30
0.0
  0
LINE
  5
198
330
70
100
AcDbEntity
  8
Visible (ISO)
100
AcDbLine
 10
670.4637468901474
 20
355.4273716077983
 30
0.0
 11
672.618665355052
 21
334.9246919635608
 31
0.0
  0
LINE
  5
199
330
70
100
AcDbEntity
  8
Visible (ISO)
100
AcDbLine
 10
655.4637468901473
 20
355.4273716077983
 30
0.0
 11
653.3088284252426
 21
334.9246919635608
 31
0.0
  0
ARC
  5
19A
330
70
100
AcDbEntity
  8
Visible (ISO)
100
AcDbCircle
 10
662.9637468901553
 20
281.4273716077983
 30
0.0
 40
58.0
100
AcDbArc
 50
99.18674198416228
 51
80.81325801583775
  0
ARC
  5
19B
330
70
100
AcDbEntity
  8
Visible (ISO)
100
AcDbCircle
 10
662.9637468901661
 20
281.4273716077983
 30
0.0
 40
69.49999999999997
100
AcDbArc
 50
96.62793316512601
 51
83.37206683487417
  0
CIRCLE
  5
19C
330
70
100
AcDbEntity
  8
Visible (ISO)
100
AcDbCircle
 10
662.9637468901639
 20
281.4273716077983
 30
0.0
 40
40.49999999999997
  0
CIRCLE
  5
19D
330
70
100
AcDbEntity
  8
Visible (ISO)
100
AcDbCircle
 10
662.9637468901425
 20
281.4273716077983
 30
0.0
 40
45.0
  0
CIRCLE
  5
19E
330
70
100
AcDbEntity
  8
Visible (ISO)
100
AcDbCircle
 10
662.9637468901425
 20
281.4273716077983
 30
0.0
 40
52.2
  0
LINE
  5
19F
330
70
100
AcDbEntity
  8
Visible (ISO)
100
AcDbLine
 10
372.0812187887483
 20
516.9823238937697
 30
0.0
 11
372.0812187887483
 21
632.9823238937696
 31
0.0
  0
LINE
  5
1A0
330
70
100
AcDbEntity
  8
Visible (ISO)
100
AcDbLine
 10
347.2312187887482
 20
516.9823238937697
 30
0.0
 11
347.2312187887482
 21
632.9823238937696
 31
0.0
  0
LINE
  5
1A1
330
70
100
AcDbEntity
  8
Visible (ISO)
100
AcDbLine
 10
383.5812187887483
 20
505.4823238937697
 30
0.0
 11
383.5812187887483
 21
644.4823238937697
 31
0.0
  0
LINE
  5
1A2
330
70
100
AcDbEntity
  8
Visible (ISO)
100
AcDbLine
 10
418.2312187887482
 20
505.4823238937697
 30
0.0
 11
418.2312187887482
 21
644.4823238937697
 31
0.0
  0
LINE
  5
1A3
330
70
100
AcDbEntity
  8
Visible (ISO)
100
AcDbLine
 10
465.0312187887482
 20
512.4323238937697
 30
0.0
 11
465.0312187887482
 21
637.5323238937697
 31
0.0
  0
LINE
  5
1A4
330
70
100
AcDbEntity
  8
Visible (ISO)
100
AcDbLine
 10
304.0312187887482
 20
522.7823238937697
 30
0.0
 11
304.0312187887482
 21
627.1823238937696
 31
0.0
  0
LINE
  5
1A5
330
70
100
AcDbEntity
  8
Visible (ISO)
100
AcDbLine
 10
347.2312187887482
 20
632.9823238937696
 30
0.0
 11
372.0812187887483
 21
632.9823238937696
 31
0.0
  0
LINE
  5
1A6
330
70
100
AcDbEntity
  8
Visible (ISO)
100
AcDbLine
 10
347.2312187887482
 20
516.9823238937697
 30
0.0
 11
372.0812187887483
 21
516.9823238937697
 31
0.0
  0
LINE
  5
1A7
330
70
100
AcDbEntity
  8
Visible (ISO)
100
AcDbLine
 10
372.0812187887483
 20
632.9823238937696
 30
0.0
 11
383.5812187887483
 21
644.4823238937697
 31
0.0
  0
LINE
  5
1A8
330
70
100
AcDbEntity
  8
Visible (ISO)
100
AcDbLine
 10
372.0812187887483
 20
516.9823238937697
 30
0.0
 11
383.5812187887483
 21
505.4823238937697
 31
0.0
  0
LINE
  5
1A9
330
70
100
AcDbEntity
  8
Visible (ISO)
100
AcDbLine
 10
383.5812187887483
 20
644.4823238937697
 30
0.0
 11
418.2312187887482
 21
644.4823238937697
 31
0.0
  0
LINE
  5
1AA
330
70
100
AcDbEntity
  8
Visible (ISO)
100
AcDbLine
 10
383.5812187887483
 20
505.4823238937697
 30
0.0
 11
418.2312187887482
 21
505.4823238937697
 31
0.0
  0
LINE
  5
1AB
330
70
100
AcDbEntity
  8
Visible (ISO)
100
AcDbLine
 10
465.0312187887482
 20
512.4323238937697
 30
0.0
 11
418.2312187887482
 21
505.4823238937697
 31
0.0
  0
LINE
  5
1AC
330
70
100
AcDbEntity
  8
Visible (ISO)
100
AcDbLine
 10
465.0312187887482
 20
637.5323238937697
 30
0.0
 11
418.2312187887482
 21
644.4823238937697
 31
0.0
  0
LINE
  5
1AD
330
70
100
AcDbEntity
  8
Visible (ISO)
100
AcDbLine
 10
304.0312187887482
 20
627.1823238937696
 30
0.0
 11
347.2312187887482
 21
632.9823238937696
 31
0.0
  0
LINE
  5
1AE
330
70
100
AcDbEntity
  8
Visible (ISO)
100
AcDbLine
 10
304.0312187887482
 20
522.7823238937697
 30
0.0
 11
347.2312187887482
 21
516.9823238937697
 31
0.0
  0
LINE
  5
1AF
330
70
100
AcDbEntity
  8
Visible (ISO)
100
AcDbLine
 10
84.45854210001298
 20
365.4273716077983
 30
0.0
 11
99.458542100013
 21
365.4273716077983
 31
0.0
  0
SPLINE
  5
1B0
330
70
100
AcDbEntity
  8
Visible (ISO)
100
AcDbSpline
210
0.0
220
0.0
230
1.0
 70
     8
 71
     3
 72
    24
 73
    20
 74
     0
 42
0.000000001
 43
0.0000000001
 40
0.0
 40
0.0
 40
0.0
 40
0.0
 40
0.3421944260503195
 40
0.3421944260503195
 40
0.6843888521006391
 40
0.6843888521006391
 40
1.026987556696482
 40
1.026987556696482
 40
1.369586261292325
 40
1.369586261292325
 40
1.712184965888168
 40
1.712184965888168
 40
2.054783670484011
 40
2.054783670484011
 40
2.396978096534331
 40
2.396978096534331
 40
2.739172522584651
 40
2.739172522584651
 40
2.770688733472602
 40
2.770688733472602
 40
2.770688733472602
 40
2.770688733472602
 10
101.1823883867858
 20
345.6628846794004
 30
0.0
 10
101.1585729373258
 20
345.4970322174713
 30
0.0
 10
100.9102417742006
 20
345.35324557246
 30
0.0
 10
99.94835748925126
 20
345.1491267479868
 30
0.0
 10
99.23468003343105
 20
345.0870674716179
 30
0.0
 10
97.60054608717624
 20
345.0153209908153
 30
0.0
 10
96.57028345588898
 20
345.000512889
 30
0.0
 10
94.32026407839405
 20
344.9882135930005
 30
0.0
 10
93.1005377820019
 20
344.9889635611754
 30
0.0
 10
90.81654641802961
 20
344.9889635611754
 30
0.0
 10
89.59682012163732
 20
344.9882135930005
 30
0.0
 10
87.34680074414184
 20
345.000512889
 30
0.0
 10
86.31653811285419
 20
345.0153209908153
 30
0.0
 10
84.68240416659842
 20
345.0870674716179
 30
0.0
 10
83.96872671077764
 20
345.1491267479868
 30
0.0
 10
83.0068424258269
 20
345.35324557246
 30
0.0
 10
82.75851126270099
 20
345.4970322174713
 30
0.0
 10
82.73250240308966
 20
345.6781597416707
 30
0.0
 10
82.73217963288502
 20
345.6938018424141
 30
0.0
 10
82.73373138795452
 20
345.7097877595856
 30
0.0
  0
SPLINE
  5
1B1
330
70
100
AcDbEntity
  8
Visible (ISO)
100
AcDbSpline
210
0.0
220
0.0
230
1.0
 70
     8
 71
     3
 72
     8
 73
     4
 74
     0
 42
0.000000001
 43
0.0000000001
 40
5.550306150547817
 40
5.550306150547817
 40
5.550306150547817
 40
5.550306150547817
 40
5.581822361435769
 40
5.581822361435769
 40
5.581822361435769
 40
5.581822361435769
 10
101.1833528120714
 20
345.7097877595856
 30
0.0
 10
101.184904567141
 20
345.6938018424141
 30
0.0
 10
101.1845817969364
 20
345.6781597416706
 30
0.0
 10
101.1823883867858
 20
345.6628846794004
 30
0.0
  0
LINE
  5
1B2
330
70
100
AcDbEntity
  8
Visible (ISO)
100
AcDbLine
 10
99.458542100013
 20
365.4273716077983
 30
0.0
 11
101.1836126146329
 21
345.7097253997412
 31
0.0
  0
LINE
  5
1B3
330
70
100
AcDbEntity
  8
Visible (ISO)
100
AcDbLine
 10
84.458542100013
 20
365.4273716077983
 30
0.0
 11
82.73347158539309
 21
345.7097253997412
 31
0.0
  0
ARC
  5
1B4
330
70
100
AcDbEntity
  8
Visible (ISO)
100
AcDbCircle
 10
91.95854210000396
 20
281.4273716077983
 30
0.0
 40
69.5
100
AcDbArc
 50
97.28897284313632
 51
82.71102715686376
  0
CIRCLE
  5
1B5
330
70
100
AcDbEntity
  8
Visible (ISO)
100
AcDbCircle
 10
91.95854210001776
 20
281.4273716077983
 30
0.0
 40
62.54999999999996
  0
CIRCLE
  5
1B6
330
70
100
AcDbEntity
  8
Visible (ISO)
100
AcDbCircle
 10
91.95854210001776
 20
281.4273716077983
 30
0.0
 40
55.0
  0
CIRCLE
  5
1B7
330
70
100
AcDbEntity
  8
Visible (ISO)
100
AcDbCircle
 10
91.95854209999243
 20
281.4273716077983
 30
0.0
 40
44.99999999999997
  0
CIRCLE
  5
1B8
330
70
100
AcDbEntity
  8
Visible (ISO)
100
AcDbCircle
 10
91.95854209999243
 20
281.4273716077983
 30
0.0
 40
40.49999999999997
  0
CIRCLE
  5
1B9
330
70
100
AcDbEntity
  8
Visible (ISO)
100
AcDbCircle
 10
448.9312187885895
 20
40.02878755551438
 30
0.0
 40
2.0
  0
CIRCLE
  5
1BA
330
70
100
AcDbEntity
  8
Visible (ISO)
100
AcDbCircle
 10
320.1312187885894
 20
40.02878755551141
 30
0.0
 40
2.0
  0
CIRCLE
  5
1BB
330
70
100
AcDbEntity
  8
Visible (ISO)
100
AcDbCircle
 10
448.9312187885895
 20
40.02878755551527
 30
0.0
 40
5.0
  0
CIRCLE
  5
1BC
330
70
100
AcDbEntity
  8
Visible (ISO)
100
AcDbCircle
 10
448.9312187885895
 20
40.02878755551527
 30
0.0
 40
7.5
  0
SPLINE
  5
1BD
330
70
100
AcDbEntity
  8
Visible (ISO)
100
AcDbSpline
210
0.0
220
0.0
230
1.0
 70
    11
 71
     3
 72
    38
 73
    34
 74
     0
 42
0.000000001
 43
0.0000000001
 40
0.0
 40
0.0
 40
0.0
 40
0.0
 40
0.3421944260503195
 40
0.3421944260503195
 40
0.6843888521006391
 40
0.6843888521006391
 40
1.026987556696482
 40
1.026987556696482
 40
1.369586261292325
 40
1.369586261292325
 40
1.712184965888168
 40
1.712184965888168
 40
2.054783670484011
 40
2.054783670484011
 40
2.396978096534331
 40
2.396978096534331
 40
2.739172522584651
 40
2.739172522584651
 40
3.09812011739086
 40
3.09812011739086
 40
3.457067712197069
 40
3.457067712197069
 40
3.808782577103639
 40
3.808782577103639
 40
4.16049744201021
 40
4.16049744201021
 40
4.512212306916779
 40
4.512212306916779
 40
4.86392717182335
 40
4.86392717182335
 40
5.222874766629559
 40
5.222874766629559
 40
5.581822361435769
 40
5.581822361435769
 40
5.581822361435769
 40
5.581822361435769
 10
449.2446063127474
 20
49.25263384228218
 30
0.0
 10
450.3728810325023
 20
49.22881839282178
 30
0.0
 10
451.5775140661566
 20
48.98048722969619
 30
0.0
 10
453.7922442705212
 20
48.01860294474606
 30
0.0
 10
454.8021279213706
 20
47.30492548892556
 30
0.0
 10
456.3942715278094
 20
45.67079154267023
 30
0.0
 10
457.0832878173809
 20
44.64052891138279
 30
0.0
 10
457.9958006868842
 20
42.39050953388757
 30
0.0
 10
458.2193477931859
 20
41.17078323749535
 30
0.0
 10
458.2193477931859
 20
38.88679187352307
 30
0.0
 10
457.9958006868842
 20
37.66706557713085
 30
0.0
 10
457.0832878173809
 20
35.41704619963565
 30
0.0
 10
456.3942715278094
 20
34.38678356834821
 30
0.0
 10
454.8021279213706
 20
32.75264962209293
 30
0.0
 10
453.7922442705212
 20
32.03897216627246
 30
0.0
 10
451.5775140661566
 20
31.07708788132244
 30
0.0
 10
450.3728810325023
 20
30.82875671819695
 30
0.0
 10
448.0610934729528
 20
30.77995986152415
 30
0.0
 10
446.801863619383
 20
30.99763069366027
 30
0.0
 10
444.4873960000825
 20
31.92975702065088
 30
0.0
 10
443.431689418896
 20
32.64399656557369
 30
0.0
 10
441.7795030043645
 20
34.29103862309749
 30
0.0
 10
441.066375311495
 20
35.32763756448885
 30
0.0
 10
440.1171532895427
 20
37.61015975198178
 30
0.0
 10
439.8813451901752
 20
38.85640467248812
 30
0.0
 10
439.8813451901752
 20
41.20117043853191
 30
0.0
 10
440.1171532895427
 20
42.44741535903822
 30
0.0
 10
441.066375311495
 20
44.72993754653099
 30
0.0
 10
441.7795030043645
 20
45.76653648792223
 30
0.0
 10
443.431689418896
 20
47.41357854544578
 30
0.0
 10
444.4873960000825
 20
48.12781809036845
 30
0.0
 10
446.801863619383
 20
49.05994441735878
 30
0.0
 10
448.0610934729528
 20
49.27761524949477
 30
0.0
 10
449.2446063127474
 20
49.25263384228218
 30
0.0
  0
CIRCLE
  5
1BE
330
70
100
AcDbEntity
  8
Visible (ISO)
100
AcDbCircle
 10
320.1312187885894
 20
40.02878755551231
 30
0.0
 40
5.0
  0
CIRCLE
  5
1BF
330
70
100
AcDbEntity
  8
Visible (ISO)
100
AcDbCircle
 10
320.1312187885894
 20
40.02878755551231
 30
0.0
 40
7.5
  0
SPLINE
  5
1C0
330
70
100
AcDbEntity
  8
Visible (ISO)
100
AcDbSpline
210
0.0
220
0.0
230
1.0
 70
     9
 71
     3
 72
    38
 73
    34
 74
     0
 42
0.000000001
 43
0.0000000001
 40
0.0
 40
0.0
 40
0.0
 40
0.0
 40
0.3560836034615358
 40
0.3560836034615358
 40
0.7121672069230716
 40
0.7121672069230716
 40
1.069813256664776
 40
1.069813256664776
 40
1.427459306406481
 40
1.427459306406481
 40
1.785105356148186
 40
1.785105356148186
 40
2.142751405889891
 40
2.142751405889891
 40
2.498835009351427
 40
2.498835009351427
 40
2.854918612812963
 40
2.854918612812963
 40
3.231249956547787
 40
3.231249956547787
 40
3.607581300282611
 40
3.607581300282611
 40
3.97549099399485
 40
3.97549099399485
 40
4.343400687707089
 40
4.343400687707089
 40
4.711310381419329
 40
4.711310381419329
 40
5.079220075131567
 40
5.079220075131567
 40
5.455551418866392
 40
5.455551418866392
 40
5.831882762601217
 40
5.831882762601217
 40
5.831882762601217
 40
5.831882762601217
 10
319.7667227647242
 20
30.37555345844117
 30
0.0
 10
318.5903326055882
 20
30.40362508499555
 30
0.0
 10
317.3352747776214
 20
30.66674837539848
 30
0.0
 10
315.0306957141511
 20
31.67740892749096
 30
0.0
 10
313.981346005415
 20
32.42499801806055
 30
0.0
 10
312.326329873587
 20
34.13408943463521
 30
0.0
 10
311.6102092925331
 20
35.2117307506487
 30
0.0
 10
310.6621948121539
 20
37.56299850651924
 30
0.0
 10
310.4302444987216
 20
38.83663405636708
 30
0.0
 10
310.4302444987216
 20
41.22094105464511
 30
0.0
 10
310.6621948121539
 20
42.49457660449294
 30
0.0
 10
311.6102092925331
 20
44.84584436036346
 30
0.0
 10
312.326329873587
 20
45.92348567637694
 30
0.0
 10
313.981346005415
 20
47.63257709295161
 30
0.0
 10
315.0306957141511
 20
48.38016618352121
 30
0.0
 10
317.3352747776214
 20
49.39082673561379
 30
0.0
 10
318.5903326055882
 20
49.65395002601678
 30
0.0
 10
321.0100051990752
 20
49.71168949697457
 30
0.0
 10
322.3309695640526
 20
49.48403779799014
 30
0.0
 10
324.7555399638509
 20
48.50604670637541
 30
0.0
 10
325.8597984096855
 20
47.75602725015175
 30
0.0
 10
327.5841781204542
 20
46.02999599808086
 30
0.0
 10
328.3271990091677
 20
44.94570136677559
 30
0.0
 10
329.3163899221404
 20
42.55848726312375
 30
0.0
 10
329.5622176579357
 20
41.25515320121432
 30
0.0
 10
329.5622176579357
 20
38.8024219097994
 30
0.0
 10
329.3163899221404
 20
37.49908784788991
 30
0.0
 10
328.3271990091677
 20
35.1118737442379
 30
0.0
 10
327.5841781204542
 20
34.02757911293251
 30
0.0
 10
325.8597984096855
 20
32.30154786086135
 30
0.0
 10
324.7555399638509
 20
31.55152840463752
 30
0.0
 10
322.3309695640526
 20
30.57353731302252
 30
0.0
 10
321.0100051990752
 20
30.34588561403796
 30
0.0
 10
319.7667227647242
 20
30.37555345844117
 30
0.0
  0
LINE
  5
1C1
330
70
100
AcDbEntity
  8
Visible (ISO)
100
AcDbLine
 10
372.0812187885895
 20
-17.97121244450963
 30
0.0
 11
372.0812187885895
 21
98.02878755549034
 31
0.0
  0
LINE
  5
1C2
330
70
100
AcDbEntity
  8
Visible (ISO)
100
AcDbLine
 10
347.2312187885894
 20
-17.97121244450965
 30
0.0
 11
347.2312187885894
 21
98.02878755549038
 31
0.0
  0
LINE
  5
1C3
330
70
100
AcDbEntity
  8
Visible (ISO)
100
AcDbLine
 10
383.5812187885895
 20
-29.4712124445096
 30
0.0
 11
383.5812187885895
 21
109.5287875554903
 31
0.0
  0
LINE
  5
1C4
330
70
100
AcDbEntity
  8
Visible (ISO)
100
AcDbLine
 10
418.2312187885894
 20
-29.47121244450962
 30
0.0
 11
418.2312187885894
 21
109.5287875554903
 31
0.0
  0
LINE
  5
1C5
330
70
100
AcDbEntity
  8
Visible (ISO)
100
AcDbLine
 10
465.0312187885893
 20
-22.52121244450959
 30
0.0
 11
465.0312187885893
 21
102.5787875554903
 31
0.0
  0
LINE
  5
1C6
330
70
100
AcDbEntity
  8
Visible (ISO)
100
AcDbLine
 10
304.0312187885895
 20
-12.17121244450965
 30
0.0
 11
304.0312187885894
 21
92.22878755549036
 31
0.0
  0
LINE
  5
1C7
330
70
100
AcDbEntity
  8
Visible (ISO)
100
AcDbLine
 10
347.2312187885894
 20
98.02878755549034
 30
0.0
 11
372.0812187885895
 21
98.02878755549034
 31
0.0
  0
LINE
  5
1C8
330
70
100
AcDbEntity
  8
Visible (ISO)
100
AcDbLine
 10
347.2312187885894
 20
-17.97121244450963
 30
0.0
 11
372.0812187885895
 21
-17.97121244450963
 31
0.0
  0
LINE
  5
1C9
330
70
100
AcDbEntity
  8
Visible (ISO)
100
AcDbLine
 10
372.0812187885895
 20
98.02878755549032
 30
0.0
 11
383.5812187885895
 21
109.5287875554903
 31
0.0
  0
LINE
  5
1CA
330
70
100
AcDbEntity
  8
Visible (ISO)
100
AcDbLine
 10
372.0812187885895
 20
-17.97121244450961
 30
0.0
 11
383.5812187885895
 21
-29.47121244450961
 31
0.0
  0
LINE
  5
1CB
330
70
100
AcDbEntity
  8
Visible (ISO)
100
AcDbLine
 10
383.5812187885895
 20
109.5287875554903
 30
0.0
 11
418.2312187885894
 21
109.5287875554903
 31
0.0
  0
LINE
  5
1CC
330
70
100
AcDbEntity
  8
Visible (ISO)
100
AcDbLine
 10
383.5812187885895
 20
-29.47121244450962
 30
0.0
 11
418.2312187885894
 21
-29.47121244450962
 31
0.0
  0
LINE
  5
1CD
330
70
100
AcDbEntity
  8
Visible (ISO)
100
AcDbLine
 10
465.0312187885893
 20
-22.5212124445096
 30
0.0
 11
418.2312187885894
 21
-29.47121244450962
 31
0.0
  0
LINE
  5
1CE
330
70
100
AcDbEntity
  8
Visible (ISO)
100
AcDbLine
 10
465.0312187885893
 20
102.5787875554903
 30
0.0
 11
418.2312187885894
 21
109.5287875554903
 31
0.0
  0
LINE
  5
1CF
330
70
100
AcDbEntity
  8
Visible (ISO)
100
AcDbLine
 10
304.0312187885894
 20
92.22878755549036
 30
0.0
 11
347.2312187885894
 21
98.02878755549038
 31
0.0
  0
LINE
  5
1D0
330
70
100
AcDbEntity
  8
Visible (ISO)
100
AcDbLine
 10
304.0312187885894
 20
-12.17121244450965
 30
0.0
 11
347.2312187885894
 21
-17.97121244450965
 31
0.0
  0
INSERT
  5
1F1
330
70
100
AcDbEntity
  8
Section Line (ISO)
100
AcDbBlockReference
  2
2dTransSection0
 10
0.0
 20
0.0
 30
0.0
  0
LINE
  5
1F2
330
70
100
AcDbEntity
  8
Visible (ISO)
100
AcDbLine
 10
347.2312187885896
 20
701.1926081922295
 30
0.0
 11
372.0812187885895
 21
701.1926081922295
 31
0.0
  0
LINE
  5
1F3
330
70
100
AcDbEntity
  8
Visible (ISO)
100
AcDbLine
 10
372.0812187885895
 20
701.1926081922295
 30
0.0
 11
383.5812187885895
 21
689.6926081922294
 31
0.0
  0
LINE
  5
1F4
330
70
100
AcDbEntity
  8
Visible (ISO)
100
AcDbLine
 10
383.5812187885895
 20
689.6926081922294
 30
0.0
 11
418.2312187885894
 21
689.6926081922294
 31
0.0
  0
LINE
  5
1F5
330
70
100
AcDbEntity
  8
Visible (ISO)
100
AcDbLine
 10
418.2312187885894
 20
689.6926081922294
 30
0.0
 11
465.0312187885894
 21
696.6426081922294
 31
0.0
  0
LINE
  5
1F6
330
70
100
AcDbEntity
  8
Visible (ISO)
100
AcDbLine
 10
465.0312187885894
 20
696.6426081922294
 30
0.0
 11
465.0312187885894
 21
704.1926081922293
 31
0.0
  0
LINE
  5
1F7
330
70
100
AcDbEntity
  8
Visible (ISO)
100
AcDbLine
 10
465.0312187885894
 20
704.1926081922293
 30
0.0
 11
444.2312187885895
 21
704.1926081922293
 31
0.0
  0
LINE
  5
1F8
330
70
100
AcDbEntity
  8
Visible (ISO)
100
AcDbLine
 10
444.2312187885895
 20
704.1926081922293
 30
0.0
 11
433.8312187885894
 21
701.9820199508613
 31
0.0
  0
LINE
  5
1F9
330
70
100
AcDbEntity
  8
Visible (ISO)
100
AcDbLine
 10
433.8312187885894
 20
701.9820199508613
 30
0.0
 11
433.8312187885894
 21
704.1926081922293
 31
0.0
  0
LINE
  5
1FA
330
70
100
AcDbEntity
  8
Visible (ISO)
100
AcDbLine
 10
433.8312187885894
 20
704.1926081922293
 30
0.0
 11
387.0312187885895
 21
704.1926081922293
 31
0.0
  0
LINE
  5
1FB
330
70
100
AcDbEntity
  8
Visible (ISO)
100
AcDbLine
 10
387.0312187885895
 20
704.1926081922293
 30
0.0
 11
379.6312187885896
 21
714.1926081922293
 31
0.0
  0
LINE
  5
1FC
330
70
100
AcDbEntity
  8
Visible (ISO)
100
AcDbLine
 10
379.6312187885896
 20
714.1926081922293
 30
0.0
 11
379.6312187885896
 21
718.6926081922295
 31
0.0
  0
LINE
  5
1FD
330
70
100
AcDbEntity
  8
Visible (ISO)
100
AcDbLine
 10
379.6312187885896
 20
718.6926081922295
 30
0.0
 11
376.0312187885895
 21
718.6926081922295
 31
0.0
  0
LINE
  5
1FE
330
70
100
AcDbEntity
  8
Visible (ISO)
100
AcDbLine
 10
376.0312187885895
 20
718.6926081922295
 30
0.0
 11
376.0312187885895
 21
714.1926081922293
 31
0.0
  0
LINE
  5
1FF
330
70
100
AcDbEntity
  8
Visible (ISO)
100
AcDbLine
 10
376.0312187885895
 20
714.1926081922293
 30
0.0
 11
332.8312187885895
 21
714.1926081922293
 31
0.0
  0
LINE
  5
200
330
70
100
AcDbEntity
  8
Visible (ISO)
100
AcDbLine
 10
332.8312187885895
 20
714.1926081922293
 30
0.0
 11
332.8312187885895
 21
712.1520652001971
 31
0.0
  0
LINE
  5
201
330
70
100
AcDbEntity
  8
Visible (ISO)
100
AcDbLine
 10
332.8312187885895
 20
712.1520652001971
 30
0.0
 11
323.2312187885896
 21
714.1926081922293
 31
0.0
  0
LINE
  5
202
330
70
100
AcDbEntity
  8
Visible (ISO)
100
AcDbLine
 10
323.2312187885896
 20
714.1926081922293
 30
0.0
 11
304.0312187885895
 21
714.1926081922293
 31
0.0
  0
LINE
  5
203
330
70
100
AcDbEntity
  8
Visible (ISO)
100
AcDbLine
 10
304.0312187885895
 20
714.1926081922293
 30
0.0
 11
304.0312187885895
 21
706.9926081922294
 31
0.0
  0
LINE
  5
204
330
70
100
AcDbEntity
  8
Visible (ISO)
100
AcDbLine
 10
304.0312187885895
 20
706.9926081922294
 30
0.0
 11
347.2312187885894
 21
701.1926081922295
 31
0.0
  0
LINE
  5
205
330
70
100
AcDbEntity
  8
Visible (ISO)
100
AcDbLine
 10
372.0812187885895
 20
817.1926081922293
 30
0.0
 11
347.2312187885894
 21
817.1926081922293
 31
0.0
  0
LINE
  5
206
330
70
100
AcDbEntity
  8
Visible (ISO)
100
AcDbLine
 10
347.2312187885894
 20
817.1926081922293
 30
0.0
 11
329.5622176579358
 21
814.8203811885769
 31
0.0
  0
LINE
  5
207
330
70
100
AcDbEntity
  8
Visible (ISO)
100
AcDbLine
 10
329.5622176579358
 20
814.8203811885769
 30
0.0
 11
327.6312187885896
 21
833.1926081922295
 31
0.0
  0
LINE
  5
208
330
70
100
AcDbEntity
  8
Visible (ISO)
100
AcDbLine
 10
327.6312187885896
 20
833.1926081922295
 30
0.0
 11
325.1312187885895
 21
833.1926081922295
 31
0.0
  0
LINE
  5
209
330
70
100
AcDbEntity
  8
Visible (ISO)
100
AcDbLine
 10
325.1312187885895
 20
833.1926081922295
 30
0.0
 11
325.1312187885895
 21
819.1926081922293
 31
0.0
  0
LINE
  5
20A
330
70
100
AcDbEntity
  8
Visible (ISO)
100
AcDbLine
 10
325.1312187885895
 20
819.1926081922293
 30
0.0
 11
322.1312187885895
 21
819.1926081922293
 31
0.0
  0
LINE
  5
20B
330
70
100
AcDbEntity
  8
Visible (ISO)
100
AcDbLine
 10
322.1312187885895
 20
819.1926081922293
 30
0.0
 11
322.1312187885895
 21
830.1926081922294
 31
0.0
  0
LINE
  5
20C
330
70
100
AcDbEntity
  8
Visible (ISO)
100
AcDbLine
 10
322.1312187885895
 20
830.1926081922294
 30
0.0
 11
318.1312187885895
 21
830.1926081922294
 31
0.0
  0
LINE
  5
20D
330
70
100
AcDbEntity
  8
Visible (ISO)
100
AcDbLine
 10
318.1312187885895
 20
830.1926081922294
 30
0.0
 11
318.1312187885895
 21
819.1926081922293
 31
0.0
  0
LINE
  5
20E
330
70
100
AcDbEntity
  8
Visible (ISO)
100
AcDbLine
 10
318.1312187885895
 20
819.1926081922293
 30
0.0
 11
315.1312187885895
 21
819.1926081922293
 31
0.0
  0
LINE
  5
20F
330
70
100
AcDbEntity
  8
Visible (ISO)
100
AcDbLine
 10
315.1312187885895
 20
819.1926081922293
 30
0.0
 11
315.1312187885895
 21
833.1926081922295
 31
0.0
  0
LINE
  5
210
330
70
100
AcDbEntity
  8
Visible (ISO)
100
AcDbLine
 10
315.1312187885895
 20
833.1926081922295
 30
0.0
 11
312.6312187885895
 21
833.1926081922295
 31
0.0
  0
LINE
  5
211
330
70
100
AcDbEntity
  8
Visible (ISO)
100
AcDbLine
 10
312.6312187885895
 20
833.1926081922295
 30
0.0
 11
310.4302444987216
 21
812.2517366440527
 31
0.0
  0
LINE
  5
212
330
70
100
AcDbEntity
  8
Visible (ISO)
100
AcDbLine
 10
310.4302444987216
 20
812.2517366440527
 30
0.0
 11
304.0312187885895
 21
811.3926081922294
 31
0.0
  0
LINE
  5
213
330
70
100
AcDbEntity
  8
Visible (ISO)
100
AcDbLine
 10
304.0312187885895
 20
811.3926081922294
 30
0.0
 11
304.0312187885895
 21
804.1926081922294
 31
0.0
  0
LINE
  5
214
330
70
100
AcDbEntity
  8
Visible (ISO)
100
AcDbLine
 10
304.0312187885895
 20
804.1926081922294
 30
0.0
 11
323.2312187885896
 21
804.1926081922294
 31
0.0
  0
LINE
  5
215
330
70
100
AcDbEntity
  8
Visible (ISO)
100
AcDbLine
 10
323.2312187885896
 20
804.1926081922294
 30
0.0
 11
332.8312187885895
 21
806.2331511842616
 31
0.0
  0
LINE
  5
216
330
70
100
AcDbEntity
  8
Visible (ISO)
100
AcDbLine
 10
332.8312187885895
 20
806.2331511842616
 30
0.0
 11
332.8312187885895
 21
804.1926081922294
 31
0.0
  0
LINE
  5
217
330
70
100
AcDbEntity
  8
Visible (ISO)
100
AcDbLine
 10
332.8312187885895
 20
804.1926081922294
 30
0.0
 11
376.0312187885895
 21
804.1926081922294
 31
0.0
  0
LINE
  5
218
330
70
100
AcDbEntity
  8
Visible (ISO)
100
AcDbLine
 10
376.0312187885895
 20
804.1926081922294
 30
0.0
 11
376.0312187885895
 21
799.6926081922294
 31
0.0
  0
LINE
  5
219
330
70
100
AcDbEntity
  8
Visible (ISO)
100
AcDbLine
 10
376.0312187885895
 20
799.6926081922294
 30
0.0
 11
379.6312187885895
 21
799.6926081922294
 31
0.0
  0
LINE
  5
21A
330
70
100
AcDbEntity
  8
Visible (ISO)
100
AcDbLine
 10
379.6312187885895
 20
799.6926081922294
 30
0.0
 11
379.6312187885895
 21
804.1926081922294
 31
0.0
  0
LINE
  5
21B
330
70
100
AcDbEntity
  8
Visible (ISO)
100
AcDbLine
 10
379.6312187885895
 20
804.1926081922294
 30
0.0
 11
387.0312187885895
 21
814.1926081922294
 31
0.0
  0
LINE
  5
21C
330
70
100
AcDbEntity
  8
Visible (ISO)
100
AcDbLine
 10
387.0312187885895
 20
814.1926081922294
 30
0.0
 11
433.8312187885894
 21
814.1926081922294
 31
0.0
  0
LINE
  5
21D
330
70
100
AcDbEntity
  8
Visible (ISO)
100
AcDbLine
 10
433.8312187885894
 20
814.1926081922294
 30
0.0
 11
433.8312187885894
 21
816.4031964335975
 31
0.0
  0
LINE
  5
21E
330
70
100
AcDbEntity
  8
Visible (ISO)
100
AcDbLine
 10
433.8312187885894
 20
816.4031964335975
 30
0.0
 11
444.2312187885895
 21
814.1926081922294
 31
0.0
  0
LINE
  5
21F
330
70
100
AcDbEntity
  8
Visible (ISO)
100
AcDbLine
 10
444.2312187885895
 20
814.1926081922294
 30
0.0
 11
465.0312187885894
 21
814.1926081922294
 31
0.0
  0
LINE
  5
220
330
70
100
AcDbEntity
  8
Visible (ISO)
100
AcDbLine
 10
465.0312187885894
 20
814.1926081922294
 30
0.0
 11
465.0312187885894
 21
821.7426081922294
 31
0.0
  0
LINE
  5
221
330
70
100
AcDbEntity
  8
Visible (ISO)
100
AcDbLine
 10
465.0312187885894
 20
821.7426081922294
 30
0.0
 11
458.219347793186
 21
822.7542001456066
 31
0.0
  0
LINE
  5
222
330
70
100
AcDbEntity
  8
Visible (ISO)
100
AcDbLine
 10
458.219347793186
 20
822.7542001456066
 30
0.0
 11
456.4312187885895
 21
843.1926081922293
 31
0.0
  0
LINE
  5
223
330
70
100
AcDbEntity
  8
Visible (ISO)
100
AcDbLine
 10
456.4312187885895
 20
843.1926081922293
 30
0.0
 11
453.9312187885895
 21
843.1926081922293
 31
0.0
  0
LINE
  5
224
330
70
100
AcDbEntity
  8
Visible (ISO)
100
AcDbLine
 10
453.9312187885895
 20
843.1926081922293
 30
0.0
 11
453.9312187885895
 21
829.1926081922294
 31
0.0
  0
LINE
  5
225
330
70
100
AcDbEntity
  8
Visible (ISO)
100
AcDbLine
 10
453.9312187885895
 20
829.1926081922294
 30
0.0
 11
450.9312187885894
 21
829.1926081922294
 31
0.0
  0
LINE
  5
226
330
70
100
AcDbEntity
  8
Visible (ISO)
100
AcDbLine
 10
450.9312187885894
 20
829.1926081922294
 30
0.0
 11
450.9312187885894
 21
840.1926081922294
 31
0.0
  0
LINE
  5
227
330
70
100
AcDbEntity
  8
Visible (ISO)
100
AcDbLine
 10
450.9312187885894
 20
840.1926081922294
 30
0.0
 11
446.9312187885895
 21
840.1926081922294
 31
0.0
  0
LINE
  5
228
330
70
100
AcDbEntity
  8
Visible (ISO)
100
AcDbLine
 10
446.9312187885895
 20
840.1926081922294
 30
0.0
 11
446.9312187885895
 21
829.1926081922294
 31
0.0
  0
LINE
  5
229
330
70
100
AcDbEntity
  8
Visible (ISO)
100
AcDbLine
 10
446.9312187885895
 20
829.1926081922294
 30
0.0
 11
443.9312187885895
 21
829.1926081922294
 31
0.0
  0
LINE
  5
22A
330
70
100
AcDbEntity
  8
Visible (ISO)
100
AcDbLine
 10
443.9312187885895
 20
829.1926081922294
 30
0.0
 11
443.9312187885895
 21
843.1926081922295
 31
0.0
  0
LINE
  5
22B
330
70
100
AcDbEntity
  8
Visible (ISO)
100
AcDbLine
 10
443.9312187885895
 20
843.1926081922295
 30
0.0
 11
441.4312187885895
 21
843.1926081922295
 31
0.0
  0
LINE
  5
22C
330
70
100
AcDbEntity
  8
Visible (ISO)
100
AcDbLine
 10
441.4312187885895
 20
843.1926081922295
 30
0.0
 11
439.8813451901753
 21
825.4774718996861
 31
0.0
  0
LINE
  5
22D
330
70
100
AcDbEntity
  8
Visible (ISO)
100
AcDbLine
 10
439.8813451901753
 20
825.4774718996861
 30
0.0
 11
418.2312187885894
 21
828.6926081922295
 31
0.0
  0
LINE
  5
22E
330
70
100
AcDbEntity
  8
Visible (ISO)
100
AcDbLine
 10
418.2312187885894
 20
828.6926081922295
 30
0.0
 11
383.5812187885895
 21
828.6926081922295
 31
0.0
  0
LINE
  5
22F
330
70
100
AcDbEntity
  8
Visible (ISO)
100
AcDbLine
 10
383.5812187885895
 20
828.6926081922295
 30
0.0
 11
372.0812187885895
 21
817.1926081922293
 31
0.0
  0
LINE
  5
230
330
70
100
AcDbEntity
  8
Visible (ISO)
100
AcDbLine
 10
315.1312187885895
 20
833.1926081922295
 30
0.0
 11
325.1312187885895
 21
833.1926081922295
 31
0.0
  0
LINE
  5
231
330
70
100
AcDbEntity
  8
Visible (ISO)
100
AcDbLine
 10
379.6312187885895
 20
718.6926081922295
 30
0.0
 11
379.6312187885895
 21
799.6926081922294
 31
0.0
  0
LINE
  5
232
330
70
100
AcDbEntity
  8
Visible (ISO)
100
AcDbLine
 10
376.0312187885895
 20
718.6926081922295
 30
0.0
 11
376.0312187885895
 21
799.6926081922294
 31
0.0
  0
LINE
  5
233
330
70
100
AcDbEntity
  8
Visible (ISO)
100
AcDbLine
 10
332.8312187885895
 20
714.1926081922293
 30
0.0
 11
332.8312187885895
 21
804.1926081922294
 31
0.0
  0
LINE
  5
234
330
70
100
AcDbEntity
  8
Visible (ISO)
100
AcDbLine
 10
323.2312187885896
 20
714.1926081922293
 30
0.0
 11
323.2312187885896
 21
804.1926081922294
 31
0.0
  0
LINE
  5
235
330
70
100
AcDbEntity
  8
Visible (ISO)
100
AcDbLine
 10
304.0312187885895
 20
714.1926081922293
 30
0.0
 11
304.0312187885895
 21
804.1926081922294
 31
0.0
  0
LINE
  5
236
330
70
100
AcDbEntity
  8
Visible (ISO)
100
AcDbLine
 10
465.0312187885894
 20
704.1926081922293
 30
0.0
 11
465.0312187885894
 21
814.1926081922294
 31
0.0
  0
LINE
  5
237
330
70
100
AcDbEntity
  8
Visible (ISO)
100
AcDbLine
 10
444.2312187885895
 20
704.1926081922293
 30
0.0
 11
444.2312187885895
 21
814.1926081922294
 31
0.0
  0
LINE
  5
238
330
70
100
AcDbEntity
  8
Visible (ISO)
100
AcDbLine
 10
433.8312187885894
 20
704.1926081922293
 30
0.0
 11
433.8312187885894
 21
814.1926081922294
 31
0.0
  0
LINE
  5
239
330
70
100
AcDbEntity
  8
Visible (ISO)
100
AcDbLine
 10
387.0312187885895
 20
704.1926081922293
 30
0.0
 11
387.0312187885895
 21
814.1926081922294
 31
0.0
  0
LINE
  5
23A
330
70
100
AcDbEntity
  8
Visible (ISO)
100
AcDbLine
 10
443.9312187885895
 20
843.1926081922295
 30
0.0
 11
453.9312187885895
 21
843.1926081922295
 31
0.0
  0
MTEXT
  5
23B
330
70
100
AcDbEntity
  8
Symbol (ISO)
100
AcDbMText
 10
371.6688672164291
 20
849.6926082922295
 30
0.0
 40
3.499999940395355
 41
0.0
 46
0.0
 71
     7
 72
     1
  1
A-A ( 1 : 1 )
  7
Label Text (ISO)
 73
     1
 44
1.0
  0
HATCH
  5
27A
330
70
100
AcDbEntity
  8
Hatch (ISO)
100
AcDbHatch
 10
0.0
 20
0.0
 30
0.0
210
0.0
220
0.0
230
1.0
  2
ANSI31
 70
     0
 71
     0
 91
        2
 92
        1
 93
       43
 72
     1
 10
372.0812187885895
 20
817.1926081922293
 11
347.2312187885895
 21
817.1926081922293
 72
     1
 10
347.2312187885896
 20
817.1926081922293
 11
329.5622176579359
 21
814.8203811885768
 72
     1
 10
329.5622176579359
 20
814.8203811885769
 11
327.6312187885896
 21
833.1926081922295
 72
     1
 10
327.6312187885896
 20
833.1926081922295
 11
325.1312187885895
 21
833.1926081922295
 72
     1
 10
325.1312187885895
 20
833.1926081922295
 11
325.1312187885895
 21
819.1926081922295
 72
     1
 10
325.1312187885895
 20
819.1926081922293
 11
322.1312187885895
 21
819.1926081922293
 72
     1
 10
322.1312187885895
 20
819.1926081922293
 11
322.1312187885895
 21
830.1926081922294
 72
     1
 10
322.1312187885895
 20
830.1926081922294
 11
318.1312187885895
 21
830.1926081922294
 72
     1
 10
318.1312187885895
 20
830.1926081922294
 11
318.1312187885895
 21
819.1926081922295
 72
     1
 10
318.1312187885895
 20
819.1926081922293
 11
315.1312187885896
 21
819.1926081922293
 72
     1
 10
315.1312187885895
 20
819.1926081922293
 11
315.1312187885895
 21
833.1926081922294
 72
     1
 10
315.1312187885895
 20
833.1926081922295
 11
312.6312187885895
 21
833.1926081922295
 72
     1
 10
312.6312187885895
 20
833.1926081922295
 11
310.4302444987216
 21
812.2517366440527
 72
     1
 10
310.4302444987216
 20
812.2517366440527
 11
304.0312187885895
 21
811.3926081922294
 72
     1
 10
304.0312187885895
 20
811.3926081922294
 11
304.0312187885895
 21
804.1926081922294
 72
     1
 10
304.0312187885895
 20
804.1926081922294
 11
323.2312187885896
 21
804.1926081922294
 72
     1
 10
323.2312187885896
 20
804.1926081922294
 11
332.8312187885896
 21
806.2331511842616
 72
     1
 10
332.8312187885895
 20
806.2331511842616
 11
332.8312187885895
 21
804.1926081922294
 72
     1
 10
332.8312187885895
 20
804.1926081922294
 11
376.0312187885895
 21
804.1926081922294
 72
     1
 10
376.0312187885895
 20
804.1926081922294
 11
376.0312187885895
 21
799.6926081922294
 72
     1
 10
376.0312187885895
 20
799.6926081922294
 11
379.6312187885896
 21
799.6926081922294
 72
     1
 10
379.6312187885895
 20
799.6926081922294
 11
379.6312187885895
 21
804.1926081922294
 72
     1
 10
379.6312187885895
 20
804.1926081922294
 11
387.0312187885895
 21
814.1926081922294
 72
     1
 10
387.0312187885895
 20
814.1926081922294
 11
433.8312187885894
 21
814.1926081922294
 72
     1
 10
433.8312187885894
 20
814.1926081922294
 11
433.8312187885894
 21
816.4031964335975
 72
     1
 10
433.8312187885894
 20
816.4031964335975
 11
444.2312187885894
 21
814.1926081922294
 72
     1
 10
444.2312187885895
 20
814.1926081922294
 11
465.0312187885894
 21
814.1926081922294
 72
     1
 10
465.0312187885894
 20
814.1926081922294
 11
465.0312187885894
 21
821.7426081922294
 72
     1
 10
465.0312187885894
 20
821.7426081922294
 11
458.2193477931861
 21
822.7542001456065
 72
     1
 10
458.219347793186
 20
822.7542001456066
 11
456.4312187885895
 21
843.1926081922293
 72
     1
 10
456.4312187885895
 20
843.1926081922293
 11
453.9312187885895
 21
843.1926081922293
 72
     1
 10
453.9312187885895
 20
843.1926081922293
 11
453.9312187885895
 21
829.1926081922293
 72
     1
 10
453.9312187885895
 20
829.1926081922294
 11
450.9312187885895
 21
829.1926081922294
 72
     1
 10
450.9312187885894
 20
829.1926081922294
 11
450.9312187885894
 21
840.1926081922294
 72
     1
 10
450.9312187885894
 20
840.1926081922294
 11
446.9312187885894
 21
840.1926081922294
 72
     1
 10
446.9312187885895
 20
840.1926081922294
 11
446.9312187885895
 21
829.1926081922294
 72
     1
 10
446.9312187885895
 20
829.1926081922294
 11
443.9312187885895
 21
829.1926081922294
 72
     1
 10
443.9312187885895
 20
829.1926081922294
 11
443.9312187885895
 21
843.1926081922293
 72
     1
 10
443.9312187885895
 20
843.1926081922295
 11
441.4312187885895
 21
843.1926081922295
 72
     1
 10
441.4312187885895
 20
843.1926081922295
 11
439.8813451901753
 21
825.4774718996863
 72
     1
 10
439.8813451901753
 20
825.4774718996861
 11
418.2312187885894
 21
828.6926081922294
 72
     1
 10
418.2312187885894
 20
828.6926081922295
 11
383.5812187885895
 21
828.6926081922295
 72
     1
 10
383.5812187885895
 20
828.6926081922295
 11
372.0812187885895
 21
817.1926081922295
 97
        0
 92
        1
 93
       19
 72
     1
 10
347.2312187885896
 20
701.1926081922295
 11
372.0812187885896
 21
701.1926081922295
 72
     1
 10
372.0812187885895
 20
701.1926081922295
 11
383.5812187885895
 21
689.6926081922295
 72
     1
 10
383.5812187885895
 20
689.6926081922294
 11
418.2312187885894
 21
689.6926081922294
 72
     1
 10
418.2312187885894
 20
689.6926081922294
 11
465.0312187885894
 21
696.6426081922294
 72
     1
 10
465.0312187885894
 20
696.6426081922294
 11
465.0312187885894
 21
704.1926081922293
 72
     1
 10
465.0312187885894
 20
704.1926081922293
 11
444.2312187885895
 21
704.1926081922293
 72
     1
 10
444.2312187885895
 20
704.1926081922293
 11
433.8312187885895
 21
701.9820199508611
 72
     1
 10
433.8312187885895
 20
701.9820199508613
 11
433.8312187885895
 21
704.1926081922294
 72
     1
 10
433.8312187885895
 20
704.1926081922293
 11
387.0312187885895
 21
704.1926081922293
 72
     1
 10
387.0312187885895
 20
704.1926081922293
 11
379.6312187885896
 21
714.1926081922293
 72
     1
 10
379.6312187885896
 20
714.1926081922293
 11
379.6312187885896
 21
718.6926081922294
 72
     1
 10
379.6312187885896
 20
718.6926081922295
 11
376.0312187885895
 21
718.6926081922295
 72
     1
 10
376.0312187885895
 20
718.6926081922295
 11
376.0312187885895
 21
714.1926081922295
 72
     1
 10
376.0312187885895
 20
714.1926081922293
 11
332.8312187885895
 21
714.1926081922293
 72
     1
 10
332.8312187885896
 20
714.1926081922293
 11
332.8312187885896
 21
712.1520652001971
 72
     1
 10
332.8312187885896
 20
712.1520652001971
 11
323.2312187885896
 21
714.1926081922293
 72
     1
 10
323.2312187885896
 20
714.1926081922293
 11
304.0312187885896
 21
714.1926081922293
 72
     1
 10
304.0312187885895
 20
714.1926081922293
 11
304.0312187885895
 21
706.9926081922293
 72
     1
 10
304.0312187885895
 20
706.9926081922294
 11
347.2312187885895
 21
701.1926081922295
 97
        0
 75
     0
 76
     1
 52
0.0
 41
25.4
 77
     0
 78
     1
 53
45.0
 43
0.0
 44
0.0
 45
-2.245064030267288
 46
2.245064030267288
 79
     0
 98
        1
 10
384.5312187885895
 20
766.4426081922191
  0
DIMENSION
  5
27B
330
70
100
AcDbEntity
  8
Dimension (ISO)
100
AcDbDimension
280
     0
  2
*D7
 10
487.0312187885896
 20
704.1926081922293
 30
0.0
 11
487.0312187885895
 21
759.1926081922293
 31
0.0
 70
   160
  1
\fAIGDT|b0|i0;\H2.5000;\ln\fTahoma|b0|i0;\H2.5000;<>
 42
110.0
 73
     0
 74
     0
 75
     0
  3
Default (ISO)
100
AcDbAlignedDimension
 13
465.0312187885894
 23
814.1926081922294
 33
0.0
 14
465.0312187885894
 24
704.1926081922293
 34
0.0
 50
90.0
100
AcDbRotatedDimension
1001
ACAD
1000
DSTYLE
1002
{
1070
   172
1070
     0
1070
   289
1070
     1
1070
   271
1070
     2
1070
   272
1070
     2
1070
    48
1040
0.0
1070
    47
1040
0.0
1002
}
  0
DIMENSION
  5
355
330
70
100
AcDbEntity
  8
Dimension (ISO)
100
AcDbDimension
280
     0
  2
*D8
 10
387.0312187885895
 20
753.0353657658695
 30
0.0
 11
426.0312187885895
 21
753.0353657658695
 31
0.0
 70
   160
  1
<>
 42
78.0
 73
     0
 74
     0
 75
     0
  3
Default (ISO)
100
AcDbAlignedDimension
 13
465.0312187885894
 23
759.1926081922293
 33
0.0
 14
387.0312187885895
 24
759.1926081922293
 34
0.0
 50
180.0
100
AcDbRotatedDimension
1001
ACAD
1000
DSTYLE
1002
{
1070
   172
1070
     0
1070
   289
1070
     1
1070
   271
1070
     2
1070
    76
1070
     1
1070
    75
1070
     1
1070
   272
1070
     2
1070
    48
1040
0.0
1070
    47
1040
0.0
1002
}
  0
DIMENSION
  5
426
330
70
100
AcDbEntity
  8
Dimension (ISO)
100
AcDbDimension
280
     0
  2
*D9
 10
304.0312187885895
 20
753.0353657658695
 30
0.0
 11
340.0312187885895
 21
753.0353657658695
 31
0.0
 70
   160
  1
<>
 42
72.0
 73
     0
 74
     0
 75
     0
  3
Default (ISO)
100
AcDbAlignedDimension
 13
376.0312187885895
 23
759.1926081922293
 33
0.0
 14
304.0312187885895
 24
759.1926081922293
 34
0.0
 50
180.0
100
AcDbRotatedDimension
1001
ACAD
1000
DSTYLE
1002
{
1070
   172
1070
     0
1070
   289
1070
     1
1070
   271
1070
     2
1070
    76
1070
     1
1070
    75
1070
     1
1070
   272
1070
     2
1070
    48
1040
0.0
1070
    47
1040
0.0
1002
}
  0
DIMENSION
  5
4F7
330
70
100
AcDbEntity
  8
Dimension (ISO)
100
AcDbDimension
280
     0
  2
*D10
 10
515.8041310017211
 20
689.6926081922294
 30
0.0
 11
515.804131001721
 21
759.1926081922293
 31
0.0
 70
   160
  1
<>
 42
139.0000000000001
 73
     0
 74
     0
 75
     0
  3
Default (ISO)
100
AcDbAlignedDimension
 13
418.2312187885894
 23
828.6926081922295
 33
0.0
 14
418.2312187885894
 24
689.6926081922294
 34
0.0
 50
90.0
100
AcDbRotatedDimension
1001
ACAD
1000
DSTYLE
1002
{
1070
   172
1070
     0
1070
   289
1070
     1
1070
   271
1070
     2
1070
   272
1070
     2
1070
    48
1040
0.0
1070
    47
1040
0.0
1002
}
  0
DIMENSION
  5
5CD
330
70
100
AcDbEntity
  8
Dimension (ISO)
100
AcDbDimension
280
     0
  2
*D11
 10
532.6223714850757
 20
759.1926081922293
 30
0.0
 11
532.6223714850756
 21
801.1926081922295
 31
0.0
 70
   160
  1
<>
 42
84.00000000000011
 73
     0
 74
     0
 75
     0
  3
Default (ISO)
100
AcDbAlignedDimension
 13
453.9312187885895
 23
843.1926081922295
 33
0.0
 14
465.0312187885894
 24
759.1926081922293
 34
0.0
 50
90.0
100
AcDbRotatedDimension
1001
ACAD
1000
DSTYLE
1002
{
1070
   172
1070
     0
1070
   289
1070
     1
1070
   271
1070
     2
1070
   272
1070
     2
1070
    48
1040
0.0
1070
    47
1040
0.0
1002
}
  0
DIMENSION
  5
6A3
330
70
100
AcDbEntity
  8
Dimension (ISO)
100
AcDbDimension
280
     0
  2
*D12
 10
294.0312187885896
 20
759.1926081922293
 30
0.0
 11
294.0312187885895
 21
796.1926081922294
 31
0.0
 70
   160
  1
<>
 42
74.00000000000011
 73
     0
 74
     0
 75
     0
  3
Default (ISO)
100
AcDbAlignedDimension
 13
315.1312187885896
 23
833.1926081922295
 33
0.0
 14
304.0312187885895
 24
759.1926081922293
 34
0.0
 50
90.0
100
AcDbRotatedDimension
1001
ACAD
1000
DSTYLE
1002
{
1070
   172
1070
     0
1070
   289
1070
     1
1070
   271
1070
     2
1070
   272
1070
     2
1070
    48
1040
0.0
1070
    47
1040
0.0
1002
}
  0
DIMENSION
  5
77F
330
70
100
AcDbEntity
  8
Dimension (ISO)
100
AcDbDimension
280
     0
  2
*D13
 10
299.1700064754557
 20
714.1926081922293
 30
0.0
 11
299.1700064754556
 21
759.1926081922293
 31
0.0
 70
   160
  1
\fAIGDT|b0|i0;\H2.5000;\ln\fTahoma|b0|i0;\H2.5000;<>
 42
90.0
 73
     0
 74
     0
 75
     0
  3
Default (ISO)
100
AcDbAlignedDimension
 13
304.0312187885895
 23
804.1926081922294
 33
0.0
 14
304.0312187885895
 24
714.1926081922293
 34
0.0
 50
90.0
100
AcDbRotatedDimension
1001
ACAD
1000
DSTYLE
1002
{
1070
   172
1070
     0
1070
   289
1070
     1
1070
   271
1070
     2
1070
   272
1070
     2
1070
    48
1040
0.0
1070
    47
1040
0.0
1002
}
  0
DIMENSION
  5
857
330
70
100
AcDbEntity
  8
Dimension (ISO)
100
AcDbDimension
280
     0
  2
*D14
 10
279.9059027902081
 20
701.1926081922295
 30
0.0
 11
279.9059027902079
 21
759.1926081922293
 31
0.0
 70
   160
  1
<>
 42
115.9999999999999
 73
     0
 74
     0
 75
     0
  3
Default (ISO)
100
AcDbAlignedDimension
 13
347.2312187885896
 23
817.1926081922293
 33
0.0
 14
347.2312187885896
 24
701.1926081922295
 34
0.0
 50
90.0
100
AcDbRotatedDimension
1001
ACAD
1000
DSTYLE
1002
{
1070
   172
1070
     0
1070
   289
1070
     1
1070
   271
1070
     2
1070
   272
1070
     2
1070
    48
1040
0.0
1070
    47
1040
0.0
1002
}
  0
DIMENSION
  5
92D
330
70
100
AcDbEntity
  8
Dimension (ISO)
100
AcDbDimension
280
     0
  2
*D15
 10
304.0312187885895
 20
674.1926081922294
 30
0.0
 11
384.5312187885895
 21
674.1926081922294
 31
0.0
 70
   160
  1
<>
 42
161.0
 73
     0
 74
     0
 75
     0
  3
Default (ISO)
100
AcDbAlignedDimension
 13
465.0312187885894
 23
704.1926081922293
 33
0.0
 14
304.0312187885895
 24
714.1926081922293
 34
0.0
 50
180.0
100
AcDbRotatedDimension
1001
ACAD
1000
DSTYLE
1002
{
1070
   172
1070
     0
1070
   289
1070
     1
1070
   271
1070
     2
1070
   272
1070
     2
1070
    48
1040
0.0
1070
    47
1040
0.0
1002
}
  0
ELLIPSE
  5
A03
330
70
100
AcDbEntity
  8
Visible (ISO)
100
AcDbEllipse
 10
747.6450792317406
 20
618.8762887164501
 30
0.0
 11
-2.0
 21
0.0000000000000002
 31
0.0
210
0.0
220
0.0
230
1.0
 40
0.5758617009853117
 41
2.972903479732144
 42
6.451874481037235
  0
ELLIPSE
  5
A04
330
70
100
AcDbEntity
  8
Visible (ISO)
100
AcDbEllipse
 10
656.5697258148997
 20
558.2540095315799
 30
0.0
 11
-1.999999999999993
 21
0.0000000000000003
 31
0.0
210
0.0
220
0.0
230
1.0
 40
0.5758617009853118
 41
2.972903479732145
 42
6.451874481037235
  0
ELLIPSE
  5
A05
330
70
100
AcDbEntity
  8
Visible (ISO)
100
AcDbEllipse
 10
747.6450792317406
 20
621.3289300909778
 30
0.0
 11
5.000000000000001
 21
-0.0000000000000006
 31
0.0
210
0.0
220
0.0
230
1.0
 40
0.5758617009853117
 41
0.0
 42
6.283185307179586
  0
LINE
  5
A06
330
70
100
AcDbEntity
  8
Visible (ISO)
100
AcDbLine
 10
749.6450792317407
 20
618.8762887164501
 30
0.0
 11
749.6450792317407
 21
618.6900002563866
 31
0.0
  0
LINE
  5
A07
330
70
100
AcDbEntity
  8
Visible (ISO)
100
AcDbLine
 10
745.6450792317406
 20
618.8762887164501
 30
0.0
 11
745.6450792317406
 21
618.6900002563866
 31
0.0
  0
ELLIPSE
  5
A08
330
70
100
AcDbEntity
  8
Visible (ISO)
100
AcDbEllipse
 10
747.6450792317406
 20
621.3289300909778
 30
0.0
 11
7.500000000000001
 21
-0.0000000000000011
 31
0.0
210
0.0
220
0.0
230
1.0
 40
0.5758617009853118
 41
0.0
 42
6.283185307179586
  0
SPLINE
  5
A09
330
70
100
AcDbEntity
  8
Visible (ISO)
100
AcDbSpline
210
0.0
220
0.0
230
1.0
 70
     8
 71
     3
 72
    26
 73
    22
 74
     0
 42
0.000000001
 43
0.0000000001
 40
2.012492413470267
 40
2.012492413470267
 40
2.012492413470267
 40
2.012492413470267
 40
2.054783670484011
 40
2.054783670484011
 40
2.396978096534331
 40
2.396978096534331
 40
2.739172522584651
 40
2.739172522584651
 40
3.09812011739086
 40
3.09812011739086
 40
3.457067712197069
 40
3.457067712197069
 40
3.808782577103639
 40
3.808782577103639
 40
4.16049744201021
 40
4.16049744201021
 40
4.512212306916779
 40
4.512212306916779
 40
4.86392717182335
 40
4.86392717182335
 40
4.905014261504627
 40
4.905014261504627
 40
4.905014261504627
 40
4.905014261504627
 10
756.9107459108279
 20
604.9898059511249
 30
0.0
 10
756.9194903722582
 20
604.9106703397503
 30
0.0
 10
756.9247746136626
 20
604.8322447049667
 30
0.0
 10
756.9414453648273
 20
604.1275697815038
 30
0.0
 10
756.7319959556928
 20
603.4764794693739
 30
0.0
 10
755.8461001102926
 20
602.3498524230286
 30
0.0
 10
755.1698925727803
 20
601.875763988026
 30
0.0
 10
753.5697165010138
 20
601.1923668671512
 30
0.0
 10
752.5253900110119
 20
600.9494031215105
 30
0.0
 10
750.2297014158302
 20
600.7705807782212
 30
0.0
 10
748.9781605077235
 20
600.8329036667262
 30
0.0
 10
746.6452536824495
 20
601.1669993960691
 30
0.0
 10
745.4080101141412
 20
601.4565998686809
 30
0.0
 10
743.1228218685823
 20
602.2154496645073
 30
0.0
 10
742.0748521281516
 20
602.6835123242891
 30
0.0
 10
740.4168523546882
 20
603.6382908940693
 30
0.0
 10
739.7023656265004
 20
604.1851594142189
 30
0.0
 10
738.7595800380899
 20
605.2851761211589
 30
0.0
 10
738.5308513247414
 20
605.8397729402595
 30
0.0
 10
738.5328619279337
 20
606.3965018175791
 30
0.0
 10
738.5362117703796
 20
606.4548745699584
 30
0.0
 10
738.5427126365236
 20
606.5132947708743
 30
0.0
  0
LINE
  5
A0A
330
70
100
AcDbEntity
  8
Visible (ISO)
100
AcDbLine
 10
755.1308245165268
 20
621.5950863242443
 30
0.0
 11
756.9112010827729
 21
604.9897886785948
 31
0.0
  0
LINE
  5
A0B
330
70
100
AcDbEntity
  8
Visible (ISO)
100
AcDbLine
 10
740.1593339469545
 20
621.5950863242443
 30
0.0
 11
738.5423083008977
 21
606.5133375175668
 31
0.0
  0
ELLIPSE
  5
A0C
330
70
100
AcDbEntity
  8
Visible (ISO)
100
AcDbEllipse
 10
656.5697258148997
 20
560.7066509061076
 30
0.0
 11
5.000000000000001
 21
-0.0000000000000006
 31
0.0
210
0.0
220
0.0
230
1.0
 40
0.5758617009853117
 41
0.0
 42
6.283185307179586
  0
LINE
  5
A0D
330
70
100
AcDbEntity
  8
Visible (ISO)
100
AcDbLine
 10
658.5697258148996
 20
558.2540095315799
 30
0.0
 11
658.5697258148996
 21
558.0677210715164
 31
0.0
  0
LINE
  5
A0E
330
70
100
AcDbEntity
  8
Visible (ISO)
100
AcDbLine
 10
654.5697258148997
 20
558.2540095315799
 30
0.0
 11
654.5697258148997
 21
558.0677210715164
 31
0.0
  0
ELLIPSE
  5
A0F
330
70
100
AcDbEntity
  8
Visible (ISO)
100
AcDbEllipse
 10
656.5697258148997
 20
560.7066509061076
 30
0.0
 11
7.500000000000001
 21
-0.0000000000000011
 31
0.0
210
0.0
220
0.0
230
1.0
 40
0.5758617009853118
 41
0.0
 42
6.283185307179586
  0
SPLINE
  5
A10
330
70
100
AcDbEntity
  8
Visible (ISO)
100
AcDbSpline
210
0.0
220
0.0
230
1.0
 70
     8
 71
     3
 72
    20
 73
    16
 74
     0
 42
0.000000001
 43
0.0000000001
 40
0.0
 40
0.0
 40
0.0
 40
0.0
 40
0.3560836034615358
 40
0.3560836034615358
 40
0.7121672069230716
 40
0.7121672069230716
 40
1.069813256664776
 40
1.069813256664776
 40
1.427459306406481
 40
1.427459306406481
 40
1.785105356148186
 40
1.785105356148186
 40
2.142751405889891
 40
2.142751405889891
 40
2.229262741315799
 40
2.229262741315799
 40
2.229262741315799
 40
2.229262741315799
 10
663.1378554951241
 20
539.8251608662608
 30
0.0
 10
662.286172398782
 20
539.2305019091529
 30
0.0
 10
661.2126562349133
 20
538.7268424989967
 30
0.0
 10
658.8684278214905
 20
538.0813317263574
 30
0.0
 10
657.5978002111241
 20
537.9376471550503
 30
0.0
 10
655.2190169510076
 20
537.954531899913
 30
0.0
 10
653.9506357497573
 20
538.1168437033839
 30
0.0
 10
651.617690907457
 20
538.7159397083847
 30
0.0
 10
650.5530809338731
 20
539.1508666347236
 30
0.0
 10
648.8671212869604
 20
540.1217462247875
 30
0.0
 10
648.1305385924293
 20
540.724057172112
 30
0.0
 10
647.1382886856074
 20
542.0398134714487
 30
0.0
 10
646.8826549223781
 20
542.7551235177504
 30
0.0
 10
646.8588598536155
 20
543.6107830601504
 30
0.0
 10
646.8679459055147
 20
543.7813721011102
 30
0.0
 10
646.8909196288478
 20
543.9546726215549
 30
0.0
  0
SPLINE
  5
A11
330
70
100
AcDbEntity
  8
Visible (ISO)
100
AcDbSpline
210
0.0
220
0.0
230
1.0
 70
     8
 71
     3
 72
    12
 73
     8
 74
     0
 42
0.000000001
 43
0.0000000001
 40
4.99072253438429
 40
4.99072253438429
 40
4.99072253438429
 40
4.99072253438429
 40
5.079220075131567
 40
5.079220075131567
 40
5.455551418866392
 40
5.455551418866392
 40
5.831882762601217
 40
5.831882762601217
 40
5.831882762601217
 40
5.831882762601217
 10
666.0414619871589
 20
545.5608907380788
 30
0.0
 10
666.0696294083284
 20
545.3473618588268
 30
0.0
 10
666.083697519339
 20
545.1341605140403
 30
0.0
 10
666.084426899481
 20
544.027316458453
 30
0.0
 10
665.8339421077663
 20
543.0545538833682
 30
0.0
 10
664.8110560694253
 20
541.266724565288
 30
0.0
 10
664.0379672693446
 20
540.4536335120577
 30
0.0
 10
663.1378554951241
 20
539.8251608662608
 30
0.0
  0
LINE
  5
A12
330
70
100
AcDbEntity
  8
Visible (ISO)
100
AcDbLine
 10
664.0491442303019
 20
561.0263968735423
 30
0.0
 11
666.0428401323249
 21
545.5611071285578
 31
0.0
  0
LINE
  5
A13
330
70
100
AcDbEntity
  8
Visible (ISO)
100
AcDbLine
 10
649.0903073994974
 20
561.0263968735423
 30
0.0
 11
646.8895094036407
 21
543.9545963840259
 31
0.0
  0
ELLIPSE
  5
A14
330
70
100
AcDbEntity
  8
Visible (ISO)
100
AcDbEllipse
 10
693.3039230975463
 20
521.3619809992683
 30
0.0
 11
-28.94386827188258
 21
50.26183929642757
 31
0.0
210
0.0
220
0.0
230
1.0
 40
0.5780931159156392
 41
3.141592653589792
 42
6.283185307179585
  0
ELLIPSE
  5
A15
330
70
100
AcDbEntity
  8
Visible (ISO)
100
AcDbEllipse
 10
675.7323195850578
 20
511.2431675115305
 30
0.0
 11
-28.94386827188241
 21
50.2618392964273
 31
0.0
210
0.0
220
0.0
230
1.0
 40
0.578093115915639
 41
6.167942026244841
 42
6.378448360851636
  0
ELLIPSE
  5
A16
330
70
100
AcDbEntity
  8
Visible (ISO)
100
AcDbEllipse
 10
675.732319585058
 20
511.2431675115302
 30
0.0
 11
28.94386827187961
 21
-50.2618392964293
 31
0.0
210
0.0
220
0.0
230
0.9999999999999998
 40
0.5780931159156392
 41
6.187922253507999
 42
8.992058993249678
  0
ELLIPSE
  5
A17
330
70
100
AcDbEntity
  8
Visible (ISO)
100
AcDbEllipse
 10
701.4356510811929
 20
526.0447317078794
 30
0.0
 11
-34.6827387051007
 21
60.22754881209853
 31
0.0
210
0.0
220
0.0
230
1.0
 40
0.578093115915639
 41
2.558079816530696
 42
6.866698144238682
  0
ELLIPSE
  5
A18
330
70
100
AcDbEntity
  8
Visible (ISO)
100
AcDbEllipse
 10
725.9369010493103
 20
540.1540631907817
 30
0.0
 11
-34.68273870510067
 21
60.22754881209853
 31
0.0
210
0.0
220
0.0
230
1.0
 40
0.578093115915639
 41
3.141592653589794
 42
6.283185307179588
  0
ELLIPSE
  5
A19
330
70
100
AcDbEntity
  8
Visible (ISO)
100
AcDbEllipse
 10
759.0294984088457
 20
559.2108225962597
 30
0.0
 11
-31.21446483459076
 21
54.20479393088894
 31
0.0
210
0.0
220
0.0
230
1.0
 40
0.5780931159156392
 41
5.954633168013014
 42
6.177778991623466
  0
ELLIPSE
  5
A1A
330
70
100
AcDbEntity
  8
Visible (ISO)
100
AcDbEllipse
 10
759.0294984088456
 20
559.2108225962601
 30
0.0
 11
31.21446483458736
 21
-54.20479393089053
 31
0.0
210
0.0
220
0.0
230
0.9999999999999998
 40
0.5780931159156394
 41
0.1054063155565119
 42
2.422786747305677
  0
ELLIPSE
  5
A1B
330
70
100
AcDbEntity
  8
Visible (ISO)
100
AcDbEllipse
 10
665.5499819359703
 20
505.3795492329215
 30
0.0
 11
-22.45644952128586
 21
38.99625462653997
 31
0.0
210
0.0
220
0.0
230
0.9999999999999998
 40
0.578093115915639
 41
0.4686427367258377
 42
2.672949916864761
  0
ELLIPSE
  5
A1C
330
70
100
AcDbEntity
  8
Visible (ISO)
100
AcDbEllipse
 10
665.5499819359703
 20
505.3795492329215
 30
0.0
 11
-23.47474620343221
 21
40.76455538417752
 31
0.0
210
0.0
220
0.0
230
1.0
 40
0.5780931159156392
 41
0.5020127562342687
 42
2.639579897356298
  0
ELLIPSE
  5
A1D
330
70
100
AcDbEntity
  8
Visible (ISO)
100
AcDbEllipse
 10
658.7617568365783
 20
501.4704703805157
 30
0.0
 11
22.45644952128821
 21
-38.99625462653863
 31
0.0
210
0.0
220
0.0
230
1.0
 40
0.5780931159156392
 41
3.447456650462042
 42
5.977321310307335
  0
ELLIPSE
  5
A1E
330
70
100
AcDbEntity
  8
Visible (ISO)
100
AcDbEllipse
 10
645.1853066377946
 20
493.652312675704
 30
0.0
 11
22.45644952128589
 21
-38.99625462653997
 31
0.0
210
0.0
220
0.0
230
0.9999999999999998
 40
0.578093115915639
 41
0.0
 42
6.283185307179586
  0
ELLIPSE
  5
A1F
330
70
100
AcDbEntity
  8
Visible (ISO)
100
AcDbEllipse
 10
645.1853066377946
 20
493.652312675704
 30
0.0
 11
26.04948144469164
 21
-45.23565536678637
 31
0.0
210
0.0
220
0.0
230
1.0
 40
0.5780931159156389
 41
0.0
 42
6.283185307179586
  0
LINE
  5
A20
330
70
100
AcDbEntity
  8
Visible (ISO)
100
AcDbLine
 10
646.7884513131754
 20
561.5050068079577
 30
0.0
 11
664.3600548256637
 21
571.6238202956958
 31
0.0
  0
LINE
  5
A21
330
70
100
AcDbEntity
  8
Visible (ISO)
100
AcDbLine
 10
704.6761878569405
 20
460.9813282151026
 30
0.0
 11
722.247791369429
 21
471.1001417028407
 31
0.0
  0
LINE
  5
A22
330
70
100
AcDbEntity
  8
Visible (ISO)
100
AcDbLine
 10
666.7529123760921
 20
586.2722805199779
 30
0.0
 11
691.2541623442097
 21
600.3816120028802
 31
0.0
  0
LINE
  5
A23
330
70
100
AcDbEntity
  8
Visible (ISO)
100
AcDbLine
 10
736.1183897862935
 20
465.8171828957809
 30
0.0
 11
760.6196397544111
 21
479.9265143786832
 31
0.0
  0
LINE
  5
A24
330
70
100
AcDbEntity
  8
Visible (ISO)
100
AcDbLine
 10
793.3675578565899
 20
507.2053937367706
 30
0.0
 11
764.0903004356928
 21
482.3702533469045
 31
0.0
  0
LINE
  5
A25
330
70
100
AcDbEntity
  8
Visible (ISO)
100
AcDbLine
 10
731.2851152474829
 20
615.0132970977705
 30
0.0
 11
695.1098086477961
 21
602.1568126369044
 31
0.0
  0
LINE
  5
A26
330
70
100
AcDbEntity
  8
Visible (ISO)
100
AcDbLine
 10
616.7665332448099
 20
537.250465339799
 30
0.0
 11
644.1559047039639
 21
559.6855593605247
 31
0.0
  0
LINE
  5
A27
330
70
100
AcDbEntity
  8
Visible (ISO)
100
AcDbLine
 10
668.6292745280269
 20
447.1893600527237
 30
0.0
 11
701.7811727964272
 21
459.6176645971078
 31
0.0
  0
ENDSEC
  0
SECTION
  2
OBJECTS
  0
DICTIONARY
  5
C
330
0
100
AcDbDictionary
281
     1
  3
ACAD_CIP_PREVIOUS_PRODUCT_INFO
350
A28
  3
ACAD_COLOR
350
63
  3
ACAD_DETAILVIEWSTYLE
350
6A
  3
ACAD_GROUP
350
D
  3
ACAD_LAYOUT
350
62
  3
ACAD_MATERIAL
350
10
  3
ACAD_MLEADERSTYLE
350
66
  3
ACAD_MLINESTYLE
350
5F
  3
ACAD_PLOTSETTINGS
350
61
  3
ACAD_PLOTSTYLENAME
350
E
  3
ACAD_SCALELIST
350
42
  3
ACAD_SECTIONVIEWSTYLE
350
68
  3
ACAD_TABLESTYLE
350
64
  3
ACAD_VISUALSTYLE
350
29
  3
ACDB_RECOMPOSE_DATA
350
A41
  3
AcDbVariableDictionary
350
A29
  0
DICTIONARY
  5
A31
330
16F
100
AcDbDictionary
280
     1
281
     1
  3
ACAD_MLATT
360
A33
  3
ACAD_XREC_ROUNDTRIP
360
A32
  0
DICTIONARY
  5
A36
330
172
100
AcDbDictionary
280
     1
281
     1
  3
ACAD_MLATT
360
A38
  3
ACAD_XREC_ROUNDTRIP
360
A37
  0
DICTIONARY
  5
A35
330
A34
100
AcDbDictionary
280
     1
281
     1
  0
DICTIONARY
  5
A39
330
175
100
AcDbDictionary
280
     1
281
     1
  3
ACAD_MLATT
360
A3B
  3
ACAD_XREC_ROUNDTRIP
360
A3A
  0
DICTIONARY
  5
A3E
330
176
100
AcDbDictionary
280
     1
281
     1
  3
ACAD_MLATT
360
A40
  3
ACAD_XREC_ROUNDTRIP
360
A3F
  0
DICTIONARY
  5
A3D
330
A3C
100
AcDbDictionary
280
     1
281
     1
  0
XRECORD
  5
A28
102
{ACAD_REACTORS
330
C
102
}
330
C
100
AcDbXrecord
280
     1
300
INVPROSA
300
2015
300
INVPROSA_F_S
  0
DICTIONARY
  5
63
102
{ACAD_REACTORS
330
C
102
}
330
C
100
AcDbDictionary
281
     1
  0
DICTIONARY
  5
6A
102
{ACAD_REACTORS
330
C
102
}
330
C
100
AcDbDictionary
281
     1
  3
Imperial24
350
6B
  0
DICTIONARY
  5
D
102
{ACAD_REACTORS
330
C
102
}
330
C
100
AcDbDictionary
281
     1
  0
DICTIONARY
  5
62
102
{ACAD_REACTORS
330
C
102
}
330
C
100
AcDbDictionary
281
     1
  3
Layout1
350
6F
  3
Layout2
350
77
  3
Model
350
73
  0
DICTIONARY
  5
10
102
{ACAD_REACTORS
330
C
102
}
330
C
100
AcDbDictionary
281
     1
  3
ByBlock
350
19
  3
ByLayer
350
11
  3
Global
350
21
  0
DICTIONARY
  5
66
102
{ACAD_REACTORS
330
C
102
}
330
C
100
AcDbDictionary
281
     1
  3
Standard
350
67
  0
DICTIONARY
  5
5F
102
{ACAD_REACTORS
330
C
102
}
330
C
100
AcDbDictionary
281
     1
  3
Standard
350
60
  0
DICTIONARY
  5
61
102
{ACAD_REACTORS
330
C
102
}
330
C
100
AcDbDictionary
281
     1
  0
ACDBDICTIONARYWDFLT
  5
E
102
{ACAD_REACTORS
330
C
102
}
330
C
100
AcDbDictionary
281
     1
  3
Normal
350
F
100
AcDbDictionaryWithDefault
340
F
  0
DICTIONARY
  5
42
102
{ACAD_REACTORS
330
C
102
}
330
C
100
AcDbDictionary
281
     1
  3
A0
350
43
  3
A1
350
44
  3
A2
350
45
  3
A3
350
46
  3
A4
350
47
  3
A5
350
48
  3
A6
350
49
  3
A7
350
4A
  3
A8
350
4B
  3
A9
350
4C
  3
B0
350
4D
  3
B1
350
4E
  3
B2
350
4F
  3
B3
350
50
  3
B4
350
51
  3
B5
350
52
  3
B6
350
53
  0
DICTIONARY
  5
68
102
{ACAD_REACTORS
330
C
102
}
330
C
100
AcDbDictionary
281
     1
  3
Imperial24
350
69
  0
DICTIONARY
  5
64
102
{ACAD_REACTORS
330
C
102
}
330
C
100
AcDbDictionary
281
     1
  3
Standard
350
65
  0
DICTIONARY
  5
29
102
{ACAD_REACTORS
330
C
102
}
330
C
100
AcDbDictionary
281
     1
  3
2dWireframe
350
2F
  3
Basic
350
2E
  3
Brighten
350
35
  3
ColorChange
350
39
  3
Conceptual
350
32
  3
Dim
350
34
  3
EdgeColorOff
350
41
  3
Facepattern
350
38
  3
Flat
350
2A
  3
FlatWithEdges
350
2B
  3
Gouraud
350
2C
  3
GouraudWithEdges
350
2D
  3
Hidden
350
31
  3
JitterOff
350
3F
  3
Linepattern
350
37
  3
OverhangOff
350
40
  3
Realistic
350
33
  3
Shaded
350
3E
  3
Shaded with edges
350
3D
  3
Shades of Gray
350
3A
  3
Sketchy
350
3B
  3
Thicken
350
36
  3
Wireframe
350
30
  3
X-Ray
350
3C
  0
XRECORD
  5
A41
102
{ACAD_REACTORS
330
C
102
}
330
C
100
AcDbXrecord
280
     1
 90
        1
330
65
330
16F
330
172
330
175
330
176
  0
DICTIONARY
  5
A29
102
{ACAD_REACTORS
330
C
102
}
330
C
100
AcDbDictionary
281
     1
  3
CANNOSCALE
350
A2E
  3
CMLEADERSTYLE
350
A2B
  3
CTABLESTYLE
350
A2A
  3
CVIEWDETAILSTYLE
350
A2C
  3
CVIEWSECTIONSTYLE
350
A2D
  0
XRECORD
  5
A33
102
{ACAD_REACTORS
330
A31
102
}
330
A31
100
AcDbXrecord
280
     1
 70
     4
 70
     0
 70
     0
 40
1.0
  2
PART_NUMBER
  1
Embedded Object
 10
34.22301799019188
 20
75.68699284482417
 30
0.0
 40
2.5
 41
181.6575261045072
 46
0.0
 71
     1
 72
     5
  1
491104110090
  7
Note Text (ISO)
 73
     1
 44
1.0
  0
XRECORD
  5
A32
102
{ACAD_REACTORS
330
A31
102
}
330
A31
100
AcDbXrecord
280
     1
102
ACAD_MATT_HEIGHT
140
2.5
  0
XRECORD
  5
A38
102
{ACAD_REACTORS
330
A36
102
}
330
A36
100
AcDbXrecord
280
     1
 70
     4
 70
     0
 70
     1
340
A34
 40
1.0
  2
DESCRIPTION
  1
Embedded Object
 10
34.09040614630361
 20
65.94981469493413
 30
0.0
 40
2.5
 41
50.87075514884978
 46
0.0
 71
     1
 72
     5
  1
PLASSON REDUCING COUPLER 110-90
  7
Note Text (ISO)
 73
     1
 44
1.0
  0
XRECORD
  5
A37
102
{ACAD_REACTORS
330
A36
102
}
330
A36
100
AcDbXrecord
280
     1
102
ACAD_MATT_HEIGHT
140
2.5
  0
XRECORD
  5
A3B
102
{ACAD_REACTORS
330
A39
102
}
330
A39
100
AcDbXrecord
280
     1
 70
     2
 70
     0
 70
     0
 40
1.0
  2
PART_NUMBER
  1
Embedded Object
 10
855.2230179901917
 20
95.68699284482418
 30
0.0
 40
2.5
 41
181.6575261045072
 46
0.0
 71
     1
 72
     5
  1
491104110090
  7
Note Text (ISO)
 73
     1
 44
1.0
  0
XRECORD
  5
A3A
102
{ACAD_REACTORS
330
A39
102
}
330
A39
100
AcDbXrecord
280
     1
102
ACAD_MATT_HEIGHT
140
2.5
  0
XRECORD
  5
A40
102
{ACAD_REACTORS
330
A3E
102
}
330
A3E
100
AcDbXrecord
280
     1
 70
     2
 70
     0
 70
     1
340
A3C
 40
1.0
  2
DESCRIPTION
  1
Embedded Object
 10
855.0904061463034
 20
85.94981469493413
 30
0.0
 40
2.5
 41
50.87075514884978
 46
0.0
 71
     1
 72
     5
  1
PLASSON REDUCING COUPLER 110-90
  7
Note Text (ISO)
 73
     1
 44
1.0
  0
XRECORD
  5
A3F
102
{ACAD_REACTORS
330
A3E
102
}
330
A3E
100
AcDbXrecord
280
     1
102
ACAD_MATT_HEIGHT
140
2.5
  0
ACDBDETAILVIEWSTYLE
  5
6B
102
{ACAD_XDICTIONARY
360
A76
102
}
102
{ACAD_REACTORS
330
6A
102
}
330
6A
100
AcDbModelDocViewStyle
 70
     0
  3
Imperial24
290
     0
100
AcDbDetailViewStyle
 70
     0
 71
     0
 90
        3
 71
     1
340
55
 62
   256
 40
0.24
340
0
 62
   256
 40
0.24
300

 40
0.36
280
     3
 71
     2
340
5D
 90
       25
 62
   256
 71
     3
340
55
 62
   256
 40
0.24
 90
        1
 40
0.75
 90
        1
300
%<\AcVar ViewType \f "%tc1">% %<\AcVar ViewDetailId>%\PSCALE %<\AcVar ViewScale \f "%sn">%
 71
     4
340
5D
 90
       25
 62
   256
340
5D
 90
       25
 62
   256
280
     0
  0
LAYOUT
  5
6F
102
{ACAD_REACTORS
330
62
102
}
330
62
100
AcDbPlotSettings
  1

  2

  4

  6

 40
0.0
 41
0.0
 42
0.0
 43
0.0
 44
0.0
 45
0.0
 46
0.0
 47
0.0
 48
0.0
 49
0.0
140
0.0
141
0.0
142
1.0
143
1.0
 70
   688
 72
     0
 73
     0
 74
     5
  7

 75
    16
147
1.0
 76
     0
 77
     2
 78
   300
148
0.0
149
0.0
100
AcDbLayout
  1
Layout1
 70
     1
 71
     1
 10
0.0
 20
0.0
 11
12.0
 21
9.0
 12
0.0
 22
0.0
 32
0.0
 14
0.0
 24
0.0
 34
0.0
 15
0.0
 25
0.0
 35
0.0
146
0.0
 13
0.0
 23
0.0
 33
0.0
 16
1.0
 26
0.0
 36
0.0
 17
0.0
 27
1.0
 37
0.0
 76
     0
330
6C
  0
LAYOUT
  5
77
102
{ACAD_REACTORS
330
62
102
}
330
62
100
AcDbPlotSettings
  1

  2

  4

  6

 40
0.0
 41
0.0
 42
0.0
 43
0.0
 44
0.0
 45
0.0
 46
0.0
 47
0.0
 48
0.0
 49
0.0
140
0.0
141
0.0
142
1.0
143
1.0
 70
   688
 72
     0
 73
     0
 74
     5
  7

 75
    16
147
1.0
 76
     0
 77
     2
 78
   300
148
0.0
149
0.0
100
AcDbLayout
  1
Layout2
 70
     1
 71
     2
 10
0.0
 20
0.0
 11
12.0
 21
9.0
 12
0.0
 22
0.0
 32
0.0
 14
0.0
 24
0.0
 34
0.0
 15
0.0
 25
0.0
 35
0.0
146
0.0
 13
0.0
 23
0.0
 33
0.0
 16
1.0
 26
0.0
 36
0.0
 17
0.0
 27
1.0
 37
0.0
 76
     0
330
74
  0
LAYOUT
  5
73
102
{ACAD_REACTORS
330
62
102
}
330
62
100
AcDbPlotSettings
  1

  2

  4

  6

 40
0.0
 41
0.0
 42
0.0
 43
0.0
 44
0.0
 45
0.0
 46
0.0
 47
0.0
 48
0.0
 49
0.0
140
0.0
141
0.0
142
1.0
143
1.0
 70
  1712
 72
     0
 73
     0
 74
     0
  7

 75
     0
147
1.0
 76
     0
 77
     2
 78
   300
148
0.0
149
0.0
100
AcDbLayout
  1
Model
 70
     1
 71
     0
 10
0.0
 20
0.0
 11
12.0
 21
9.0
 12
0.0
 22
0.0
 32
0.0
 14
0.0
 24
0.0
 34
0.0
 15
0.0
 25
0.0
 35
0.0
146
0.0
 13
0.0
 23
0.0
 33
0.0
 16
1.0
 26
0.0
 36
0.0
 17
0.0
 27
1.0
 37
0.0
 76
     0
330
70
  0
MATERIAL
  5
19
102
{ACAD_XDICTIONARY
360
1A
102
}
102
{ACAD_REACTORS
330
10
102
}
330
10
100
AcDbMaterial
  1
ByBlock
 72
     0
 43
0.0208333333333333
 43
0.0
 43
0.0
 43
0.0
 43
0.0
 43
0.0208333333333333
 43
0.0
 43
0.0
 43
0.0
 43
0.0
 43
1.0
 43
0.0
 43
0.0
 43
0.0
 43
0.0
 43
1.0
 77
     0
 47
0.0208333333333333
 47
0.0
 47
0.0
 47
0.0
 47
0.0
 47
0.0208333333333333
 47
0.0
 47
0.0
 47
0.0
 47
0.0
 47
1.0
 47
0.0
 47
0.0
 47
0.0
 47
0.0
 47
1.0
171
     0
 49
0.0208333333333333
 49
0.0
 49
0.0
 49
0.0
 49
0.0
 49
0.0208333333333333
 49
0.0
 49
0.0
 49
0.0
 49
0.0
 49
1.0
 49
0.0
 49
0.0
 49
0.0
 49
0.0
 49
1.0
175
     0
142
0.0208333333333333
142
0.0
142
0.0
142
0.0
142
0.0
142
0.0208333333333333
142
0.0
142
0.0
142
0.0
142
0.0
142
1.0
142
0.0
142
0.0
142
0.0
142
0.0
142
1.0
179
     0
144
0.0208333333333333
144
0.0
144
0.0
144
0.0
144
0.0
144
0.0208333333333333
144
0.0
144
0.0
144
0.0
144
0.0
144
1.0
144
0.0
144
0.0
144
0.0
144
0.0
144
1.0
147
0.0208333333333333
147
0.0
147
0.0
147
0.0
147
0.0
147
0.0208333333333333
147
0.0
147
0.0
147
0.0
147
0.0
147
1.0
147
0.0
147
0.0
147
0.0
147
0.0
147
1.0
  0
MATERIAL
  5
11
102
{ACAD_XDICTIONARY
360
12
102
}
102
{ACAD_REACTORS
330
10
102
}
330
10
100
AcDbMaterial
  1
ByLayer
 72
     0
 43
0.0208333333333333
 43
0.0
 43
0.0
 43
0.0
 43
0.0
 43
0.0208333333333333
 43
0.0
 43
0.0
 43
0.0
 43
0.0
 43
1.0
 43
0.0
 43
0.0
 43
0.0
 43
0.0
 43
1.0
 77
     0
 47
0.0208333333333333
 47
0.0
 47
0.0
 47
0.0
 47
0.0
 47
0.0208333333333333
 47
0.0
 47
0.0
 47
0.0
 47
0.0
 47
1.0
 47
0.0
 47
0.0
 47
0.0
 47
0.0
 47
1.0
171
     0
 49
0.0208333333333333
 49
0.0
 49
0.0
 49
0.0
 49
0.0
 49
0.0208333333333333
 49
0.0
 49
0.0
 49
0.0
 49
0.0
 49
1.0
 49
0.0
 49
0.0
 49
0.0
 49
0.0
 49
1.0
175
     0
142
0.0208333333333333
142
0.0
142
0.0
142
0.0
142
0.0
142
0.0208333333333333
142
0.0
142
0.0
142
0.0
142
0.0
142
1.0
142
0.0
142
0.0
142
0.0
142
0.0
142
1.0
179
     0
144
0.0208333333333333
144
0.0
144
0.0
144
0.0
144
0.0
144
0.0208333333333333
144
0.0
144
0.0
144
0.0
144
0.0
144
1.0
144
0.0
144
0.0
144
0.0
144
0.0
144
1.0
147
0.0208333333333333
147
0.0
147
0.0
147
0.0
147
0.0
147
0.0208333333333333
147
0.0
147
0.0
147
0.0
147
0.0
147
1.0
147
0.0
147
0.0
147
0.0
147
0.0
147
1.0
  0
MATERIAL
  5
21
102
{ACAD_XDICTIONARY
360
22
102
}
102
{ACAD_REACTORS
330
10
102
}
330
10
100
AcDbMaterial
  1
Global
 72
     0
 43
0.0208333333333333
 43
0.0
 43
0.0
 43
0.0
 43
0.0
 43
0.0208333333333333
 43
0.0
 43
0.0
 43
0.0
 43
0.0
 43
1.0
 43
0.0
 43
0.0
 43
0.0
 43
0.0
 43
1.0
 77
     0
 47
0.0208333333333333
 47
0.0
 47
0.0
 47
0.0
 47
0.0
 47
0.0208333333333333
 47
0.0
 47
0.0
 47
0.0
 47
0.0
 47
1.0
 47
0.0
 47
0.0
 47
0.0
 47
0.0
 47
1.0
171
     0
 49
0.0208333333333333
 49
0.0
 49
0.0
 49
0.0
 49
0.0
 49
0.0208333333333333
 49
0.0
 49
0.0
 49
0.0
 49
0.0
 49
1.0
 49
0.0
 49
0.0
 49
0.0
 49
0.0
 49
1.0
175
     0
142
0.0208333333333333
142
0.0
142
0.0
142
0.0
142
0.0
142
0.0208333333333333
142
0.0
142
0.0
142
0.0
142
0.0
142
1.0
142
0.0
142
0.0
142
0.0
142
0.0
142
1.0
179
     0
144
0.0208333333333333
144
0.0
144
0.0
144
0.0
144
0.0
144
0.0208333333333333
144
0.0
144
0.0
144
0.0
144
0.0
144
1.0
144
0.0
144
0.0
144
0.0
144
0.0
144
1.0
147
0.0208333333333333
147
0.0
147
0.0
147
0.0
147
0.0
147
0.0208333333333333
147
0.0
147
0.0
147
0.0
147
0.0
147
1.0
147
0.0
147
0.0
147
0.0
147
0.0
147
1.0
  0
MLEADERSTYLE
  5
67
102
{ACAD_XDICTIONARY
360
A72
102
}
102
{ACAD_REACTORS
330
66
102
}
330
66
100
AcDbMLeaderStyle
179
     2
170
     2
171
     1
172
     0
 90
        2
 40
0.0
 41
0.0
173
     1
 91
-1056964608
340
5B
 92
       -2
290
     1
 42
0.09
291
     1
 43
0.36
  3
Standard
 44
0.18
300

342
55
174
     1
178
     6
175
     1
176
     0
 93
-1056964608
 45
0.18
292
     0
297
     0
 46
0.18
 94
-1056964608
 47
1.0
 49
1.0
140
1.0
293
     1
141
0.0
294
     1
177
     0
142
1.0
295
     0
296
     0
143
0.125
271
     0
272
     9
273
     9
  0
MLINESTYLE
  5
60
102
{ACAD_REACTORS
330
5F
102
}
330
5F
100
AcDbMlineStyle
  2
STANDARD
 70
     0
  3

 62
   256
 51
90.0
 52
90.0
 71
     2
 49
0.5
 62
   256
  6
BYLAYER
 49
-0.5
 62
   256
  6
BYLAYER
  0
ACDBPLACEHOLDER
  5
F
102
{ACAD_REACTORS
330
E
102
}
330
E
  0
SCALE
  5
43
102
{ACAD_REACTORS
330
42
102
}
330
42
100
AcDbScale
 70
     0
300
1:1
140
1.0
141
1.0
290
     1
  0
SCALE
  5
44
102
{ACAD_REACTORS
330
42
102
}
330
42
100
AcDbScale
 70
     0
300
1/128" = 1'-0"
140
0.0078125
141
12.0
290
     0
  0
SCALE
  5
45
102
{ACAD_REACTORS
330
42
102
}
330
42
100
AcDbScale
 70
     0
300
1/64" = 1'-0"
140
0.015625
141
12.0
290
     0
  0
SCALE
  5
46
102
{ACAD_REACTORS
330
42
102
}
330
42
100
AcDbScale
 70
     0
300
1/32" = 1'-0"
140
0.03125
141
12.0
290
     0
  0
SCALE
  5
47
102
{ACAD_REACTORS
330
42
102
}
330
42
100
AcDbScale
 70
     0
300
1/16" = 1'-0"
140
0.0625
141
12.0
290
     0
  0
SCALE
  5
48
102
{ACAD_REACTORS
330
42
102
}
330
42
100
AcDbScale
 70
     0
300
3/32" = 1'-0"
140
0.09375
141
12.0
290
     0
  0
SCALE
  5
49
102
{ACAD_REACTORS
330
42
102
}
330
42
100
AcDbScale
 70
     0
300
1/8" = 1'-0"
140
0.125
141
12.0
290
     0
  0
SCALE
  5
4A
102
{ACAD_REACTORS
330
42
102
}
330
42
100
AcDbScale
 70
     0
300
3/16" = 1'-0"
140
0.1875
141
12.0
290
     0
  0
SCALE
  5
4B
102
{ACAD_REACTORS
330
42
102
}
330
42
100
AcDbScale
 70
     0
300
1/4" = 1'-0"
140
0.25
141
12.0
290
     0
  0
SCALE
  5
4C
102
{ACAD_REACTORS
330
42
102
}
330
42
100
AcDbScale
 70
     0
300
3/8" = 1'-0"
140
0.375
141
12.0
290
     0
  0
SCALE
  5
4D
102
{ACAD_REACTORS
330
42
102
}
330
42
100
AcDbScale
 70
     0
300
1/2" = 1'-0"
140
0.5
141
12.0
290
     0
  0
SCALE
  5
4E
102
{ACAD_REACTORS
330
42
102
}
330
42
100
AcDbScale
 70
     0
300
3/4" = 1'-0"
140
0.75
141
12.0
290
     0
  0
SCALE
  5
4F
102
{ACAD_REACTORS
330
42
102
}
330
42
100
AcDbScale
 70
     0
300
1" = 1'-0"
140
1.0
141
12.0
290
     0
  0
SCALE
  5
50
102
{ACAD_REACTORS
330
42
102
}
330
42
100
AcDbScale
 70
     0
300
1-1/2" = 1'-0"
140
1.5
141
12.0
290
     0
  0
SCALE
  5
51
102
{ACAD_REACTORS
330
42
102
}
330
42
100
AcDbScale
 70
     0
300
3" = 1'-0"
140
3.0
141
12.0
290
     0
  0
SCALE
  5
52
102
{ACAD_REACTORS
330
42
102
}
330
42
100
AcDbScale
 70
     0
300
6" = 1'-0"
140
6.0
141
12.0
290
     0
  0
SCALE
  5
53
102
{ACAD_REACTORS
330
42
102
}
330
42
100
AcDbScale
 70
     0
300
1'-0" = 1'-0"
140
12.0
141
12.0
290
     0
  0
ACDBSECTIONVIEWSTYLE
  5
69
102
{ACAD_XDICTIONARY
360
A74
102
}
102
{ACAD_REACTORS
330
68
102
}
330
68
100
AcDbModelDocViewStyle
 70
     0
  3
Imperial24
290
     0
100
AcDbSectionViewStyle
 70
     0
 71
     0
 90
       78
 71
     1
340
55
 62
   256
 40
0.24
340
0
340
0
 62
   256
 40
0.24
300
I, O, Q, S, X, Z
 40
0.48
 90
        3
 40
0.18
 90
        1
 71
     2
340
5D
 90
       25
 62
   256
340
5D
 90
       50
 62
   256
 40
0.24
 40
0.0
 40
0.24
 71
     3
340
55
 62
   256
 40
0.24
 90
        1
 40
0.75
 90
        1
300
%<\AcVar ViewType \f "%tc1">% %<\AcVar ViewSectionStartId>%-%<\AcVar ViewSectionEndId>%\PSCALE %<\AcVar ViewScale \f "%sn">%
 71
     4
 62
   256
 62
   257
300
ANSI31
 40
1.0
 90
        0
290
     0
290
     0
 90
        6
 40
0.0
 40
1.570796326794896
 40
0.2617993877991494
 40
1.308996938995747
 40
-0.2617993877991494
 40
1.832595714594046
  0
TABLESTYLE
  5
65
102
{ACAD_XDICTIONARY
360
A2F
102
}
102
{ACAD_REACTORS
330
64
102
}
330
64
100
AcDbTableStyle
280
     0
  3
Standard
 70
     0
 71
     0
 40
0.06
 41
0.06
280
     0
281
     0
  7
Standard
140
0.18
170
     2
 62
     0
 63
     7
283
     0
 90
      512
 91
        0
  1

274
    -2
284
     1
 64
     0
275
    -2
285
     1
 65
     0
276
    -2
286
     1
 66
     0
277
    -2
287
     1
 67
     0
278
    -2
288
     1
 68
     0
279
    -2
289
     1
 69
     0
  7
Standard
140
0.25
170
     5
 62
     0
 63
     7
283
     0
 90
      512
 91
        0
  1

274
    -2
284
     1
 64
     0
275
    -2
285
     1
 65
     0
276
    -2
286
     1
 66
     0
277
    -2
287
     1
 67
     0
278
    -2
288
     1
 68
     0
279
    -2
289
     1
 69
     0
  7
Standard
140
0.18
170
     5
 62
     0
 63
     7
283
     0
 90
      512
 91
        0
  1

274
    -2
284
     1
 64
     0
275
    -2
285
     1
 65
     0
276
    -2
286
     1
 66
     0
277
    -2
287
     1
 67
     0
278
    -2
288
     1
 68
     0
279
    -2
289
     1
 69
     0
  0
VISUALSTYLE
  5
2F
102
{ACAD_XDICTIONARY
360
A4C
102
}
102
{ACAD_REACTORS
330
29
102
}
330
29
100
AcDbVisualStyle
  2
2dWireframe
 70
     4
177
     2
291
     0
 71
     0
176
     1
 72
     2
176
     1
 73
     0
176
     1
 90
        0
176
     1
 40
0.6
176
     1
 41
30.0
176
     1
 63
     7
421
 16777215
176
     1
 74
     1
176
     1
 91
        4
176
     1
 64
     7
176
     1
 65
   257
176
     1
 75
     1
176
     1
175
     1
176
     1
 42
1.0
176
     1
 92
        0
176
     1
 66
   257
176
     1
 43
1.0
176
     1
 76
     1
176
     1
 77
     6
176
     1
 78
     2
176
     1
 67
     7
176
     1
 79
     5
176
     1
170
     0
176
     1
171
     0
176
     1
290
     0
176
     1
 93
        1
176
     1
 44
0.0
176
     1
173
     0
176
     1
1001
ACAD
1000
AcDbSavedByObjectVersion
1070
     0
  0
VISUALSTYLE
  5
2E
102
{ACAD_XDICTIONARY
360
A4A
102
}
102
{ACAD_REACTORS
330
29
102
}
330
29
100
AcDbVisualStyle
  2
Basic
 70
     7
177
     2
291
     1
 71
     1
176
     1
 72
     0
176
     1
 73
     1
176
     1
 90
        0
176
     1
 40
0.6
176
     1
 41
30.0
176
     1
 63
     7
421
 16777215
176
     1
 74
     0
176
     1
 91
        4
176
     1
 64
     7
176
     1
 65
   257
176
     1
 75
     1
176
     1
175
     1
176
     1
 42
1.0
176
     1
 92
        8
176
     1
 66
     7
176
     1
 43
1.0
176
     1
 76
     1
176
     1
 77
     6
176
     1
 78
     2
176
     1
 67
     7
176
     1
 79
     5
176
     1
170
     0
176
     1
171
     0
176
     1
290
     0
176
     1
 93
        1
176
     1
 44
0.0
176
     1
173
     0
176
     1
1001
ACAD
1000
AcDbSavedByObjectVersion
1070
     0
  0
VISUALSTYLE
  5
35
102
{ACAD_XDICTIONARY
360
A58
102
}
102
{ACAD_REACTORS
330
29
102
}
330
29
100
AcDbVisualStyle
  2
Brighten
 70
    12
177
     2
291
     1
 71
     2
176
     1
 72
     2
176
     1
 73
     0
176
     1
 90
        0
176
     1
 40
0.6
176
     1
 41
30.0
176
     1
 63
     7
421
 16777215
176
     1
 74
     1
176
     1
 91
        4
176
     1
 64
     7
176
     1
 65
   257
176
     1
 75
     1
176
     1
175
     1
176
     1
 42
1.0
176
     1
 92
        8
176
     1
 66
     7
176
     1
 43
1.0
176
     1
 76
     1
176
     1
 77
     6
176
     1
 78
     2
176
     1
 67
     7
176
     1
 79
     5
176
     1
170
     0
176
     1
171
     0
176
     1
290
     0
176
     1
 93
        1
176
     1
 44
50.0
176
     1
173
     0
176
     1
1001
ACAD
1000
AcDbSavedByObjectVersion
1070
     0
  0
VISUALSTYLE
  5
39
102
{ACAD_XDICTIONARY
360
A60
102
}
102
{ACAD_REACTORS
330
29
102
}
330
29
100
AcDbVisualStyle
  2
ColorChange
 70
    16
177
     2
291
     1
 71
     2
176
     1
 72
     2
176
     1
 73
     3
176
     1
 90
        0
176
     1
 40
0.6
176
     1
 41
30.0
176
     1
 63
     8
421
  8421504
176
     1
 74
     1
176
     1
 91
        4
176
     1
 64
     7
176
     1
 65
   257
176
     1
 75
     1
176
     1
175
     1
176
     1
 42
1.0
176
     1
 92
        8
176
     1
 66
     8
424
  8421504
176
     1
 43
1.0
176
     1
 76
     1
176
     1
 77
     6
176
     1
 78
     2
176
     1
 67
     7
176
     1
 79
     5
176
     1
170
     0
176
     1
171
     0
176
     1
290
     0
176
     1
 93
        1
176
     1
 44
0.0
176
     1
173
     0
176
     1
1001
ACAD
1000
AcDbSavedByObjectVersion
1070
     0
  0
VISUALSTYLE
  5
32
102
{ACAD_XDICTIONARY
360
A52
102
}
102
{ACAD_REACTORS
330
29
102
}
330
29
100
AcDbVisualStyle
  2
Conceptual
 70
     9
177
     2
291
     0
 71
     3
176
     1
 72
     2
176
     1
 73
     0
176
     1
 90
        0
176
     1
 40
0.6
176
     1
 41
30.0
176
     1
 63
     7
421
 16777215
176
     1
 74
     2
176
     1
 91
        2
176
     1
 64
     7
176
     1
 65
   257
176
     1
 75
     1
176
     1
175
     1
176
     1
 42
179.0
176
     1
 92
        8
176
     1
 66
     7
176
     1
 43
1.0
176
     1
 76
     1
176
     1
 77
     6
176
     1
 78
     2
176
     1
 67
     7
176
     1
 79
     3
176
     1
170
     0
176
     1
171
     0
176
     1
290
     0
176
     1
 93
        1
176
     1
 44
0.0
176
     1
173
     0
176
     1
1001
ACAD
1000
AcDbSavedByObjectVersion
1070
     0
  0
VISUALSTYLE
  5
34
102
{ACAD_XDICTIONARY
360
A56
102
}
102
{ACAD_REACTORS
330
29
102
}
330
29
100
AcDbVisualStyle
  2
Dim
 70
    11
177
     2
291
     1
 71
     2
176
     1
 72
     2
176
     1
 73
     0
176
     1
 90
        0
176
     1
 40
0.6
176
     1
 41
30.0
176
     1
 63
     7
421
 16777215
176
     1
 74
     1
176
     1
 91
        4
176
     1
 64
     7
176
     1
 65
   257
176
     1
 75
     1
176
     1
175
     1
176
     1
 42
1.0
176
     1
 92
        8
176
     1
 66
     7
176
     1
 43
1.0
176
     1
 76
     1
176
     1
 77
     6
176
     1
 78
     2
176
     1
 67
     7
176
     1
 79
     5
176
     1
170
     0
176
     1
171
     0
176
     1
290
     0
176
     1
 93
        1
176
     1
 44
-50.0
176
     1
173
     0
176
     1
1001
ACAD
1000
AcDbSavedByObjectVersion
1070
     0
  0
VISUALSTYLE
  5
41
102
{ACAD_XDICTIONARY
360
A70
102
}
102
{ACAD_REACTORS
330
29
102
}
330
29
100
AcDbVisualStyle
  2
EdgeColorOff
 70
    22
177
     2
291
     1
 71
     2
176
     0
 72
     2
176
     0
 73
     0
176
     0
 90
        0
176
     0
 40
0.6
176
     0
 41
30.0
176
     0
 63
     7
421
 16777215
176
     0
 74
     1
176
     0
 91
        4
176
     0
 64
     7
176
     0
 65
   257
176
     0
 75
     1
176
     0
175
     1
176
     0
 42
1.0
176
     0
 92
        8
176
     2
 66
     7
176
     0
 43
1.0
176
     0
 76
     1
176
     0
 77
     6
176
     0
 78
     2
176
     0
 67
     7
176
     0
 79
     5
176
     0
170
     0
176
     0
171
     0
176
     0
290
     0
176
     0
 93
        1
176
     0
 44
0.0
176
     0
173
     0
176
     0
1001
ACAD
1000
AcDbSavedByObjectVersion
1070
     0
  0
VISUALSTYLE
  5
38
102
{ACAD_XDICTIONARY
360
A5E
102
}
102
{ACAD_REACTORS
330
29
102
}
330
29
100
AcDbVisualStyle
  2
Facepattern
 70
    15
177
     2
291
     1
 71
     2
176
     1
 72
     2
176
     1
 73
     0
176
     1
 90
        0
176
     1
 40
0.6
176
     1
 41
30.0
176
     1
 63
     7
421
 16777215
176
     1
 74
     1
176
     1
 91
        4
176
     1
 64
     7
176
     1
 65
   257
176
     1
 75
     1
176
     1
175
     1
176
     1
 42
1.0
176
     1
 92
        8
176
     1
 66
     7
176
     1
 43
1.0
176
     1
 76
     1
176
     1
 77
     6
176
     1
 78
     2
176
     1
 67
     7
176
     1
 79
     5
176
     1
170
     0
176
     1
171
     0
176
     1
290
     0
176
     1
 93
        1
176
     1
 44
0.0
176
     1
173
     0
176
     1
1001
ACAD
1000
AcDbSavedByObjectVersion
1070
     0
  0
VISUALSTYLE
  5
2A
102
{ACAD_XDICTIONARY
360
A42
102
}
102
{ACAD_REACTORS
330
29
102
}
330
29
100
AcDbVisualStyle
  2
Flat
 70
     0
177
     2
291
     1
 71
     2
176
     1
 72
     1
176
     1
 73
     1
176
     1
 90
        2
176
     1
 40
0.6
176
     1
 41
30.0
176
     1
 63
     7
421
 16777215
176
     1
 74
     0
176
     1
 91
        0
176
     1
 64
     7
176
     1
 65
   257
176
     1
 75
     1
176
     1
175
     1
176
     1
 42
1.0
176
     1
 92
        8
176
     1
 66
     7
176
     1
 43
1.0
176
     1
 76
     1
176
     1
 77
     6
176
     1
 78
     2
176
     1
 67
     7
176
     1
 79
     5
176
     1
170
     0
176
     1
171
     0
176
     1
290
     0
176
     1
 93
       13
176
     1
 44
0.0
176
     1
173
     0
176
     1
1001
ACAD
1000
AcDbSavedByObjectVersion
1070
     0
  0
VISUALSTYLE
  5
2B
102
{ACAD_XDICTIONARY
360
A44
102
}
102
{ACAD_REACTORS
330
29
102
}
330
29
100
AcDbVisualStyle
  2
FlatWithEdges
 70
     1
177
     2
291
     1
 71
     2
176
     1
 72
     1
176
     1
 73
     1
176
     1
 90
        2
176
     1
 40
0.6
176
     1
 41
30.0
176
     1
 63
     7
421
 16777215
176
     1
 74
     1
176
     1
 91
        0
176
     1
 64
     7
176
     1
 65
   257
176
     1
 75
     1
176
     1
175
     1
176
     1
 42
1.0
176
     1
 92
        0
176
     1
 66
   257
176
     1
 43
1.0
176
     1
 76
     1
176
     1
 77
     6
176
     1
 78
     2
176
     1
 67
     7
176
     1
 79
     5
176
     1
170
     0
176
     1
171
     0
176
     1
290
     0
176
     1
 93
       13
176
     1
 44
0.0
176
     1
173
     0
176
     1
1001
ACAD
1000
AcDbSavedByObjectVersion
1070
     0
  0
VISUALSTYLE
  5
2C
102
{ACAD_XDICTIONARY
360
A46
102
}
102
{ACAD_REACTORS
330
29
102
}
330
29
100
AcDbVisualStyle
  2
Gouraud
 70
     2
177
     2
291
     1
 71
     2
176
     1
 72
     2
176
     1
 73
     1
176
     1
 90
        2
176
     1
 40
0.6
176
     1
 41
30.0
176
     1
 63
     7
421
 16777215
176
     1
 74
     0
176
     1
 91
        0
176
     1
 64
     7
176
     1
 65
   257
176
     1
 75
     1
176
     1
175
     1
176
     1
 42
1.0
176
     1
 92
        0
176
     1
 66
     7
176
     1
 43
1.0
176
     1
 76
     1
176
     1
 77
     6
176
     1
 78
     2
176
     1
 67
     7
176
     1
 79
     5
176
     1
170
     0
176
     1
171
     0
176
     1
290
     0
176
     1
 93
       13
176
     1
 44
0.0
176
     1
173
     0
176
     1
1001
ACAD
1000
AcDbSavedByObjectVersion
1070
     0
  0
VISUALSTYLE
  5
2D
102
{ACAD_XDICTIONARY
360
A48
102
}
102
{ACAD_REACTORS
330
29
102
}
330
29
100
AcDbVisualStyle
  2
GouraudWithEdges
 70
     3
177
     2
291
     1
 71
     2
176
     1
 72
     2
176
     1
 73
     1
176
     1
 90
        2
176
     1
 40
0.6
176
     1
 41
30.0
176
     1
 63
     7
421
 16777215
176
     1
 74
     1
176
     1
 91
        0
176
     1
 64
     7
176
     1
 65
   257
176
     1
 75
     1
176
     1
175
     1
176
     1
 42
1.0
176
     1
 92
        0
176
     1
 66
   257
176
     1
 43
1.0
176
     1
 76
     1
176
     1
 77
     6
176
     1
 78
     2
176
     1
 67
     7
176
     1
 79
     5
176
     1
170
     0
176
     1
171
     0
176
     1
290
     0
176
     1
 93
       13
176
     1
 44
0.0
176
     1
173
     0
176
     1
1001
ACAD
1000
AcDbSavedByObjectVersion
1070
     0
  0
VISUALSTYLE
  5
31
102
{ACAD_XDICTIONARY
360
A50
102
}
102
{ACAD_REACTORS
330
29
102
}
330
29
100
AcDbVisualStyle
  2
Hidden
 70
     6
177
     2
291
     0
 71
     1
176
     1
 72
     2
176
     1
 73
     2
176
     1
 90
        0
176
     1
 40
0.6
176
     1
 41
30.0
176
     1
 63
     7
421
 16777215
176
     1
 74
     2
176
     1
 91
        2
176
     1
 64
     7
176
     1
 65
   257
176
     1
 75
     2
176
     1
175
     1
176
     1
 42
40.0
176
     1
 92
        0
176
     1
 66
   257
176
     1
 43
1.0
176
     1
 76
     1
176
     1
 77
     6
176
     1
 78
     2
176
     1
 67
     7
176
     1
 79
     3
176
     1
170
     0
176
     1
171
     0
176
     1
290
     0
176
     1
 93
        1
176
     1
 44
0.0
176
     1
173
     0
176
     1
1001
ACAD
1000
AcDbSavedByObjectVersion
1070
     0
  0
VISUALSTYLE
  5
3F
102
{ACAD_XDICTIONARY
360
A6C
102
}
102
{ACAD_REACTORS
330
29
102
}
330
29
100
AcDbVisualStyle
  2
JitterOff
 70
    20
177
     2
291
     1
 71
     2
176
     0
 72
     2
176
     0
 73
     0
176
     0
 90
        0
176
     0
 40
0.6
176
     0
 41
30.0
176
     0
 63
     7
421
 16777215
176
     0
 74
     1
176
     0
 91
        4
176
     0
 64
     7
176
     0
 65
   257
176
     0
 75
     1
176
     0
175
     1
176
     0
 42
1.0
176
     0
 92
       10
176
     2
 66
     7
176
     0
 43
1.0
176
     0
 76
     1
176
     0
 77
     6
176
     0
 78
     2
176
     0
 67
     7
176
     0
 79
     5
176
     0
170
     0
176
     0
171
     0
176
     0
290
     0
176
     0
 93
        1
176
     0
 44
0.0
176
     0
173
     0
176
     0
1001
ACAD
1000
AcDbSavedByObjectVersion
1070
     0
  0
VISUALSTYLE
  5
37
102
{ACAD_XDICTIONARY
360
A5C
102
}
102
{ACAD_REACTORS
330
29
102
}
330
29
100
AcDbVisualStyle
  2
Linepattern
 70
    14
177
     2
291
     1
 71
     2
176
     1
 72
     2
176
     1
 73
     0
176
     1
 90
        0
176
     1
 40
0.6
176
     1
 41
30.0
176
     1
 63
     7
421
 16777215
176
     1
 74
     1
176
     1
 91
        4
176
     1
 64
     7
176
     1
 65
   257
176
     1
 75
     7
176
     1
175
     7
176
     1
 42
1.0
176
     1
 92
        8
176
     1
 66
     7
176
     1
 43
1.0
176
     1
 76
     1
176
     1
 77
     6
176
     1
 78
     2
176
     1
 67
     7
176
     1
 79
     5
176
     1
170
     0
176
     1
171
     0
176
     1
290
     0
176
     1
 93
        1
176
     1
 44
0.0
176
     1
173
     0
176
     1
1001
ACAD
1000
AcDbSavedByObjectVersion
1070
     0
  0
VISUALSTYLE
  5
40
102
{ACAD_XDICTIONARY
360
A6E
102
}
102
{ACAD_REACTORS
330
29
102
}
330
29
100
AcDbVisualStyle
  2
OverhangOff
 70
    21
177
     2
291
     1
 71
     2
176
     0
 72
     2
176
     0
 73
     0
176
     0
 90
        0
176
     0
 40
0.6
176
     0
 41
30.0
176
     0
 63
     7
421
 16777215
176
     0
 74
     1
176
     0
 91
        4
176
     0
 64
     7
176
     0
 65
   257
176
     0
 75
     1
176
     0
175
     1
176
     0
 42
1.0
176
     0
 92
        9
176
     2
 66
     7
176
     0
 43
1.0
176
     0
 76
     1
176
     0
 77
     6
176
     0
 78
     2
176
     0
 67
     7
176
     0
 79
     5
176
     0
170
     0
176
     0
171
     0
176
     0
290
     0
176
     0
 93
        1
176
     0
 44
0.0
176
     0
173
     0
176
     0
1001
ACAD
1000
AcDbSavedByObjectVersion
1070
     0
  0
VISUALSTYLE
  5
33
102
{ACAD_XDICTIONARY
360
A54
102
}
102
{ACAD_REACTORS
330
29
102
}
330
29
100
AcDbVisualStyle
  2
Realistic
 70
     8
177
     2
291
     0
 71
     2
176
     1
 72
     3
176
     1
 73
     0
176
     1
 90
        2
176
     1
 40
0.6
176
     1
 41
30.0
176
     1
 63
     7
421
 16777215
176
     1
 74
     0
176
     1
 91
        0
176
     1
 64
     7
176
     1
 65
   257
176
     1
 75
     1
176
     1
175
     1
176
     1
 42
1.0
176
     1
 92
        8
176
     1
 66
   257
176
     1
 43
1.0
176
     1
 76
     1
176
     1
 77
     6
176
     1
 78
     2
176
     1
 67
     7
176
     1
 79
     3
176
     1
170
     0
176
     1
171
     0
176
     1
290
     0
176
     1
 93
       13
176
     1
 44
0.0
176
     1
173
     0
176
     1
1001
ACAD
1000
AcDbSavedByObjectVersion
1070
     0
  0
VISUALSTYLE
  5
3E
102
{ACAD_XDICTIONARY
360
A6A
102
}
102
{ACAD_REACTORS
330
29
102
}
330
29
100
AcDbVisualStyle
  2
Shaded
 70
    27
177
     2
291
     0
 71
     2
176
     1
 72
     2
176
     1
 73
     1
176
     1
 90
        2
176
     1
 40
0.6
176
     1
 41
30.0
176
     1
 63
     7
421
 16777215
176
     1
 74
     0
176
     1
 91
        4
176
     1
 64
     7
176
     1
 65
   257
176
     1
 75
     1
176
     1
175
     1
176
     1
 42
1.0
176
     1
 92
        8
176
     1
 66
   257
176
     1
 43
1.0
176
     1
 76
     1
176
     1
 77
     6
176
     1
 78
     2
176
     1
 67
     8
425
  7895160
176
     1
 79
     3
176
     1
170
     0
176
     1
171
     0
176
     1
290
     0
176
     1
 93
        5
176
     1
 44
0.0
176
     1
173
     0
176
     1
1001
ACAD
1000
AcDbSavedByObjectVersion
1070
     0
  0
VISUALSTYLE
  5
3D
102
{ACAD_XDICTIONARY
360
A68
102
}
102
{ACAD_REACTORS
330
29
102
}
330
29
100
AcDbVisualStyle
  2
Shaded with edges
 70
    26
177
     2
291
     0
 71
     2
176
     1
 72
     2
176
     1
 73
     1
176
     1
 90
        2
176
     1
 40
0.6
176
     1
 41
30.0
176
     1
 63
     7
421
 16777215
176
     1
 74
     1
176
     1
 91
       10
176
     1
 64
     7
176
     1
 65
   257
176
     1
 75
     2
176
     1
175
     1
176
     1
 42
1.0
176
     1
 92
        8
176
     1
 66
   257
176
     1
 43
1.0
176
     1
 76
     1
176
     1
 77
     6
176
     1
 78
     2
176
     1
 67
     7
176
     1
 79
     3
176
     1
170
     0
176
     1
171
     0
176
     1
290
     0
176
     1
 93
        5
176
     1
 44
0.0
176
     1
173
     0
176
     1
1001
ACAD
1000
AcDbSavedByObjectVersion
1070
     0
  0
VISUALSTYLE
  5
3A
102
{ACAD_XDICTIONARY
360
A62
102
}
102
{ACAD_REACTORS
330
29
102
}
330
29
100
AcDbVisualStyle
  2
Shades of Gray
 70
    23
177
     2
291
     0
 71
     2
176
     1
 72
     2
176
     1
 73
     3
176
     1
 90
        0
176
     1
 40
0.6
176
     1
 41
30.0
176
     1
 63
     7
421
 16777215
176
     1
 74
     2
176
     1
 91
        2
176
     1
 64
     7
176
     1
 65
     7
176
     1
 75
     1
176
     1
175
     1
176
     1
 42
40.0
176
     1
 92
        8
176
     1
 66
     7
176
     1
 43
1.0
176
     1
 76
     1
176
     1
 77
     6
176
     1
 78
     2
176
     1
 67
     7
176
     1
 79
     3
176
     1
170
     0
176
     1
171
     0
176
     1
290
     0
176
     1
 93
        1
176
     1
 44
0.0
176
     1
173
     0
176
     1
1001
ACAD
1000
AcDbSavedByObjectVersion
1070
     0
  0
VISUALSTYLE
  5
3B
102
{ACAD_XDICTIONARY
360
A64
102
}
102
{ACAD_REACTORS
330
29
102
}
330
29
100
AcDbVisualStyle
  2
Sketchy
 70
    24
177
     2
291
     0
 71
     1
176
     1
 72
     2
176
     1
 73
     2
176
     1
 90
        0
176
     1
 40
0.6
176
     1
 41
30.0
176
     1
 63
     7
421
 16777215
176
     1
 74
     2
176
     1
 91
        2
176
     1
 64
     7
176
     1
 65
     7
176
     1
 75
     1
176
     1
175
     1
176
     1
 42
40.0
176
     1
 92
       11
176
     1
 66
     7
176
     1
 43
1.0
176
     1
 76
     1
176
     1
 77
     6
176
     1
 78
     2
176
     1
 67
     7
176
     1
 79
     6
176
     1
170
     0
176
     1
171
     0
176
     1
290
     0
176
     1
 93
        1
176
     1
 44
0.0
176
     1
173
     0
176
     1
1001
ACAD
1000
AcDbSavedByObjectVersion
1070
     0
  0
VISUALSTYLE
  5
36
102
{ACAD_XDICTIONARY
360
A5A
102
}
102
{ACAD_REACTORS
330
29
102
}
330
29
100
AcDbVisualStyle
  2
Thicken
 70
    13
177
     2
291
     1
 71
     2
176
     1
 72
     2
176
     1
 73
     0
176
     1
 90
        0
176
     1
 40
0.6
176
     1
 41
30.0
176
     1
 63
     7
421
 16777215
176
     1
 74
     1
176
     1
 91
        4
176
     1
 64
     7
176
     1
 65
   257
176
     1
 75
     1
176
     1
175
     1
176
     1
 42
1.0
176
     1
 92
       12
176
     1
 66
     7
176
     1
 43
1.0
176
     1
 76
     1
176
     1
 77
     6
176
     1
 78
     2
176
     1
 67
     7
176
     1
 79
     5
176
     1
170
     0
176
     1
171
     0
176
     1
290
     0
176
     1
 93
        1
176
     1
 44
0.0
176
     1
173
     0
176
     1
1001
ACAD
1000
AcDbSavedByObjectVersion
1070
     0
  0
VISUALSTYLE
  5
30
102
{ACAD_XDICTIONARY
360
A4E
102
}
102
{ACAD_REACTORS
330
29
102
}
330
29
100
AcDbVisualStyle
  2
Wireframe
 70
     5
177
     2
291
     0
 71
     0
176
     1
 72
     2
176
     1
 73
     0
176
     1
 90
        0
176
     1
 40
0.6
176
     1
 41
30.0
176
     1
 63
     7
421
 16777215
176
     1
 74
     1
176
     1
 91
        4
176
     1
 64
     7
176
     1
 65
   257
176
     1
 75
     1
176
     1
175
     1
176
     1
 42
1.0
176
     1
 92
        0
176
     1
 66
   257
176
     1
 43
1.0
176
     1
 76
     1
176
     1
 77
     6
176
     1
 78
     2
176
     1
 67
     7
176
     1
 79
     3
176
     1
170
     0
176
     1
171
     0
176
     1
290
     0
176
     1
 93
        1
176
     1
 44
0.0
176
     1
173
     0
176
     1
1001
ACAD
1000
AcDbSavedByObjectVersion
1070
     0
  0
VISUALSTYLE
  5
3C
102
{ACAD_XDICTIONARY
360
A66
102
}
102
{ACAD_REACTORS
330
29
102
}
330
29
100
AcDbVisualStyle
  2
X-Ray
 70
    25
177
     2
291
     0
 71
     2
176
     1
 72
     2
176
     1
 73
     1
176
     1
 90
        1
176
     1
 40
0.5
176
     1
 41
30.0
176
     1
 63
     7
421
 16777215
176
     1
 74
     1
176
     1
 91
        0
176
     1
 64
     7
176
     1
 65
   257
176
     1
 75
     1
176
     1
175
     1
176
     1
 42
1.0
176
     1
 92
        8
176
     1
 66
     7
176
     1
 43
1.0
176
     1
 76
     1
176
     1
 77
     6
176
     1
 78
     2
176
     1
 67
     7
176
     1
 79
     3
176
     1
170
     0
176
     1
171
     0
176
     1
290
     0
176
     1
 93
       13
176
     1
 44
0.0
176
     1
173
     0
176
     1
1001
ACAD
1000
AcDbSavedByObjectVersion
1070
     0
  0
DICTIONARYVAR
  5
A2E
102
{ACAD_REACTORS
330
A29
102
}
330
A29
100
DictionaryVariables
280
     0
  1
1:1
  0
DICTIONARYVAR
  5
A2B
102
{ACAD_REACTORS
330
A29
102
}
330
A29
100
DictionaryVariables
280
     0
  1
STANDARD
  0
DICTIONARYVAR
  5
A2A
102
{ACAD_REACTORS
330
A29
102
}
330
A29
100
DictionaryVariables
280
     0
  1
STANDARD
  0
DICTIONARYVAR
  5
A2C
102
{ACAD_REACTORS
330
A29
102
}
330
A29
100
DictionaryVariables
280
     0
  1
Imperial24
  0
DICTIONARYVAR
  5
A2D
102
{ACAD_REACTORS
330
A29
102
}
330
A29
100
DictionaryVariables
280
     0
  1
Imperial24
  0
DICTIONARY
  5
A76
330
6B
100
AcDbDictionary
280
     1
281
     1
  3
ACAD_XREC_ROUNDTRIP
360
A77
  0
DICTIONARY
  5
1A
330
19
100
AcDbDictionary
280
     1
281
     1
  3
BUMPTILE
360
1C
  3
DIFFUSETILE
360
1B
  3
OPACITYTILE
360
1F
  3
REFLECTIONTILE
360
1E
  3
REFRACTIONTILE
360
20
  3
SPECULARTILE
360
1D
  0
DICTIONARY
  5
12
330
11
100
AcDbDictionary
280
     1
281
     1
  3
BUMPTILE
360
14
  3
DIFFUSETILE
360
13
  3
FBXASSET
360
EA
  3
OPACITYTILE
360
17
  3
REFLECTIONTILE
360
16
  3
REFRACTIONTILE
360
18
  3
SPECULARTILE
360
15
  0
DICTIONARY
  5
22
330
21
100
AcDbDictionary
280
     1
281
     1
  3
BUMPTILE
360
24
  3
DIFFUSETILE
360
23
  3
OPACITYTILE
360
27
  3
REFLECTIONTILE
360
26
  3
REFRACTIONTILE
360
28
  3
SPECULARTILE
360
25
  0
DICTIONARY
  5
A72
330
67
100
AcDbDictionary
280
     1
281
     1
  3
ACAD_XREC_ROUNDTRIP
360
A73
  0
DICTIONARY
  5
A74
330
69
100
AcDbDictionary
280
     1
281
     1
  3
ACAD_XREC_ROUNDTRIP
360
A75
  0
DICTIONARY
  5
A2F
330
65
100
AcDbDictionary
280
     1
281
     1
  3
ACAD_ROUNDTRIP_2008_TABLESTYLE_CELLSTYLEMAP
360
A30
  0
DICTIONARY
  5
A4C
330
2F
100
AcDbDictionary
280
     1
281
     1
  3
ACAD_XREC_ROUNDTRIP
360
A4D
  0
DICTIONARY
  5
A4A
330
2E
100
AcDbDictionary
280
     1
281
     1
  3
ACAD_XREC_ROUNDTRIP
360
A4B
  0
DICTIONARY
  5
A58
330
35
100
AcDbDictionary
280
     1
281
     1
  3
ACAD_XREC_ROUNDTRIP
360
A59
  0
DICTIONARY
  5
A60
330
39
100
AcDbDictionary
280
     1
281
     1
  3
ACAD_XREC_ROUNDTRIP
360
A61
  0
DICTIONARY
  5
A52
330
32
100
AcDbDictionary
280
     1
281
     1
  3
ACAD_XREC_ROUNDTRIP
360
A53
  0
DICTIONARY
  5
A56
330
34
100
AcDbDictionary
280
     1
281
     1
  3
ACAD_XREC_ROUNDTRIP
360
A57
  0
DICTIONARY
  5
A70
330
41
100
AcDbDictionary
280
     1
281
     1
  3
ACAD_XREC_ROUNDTRIP
360
A71
  0
DICTIONARY
  5
A5E
330
38
100
AcDbDictionary
280
     1
281
     1
  3
ACAD_XREC_ROUNDTRIP
360
A5F
  0
DICTIONARY
  5
A42
330
2A
100
AcDbDictionary
280
     1
281
     1
  3
ACAD_XREC_ROUNDTRIP
360
A43
  0
DICTIONARY
  5
A44
330
2B
100
AcDbDictionary
280
     1
281
     1
  3
ACAD_XREC_ROUNDTRIP
360
A45
  0
DICTIONARY
  5
A46
330
2C
100
AcDbDictionary
280
     1
281
     1
  3
ACAD_XREC_ROUNDTRIP
360
A47
  0
DICTIONARY
  5
A48
330
2D
100
AcDbDictionary
280
     1
281
     1
  3
ACAD_XREC_ROUNDTRIP
360
A49
  0
DICTIONARY
  5
A50
330
31
100
AcDbDictionary
280
     1
281
     1
  3
ACAD_XREC_ROUNDTRIP
360
A51
  0
DICTIONARY
  5
A6C
330
3F
100
AcDbDictionary
280
     1
281
     1
  3
ACAD_XREC_ROUNDTRIP
360
A6D
  0
DICTIONARY
  5
A5C
330
37
100
AcDbDictionary
280
     1
281
     1
  3
ACAD_XREC_ROUNDTRIP
360
A5D
  0
DICTIONARY
  5
A6E
330
40
100
AcDbDictionary
280
     1
281
     1
  3
ACAD_XREC_ROUNDTRIP
360
A6F
  0
DICTIONARY
  5
A54
330
33
100
AcDbDictionary
280
     1
281
     1
  3
ACAD_XREC_ROUNDTRIP
360
A55
  0
DICTIONARY
  5
A6A
330
3E
100
AcDbDictionary
280
     1
281
     1
  3
ACAD_XREC_ROUNDTRIP
360
A6B
  0
DICTIONARY
  5
A68
330
3D
100
AcDbDictionary
280
     1
281
     1
  3
ACAD_XREC_ROUNDTRIP
360
A69
  0
DICTIONARY
  5
A62
330
3A
100
AcDbDictionary
280
     1
281
     1
  3
ACAD_XREC_ROUNDTRIP
360
A63
  0
DICTIONARY
  5
A64
330
3B
100
AcDbDictionary
280
     1
281
     1
  3
ACAD_XREC_ROUNDTRIP
360
A65
  0
DICTIONARY
  5
A5A
330
36
100
AcDbDictionary
280
     1
281
     1
  3
ACAD_XREC_ROUNDTRIP
360
A5B
  0
DICTIONARY
  5
A4E
330
30
100
AcDbDictionary
280
     1
281
     1
  3
ACAD_XREC_ROUNDTRIP
360
A4F
  0
DICTIONARY
  5
A66
330
3C
100
AcDbDictionary
280
     1
281
     1
  3
ACAD_XREC_ROUNDTRIP
360
A67
  0
XRECORD
  5
A77
102
{ACAD_REACTORS
330
A76
102
}
330
A76
100
AcDbXrecord
280
     1
102
DISPLAYNAME
  1
Imperial24
102
FLAGS
 90
        0
  0
XRECORD
  5
1C
102
{ACAD_REACTORS
330
1A
102
}
330
1A
100
AcDbXrecord
280
     1
270
     1
271
     1
  0
XRECORD
  5
1B
102
{ACAD_REACTORS
330
1A
102
}
330
1A
100
AcDbXrecord
280
     1
270
     1
271
     1
  0
XRECORD
  5
1F
102
{ACAD_REACTORS
330
1A
102
}
330
1A
100
AcDbXrecord
280
     1
270
     1
271
     1
  0
XRECORD
  5
1E
102
{ACAD_REACTORS
330
1A
102
}
330
1A
100
AcDbXrecord
280
     1
270
     1
271
     1
  0
XRECORD
  5
20
102
{ACAD_REACTORS
330
1A
102
}
330
1A
100
AcDbXrecord
280
     1
270
     1
271
     1
  0
XRECORD
  5
1D
102
{ACAD_REACTORS
330
1A
102
}
330
1A
100
AcDbXrecord
280
     1
270
     1
271
     1
  0
XRECORD
  5
14
102
{ACAD_REACTORS
330
12
102
}
330
12
100
AcDbXrecord
280
     1
270
     1
271
     1
  0
XRECORD
  5
13
102
{ACAD_REACTORS
330
12
102
}
330
12
100
AcDbXrecord
280
     1
270
     1
271
     1
  0
XRECORD
  5
EA
102
{ACAD_REACTORS
330
12
102
}
330
12
100
AcDbXrecord
280
     1
 70
     1
 90
1959938040
 71
     1
  1
AACA605F-51FF-43A9-B178-10CB9C9D2F27
311
504B0304140006080800D0031D4BC3A4F24ED7000000200100004F00000030464346383830392D433134452D343734392D423939462D3235463346444535353433432F4173736574446174612F446566696E6974696F6E4974657261746F7250726F706572746965732E62696E454E4B4EC3301075D9545DB0E0065CC0D849
311
6C12232194381D3665030740261DDA484E5AC589A03B96DC1AC66A1023BD9937FFF7CD18FB998D285B10BEC85F527CC41E87B67969F6D839B6A44A75DAB8130E91CECD0BA231ADF1DD4D7E8C6B4F6D68D07BD7E3610A57FFA3D79D1BE99EF337716945F82B84786177FE16057C9C357D12656E7BBC7B7021E0782F2458280A
311
69B84DD49AAB5C195E19033CD59041BDD65A65563C63384C43834194A52D6FA506AE1300AEB292C693BCE089B495B1A64E21CDC5B89FBAB7DEB55E48314B783DF6BBF83ADA2F504B0304140006080800D0031D4B00D0CE2934010000300200004500000030464346383830392D433134452D343734392D423939462D323546
311
3346444535353433432F4173736574446174612F496E7374616E636550726F706572746965732E62696E6D514B4AC440106D3FE046658E20618471D14E3A5F0331FF890798AD0831699CC02419DA161D7091A53BCFE3D63378008F908D6BAD6462A2640AEAF7EABD6AA87E41087DB70625DA012F211E41BEA23965693C8F17
311
348BC600B8AEEF6AA21A629584215664D7C01ED12F30117DCFF08D400A25FDA017D6129928C14C520DAC2A8A8C154D22D80BBD00135D167DCDF70D776600AD79179D5DBFBE7F4D3E6CC8BB8095E0BF7D93A107ABEC0D1BA19183460DD484B1D3D75B2B106EAC2BB6D200EC08D51E7425782BFD6CF3214043ABEFD84FBA2503
311
62F2E60CB07FC0505AAF9EFCE154F63E74F56F1D83CF1F231E2FB0C7A23CA1493DA99E6F52058EC8292B56A792181739A739172C624E6F8B6269990F2C3DC9A38C5E0A7514AC246534E6055B9F3F654B730A63CBBCE72CCDEF5A1A5FAFA8F003504B0304140006080800D0031D4B88E57597CD3F0000904100006B00000030
311
464346383830392D433134452D343734392D423939462D3235463346444535353433432F5265736F75726365732F41414341363035462D353146462D343341392D423137382D3130434239433944324632372F7468756D626E61696C2F302F67656E657269635F706E67355B773CD4FF1FBF73E71C0E67EF7576C9DEF3EC99
311
5D46C6A1EC5046649CBDF79E192942562825CE965D8A868C2842C8DE9FDFD1F7E7F138F7078FCF6B3F5FCFD7EBFDFEC41B196891913091804020321D6D7513FC77D8C5070EC3FFEE51B21F068154CC75D455CC028A3EA68992803810109FDDE5D5CEC5521B28A1B422BF80741695D5B529DA1C2D058AD2388BDA9F476F7C2C
311
ADC939304173DBF48A452BF8A700C0C70C3D121C1AA15A5270C22E2B9E28763651F7DA0D12CE11077B2ECD0D560B5E3DE2368B1E65C5E1C87384A4CC5F2D9FB8BE39E9B77C753783A37998F5CEF1B4FEE553463245C9712270880DF339E0B882A6BA713D865F6F384C842D440934EF264F4A304F8DE4EEFA1E2BF5E2D91F5A
311
DD9613D6E31DDB33ED31DB1D7916CAF091286EA3D31B9CFECB78BB0060245B943C4C040119FF780A74DD308BA9D028678674EB5504ECF284EE814DAED07440BAF649BE4B55DA2890F4D73E2D489A59EE54FDB0A85B59F2F52C4858A02705C4815A792B0C4A996A2023ECB195073E115E3E3647F64243A8338F2000BCB58DA5
311
692C7E7C3D413F963FEDF3CF00FBB0F831A9D51360FECA43819F527B89FA260EB63C5DA676830AA3626A3693B23F1A17A0DFFCE3EE164E31B5365EDF0C89EF64D8E38AB0BA9A1117D7C3A0EC44F44F4023095E80BA610DE336D0F99593A88BFC5306E72DF98F7FD132ED95878DF2964EA7E43071359FD83B2BDF9C6B5BDF76
311
8F0F3C0FC351199526F53D9460A34511F75D1B63E488178569472C91A94497807A3FD4A390C6558F26D416365C3656DE6E769DA9D8FC73774E1709812842DD8EF96AED1960F79D21B395CDDFE6F92CB4EB962A4668C76990E2EF29798C8941D67DA50F4A5F947872460F1F6FDB794E8A29FD7AC0C0D6E0714339CE258FB17A
311
E8535221E3464A10F29A0BE5EEECEFC5675926A89F49EB14E5711894F6586DB5754EB4D5DA9C6437EBA57DB97A24F8B8A8DB295FFD73266CF57E82694DF5166DDF93573AFE9C9C5EB05F8FEF8E89E0A8917B0B3724DB7BEBB53252581EFC3E38166BA131A3A5B42FE2AD00A769BBFA4458D2DE7822F8C4F63D0B8E21B285AE
311
13325F3410A435C648C9D91FDEB109E73CEDA7BC796961AF79175E1A3CE4C5E8B0D009B0C9E29EFD98BC8E97554E3D8D838424E270F7685226E5AC268E021EDE3522D583E8F20C0BDE2959EF5BBFEEDAB32FE9A3ED0E39F211A86AA9DEBFC68182EDED132AB8BB794442D2D7EA9F4D8BFF52BC4D55BB165124EE90A42D101E
311
67BBBB292FFB4F66DE5BF2300E44546757DA7CEF8932BFC9F92A0707953491A55C5A5ACEDABD9FA1AEA01BAC3DC5A24E22E7C47213493996EFBC369D086ED9397C9BA6C7F9855C7BD5E15BFC8C53DB3D2A4C5901A57ACD2FBDF4D1676E95338B2C2BCE65FDA4C64F5FEFDC7D9CA5AA1FCF11E193F2FDABF0F4916BF13FB916
311
A224380E6462A9815F2300DC49CC4DF8D055CEF76462F4B7A7ACA7365C2707891370BC1D0AA6203C44CCAB47084FEC057F27FFCD57F89B8B9852459798A675C66BD7CE572CAF71FF7E6D7ECF7BF62CAB7B3F1107DCD04DC55A3F9961700286141C94A4F771FEB2BCDA2DDEE0CB0BAE402FF1DB0100F8E475DFFFC074DDB449
311
8AB7D186A7654DDB1CB680D703D47CEB4E72F8CB13D86A4AA68116E26387B93FD6738779B34FEDB8E517EDF2BAF28D9BE93A1D3A164320E07D42E514725C29515FF361754213EDE06B079A2E99EB1CA82A02019EADEEB87B9AF005BD04BBCECB14AACD6B24EFBE482194A97DD32400685FF1FEF1544D1B14EFB1E7F08E6D2C
311
D2AF52DE757F35F5E62332EE88EA26417AD5C3E0E319D68F25414E6D672BD4522B278C57D18F0113921C71D96527E091F00CEB15AE23D24667369BD3CEFA10C7549D930890BA4366F4EBC55F01F746109F98ABCDD5A3EE06619C6AD78AB33E48E4C9BD21BF7478B385EC05C4F8987E2C1BFA0A60EBEDAA0AE0B015C2720ECE
311
180FB6F2DEFBEB822D96338C9B63822183BBF52FB664A7AE57003AABCE512BF77E7E31BDA2E739AC4C131657DDFE5225E900FB56CC01CDE808FA4A9C9DA16AC679656BB64796283D89812B8F91136AE18EE5EBBAF47A73BE3C153EB5D4CD491B4BFB4FE690A4CF9ABA08C0D8AA64220C438C96EA6CA80B58FE5761E697B3A2
311
92EB9FBDA502FA863E49FE694ADDFFF9D62C520BDD1A22014147A0903A05B9B729F54272EF83931FEEC057BFF8C8055C279EAC5C0011804828734024F6CFA319C9CC6867C727184465CD9BB7ED386AFFD96B294A85E3802FAE47244602D8273615952B98C4F23F7EAE4463D9D638EEE374A20959E0FE519C4CFB0FBFE5DD80
311
C2AA3F9DB961D1BDE57E67C9BB47B77FDD74EE3094F5DBBE3EBC1FBDB7393F5116263009E2EFE1AF9A221B2AE234C902BF70E9F280ED23E73908361565964333A3F01D0B006AF32FB21AA1316744B489D5A198E85299241735BE559675130955C902A8ED761FC0DBE337A9F91919AF5CE32AF902ADF9AB2615E00E8A94586B
311
A1A90839B61832FF1BFB76D2EFADE6DB1BA04CCAD3DA649E7E2A0219F592E22F2AD54847EEA8E42271011E9074F8F3DD9FBA6CDF88FFC9FC7E811AD1CA8F4557CE4AFC7BBEDCF0114A48689F20A584520C74DA8127124B767E2FB91A6B186246727BE63C9445BAE02088D58B8EFDC0F1072407CD9B89A13F6303B4A928F593
311
AD489B58E6869325790ADC406036C591729FE14021F94B7796BB11848D463536A092A26F077F94639F7CEEE2A724C66EC885F4A24F8B8A0AC321F8FD149BA529460FAA34E4663C02D41FDF80BCA222D42F0ABFF8490F4FA74C673807C2051D8E467B47B616072860069A9A303ABA9B319D58404461401B0A0F9BE5E1E151C1
311
4BC33B32ABE03DDE91708DFAEB15E7C0D593C86BB7D7EC17BE56E57975F077BFD5525F3A1A361D584A75E08CF29FC7B44B2B3085014F3A5A14517377C3F6B8F37E59514C3B12F8AACDEDDA4DFC49BE5710101534CD6FB6DE15B50F11A09472AABA727F0C49D9CB906B158030065F48EB3625E010CEC1D511D0053474B11E6A
311
4F01C0D6EF1BED3A944FDEC70E0DDCDC756C86545910E0DAE3BE3AA9A404574C2995CD5CAF9549226BC94B4F4F0F5F9086F418F6B32346464610D8BC7391D3C3A3CCF04CFC1FB2A3A3170E369511868F14EEA4E5E438CC73DB1F3248AA94B6B2FF33B222FF3D1E7BF146CAD229770158063BCE4F5391964DF62F7E52A7BE0E
311
EA829C9E13C4C147D6F93FE59E111DAB5E4594D6F3CD1AD375EE039930EFE5AF2BB2D41C83C7DABD8C659BAFBE8FAB392CA634F3D15C1D945DB4588D2B0824A4EC928AAC565557CA2F0DAA588CA5BE30B3A8004F7BF005E96CBF891D7F18112A3619FDF530DC8AA64954258E1811789B5189B49B4EB53F5F89F7D37523894F
311
3EB57B373763C91E502F52CC99EB7BDDF933FC324C4FFC2561DFFA7339FAFDD0A4BFBE6D3A8FF9ED1FC49898139864602458968913181918F719CCF5A68B2EE9C1FF050E34E63107003B8120FA982C21B30A874E4F5E4B38D5A8290C4B8D9BE48A0BE31EA995BDC37AC6DE90BA17D259DEF53605D55922FEB1855D915B659F
311
BEB350EE0DFB2F9F766E1C84CC8964B75D08667445EAB966015F63A18A9E0A325C1B3DC628C0D3CB60F767FA93CC65F25458BD23C3B312716E5F40E5858AC06EBA9AB14F95DB99147B832069201541D09A0D856E12C629CF32683760EE855537D1901988D5EBC156676C7DD51D7207CF3267AF1D76C2AD867315E446180153
311
13A98B19941C696FED3461CAA9B5415F918556D7802EDACEFD6B2E45853A9735DFC9DBF7E440F9319F8B6805A973BCCDC76C069A9144E51F187EDCC12FC31B5DEAAF0A76137199B106EC84ADA6B6EE697D4E6A96E007417F4E880E8B1E89B4BCE9D81EF611E2ED8F0C1A6C25F620FAFAAB656A7C42D464880E8AFAB0E0FC8E
311
A38CA9A8AEEAEE3E4648BA4680270A89743CDD3E6C6CBF34B7B640EFA285ABC7EA0A1E28F3CC963D114A80123EE66D0AF7D5380EB41909B605AB4765B709B808590458157E69BA1378FEC4B48CAF6A730E3BE3C5EF2DD1A5EAF94B1DDE50CEB55DDFD7EE9A16747FA4B223359FB1FCC69E1194892BABB93A1D5C4E807AC0EA
311
2E30180811E77A2291F6E7F7FAA5E0F60215BC6024E48DE436C511F0628B8CA189982D4D83CCA17D305A7E923C37941CFDFDCD93ACAF735EF5F0E61BBD3E6C41A59B242790D3A3BAC7064DCD89AA2E37214EC839820949D5CAA31E240D2948E48F690298974A96BA9A8432BC90F5071D6537C9666EA4564796B7AFFFA54807
311
7BEEA75F63083435074BA182F3699557397F71548383FDA8CA34D99B981E72835ECDA5DDDC151315173D05A21F651AAF8524E88209E2E7A737ED1045800CE3390050BCFB8BE588DF111617874C62575039CA588EEFDEFEFE319B739DE2EDC147092A262611E159650E787917885EF08F1F51B8F2D8A71D60B58B190FEF9541
311
A1BE94BC19FEA50784DA1419FE4B0FB51B8D36B5FF8E1286FD8AF42B91E59A5F1CC4D60174E764045FD8C57B18209B217F89A62252BD20BE0E63E12B8E8F029FE19E0E8D0870F58721A557082250D5424F7909369376E41666C0EE77CD87CB283F661D5FB6D0DA023CB67320A20DC7BE661E9E1BFE5463085C557DA1FF9BE8
311
35733766C3D139F2CF9E2208873AD0EB4814DE9E6BF2CAF81614D4D43906ED1C05A3265CABBFE192770FC2F64F940CB6B17B5F166F133C9AEEAD2641807C3E69515171DD74C4A85311513D6EC9530B3B601B6BA3EBFF3B5C3D2F7D69765141E345F75433953D013ADDF8F6AA7DC3F4A7563FE5C7D367937E2900D7EAD0F9FC
311
9A4A1A9B5BDF1FEF08532660C01C5D6DE22199AA774383E306DAB87E301ABB7D213887F9869D4942D0D71E94B27EDF216A318BD488D45DF84529EF575AF3C3938C0AAA0215B01994153E2054A0B894DA5C784980633AAD48576957CF4AEAEAFADC7C587368551C73DBE1E57C58AC713303A8BFC258BD04B51724459FF9E24C
311
03A81E0E0679CEB9B348C0DC998FEB9C6D6EFA77D247CC8F92D3848599ED89A23218D0636465AD1CEEB7DC140D7426F83491C4E8E8281C2FB35240918FFECE880CA2A42D70E8B20B34DF5221C7DB0CF90ECCB9C745B37A47E9B716FF7A97B7A252C1F3814DC7B1E1A7F72B8751D524EF7CAE45B0C73B3BE7D08ED39781B380
311
DDFC9AA4A4749C9493DB5BAD07A6EA6C092FBD0E85DB004DF06B8C9D3089C5320187E4CE1846158C7EA7DDAE8AD9AFFF21AA3A1026BB06A259845E8232DEE62811A4DA9CEAB3A4887320B76E2AE5615EAB7BDF738CBDD01F1E64064BC13D9EC53576751CA8CACD58B3CEB0E6CA585BD089B2A59B9FC101403387AADBDBE705
311
86B93D64BF3AD4453EF9C3B6A93817E8346991798601344F79A83C51F3D50F7BF2683A3605F51A72449489E0EE6169C749C60B1035651103AEE24D24E51A759C840DD3FC6504DA6FE107510E447B43461C79D22970B75DE5E1BD3007D1AFC619A4A4A69B5626AF5E9B8374E20677F77E2F8E73DF868E8BEC7EBA7B6A75EEF7
311
205E1AB9486CB642741D6E03FF13FCCEDB1C4AC129886268B01CDF4B124AF797CF784F3C6DEC97A17D4B558070A0F1C04DA4FF9BDBF34159AEFE958479824B3F58EBD1E19088A2AFDE501B6F2052368A3FD0E650A179EFAB1561E1D27527077136E652676C3670F42DCB3352F48F6BC86D2C3B0051727E41A0A4DC6CE2BE9D
311
47F5CAA2935A3C0539AF080665997194ABECD723B08129CC5B6B21D2E7D54CD4D12610E7E9FB8306771A89576C7A982002775ED44F3F744CF21EEBB27A631671D921938AAEE3EB0D19CD1E083727F607823E817BF599DCED5394E37EEBC2E88782E638920CA641EF74D4CDFCDEF06F4278ECB18E31E7E9876F2D783C8BF429
311
C75395F57E98C2B495A3DA077EB3AC3C158608B6B57FE3EA48484D9A480096FCEE0DE880950E7E5A5714131C5C41AAA29FD19AE81AC145FA1B9E85C7169A5AB837B213493DF7E9AA4B5FBF9CDEB36EBD21EF1181B7CF7366AB2A951D01E37AF4EB835D1BE8C117CFBE7625D2EBCDB0B20C5A4B45CED0BCDE3EE8DA9DA78C2E
311
21DEAAFFD1197E463C33CC6A80FB785669B856EFF7A8CCCA2841B5A5369173320B1170C368B2748D81062EA0296E5E2D95D7667A4A46D98A6FF475C76AAB0A8C8D45E226FAFC9FE0133EA9F60111F99CA81ACE03A1D14C89E8B0D69079C91464FA1D99E651D0EAF606F345C42A8A1AA9BA391031582B96D5B4176A77AADB01
311
F12FD298A75DEEBB2C82F0B8650E880722F8DDD90C56A7A058E5FDEF1AC93545BA27367C76F5D8F9690CB6F8DAE141EDD7971F0FB548A2AE435F224D6E5954CA155512F7332029D5A1230854B79F258EC5FFDB09F5F6343A8EB193229B7F7E79B3E48F8E183860B38C8269D1B53738FF1E0BACF6AADA6D4869E9DE708E79B5
311
DADCC09B1BC76F649731CFAF59A83FD8BAE4C749D66FA87A3810D4D62FFE826FA400C0F325D2BC0F3CA35F5847B82A2ACC7961745C823E4D863D54460AF792CE6F79B5C7A33B25C3AEA6CDE15A919B6367D781E9D44F61BF828672594A3E1D9EDD6DF179A81F27EAC05B936575D73E05C209DDD2115CFB705DF9BBF3C91158
311
9B3640735E9E618FC9C36A7326C82B2205E244C55D56FDB9D5DC93CE958D4BF8174D2B3DA54CB3C09F2C2A6DFF73D23B2197355761AD421EC581284A7EF8DE2CE3497C0C804D49B41DFD6A7360844E5BEFFB495CFCDB97A4595911CDBA623274CE852B5E278AF0BEB1770E9D37CD977B2766A7DED0E94B840E1E95E8C77DE5
311
CB6354AF7871427C28ADBEEF7BA0A28E19DE9ACD75F379FE373EAE6DDDAE3834692F9C2B03B4FCA8FCA9ABE8EEEBEBB725B88A7C90941E850682CA04061A7DF0CE82ED49BFAFFD42C309818FAE14755CAAE78B0F73243ECCCAD7DF58FCB9CDFAE7A4D3E6671A613639130D056C8383C8F4FCF4808C331E544DD26E4755D09E
311
A05253B3049A1E32587CC25D72E073E2CD96D04A71BBCB0038FEC3F53D254199C3CDC67CD66640269431860225392B2CB3ECD0B4498AAE78BA1994246AE1EE78F2EDFB79F6C6CB6B5E279C4D373FBC21CB2698C9ACBBEB6A4BB6B39E16AB0E421CCBFC7654D81ED86022F9BB522146F9F4772E2D0E4FA70120C95A85A417BF
311
5078B232F4754363EB1750B2AC2148EB46B1EA72AD9B4D23ADCBC589D70106C3EC2ABEEED84DFE28E718C6C83502C28E9FDD3B09DA0A6F6F7B72B706A31C9E2A331EE70DA56A083D2177BFD63C55B11D8D949FAFCF90B23A1E24B9B5018B9A17E99F2890EC302F330FE7936E2C23F0D237EC8916F5166AB84B62A21BB0B950
311
146962D754F92CC2C8877BED8FC7B7B25726DD19545392570B3A2C66B58F027BEF412E552D12A588C4A3CC5C3193FCB3485EFFF700D0B9EEC077754A33DC1FB9E25AF814628F91DDFECB667D3F7690803F38D13F8AE39353523BB08FC6760144AFA2CE28236F65EDBB3D5F59A57D612B99E3D7E5F8A851666BF9B5A6658EFC
311
96EEB37A378ABB0EB3FDDF1303AF32C41BD1C8560745D7BD81066B0D6313359CF488563D3BA3F8E2185D1FAA3EBA1397C9D0E3DD232180A4DCADB6AF25DB3AC3CC26589C8239E66E81547BC7E2F328F9884764CA37EB5DBE390DFC03A5246B456A7C3684C4377D0EEF9A350680FA9A077E8B2957B489E09AB1AD41316944C2
311
254B5984830F691C93CAA767EECF976FA5647538830B5E63236A6F0365C1E0F3E327F24FE35EDDBD7360B0F7374837409F7A6311BECC12B7026D4FA1AE204FA3F5FE904B1F420C7A9044AE58E403E7C4848E7DA25DC9EDAC79DD756FAA26B9EA83ACE8A214A2612A22AFA19DAE7DBAC5F8CDE1292A485F98DAC731A29FE01A
311
3966E96BCB9FB5A4C8830E1B9AF0C54B87FBE221A097036E5D28D1F869F810C06A9BB0AC0612F69AEBAF893C6E7AD59460208BAB3A6B09CA4F6BDDAB8CF0D1F84B72487498395A70DCD754796E271099A567A55CF242BBED64696378BB6CF25EF0FCDB589F3A82F1116D010A9AB9FA4358809EE0C973A2B4229BAA876A70B0
311
3AB49CBA7FBE71DB1832FFD32F9BF2C8E98075CACAFB36921235D0F552B6A67E94E094097A5D7DF681B40623DA535ADA7A9AD8E9A62407D7C9A5AE51D62A17A83A23728DE86BB56115804D3F2675F2C6B87541A0FC497BF0CA86420F558C9859EBE9FAD62747E323E3AADC03FDCDDFE7407B09DA90B44E3185723C5381EAEF
311
589765E2F7A099BA46695BAD60CEF3491B8A171F5F56444F7CE9455312C3498C74173AEA0214EC029833B34B650CBB5A5508D5091665309642791708ECF27CF11DB3D797D6CFE474453BD4BFADB768094B2147814D81C7CBAF8228DCAF5564B5891F5EF6A860EB2E323CB82AB868D8EA048880D63B0DE5341F1B3D53297B92
311
8A11E15F25E5148990F710747C3509ED14909C552EBE3973246FCE55D00564D8310BC3EBC5085D08D806799B77D6C57FDF5E55837F9E934F09C03C729271B64F12D0A9F9E938107CAF7BF1EC8CF1BB9B42363D33070F4CACB425E605DDB0A34A12BB936DE286B9887A4E2E558F0886498BFF49C311D96C277CF6A9FC0D75AD
311
0ECC5226D7E0E3572012E56D7FDE4410CEC7A6D0F997F225A2055B8B92E3956E875AE4993CB3D4C9063AF98FD45E1BAB165640A43439A2C9181A7C355B297C0A0CCFFAE19B6FA3C2BA238A885FBC98B8F6DAF4B94B97304878DF4D8BFF6A4AEDF79E90ED4E68F00CD7299F4E0D83E35601AF0CBEF18C1E870E74758FA91F51
311
31075004DB3CFCF09AE1DABC11957FD9808C92E8A678CE9DBE40DDA0E0D1D505AAFBCBA208232BFB6FB3704E8985E61ADE53DE74152F5C7DE74B1DEDCD37DC3E8FB30D7EBA8B9EFFC3606BF90B8D438279CB7709FC7C00D327F41817EEA71CD9E49FE9C8C9A81C70915D9F0F15958EC5AA4C3BBFAF46986B90F188BDB24B89
311
DE3C6F29EC3E6F66D84856EE96A35E657CA41B41EFD8DBFA16AD6E91439EA92B40B21C053249F51AE50EB0B24C770FFAF40DF12C8436366819C48E36547D4E7B72FE2BBF10828583057814A668BDF183F6B2E58DFB151103E56303E63D00F39C27C4661605DB644D19175D02E3F0241E8FC3458D17AAAADB117CE9EEA690D0
311
DB01E634878C04C2C9310B69FCAB831151E3AD293BEF6E46B0ABCECB50F5939B39C613D41E81FAE8D34CAE3C4566B761D37185FE864AC32FCB71AEF39DAA5BAB88609BB980CD2F07A8F941653B529567726E2B2A58D079DD57E1E5E31426CF184A04D7B03B985F276D47406AF276FE32E3328BA866EB1FD39BEF57863A3176
311
34AA5FE467409B3873F5069EF0D71AF00AD189D17BA1974ECDB2D623E9E14086386A6AAB5807825C37B015BFE892AFD154920EC437EB945D958E18622E1E0FE2FA06557CE4BB9BBD05A2D40E774DA2B65473791E314B7D6C886820B2FCFE4AA272B3B8B15E7344A145E8AF919B5454D89D36D413E87211186BF6F645E5EC94
311
DCCE8E1C799022E4EC9BC86D7A0F2AFB1FC4B2CE48F84B3F49ECE65BAD24CADCC07EFF39AB06BE9E6B27A059938EA7208838455383DDBCFCD967DDE4650EF92A14FF933C975DB20BD7FEEBC4487576485963D757D16340D9599FEB362F775F38CA4185A86F74B629C81B133644A3B18FD056E997E0734F9BE26D11C0AAFC66
311
9E2AC9FC41D281F8B2E1C35AE27BCE05F3DA295488096688719D974DF1B5D182DB7792288697F8763CFB43562C1CDEE11C4AABD5C22B6E33F6F389CFC3477C5919DC0D533F8A7A1846B7ADB60ABDC26C43D0CFC8910B7C15EE22675BD02702ED39DB77A87A192CA7A543E6205B979B9F5A6B512A3CA799E198B2D5797C0AF8
311
D1D872CA455D4D431A7879D4DD76110B5FF7F4176B54477A9EB5E4A5D11214FDA585F0382751D8E2582BA5D2075053298FEB8F1537304E32CB22C2E2B693DC0A760B1DFCA751BDC445AFDCBB12820ED85F6D5298933C7EF1211E9E057684056CDA3FEF3BB6052355E162DF27C59E965A8DDB7F9437EB72CDDA3A090DE65A5B
311
2F50326247B7EC67B73ACC7047FC9B353D6EE990F772207C6EC52B39DC2F3C0754821DAB559F7C1809C7D0DD5B0499D0442E0A6E391B3D5DB46D11E731E6794EC77523FBDAA242ED67F9FA1FB684255671F63C9BCFE6E7E896D51001A6113EF2298BA494E0B0980D1FA5B9D60796554C02256B1E0345FB7C6186B6A19D2DCA
311
270416262845FA4F42DB5D9B0A0B6F07FCA2E56C242522E001E0CEB734AF310FC8BFB57E38E03AACE93B3326A2197891E68452B26A6307FDABFEE0223D3C03C3C73D2D5BC054C8311F12004CAE488E5C29287F8156A2CAA4AD0D7BE6B97264E4139F437CE73ADF52E5134C52B819777C18B323A5924E4F67AFD13B1CDC3A61
311
793A79FAF5C0CEB718E441071E797C6DCCB9EFCF7E4A1E9F3DF3C2F9C9E8294E9586868788C972857FB0556D7A26941A7EEB9B580AD78EC40B85DC906B4120A563CA3B87797ED612D3B035962BB75F6515A393F4CB057F564CDF54F2E5A024514E6A1F901DB80C7E70B1FC05E356A7E72FABF4775B3E3FB8F70A2A8E7B6A94
311
542BB304157978CCC999E707A29CC795E67A59CC546A5D47B368954CA7B6E75EC9E1F6FC73CE3B4F71F8CB1A6B15923D61EAAEB14626AAA9D04A26EB9C66CD1BE86CA31A5D8703DE04CD1EBCE4F5CCB62F93909AD11E55799A781A956ED27D3E738F4538CB04ADABC7DAEF20BC35BA6A90BCC1DC61BA05F20D8832FFB9BC9B
311
15E2DB838A0AFBB7E0C82A562127E0446894F427794C3037186F622BF24DE1B00AA10A23BFA47B2A180D6DA5AD6F7326FEB8C100C2D7142EB2A0B2A9D1008A09BA343D70E054AB69E2A7EDB783CBD92537FAF4A44D1296AC2792729104B3276C276C951D0CF3CF3F1E6B017720A7B8505A5FF9589365979678C36F1BAF759E
311
AF57C60F1FF5FE9DCF5F8E764FF25A2D06CF25117A8FED51884C13B2B750DB0E4F5E3D64124FCF11F0AD8F1CC3B3DA4B38ED22BF1CB2585EE6BFEBBA63FBFD44F9537B9B37BDD6B358720F98A8125AED4349CCFEB0E135F19E208A04CA7E2B10711185D72E381F448036EF57C9F874E54A971CA37A639E986AC0226DC5AA00
311
D5B14FEA9192234B3DE617814FC221C92F33F1D392F297731B567FD98FD91D989379AF567A65B8ADF177591DB90FBEA99BF4ED11B16E50A0AB1DBF1156D034BBE04D69D08F939D8E92BF525A1DDAFF80ECBC95D8F45D3FDD289FD23F7D8B452F8EBB34EC082DEEE68E18EDDF072060FAD2AB1504DD4879BF67099FC58F6E9D
311
EFBF645D16334A3E9A127C6F1AF6132CF287E433B43A0EE93812B4AA0B194E03EE3FF91EF9C6ED0074A2F6EB18A96A7C9890B1FCDA1F2095E944DB911ED54C60DF16FB74C8CE9BDC7C54C4F14078CF73C2FFF1F1BBCCD7CF64F71407EA1683DBC410D226627F66E509060D5C0AFD611DE681D509DB8DD12FB1265B03C6F5C5
311
5FF4C30BD94187FF692B4F152982502F193098A789526A038AB529A52BC0DC4FB6285CBAC10A8B8DB75DCD9BDABBB221E27D1F8DA9F5EE5926A1C8AA9BA9BC09239C6A7F12914EA3B59EFF7AAEC3FFCCE56F1C5C2980AD072793527565E774F4631DB178CEEC691B1F367BEA0CF2907E1D6B854D527065979DDEF002D8B2AC
311
EA7CE21AE297737EDE1D45B31233B73FEA35BCFDD0B09721FDBAF6432681F2FD10C3E9EFB246FD6E854B344ACC9D8A0EEF876A7314B49B6A499FC650B099D650DBFEC7638ADFD245E2B7839DA5AC5F7D5623FC0ECEEC8653FC9B2BDD1AD4D00A566FBA7186DD3C9CD26512551637498CADB950FEC71ADB9A5524285DE328B8
311
EC7EC75D2345AEC6A27C42AF6D9B92155315C80DBFCABBB7DA0FAE425C4FB896B15C9BFAC4FE67DF5A23D30C93DA4D8F36FB15D100050DA6062E22AEC5F4DAC4F6FEEF97AE05DE63C6D38F9E068A20BC5E3B6BCD75320C5090924E7F93640A7735B1A43451C2D91EE62C6238B797349E59890AF3A520DF4A87095F3ABEC2E6
311
1F0593416CE46CDCBE0E00E2523FCCD04408588B5B6C9DB6459C786CE378770B54F51DA3A5E1DF2A3349BEAAC234A6CF8993B598B3B25B4B113E353A4D750FA7534749430F3EBF2512E7EA3FD43C6AB9A1F765A58463B306721A15D224FAFE8C6F5E3432D57EE697DA0DD5A9D4866A8BCCAAA9DFF1F06047851408FEC06047
311
1D0E3EB86BFAF46E4B5E60311DC3E3CEA147C75CF971BE74689507154FF2D2E92F15CDB2B9182B11459FD8ACAC5A85F174BC94A7F4EE4C4F5CAFA7C02E37BF0BC77B7DCD0C047BC316F562A01A441AFA7931CC84A28CB9F4AA367EB515778F29BFE61195FA671F4352E5E46E3A64773F1F76EE5EB36D7BCE9BCEAD837A4D77
311
F8DB8C92AEEF6711920D7C7D0F76B0FD0EB7AB83724CD35BCA7D36DDDF5FBB7FF6F04A91F3E2BB3B8F1A43CD659639507FF6331C5F697BCC782AE57D757A27D97F1AB9E0AEDB43F92F1B2AACDF5FEC8ADBAF9F814E2027003BA2F9E144B1938A7A04050AE5D953B82C45619165C813A10E76DD6906B3C16438064D14CDA713
311
AEC420034613E1AC7241904A49FBF87409AFB1FCB9B72FE7933A87D8FBEDACECE4EDCF6A4FE9FB94D5DEB74FAB7CFEAE17EE965DF980DCCA2D04134994F9A2E94D2265DA4FE6AA7B7AC15FACAC2B5ABBCD7DFF542C5314FDAB2E1B9D8B65220B8E2B638BE008E8DCA22678C820C5053664D15E89F2D735B51A84955E81A443
311
545E9FF787BE0FA700A76D136C27DA179A7C6E8939E01BE756E19CB292798063D8B97F44E8A27BCF3A614FEB8BE974A718E86F7EC99B53CA35FA24F61F2B07266684623A3D4CF073E511F3A10A8FDAFAF0078C577F4DF9D339FE7862E5FA47CF4344209E5BF76D783B1B48E152AD281B15FCB934DCDA49CEC5706B1EE8B460
311
F435324A5CAD154725E21AB8044B75A557A79F6C807B9340AA3D92503E866F4274412926C8C504E4D5EF8C0E68DD0B028781A6B4054F11CF18941F101C57CCC796773ABC8DED9CD91FE5788806C05E548895354AEAC96546D55B0E94A59F148D061F42AA398D822CDECA4CDE79E13469BDCC44FDC990F366BA5978C15F97ED
311
80CBFD73B0CD9B8B83A4F6845BDFBFAF034019473FB9A63BD55D3A4A7284757071574029A4D016DCCBE95DD679EF3C4880BF169422F8C89B68A988D2B13793CAED4F74DE7486C72DC94DF46B8E93D8E02EFCB1FF9B3BA10C8AE7F653DF94F4AF466CDDCEF5776687F7C4C14B63E4EED1719DC2EC482D7DBCC7AE518CDE3D5F
311
F86D39000EC3673C0044E1D308BF05F74D1B5F033A7D1BE7F74BC55BBE3E4A20F920946CA0271EB17BD2B80E5660ACB8A29A79F5E4BBA49D4D945B6EEF4A7EFEAA65E5555BBB57A7E15D2F83C69F30BBB978D2B39F1F26FC097424D39BB33CA3D87ABF64E307938B685BAD44F71556A30B7E712CA4FE600613C3E554B69ADE
311
949A7CFE214DF1FFF05CB82151EC6FC31950239F94CF7AD39DC473F6EA356E5EC2C4EFA04383CEFE985A127484366FBEE3C0EC4FEA363E4F6632AE781392FD45D67B63FB8DF70E82734F431FD3443172A0E30A83D60982D55FA6A2CF86DBA8382502ACC6CDEF3B907982EED1160E14863FA242F9757347E1544275CCDCF71E
311
CD5F8621CBEA326B8BA884AD7F825781923E66971F04010D574C541D8427A438A37EEF8AF88240EED7362C953F5A81DE2D56109CDE2524EA0F5D2F87308C0C47BD97AD605878AB8589E17CA83930CB5E0DCCD75853D68B1AB136594926DE426C367428E9334AFAFF90ECE221BB5DC9E5BB53D2CDEF954EAA9CD814F0E5725F
311
1965DD458E5F8487683AD86B9D0076BE3EE91EB1CECC5331A67A3F79D8B27587C12EC2A6A70474749F27B4C0BBAFB94B34189E88DC18964BE4121B9137FD516C7755356E50D6714E31ACD222621EBBCD1CFF81D87479056A9DA0E0B8EA19D24CF937DA89F78E8650CCBDC110AAB6C4E46DCBFD0446BA9E2060E81F314AC203
311
1E88135E5476AC0160EF5C0DD2EEF1B8B5CB2D198BE9A554A9093B5F7D7E4B5407DDFCA1D9C152FD97F55BFFFDFE802954DFEC8995B983E28AC92F1971E28F531DC407A1280EB125F64A72E617EFB27DFBCEDCDA2D6F2BDADA36873EE46B9BE1782998C63DA7182BC383FB6FD15DA472B175D7E8B4FC88F38D6E07FEAA3FA3
311
CBB8F6B449ECF14D2175E5C5CCA3A42ABF24CA6C9395AF74535F4DDB38CB84F56614B0FD32D7E19CA5CF988DB4449C40E23DF2B16772594554579094450F56F253CD25EA7F77366FB1CFE79696C428BB64D5A41E986189427E5E4D7E2DAE3D5BB4972B3DC44EAABDDDD63A2264ECFA5C786EB0EE1FDC5BE34FA0F08376869F
311
D1E61EA06CAE15191135445EE8F0394161C3266A596AA035572BB0C8876180D8B9C77D307DF9DCDF7365ABDA6F3A2366436457A4DFC1F259666569A9E4A79C817BDD5610E5200FCE894A358EC72858D50EF67545DA81C6FACE3D457BAF70367E1E6BDD9A952FB4F56247F58F523B97E640246051A72F79BE42FFA0B3187F63
311
097F91C48B868586F714B0EBD5A00A8412C1236E1298F60C72BE6C96B82B404CADAA304AE9F303176B14BA53FBC2D5E86377E35542019E24D97B96A49B2C0E5006E7795954DEAF5DA58958839043C6C70BD3B1B33B6DC5C31316D8A6923F142E26F6711A2258AF977DDF1F970ECC4F1F2B434B96D81BEB6E89BF3BBB3C7C8C
311
C80505070723D6D7D7D3C8CA27CA164A26024FED94B12A86031867241DA53D929636DA600F050BC40CE48B8BA03D69224720DEE2ED2127390BDF5E6EA64527BBD4C4C63FA76BB801FEEC0E61218EC98A8A86CD8313781617877E66692839B9468CF4DB8E50A73986E558E309C0D6F676F921BE02F1185454DC75B111572FF9
311
D27D85EA14C05AD7271225B391C4275659CA4A43759D0BA44639BE4C30A84DB7F67A41399FB95CBF923B1B1672ABC807C1590557FB18D811983FA97F5E609516D62281D38B1281F68FC75528C35E4CD7DF0F7DBB5E5DD69C414EBEA2F4A5B241B996BA77AE6C772E367408C633EA3E438B68563EA8BE7667F3A4C4FDEEA52A
311
BD78A2820F443B7914A15F180018D231E64519C56A12F6CA7C8DAE18F06F6B769DBF92329EF6A5D18FBCE600F36BD8E8198DE5CDAA96181F3A756EBA5501CEE58F497EA4F418A2B82565B9BCC611713C0B708CCA1F398B78C5F7D03B3437CC18F13061F55C7BEDADD5ACB1DB0E36D3CE47FF6EA1A563A57E9649EA5D14D1A5
311
0EAA457463381C073777EF1600607BAF6428A7DDC079D47A204EF1E1F1F0589FB054D45E02CE623B3823C317C601E589E22B1E88B448524B86A82828E32345EC18AE17214B42F8C41C6D428016D9BA31DDCB47572561E5A402E5BA4FCE55F78AF7268524AA04130F3A20BA5D1E9F9948EA48FC8F5314FDB35E218981980600
311
34ACE5E3E2BBCA34092518F275190AF65F45867FF0900AA4B81F25427414C372BF51DC29AA855C5428EE1EEDD6B849AD60F6E73475C2D2523F8A2772C840A478DED18A8C5C91B085F255DC4F54EA7AA8947354FD17ECF8FB3B4A0DE7B483CAF3A1165EE05BBA413E5C1FEF3DE1D6B8F2F3F3251C17D9FCAB48A9AAF63AC773
311
A0E413BBC46A9ADF84A566FC920E4D8C52C9769EE3301CADEEEDD92B312E02E2A7E35B7F1E7D203FE5A7D75578B06E99D0E46FFADB8FDA17ED8880390DA29094202D6F645F76F6F96409CDA05495A96E84B04A00D1A6C6C81D7F3DE9376E828CCF144EE50E364ACCE7237EA0BFB5607ED1AC3CFE73794E5B61739D14DF1743
311
441B1AC98F00ECEDE9E7301FA29755FBEFA68C91EF2B314CF510537EF1ABFC9A762496280B546F5EDAAF8A5B387D469FC9A878A92828C88608453ACEC6094DCA54111E7AD5B2663DFE2DD151B7F123B9F4FEF8EE36AB125FD7AD52A59B1B765B3E3F73E3F73DEA93875004D2AFFE3CDE9493B87A9904DD052028949041A91D
311
C0E1BA47BA714343FD5B25E0A6A09503AFC17C790058A836A324FE31D7893512E28230332F153181C1E018E1124EBE1BA262AA428A518237D1EA7275E48C5C561BD19ED6912EDD8367DA0F31E40EEAE9683DA9257525AEA7B632B97119E17145A90231768A4F3B9120FF32E8319B015E3CBE26F1A754177D8185345817C096
311
B0CE443A955D13AC15E1FB5DEEA0239EC32A3C92241A237B0B02FFCB4F93CF2B02570C8D192E2F2A68CEEB42F12E6F8CEEFF46C251E22B4341C56FB08CCE550E7A9D6F4D6564B9EA52A83D5BF2C6E03FA19D2775E15A8A7ACF30A13C259EE7F5EF2AC3BA354F1500E1A07FC63FB4686E2F12EC69719F9ECF5FE3F35598DF2C
311
E944008CE78F0911BA5BE5D0A34E0098FF038669C26030BA9B300303039852A8F6F496341737CA7E0D2E3AAA36DE0A70AA7D9CA0D54D9AD84B18A44C9E625475E1C97B93BEBB38DCE7D227E67A2D00F531436136355F243D1FC0D712C5765754FA22FCFFAE97919161F46D6E61ACB37D83777B385889770B50765B12776844
311
3A5C4D3A4E35A3151111F146B7CA116F918A049F1C272F2CD7976C69A0068773451659A97E0F4A08FE604C3FF6CE7385DB19F4D3ABC8A0D80DA8A42096AC377DB49382B36E270B6FA7570188B4B7D1DDDDA82ACA487CCA5D38BD3BD039ADBAFA4ACFF27809239B722081E2EB9F145320553D183F28471C388BC8814E504567
311
6767AB58A8E72D1CED2CA731379515D2E533E4CF0B39DFC625F97AC4836831A4DE330E87A8126FA17EBE583D614E71E22A8DBF2825599743E0640037303E8E1B1E8EA4E1ABFA4F62907B5E4E0E5DCFDAB417C36C6848A2B8D15F1E505434C0707E16B1CFC2A1C36A42BBF55734F8F4301DDC2A5110CEE8C0747F6951926501
311
2A2174BF4E955ECD4FDE095A3ABC70536B7AD0B9D7892F81287D667C108703C9B66A221E9A0929D030008F77FF6F5D2108EF5706FC87A3069B976F7C9FC3239D13D283CDEA83597461079FEEE049B0F392889898B7D87D31F8D60ED7B56B91823A8E4EDDB36C6172ECEE42BD42B12CD67994FA0F0DFAE9389356F4CD4425A4
311
B8AA55CBF7ECD585C6A2C2316791E43D5C06841ADBB226A87FD61515FFBB0167B74E56BD7F3E90A57A97FEDCBDF483A0D6699A8C0849CAEB4947FAA90D8E332D9DEBD9F4738C37DA0CAF9CF3DAA68BCB67C420459C7A64498D6E848E5CADE92BB6901F607AA331104A67F7CD650EE169B1DAE94D2C31C2F993632259B6957E
311
246EFE4C5481107B07118607700040E5812A2A2A38DA0076875258C753F60E0F2662C748EDD5F3F3686B8FC3BD6FE631ECCAA1E8B1C1E565AD117E54893E79F4672E32F9E46B2A183DFDCF3EECB4D4D077DBEA0DA254D256045109670050129E9B9B1A9E4A11344D61497A992778095151510C4BB7EF2009B63AA436063531
311
2E4CF668B7E0D3D85A8688E2BD83B569439892ADB63461930D428E0DE42E4AC57CE48DA5CC1449530D8BD3D6A0F08DF20C8E8F570F2CFFFCEA286E30969B4654D498A58D9DA782E19FE3F002181838925592C4A1EF0B332D88B61A92C644547BED490D3A42CFFAB70E36D961F694F6307F72FF15A1C79D5B1B5CEFD353D9E2
311
B52566DEC8F8F09CB3E8359C0F68EBBB7898243E34E12A015B2685AB303C04D3A9E00671FF3DFF0A184E4A2ABEB2B666AF5B3A209C73D8EF29DCDB069C9F391EEE9DD0F74C7BCDE16F8F02E3B8816122BBEB50665775B600549D8BB33A54A6BF940C028118BC6878C79958D6784F9DEAA6E26748386FFAF8D0D0101E2847B6
311
563F5D8DC1D78F787BE00E2C941AE12148D4A81599FE8F68D4DA5CDED75530ADE138240300EE13B0FC13A1687FED6774662C05A2B7DFB186732F0D7A93545D8B0A6390AE5054D9CB582DA846D7A061B3358B45E2B52DDE63E114397EDB7E09233A579155D795BE76102CF277F4DF8B188C4F2879BEAE3C08347124BF9ED23B
311
128259FE107D31E34A652F090B30B39E0D9AF917B76A2806135621A8A60681F16AF216514BBD02711585B5B1AE823F4B2D0369EA5B6BCB863072727FFC871CA6C9AB79A814D989057E9470A3D238BC87CBB4A0EA49AFE2B86F22E499793CAA9047080450166BDC357524561E258C77CB697F1ABB32562CF87C3B7AA12F911E
311
F19FB3E5C02222E887D08202A60A17151F5E053A86B437771088B4FEE14D652C43E8D939995D34545E12E2FF93D4E366EAD25F10CB7DED141563C3D0C447AF06078A91135FD4B9611583CB4BF3BD167F2399CEAB0E0100F8FFC305F00F1711717173138B4B48C83022295DE657EFEDD97F238ECA80F528AFB4F8D67AD4E259
311
4B9A3AA86D7487EFC313BA95745C186F0CDD84CC12DC9CB0424B42203D351FD9C0A3AF10CC7F388E0329279087386421F194F4A29464C1DEF7EF8BE515E4A199DCD5B909342598D8FE6A231F71336248D5CEC5454455C7BE383B3BC7B260FED27F703FDC39A170F3827239102F59D4DEE7FEF82EAA1A5E4BA94DCC4CC44E7E
311
2EDE20F24244E4454369D2E87C3F823F193FD4FD27E1C23984B01898D15ABC20711A8A558054951A6AE280096BA36CBA439603B7B0B4C45F248C14B2383B4B5CD8ECECE4FF859AD4A6CA2326D020EF090F4041D28DB66E5256B56232CC52829DE8060BAE6BBF37D4B7469B822454FE93210A3E8D15E69FFCF01123222611C5
311
1C4FD0A041A0CFA2471CF6BE38D2B20FA4C3525B5B8B586759475CF80ADFE67A284AC24651E52B8E683D24C2622642F27E7C3C22783BCF63648BC398BD6CD0D9C97E7E7E3EACB6126DB7A6C1FD9F1031302EE67ED96F22B77C7CA0239BB324207559B105E4693EB26EC46182A92C9C0DBD24F29B31C5C5AC1F84300E0E17CE
311
EAC15F5736FA4A98971E2F1423BFCD68D4BBD5F86E74B40A369F39507C88FCDB35D2DD8DEBEA4AF999E23CF2816D204200DF6E611781B9884C1AC8888B4DE397320472959434323A5A36B22A8E1F721A270DF3BD65E4A31C11FF048AFB0D8B7B6881423793963A23CFCE935FC189ED36FAE35C46DA3574C979E4394BE52084
311
F3081837BE033396D2EBD80F1F691B273F660D2B32FA27A33B1DE4ADA5F0FA4651511102DFA410DDA86E065272CA314D5249DF91B06BB92807B28EFD54F08F7B525252782CD276DD02E6B0319B13DF87B1F6361AD6B28FC0D711CF445429B9E5A433CD493051C49A9E03DDB1B147D880253514A5DED88009018620EE229101
311
C041950E2D8AA8E1F5F5438E0C0C0C60EEDEE9E3E0C051948C69F84BB7B2A48A1F3C8EB9E6864687F4F4F6F6E2FA87608ADAF9C5E117B7C1A737E710769DA1D15ECE6A84502AA855398712D5FB51BE92E4EF824969CE18278798AC303C2C7980DD2500ADF8FB1E6D6C2FAAFF9987178923334A244758BAA01A9A1B70FA5097
311
D01E1CC2A58DAD0EC94CE6430AA9B0C10D75E3C6BAC670EFBADEE1607739CE0FC18A2587E3EC3058562014C64219C69BC269082D5C2F4A659278D585755912176D78A1B641719C2A394CED495A1AC5D583FD2F5EDD93308EA7EAE8A6DD396598BDBD3D4CFED62D18A5BDFDE0DD5C80D1A89BA62697B131AE7CE9A659413858
311
2F1B37D68F1749AC7CB67A70695D48A4A056AC1FBD4E82358CEAE38F54B95A9016F9000F9879C0D9D131768635CA798895F27D6F1614F11F2838A83611AA51C9A3DDB539D42979C29F10465655C17BEC3E2760B80DCBF609198C7B171A531905F3EC218D696025975E986C6B4C666666787271F202805577DD5A3EF0CAFAF9
311
1B62DC4B2DB4217A7606282F31D8DDBC290593BAA93EA6353AFA9939B877978481E15CFC9F2755CDC00C538F63A4BA3E80AE009B73CA0185687D339A507D165B74290D6EE46D5C58148F020C3668ABE9EF2F7549170DC80DB41FFC1D678FF19AEB10C7133832B104B80F691B3138F97A92D26E551F1F110400D45AC71A9B9A
311
C41A1A1B1DAEED0B0810638EFFB511D46B121C6FEA0F38CD00E03CFFEB9713FE1F9C263E4DDEC160D0497FA9A132BA608584057FB15380825DE6C7FC3C667EE947D488A09898D8E939C4953BF4EC9836344D2CC6B2971B2A21A572B06096F4982D2CC7232D46E8EA69DC83722E267754D777F97F96D5DA74E1E75178084D0E
311
70F12AD33E5F71EF2AFA599B2BEBF60A5BE475F444F240CBFE8143C334E7ED9150FEEFEF7EB020C4DBED388DD1D6A167A76F3CBF119B578AE8CFA7736ACAFA4440A1C47185638A0D2F3EB5BDDEFDA958FB13CE4AA4923D5BF840392D45544329525749734866684BF7F8D9D54D892E19BCA9F829A0F8BFCBEEA6CFDFC61D74
311
EA1A645ED7A1FF241739F15694BD835B66FEC5677E40FE69BD3F91AE402F036537218A401CB0828604AD189E575015C6F3F6BBC8AC79CF6C70653847254B31551EFCBEB5978B9DB85D58D0FA41A9DFE9C624834AA04949D24B5AE6D299E072D152D12097920F14AA92C31C3B97E28B6C2E6E9C23D63043ECBBC0A60FDF5BD0
311
C33C127EA8A3308B8B6AFFEB28B4455BF6E7AF4FC6222728357EB8E46E85053E6A8843AB23295BF838ABDA94658FEF3F832F147046B4ACD6F7D48E8FCC9618582961C898D1C7A253C91BFECBDA6BA18A1FCF70755DCCEE2222F41B76D23CA98D0CB3D95F0CF66D57FFF65E2A90F5DF40FC3187621E981BD0BC1D9927872126
311
88976B94A8F0C6EF646624B570B78E068826F87CE27041A95C9A4871FF65CC17FCB1639629AD6A9517000D63AC231F3D741CB8430777E7ECF80CE7A3F73C0F162F7E56AA71F4DA80A33CD6ACEE78E2C11FAC03DAFCE929B106F8F6B3ED2DC71FF994BD9CEF4E9A94896EF1B6E2B7B4978168BCF0847A3D2A4F1B0500B926E6
311
34B174548E9FBAD27153FB5FC36799B1E6C7C38A94E1F9E996796D7B485E635D5287A2AE76FBD11A341DB3F8F810385BB7296391973DC6C37C452A9305AEBBE0CDB6C566DB59FE60C8E94B1FD090354BF51439FFD1B48D725228FFA88C84F686F547107A7A235665A4593B7C34D748C1AC8D56DD5DA861EEFBADDECBBD6511
311
7E65851F90351AEB65F0EFCFF4BCFEF24CB7A5879699FAC437A7AF9099186CF006BB923A59E37D7A36A29FD8D2CBB914A5E9D0A8FD212FBF796AE9A67958FF1D5D8B85F78F96219D4714EB919929241B6C018AAE0C02069F8D919961EC5DDFBFB7573E3AC8E08BFB7C8534BE6DE045B3CD63DBD71F7638BA2309CAE398EA3A
311
7D8F98BBBC7AEB367EFA5CFA27A9F8F2F52FE878058E6209C026453F8E7E8A237DFC389E9590F6059B397CFD65183BBF936E86896612A5B5FEE49DAC8455D026218AFEBEC12B3523A45B57B82C9C97E02ACFA1184DB18E48CF615DBF39C3CC6F0B4AE6BBEEA2E39D944E290302FA3DE33FA7E40296E2EF7BF1CD855BBECFAD
311
0FD622BEE9746FC4FDFDE545AE6E3BC234CADF83A0FB76DFB145BF3828AE3436368AC24989454F8FF70A177672C711CAA1A76107218CF948CA01F873520E7A2B118EBB161ABAD432932029628B6761590C98AB590C8C8C79798CE9F715BA696E839E9131A4BB68BE923F1747FBFF165331FFDD4D05997ACD168F12CA75348D
311
AC04C7F509FE83898A8B421181AF492861CE81E4A2DD0A30850CFA95E05F097FF70F9E777310D584A75BA7018922E271DAB1D785671157685B7D383D3E074DDB4F1E44EF04B07BAAC75A062077C54B9752C738C9D804D402E02851F3F89605AF189738C18C021D2139EAF72513824E10DDD3047BACC8521ED7E98B257D1166
311
903B1B08FA6F918FD7E162913FEC7D0EF4787E29C35FBA8C6E2C9C20E9AB30AE42CA2A01A090E7D010C1B5BF9CEE2A304BF3A987FB40D836979B79E18D70F257DA61E808472DD85B82761825779D6B90CAEB0F23360C6F80A7D7D77545E95B3DFF0CF96A827F9B5BCECD2C9698718417EF80FEEDEE938AFF55859D0D540B7F
311
E09435583A6F04874A0C7E8CF234DF4879722000167F5872CEC6BF3EF7E5A8CC8121E6A359227C8A29C95212F9F735BC72A887D56B8F309FC525BFB4FD767AAEC4AEFF249CFBBD2DE1AB9969A6155C7D8DABC307E47324C1F916C7BCFF40ABA5644E9FFB9238D19ADADA49D9610F01ABBA57E4DFCBDCCBB2B93C8953206C91
311
DE01B0E2651A6D6C31721915B31F7B7CBCE55466F6D70402788FA91D73BE4ADCBA99A35F17D6B83383704917D6833F0FA3CD45C926ADB8BC17999A4A0AFBCE2541F7B8CF4C2F5FBA611B3E626D64407CB32C122DFF4EF8674D6EDBB86C8F7C6A16D50FA685E2CCA34F8F7D1D8265BB0042E9D7F1F666F7BE5FAA5184DF58E1
311
2122A42EF02F461B3F369AC746F96528AD208512AB56844CF75B97F352DF7995024FB02855385854F3798670D01CAC771AC3E1889EC25F61A20C1F8CAB46898817F9C47E2CDA1F286BF2F358298709FE567C91133E2638C8B53975E753EA8BFD3578B5F7186B7BF084EBA3F77BAC3132A5779902EC22AF2D2E79F42D324E08
311
3386DAEE9810D1B44A5DAA54513C7A71E52A4AB9257D975B621308FE4D2141CC3DCFE946C154A3C1DFCCA7629EC69ACFA831634ADDA93C0388D2A9A2DDAFCF957C6995BCE7FBB6DC4EBAE79E63EB08E9A25F52F67076F7093CA545CA3053B5BF576DEAD4E0017143C5F759F32B2D6F145B52B67B48909B7C7FCA6586EE385A
311
2189C16932CB6DDFD9152AE317C430492A578ED27B72D85D40C7C93C097939E1B50F4D67F05334FE9DC362C30B7FF561B95259138ECFD9274C8D695C31B14D4EAA9F3D7FA8DDF652F8C5DEFA23284C799B7D94416DEE81E05A866302DC70192A5368EA65E1CED8BF107A1E2D3119A71E85DC1A7B0C1E93274CE04DD0F2ABC8
311
AC7C987FDB002B6F81757B43502EF7A0D92E416494FAEEA4C9C090CD9557AA4D532F4996A272B94355C5A0E4974EEA9627476F30809B94D8D8D860062E02204643BEC7D0438AF800FC7E2B26955D595421E83C69E1A07E0E3122285835F014AD538188CF9737CE76D464A353FA55A001AB2526B84E985083693BC76FE211CA
311
1D000679C889E3C009832C87E1AC2EDD05C302557422DF0800E316FCAC86978A371F025A6C7DAA9F333E7BD160403A1A06EA75AA9888FF01504B0304140006080800D0031D4B28BB58AF800100009E0500003D00000030464346383830392D433134452D343734392D423939462D3235463346444535353433432F53636865
311
6D61732F436F6D6D6F6E536368656D612E786D6CBD544D4FC23018BEFB2B96DE15493C78601010A34B880709DEDFB52FD0D8B54BD70DF6EFED3AC0B12E6442E2716BFB3CEFF3D18E26FB440405EA8C2B1992E1C323095052C5B8DC842437EBFB673219DF8DA659866649B798C078B48AE6410122242F2A4994AC7F93815DF8
311
5C049C8564CA0A901499DD886B2EB9B1E02448F358701A9235880C49A0119892A20C89D1B9FD768815CAD268CB5E0355B40B1E47F3E37A2020464BED06AA57CE8FCC20C3C3446D46761A2632A8C1283D07031EFF2AE7CCB1BFEEE916E406DFAC8E36FFD99A9D60A6944090EEDC3B670C7DC13DE86B6B2C5C240D6E503BB85A
311
CD579D513F1B9F9A69DC9CC22AFA80C426D40AF0B21EA168559156B6276F0F726A6BFF04DCD513A87A62CAD41FB24FCB2858B3952E3D852084DA25B9303C15687973CC8E8AAE11DF2836C38C6A9E765E8C1BA1BFB1DC29CDFE518C8B5A7655A4ED7E77291ABEB80DBD82EC866ADE1B8D05AF9E35CF09D7A061F38A986D9EC4
311
12B8F0F65E5D81534D9B231D1E5A8FE577A241F3A5FD01504B0304140006080800D0031D4B2CCEBD668A040000E01200003E00000030464346383830392D433134452D343734392D423939462D3235463346444535353433432F536368656D61732F47656E65726963536368656D612E786D6CD5586D6FDB380CFE7EBF42F0
311
F7A649B70E1B90744856B4970F450FCD7A5F05459613EDE4174872DADCAF3F522F8ED3B88D2F1D06AC4050DBA2493EE4438AF2F8EB73AEC8466823CB62928C06C384888297A92C5693A4B6D9D9E7E4EBD51FE3A931C22EF85AE4EC6AFC38BF261BA626C9AD288496DC3F4FCEAFC63366845F7A10452AF41DB320C0D44EC26E
311
AB20918735565582695670811A6A49643A49A6E9069FA4604A64B29016DC4B48552F95E4932463CA888468C1D2B250DB4962750DF7CE273069CE8363F1FF4EDB00E0A21999574AE4A2B00C353B93F3BD4777B8A61ED8F604ABFEDD79CE56A2B7BDFBDBC50996E0ADDE16FED26223C5D30956C29BDF4A55EA686E5E58B112DA
311
45CE67F76F4FA27EFA3FB672FD7372FC388FAECDCA5209E693CAD167BADCD272F943701B3812F8A3D852008B1D2E32DB927B2F833C6EA95879925356D254582695095A3CE982924720BE5774A3CB9CDCDB350427D2DF20DA1B5532EBE2D5D6288D75D4F7E4FD9890A0EF8E3D93EBB8F8BA4758158EF6FB90A6F9520281C93D
311
E7AAC6D24607DA296BB96018123F821A7D6A5C5884050C475DA4865442732C8B95684A50165CBB3A32F25F783A4A480ED59AD7F924B968AEA50131F46303223E6A397B0E52976030DC1DCA81D7E7C1EDEEA42C19FF27635C505E2BD5198A599020DF50A2330FCB3AAF28CB0124108429553EF1B228802E2265D8F7CC240104
311
2B155BCC7070F1E5C55F13B4A9577362CCCE46C32174E010C3C378C44841A4BDA00FE3A12006CE11EE6AEC59894D3526DDE1CD59D503ECC324017F8061B7F162162FA62EDD81AE3308617770796DCBDAD2B2625C5AE8A63DE20B2C8AA5E95E76E5730823955956E33E705425A2187C185D36489A1B44D3DCEC2172F6BA2105
311
C3546287A7194B2331768EBBE64F6E70A9930ABE0ADEA89E9E2C38523B810287AD67A54A039C1606EAFE68F8304610BB9093DBDDABC0B2AE4E290DCDA15376D7E39F72B556F0B32EAB5D3D498B4C41ABADEC3A1434C422D87E8025A84BDCB2B1417ED750FAE4DA8976863974C577C7F902D3F156AD354DEA3540DE6BEAE2BE
311
A52F7A2EB4CA43802ECE5BF2CE2EDC9347179FFB023CE412E60BE16DA0BE29B374988A553F561DC04615DD35F7D2C8979F60E5955CE93DF29DED8AFA1EE6642D53418086C03C47C377910F75F7E8F5EF665F70B60FFB22AEDF897D119E8423C773E819A3C1E55E550599EE6EDCA34D0C86FD72057DF2CD46F16A470682471C
311
164E4346D5306BF12D7D12D82CFF673D41636C347443FEB51B50D72EA171A8E4A58623A4A16E0FA2B8B10A0D23268D87C33896EE8FB73305A74BF224EDBADFA0BD674AB354D63DB7BD5D83426761C077DE767728235446A552754EB93B755891C3C4CC6CADE37CF0E912A7BB38DBA010F9DE1282EDF470CA69A9CDA482E334
311
C4A6EA4107987980B17E72F31730EBF88BBD39E7C629F56797A3C0009C2C5AE7951D9A05A02773440F02EEB4DE396A3B6A570C72CCFBCD823B0B8ED3F1D5CEDDFED772FA70236C83FB7D86C385D570B87107535572A60A96035F8F7C6A7192F13007246BBE0521855E6AC46F3E27689CEE7D186A6FD679D98CDCAD13333E04
311
EBE7ED6F55FF01504B0304140006080800D0031D4B6180134D5F0100006B0300004500000030464346383830392D433134452D343734392D423939462D3235463346444535353433432F536368656D61732F52656E6465724D6174657269616C536368656D612E786D6CA5934D6FC2300C86EFFB1551EEE343DBA41D1A1030
311
09551ADAD40EAE28A4A68D9426284961FCFBE5A340113B2071746D3F765EBF4DC6BFB5407BD0862B49F0B037C0082453059725C18DDD3EBFE3F1E829991803366715D474942CD30FB4A782E00C64017A412D684E454CE3FE28995203B162A6EA5AC94B66997D225E109CD63B0135484BAD1B3C07E9080CA35DB3119C11BCA5
311
C200461A68A1A438126C75E3E230D40FF81FB3F03C91D1E3A3A0AF79FE28E25BC39EC3E17E4C2A2D94A0833A51AF55BCCA7D88572FCBAC529C4140B020FC3AAFA886621DCED7EAD7664CC86024E806DC297DA1BB393E4156543457A4537DB8817349A70F8ACBF09B3EEE2CB2F33E91B65D60786E4E3B39B77E3FEEEF565042
311
4525DA657FB8B46BE6BF064646F0A0F7327C0BC1BC1B4CBBC1C419FA3CCB23500007872A2580CAAE5461865565294E4EDB4617B62FF579DF9A5B2F54E834076A597573A020912FED777F9B3F504B0304140006080800D0031D4B275DCEC251000000570000004700000030464346383830392D433134452D343734392D4239
311
39462D3235463346444535353433432F4173736574446174612F41737365745461626C654F66436F6E74656E74732E62696E536160607074747634333075D335357473D3353176B4D4753234B7D035347076B274B674317233321702AACB4D2C492DCA4CCC492C28484D2C4ACC4B4E050A82012F90744FCD03CA26072767A4
311
E6260200504B0304140006080800D0031D4BF865834058000000680000004500000030464346383830392D433134452D343734392D423939462D3235463346444535353433432F4173736574446174612F53747265616D56657273696F6E5461626C652E696E66558CBD0A80300C06F73E4B117FB66E451741D041DC5BF984
311
80A492E4FDD18EAEC7DD4555D89EF28DF51A0B1BD8340C4DE7DD848B988C0ACF0649566493F2408C508DDEBB99D5129FF8F1AF8CF5B9503E20FAE5A16B5AF702504B0304140006080800D0031D4B59FB759036010000A20400003600000030464346383830392D433134452D343734392D423939462D323546334644453535
311
3433432F4173736574446174612F636E782E786D6CCD94314FC3301085FF4A648931B61B060A725C21583A8144C5C076752EC5AA6347F605C1BFC76E33808A983A54F274FAEEFCFCE4776AF539B8EA0363B2C1B76CC125ABD09BD059BF6BD9447DBD64D54AAB1802FDC058E561C0969532D36A17C334CEA50E7B985CA93AEB
311
F773F13E25A40D6C1D3EF50FC1137A4AAC320E526A5932EF38008789428769CF3B20E00B1E3185291ACC93C80E384F321181B063BA918B9B5A2EEBE67623E5DD753ECD9B1285D46A1B829B799B2F8B61BC6AA439DECBB454A2005A4DD1CE54790DD37FA9E45BEB95C8A45689627665EEA0AF3177C0383A6B80B279221842AA
311
338430287184B512C5855F5E3C626FBD2D2DEB2C0D28C4E72C102359BC404FFE537B7E6FD63E11788397ECC8A9C6F3FBF072F845AFC7581E7273796939D5C8ADEFCF9015715827393A65BBE86F504B0304140006080800D0031D4B4C9DEB96E6000000600100006700000030464346383830392D433134452D343734392D42
311
3939462D3235463346444535353433432F5265736F75726365732F41414341363035462D353146462D343341392D423137382D3130434239433944324632372F7468756D626E61696C2F302F636E782E786D6C4D90416EC4200C45AF1221759940D245A715612ED1D56C2A97785234042330D5F4F68596C548966C7D3F59FE
311
5F9FEF871FBE3165476115F3A4C480C1D2E6C2BE8AC2D7F12486B3D189881F3031043870154D1646EF894AECD2865728BEA9DE855B17770C989CFD88611783F590F32AB2FDC20326284C1BE6DBB401C3344F09339564B11E6077603F601302E326CCA2E697519DC6E5F55DA9B7E75ACB45CB461AFD49E43BEF0263A2F8B428
311
4B750CF51FA565038C2EC975AA9910E6E1392DEBD2E8CCA9FAEF10FFC40A418CDE59E01A9324CBC86385100E2DFF61A365F35BDB5F18B5B76CCC2F504B0304140006080800D0031D4BA233C2345D000000800000006500000030464346383830392D433134452D343734392D423939462D3235463346444535353433432F52
311
65736F75726365732F41414341363035462D353146462D343341392D423137382D3130434239433944324632372F7468756D626E61696C2F636E782E786D6C4D8B490E80201004BF42E6EE76F3C0F216234B883063108CCF170C074F95AE5473F5C4C06E932E4F28601967600677D21E9D8092EDB002539227A2FCCB80E116
311
8D80A6417297A89C5D6963B7129A0D1E8F2EE73AA7B62BBEB8B27DE50B504B0304140006080800D0031D4BBE89762363000000880000005B00000030464346383830392D433134452D343734392D423939462D3235463346444535353433432F5265736F75726365732F41414341363035462D353146462D343341392D4231
311
37382D3130434239433944324632372F636E782E786D6C4DCC3B0E80201004D0AB90EDFD75167CCE820A4A845D83603CBE602CAC26799919AEEEE0D965E2E908050C6D0FCCE04C8BC355404EB6198129C92351FAD580A10E464065907C8D948F8F166375F655BDC3FDC3B4E530A176BE7057BDC43B2A593FE403504B030414
311
0006080800D0031D4B0ADEF3667F000000A30000003600000030464346383830392D433134452D343734392D423939462D3235463346444535353433432F5265736F75726365732F636E782E786D6C4D8CD10E822018465F85FDF71458A66C82431AEFE1121D13A191B41E3F685E74F56D67DF395DFFD91C7A9BF8B2C173A0
311
2702C8F84798AC5F38A47DC62DA05E743184FDEF06C88F9BE15030886E89213D0F3499794CAE5067FD7A402995BC915AE39A6A8DAF17C9F0409B1653A206A6D8BDD255938D7351F2FC7A794B5E7C01504B0304140006080800D0031D4BCDEC727C0A010000550300003400000030464346383830392D433134452D34373439
311
2D423939462D3235463346444535353433432F536368656D61732F636E782E786D6CCD93BD4E042114855F65426239C08C85AB61D8C2C2CA46ADEC10EEAE64813BE1C7E8DB0B2BC56E62A7C5261470F2E5E69C0388EDA777C307C464312C64A29C0C10341A1BF60B2979376EC8B0952222E6138C0C41795848938914FB8865
311
ED92819D2AAEA9CE864317EFD17B0CCFFA1DBC2283762AA585A4E391AA92D1403A50A3B2A2138D90B0440D7542B61EFA041D41653044CE7CBA19F9669C6F5F38BFBBAE6B7E15AC9152BC21BACEDB9021E27A35738D751BAA212E5803A428D176AAA520F2D41DAD7D08560929528EB5854EE6AFB5926A5D9DD52AD7B2D811FC
311
61A4602DEC59E4070810ADBED4CC67F6FE2DF4130403F1B1DE54B4CA5D6AF6DF5CFEAD0276FC01F519B40F21BF01504B0304140006080800D0031D4BE3603EBE7A000000C20000002C00000030464346383830392D433134452D343734392D423939462D3235463346444535353433432F636E782E786D6C6DCD410EC22010
311
85E1AB90D9DBEACE05D09878023D01A1D34A8419C380F1F82DA68B9AB8FDFEC93C3D7C52546FCC12980C9CBA232824CF63A0D9402DD3E10C6AB03A3397DD192872090D3406ABE7CCF5B5D18893ABB1690CF4DCF02282E5EA8A5BB96FFE536F285CB347F95BEFFE81C9ED5AFF9D5B1FB575BB00504B0304140006080800D003
311
1D4BA87F07417E000000A300000007000000636E782E786D6C4D8CD10AC22018465F45FE7BCB6D4A0AEA209BEF319A1BD2A661337AFC3476D1D50787EF1CD97FB615BD5D7AF91814342702C8857B9C7C5814E47DC61C50AF658A71FFBB010AE3E614540C5A2E29E6E78126378F79AD74F5E17140628DE59C086C1A3A607AA1
311
025F85B0B865B6B3B78131DA99629CAB52E6D72B5BF3FA0B504B0304140006080800D0031D4BCA1DF9C9A900000073010000130000005B436F6E74656E745F54797065735D2E786D6CA590410EC2300C04BF12E5DEBA70400835E500FC800F84E0B411AD13252E2ABF27A55740421CEDDDD9B55CEFA7A117778CC979527255
311
565220197F75D42A39B22DB652EC9BFAFC089844F65252B2630E3B80643A1C742A7D40CA8AF571D09CC7D842D0E6A65B8475556DC07862242E78CE904D7D44ABC79EC569CAEBA537E3521C16DF5CA5A40EA17746733E0B6615DE7217475F386F18B9481C510F1F021CD9FF027EA0E1F5C4E609504B0304140006080800D003
311
1D4B3DEE336E64000000790000001B0000006175746F6465736B2D64657369676E2D7061636B6167652E786D6C35CBC10E83200C00D05F21DCA56CA76D41FC96062B120735B69A7DBE268BB7777961F8D5AF396893C2ADB70FE7ADA196782C2DF776D7A97B5933C430F15651E5469C55D70F80A4992A3ADC954792C525AE70
311
A1E4D6AD9816CC044FEFDF01FE3FDE907802504B0304140006080800D0031D4B37A69EA0F8000000960100003700000030464346383830392D433134452D343734392D423939462D3235463346444535353433432F4173736574446174612F636F72652E786D6C8550CB6EC32010FC156BEFD8D8380DAD30919DF40F7AEA0D
311
01715162B07854FDFC42EC4AEDA912D2A2D999D9DD61A7AFE55E7D6A1F8CB303B435864A5BE994B1F300295E1185EAC499772EFEA24165C5A207283070367B97D61D92CE466D0B6A9DD23B2842D0112A79CF9F0182FCD08BA8458A99116EF52AE44DCCBA6EEB8DC7594A46ED52A3B29BB91AED814FE7E942684F117EED27D4
311
1FF184C6031ED1482821E7E989E003654D117316CDF2335D7A2DA256C03BDC1E11A6A87B7EC3F885E4D7BDB3A630390BD1E79BF7A1E53AE063D9FA22A260CDD6FDE39A56F5BF6B3236926E77DD1401789B977C34386B4A4AB93C22CCB524CABF01504B0304140006080800D0031D4B99C04A7FF30000008E01000068000000
311
30464346383830392D433134452D343734392D423939462D3235463346444535353433432F5265736F75726365732F41414341363035462D353146462D343341392D423137382D3130434239433944324632372F7468756D626E61696C2F302F636F72652E786D6C8550CB6EC32010FC156BEFD8D8380D8D30919DF60F7AEA
311
0D01715162B07854FDFC42EC4AEDA9D24ABB1A6666D961E7AFE55E7D6A1F8CB303B435864A5BE994B1F300295E1185EACC99772EFEA24165C5A207283070367B97D61D92CE466D0B6A9DD23B2842D0112A79CFC300417EE845D422C5CC08B77A15F226665DB7F5C6E32C25A376A951D9CD5C8DF6C0A7CBF442684F117EED27
311
D41FF184C6031ED148282197E989E003654D117316CDF2B35D7A2DA256C03BDC1E11A6A87B7EC3F8447275EFAC294CCE42F4F9E67D69B90E3866CD86FE714BABFADF2D191B49B7BB6D8A00BCCD9F7B3C70D69474727B44977B49927F03504B0304140006080800D0031D4B5768AFA2F9000000960100006600000030464346
311
383830392D433134452D343734392D423939462D3235463346444535353433432F5265736F75726365732F41414341363035462D353146462D343341392D423137382D3130434239433944324632372F7468756D626E61696C2F636F72652E786D6C8550CB6EC32010FC156BEFD8D8380D8D30919DF60F7AEA8D62E2A0D860
311
F1A8FAF985D895DA5325A445B333B3BBC3CE5FCB5C7C2AE7B5351DD42586421969476DA60E62B8220AC59933676DF84583C28845759061E06C7236AE3B24AD09CA64D4D851EDA0F05E0528E49C3E1D7879538B28450C89E1EFE52AE45D4CAAACCB8DC7598C7ADCA57A4C6EFAAA95033E5C8617425B8AF06B3BA0F68807D41F
311
708F7A4209B90C4F041F28ABB298B3A0979FE9D22911D408BCC1F511618A9AE7378C4F24BDE69D5599C9990F2EDDBC0FCDD7010FB7B87C18A167566DDD3FAE711DFF778DDA04D2ECAE9BC203AFD3928F0667554E29954784A9E644F937504B0304140006080800D0031D4B8510E2F10D010000B10100005C00000030464346
311
383830392D433134452D343734392D423939462D3235463346444535353433432F5265736F75726365732F41414341363035462D353146462D343341392D423137382D3130434239433944324632372F636F72652E786D6C8550416EC32010FC8AC51D1B8C1DE30A138153BFA0A7DE904D5294182203559F5F485CA93D555A
311
6957C3CC0E3BECF8B5DE8A4FBD79E3EC00708940A1EDEC16632F0388E10C29288E9C6DCE855F345058B5EA0164187076D95CBCEFD0EC6CD036A3D62D7A0795F73A8062BEA561007EFED0AB2A550C89E1AFE55DCD5775D1252E9F3CCE6234CB2E354BDA66CE466F80CB519E086D2844AF8D844D8724142D1250104AC8280F04
311
B5945559CC5930EB8FFBBC6915F402788D7007118575FF86D00B4955BFB32A3339F3614B37EFA6F93AC08518C501B5136CF134C186881E4ADC5188D128FBB13FD553DDB1EA29FC6318EFCBFF86D1D840EADDF0A9F080E3F4FFC70367550E30B547BAA9E7B0F937504B0304140006080800D0031D4BA3FAF9FDF90000009601
311
00003700000030464346383830392D433134452D343734392D423939462D3235463346444535353433432F5265736F75726365732F636F72652E786D6C8550CB4EC33010FC9568EF4E9C38A50139AE92C20F204EDC2C671BAC3676E407E2F3B19B20C109C9D25AB333B3BBC34F5FCBADF844E7B5353DD42585028DB2933673
311
0F315C4807C54970676DF84583C2C8057BC830083E3B1BD71D52D60434193576C21D94DE638042DDD2A707AF3E7091A58C2131FCB55CA5BACA19CBBADC7882C7A8A75DAAA7E4A62F1A1D88F13C3EB3AEED087D6947D21EE94886031DC8C03AC6CEE303A3878E57592C78D0CBCF74E550069C4034B43E12DA91E6F18DD22796
311
5EF3CEABCC14DC07976EDE87E6EB40BCA2B7D129F4BCDABA7F5CE33AFDEF1AB509ACD95D37850751A725EF0DC1AB9C522AF70853CD898A6F504B0304140006080800D0031D4BF569F975F6000000940100003500000030464346383830392D433134452D343734392D423939462D3235463346444535353433432F53636865
311
6D61732F636F72652E786D6C8550CB6EC32010FC156BEFD8D8380DAD30919DF60BDA536F08888B1283C5A3EAE7171C576A4F959016CDCECCEE0E3B7D2DB7EA53FB609C1DA0AD3154DA4AA78C9D0748F182285427CEBC73F1170D2A2B163D408181B3D9BBB4EE9074366A5B50EB94DE4111828E50C95BFE0C10E4875E442D52
311
CC8C70AD5721AF62D6755BDF799CA564D42E352ABB998BD11EF8749E9E09ED29C22FFD84FA239ED078C0231A0925E43C3D107CA0AC2962CEA2597EA64BAF45D40A7887DB23C214758F6F183F91FCBA77D614266721FA7CF33EB45C07FC75DB33B0E6DEFBE39956F5BF673236926EF7BC2B02F036AFB835386B4A46B96C01E6
311
5AF2E4DF504B0304140006080800D0031D4B0E5E17DD01010000D70100002D00000030464346383830392D433134452D343734392D423939462D3235463346444535353433432F636F72652E786D6C9591DD4EC42010855FA5997B5AFA976D0D6513D7ED1378E51D96D92ED92D34FC181F5FB035EA9D262490C37706CE0C3B
311
BE2FF7EC0DAD53460F50E61432D493914ACF03047F211D6447CEAC31FE070699160B0E9064E06CB626ACBB3419ED5127551B89BB289C430FD9748F8701DC74C545E422F848B85BBE8AE92666CCCB7CE338F36AF9B24E16854709BCA2E581D08E54FD33A50F755CD50B2B12C95950DAD7D5FE182EAF2833B3FA180978CB8AED
311
365241C99D5132FE515D145AE0743C8D5D477B722A9B33690E4D4F1EFB7E24553BD6E3D3B96D9BFA148B443367CEDBD899BD48EAC15FED9BF157B2B0CA7F26DB1C0E78F91DAA486DE6ACF89C41DCD348F807504B0304140006080800D0031D4B4C04CAA907010000B201000008000000636F72652E786D6C8D50D16E842010
311
FC15B2EF288AD7A30D72D16BFFA04F7DA3C259720A46E0D2FE7DE1B449FBD68464C9CCECCEECF2D3E73CA19B5EBD71B685AA2080B41D9C32766C21860B66804E82AFCE855F324056CEBA850C83E0E3EAE2B24383B341DB8C5AA7F40E4AEF7500344CE9D3821F3EF42C0B194352F86BB1C8E12A475D54C5A6133C98F9A77558
311
B50C5A81A84975C484E1FAF19590279A5EFDC6CBAC143C46A3762BA392BBB918BD82E8CFFD33650DC3E4A5E97173243DEE0EA4C31D65949EFB074A0E8C97B959701FD6B4F33E24E50CC8CB5BF6E5E54609FEEEDCB40B5228859C9DBE40105E66E24FE8B8A87F843636D07A1FB8757810550A74279271BE602AF7F3A69AAF2D
311
BE01504B01021400140006080800D0031D4BC3A4F24ED7000000200100004F000000000000000000000000000000000030464346383830392D433134452D343734392D423939462D3235463346444535353433432F4173736574446174612F446566696E6974696F6E4974657261746F7250726F706572746965732E62696E
311
504B01021400140006080800D0031D4B00D0CE29340100003002000045000000000000000000000000004401000030464346383830392D433134452D343734392D423939462D3235463346444535353433432F4173736574446174612F496E7374616E636550726F706572746965732E62696E504B01021400140006080800
311
D0031D4B88E57597CD3F0000904100006B00000000000000000000000000DB02000030464346383830392D433134452D343734392D423939462D3235463346444535353433432F5265736F75726365732F41414341363035462D353146462D343341392D423137382D3130434239433944324632372F7468756D626E61696C
311
2F302F67656E657269635F706E67504B01021400140006080800D0031D4B28BB58AF800100009E0500003D000000000000000000000000003143000030464346383830392D433134452D343734392D423939462D3235463346444535353433432F536368656D61732F436F6D6D6F6E536368656D612E786D6C504B01021400
311
140006080800D0031D4B2CCEBD668A040000E01200003E000000000000000000000000000C45000030464346383830392D433134452D343734392D423939462D3235463346444535353433432F536368656D61732F47656E65726963536368656D612E786D6C504B01021400140006080800D0031D4B6180134D5F0100006B
311
0300004500000000000000000000000000F249000030464346383830392D433134452D343734392D423939462D3235463346444535353433432F536368656D61732F52656E6465724D6174657269616C536368656D612E786D6C504B01021400140006080800D0031D4B275DCEC25100000057000000470000000000000000
311
0000000000B44B000030464346383830392D433134452D343734392D423939462D3235463346444535353433432F4173736574446174612F41737365745461626C654F66436F6E74656E74732E62696E504B01021400140006080800D0031D4BF8658340580000006800000045000000000000000000000000006A4C000030
311
464346383830392D433134452D343734392D423939462D3235463346444535353433432F4173736574446174612F53747265616D56657273696F6E5461626C652E696E66504B01021400140006080800D0031D4B59FB759036010000A20400003600000000000000000000000000254D000030464346383830392D43313445
311
2D343734392D423939462D3235463346444535353433432F4173736574446174612F636E782E786D6C504B01021400140006080800D0031D4B4C9DEB96E6000000600100006700000000000000000000000000AF4E000030464346383830392D433134452D343734392D423939462D3235463346444535353433432F526573
311
6F75726365732F41414341363035462D353146462D343341392D423137382D3130434239433944324632372F7468756D626E61696C2F302F636E782E786D6C504B01021400140006080800D0031D4BA233C2345D0000008000000065000000000000000000000000001A50000030464346383830392D433134452D34373439
311
2D423939462D3235463346444535353433432F5265736F75726365732F41414341363035462D353146462D343341392D423137382D3130434239433944324632372F7468756D626E61696C2F636E782E786D6C504B01021400140006080800D0031D4BBE89762363000000880000005B00000000000000000000000000FA50
311
000030464346383830392D433134452D343734392D423939462D3235463346444535353433432F5265736F75726365732F41414341363035462D353146462D343341392D423137382D3130434239433944324632372F636E782E786D6C504B01021400140006080800D0031D4B0ADEF3667F000000A3000000360000000000
311
0000000000000000D651000030464346383830392D433134452D343734392D423939462D3235463346444535353433432F5265736F75726365732F636E782E786D6C504B01021400140006080800D0031D4BCDEC727C0A010000550300003400000000000000000000000000A952000030464346383830392D433134452D34
311
3734392D423939462D3235463346444535353433432F536368656D61732F636E782E786D6C504B01021400140006080800D0031D4BE3603EBE7A000000C20000002C000000000000000000000000000554000030464346383830392D433134452D343734392D423939462D3235463346444535353433432F636E782E786D6C
311
504B01021400140006080800D0031D4BA87F07417E000000A30000000700000000000000000000000000C9540000636E782E786D6C504B01021400140006080800D0031D4BCA1DF9C9A90000007301000013000000000000000000000000006C5500005B436F6E74656E745F54797065735D2E786D6C504B01021400140006
311
080800D0031D4B3DEE336E64000000790000001B00000000000000000000000000465600006175746F6465736B2D64657369676E2D7061636B6167652E786D6C504B01021400140006080800D0031D4B37A69EA0F8000000960100003700000000000000000000000000E356000030464346383830392D433134452D343734
311
392D423939462D3235463346444535353433432F4173736574446174612F636F72652E786D6C504B01021400140006080800D0031D4B99C04A7FF30000008E01000068000000000000000000000000003058000030464346383830392D433134452D343734392D423939462D3235463346444535353433432F5265736F7572
311
6365732F41414341363035462D353146462D343341392D423137382D3130434239433944324632372F7468756D626E61696C2F302F636F72652E786D6C504B01021400140006080800D0031D4B5768AFA2F9000000960100006600000000000000000000000000A959000030464346383830392D433134452D343734392D42
311
3939462D3235463346444535353433432F5265736F75726365732F41414341363035462D353146462D343341392D423137382D3130434239433944324632372F7468756D626E61696C2F636F72652E786D6C504B01021400140006080800D0031D4B8510E2F10D010000B10100005C00000000000000000000000000265B00
311
0030464346383830392D433134452D343734392D423939462D3235463346444535353433432F5265736F75726365732F41414341363035462D353146462D343341392D423137382D3130434239433944324632372F636F72652E786D6C504B01021400140006080800D0031D4BA3FAF9FDF900000096010000370000000000
311
0000000000000000AD5C000030464346383830392D433134452D343734392D423939462D3235463346444535353433432F5265736F75726365732F636F72652E786D6C504B01021400140006080800D0031D4BF569F975F6000000940100003500000000000000000000000000FB5D000030464346383830392D433134452D
311
343734392D423939462D3235463346444535353433432F536368656D61732F636F72652E786D6C504B01021400140006080800D0031D4B0E5E17DD01010000D70100002D00000000000000000000000000445F000030464346383830392D433134452D343734392D423939462D3235463346444535353433432F636F72652E
311
786D6C504B01021400140006080800D0031D4B4C04CAA907010000B2010000080000000000000000000000000090600000636F72652E786D6C504B0506000000001A001A00210B0000BD6100000000
310
504B0304140006080800D0031D4B000000000000000000000000370000006662782F33343241303236372D393441452D343846302D393437332D3533453934334442344641362F617474726962757465732E62696E504B0304140006080800D0031D4B000000000000000000000000350000006662782F3334324130323637
310
2D393441452D343846302D393437332D3533453934334442344641362F76657274696365732E62696E504B0304140006080800D0031D4BF270F1330600000004000000360000006662782F33343241303236372D393441452D343846302D393437332D3533453934334442344641362F747269616E676C65732E62696E6366
310
60600000504B0304140006080800D0031D4B88E57597CD3F000090410000420000006662782F33343241303236372D393441452D343846302D393437332D3533453934334442344641362F7265736F75726365732F322F305F67656E657269632E706E67355B773CD4FF1FBF73E71C0E67EF7576C9DEF3EC995D46C6A1EC50
310
46649CBDF79E192942562825CE965D8A868C2842C8DE9FDFD1F7E7F138F7078FCF6B3F5FCFD7EBFDFEC41B196891913091804020321D6D7513FC77D8C5070EC3FFEE51B21F068154CC75D455CC028A3EA68992803810109FDDE5D5CEC5521B28A1B422BF80741695D5B529DA1C2D058AD2388BDA9F476F7C2CADC939304173
310
DBF48A452BF8A700C0C70C3D121C1AA15A5270C22E2B9E28763651F7DA0D12CE11077B2ECD0D560B5E3DE2368B1E65C5E1C87384A4CC5F2D9FB8BE39E9B77C753783A37998F5CEF1B4FEE553463245C9712270880DF339E0B882A6BA713D865F6F384C842D440934EF264F4A304F8DE4EEFA1E2BF5E2D91F5ADD9613D6E31D
310
DB33ED31DB1D7916CAF091286EA3D31B9CFECB78BB0060245B943C4C040119FF780A74DD308BA9D028678674EB5504ECF284EE814DAED07440BAF649BE4B55DA2890F4D73E2D489A59EE54FDB0A85B59F2F52C4858A02705C4815A792B0C4A996A2023ECB195073E115E3E3647F64243A8338F2000BCB58DA5692C7E7C3D41
310
3F963FEDF3CF00FBB0F831A9D51360FECA43819F527B89FA260EB63C5DA676830AA3626A3693B23F1A17A0DFFCE3EE164E31B5365EDF0C89EF64D8E38AB0BA9A1117D7C3A0EC44F44F4023095E80BA610DE336D0F99593A88BFC5306E72DF98F7FD132ED95878DF2964EA7E43071359FD83B2BDF9C6B5BDF768F0F3C0FC351
310
199526F53D9460A34511F75D1B63E488178569472C91A94497807A3FD4A390C6558F26D416365C3656DE6E769DA9D8FC73774E1709812842DD8EF96AED1960F79D21B395CDDFE6F92CB4EB962A4668C76990E2EF29798C8941D67DA50F4A5F947872460F1F6FDB794E8A29FD7AC0C0D6E0714339CE258FB17AE8535221E346
310
4A10F29A0BE5EEECEFC5675926A89F49EB14E5711894F6586DB5754EB4D5DA9C6437EBA57DB97A24F8B8A8DB295FFD73266CF57E82694DF5166DDF93573AFE9C9C5EB05F8FEF8E89E0A8917B0B3724DB7BEBB53252581EFC3E38166BA131A3A5B42FE2AD00A769BBFA4458D2DE7822F8C4F63D0B8E21B285AE13325F3410A4
310
35C648C9D91FDEB109E73CEDA7BC796961AF79175E1A3CE4C5E8B0D009B0C9E29EFD98BC8E97554E3D8D838424E270F7685226E5AC268E021EDE3522D583E8F20C0BDE2959EF5BBFEEDAB32FE9A3ED0E39F211A86AA9DEBFC68182EDED132AB8BB794442D2D7EA9F4D8BFF52BC4D55BB165124EE90A42D101E67BBBB292FFB
310
4F66DE5BF2300E44546757DA7CEF8932BFC9F92A0707953491A55C5A5ACEDABD9FA1AEA01BAC3DC5A24E22E7C47213493996EFBC369D086ED9397C9BA6C7F9855C7BD5E15BFC8C53DB3D2A4C5901A57ACD2FBDF4D1676E95338B2C2BCE65FDA4C64F5FEFDC7D9CA5AA1FCF11E193F2FDABF0F4916BF13FB916A224380E6462
310
A9815F2300DC49CC4DF8D055CEF76462F4B7A7ACA7365C2707891370BC1D0AA6203C44CCAB47084FEC057F27FFCD57F89B8B9852459798A675C66BD7CE572CAF71FF7E6D7ECF7BF62CAB7B3F1107DCD04DC55A3F9961700286141C94A4F771FEB2BCDA2DDEE0CB0BAE402FF1DB0100F8E475DFFFC074DDB4498AB7D186A765
310
4DDB1CB680D703D47CEB4E72F8CB13D86A4AA68116E26387B93FD6738779B34FEDB8E517EDF2BAF28D9BE93A1D3A164320E07D42E514725C29515FF361754213EDE06B079A2E99EB1CA82A02019EADEEB87B9AF005BD04BBCECB14AACD6B24EFBE482194A97DD32400685FF1FEF1544D1B14EFB1E7F08E6D2CD2AF52DE757F
310
35F5E62332EE88EA26417AD5C3E0E319D68F25414E6D672BD4522B278C57D18F0113921C71D96527E091F00CEB15AE23D24667369BD3CEFA10C7549D930890BA4366F4EBC55F01F746109F98ABCDD5A3EE06619C6AD78AB33E48E4C9BD21BF7478B385EC05C4F8987E2C1BFA0A60EBEDAA0AE0B015C2720ECE180FB6F2DEFB
310
EB822D96338C9B63822183BBF52FB664A7AE57003AABCE512BF77E7E31BDA2E739AC4C131657DDFE5225E900FB56CC01CDE808FA4A9C9DA16AC679656BB64796283D89812B8F91136AE18EE5EBBAF47A73BE3C153EB5D4CD491B4BFB4FE690A4CF9ABA08C0D8AA64220C438C96EA6CA80B58FE5761E697B3A292EB9FBDA502
310
FA863E49FE694ADDFFF9D62C520BDD1A22014147A0903A05B9B729F54272EF83931FEEC057BFF8C8055C279EAC5C0011804828734024F6CFA319C9CC6867C727184465CD9BB7ED386AFFD96B294A85E3802FAE47244602D8273615952B98C4F23F7EAE4463D9D638EEE374A20959E0FE519C4CFB0FBFE5DD80C2AA3F9DB961
310
D1BDE57E67C9BB47B77FDD74EE3094F5DBBE3EBC1FBDB7393F5116263009E2EFE1AF9A221B2AE234C902BF70E9F280ED23E73908361565964333A3F01D0B006AF32FB21AA1316744B489D5A198E85299241735BE559675130955C902A8ED761FC0DBE337A9F91919AF5CE32AF902ADF9AB2615E00E8A94586BA1A90839B618
310
32FF1BFB76D2EFADE6DB1BA04CCAD3DA649E7E2A0219F592E22F2AD54847EEA8E42271011E9074F8F3DD9FBA6CDF88FFC9FC7E811AD1CA8F4557CE4AFC7BBEDCF0114A48689F20A584520C74DA8127124B767E2FB91A6B186246727BE63C9445BAE02088D58B8EFDC0F1072407CD9B89A13F6303B4A928F593AD489B58E686
310
9325790ADC406036C591729FE14021F94B7796BB11848D463536A092A26F077F94639F7CEEE2A724C66EC885F4A24F8B8A0AC321F8FD149BA529460FAA34E4663C02D41FDF80BCA222D42F0ABFF8490F4FA74C673807C2051D8E467B47B616072860069A9A303ABA9B319D58404461401B0A0F9BE5E1E151C14BC33B32ABE0
310
3DDE91708DFAEB15E7C0D593C86BB7D7EC17BE56E57975F077BFD5525F3A1A361D584A75E08CF29FC7B44B2B3085014F3A5A14517377C3F6B8F37E59514C3B12F8AACDEDDA4DFC49BE5710101534CD6FB6DE15B50F11A09472AABA727F0C49D9CB906B158030065F48EB3625E010CEC1D511D0053474B11E6A4F01C0D6EF1B
310
ED3A944FDEC70E0DDCDC756C86545910E0DAE3BE3AA9A404574C2995CD5CAF9549226BC94B4F4F0F5F9086F418F6B32346464610D8BC7391D3C3A3CCF04CFC1FB2A3A3170E369511868F14EEA4E5E438CC73DB1F3248AA94B6B2FF33B222FF3D1E7BF146CAD229770158063BCE4F5391964DF62F7E52A7BE0EEA829C9E13C4
310
C147D6F93FE59E111DAB5E4594D6F3CD1AD375EE039930EFE5AF2BB2D41C83C7DABD8C659BAFBE8FAB392CA634F3D15C1D945DB4588D2B0824A4EC928AAC565557CA2F0DAA588CA5BE30B3A8004F7BF005E96CBF891D7F18112A3619FDF530DC8AA64954258E1811789B5189B49B4EB53F5F89F7D37523894F3EB57B373763
310
C91E502F52CC99EB7BDDF933FC324C4FFC2561DFFA7339FAFDD0A4BFBE6D3A8FF9ED1FC49898139864602458968913181918F719CCF5A68B2EE9C1FF050E34E63107003B8120FA982C21B30A874E4F5E4B38D5A8290C4B8D9BE48A0BE31EA995BDC37AC6DE90BA17D259DEF53605D55922FEB1855D915B659FBEB350EE0DFB
310
2F9F766E1C84CC8964B75D08667445EAB966015F63A18A9E0A325C1B3DC628C0D3CB60F767FA93CC65F25458BD23C3B312716E5F40E5858AC06EBA9AB14F95DB99147B832069201541D09A0D856E12C629CF32683760EE855537D1901988D5EBC156676C7DD51D7207CF3267AF1D76C2AD867315E44618015313A98B19941C
310
696FED3461CAA9B5415F918556D7802EDACEFD6B2E45853A9735DFC9DBF7E440F9319F8B6805A973BCCDC76C069A9144E51F187EDCC12FC31B5DEAAF0A76137199B106EC84ADA6B6EE697D4E6A96E007417F4E880E8B1E89B4BCE9D81EF611E2ED8F0C1A6C25F620FAFAAB656A7C42D464880E8AFAB0E0FC8EA38CA9A8AEEA
310
EE3E4648BA4680270A89743CDD3E6C6CBF34B7B640EFA285ABC7EA0A1E28F3CC963D114A80123EE66D0AF7D5380EB41909B605AB4765B709B808590458157E69BA1378FEC4B48CAF6A730E3BE3C5EF2DD1A5EAF94B1DDE50CEB55DDFD7EE9A16747FA4B223359FB1FCC69E1194892BABB93A1D5C4E807AC0EA2E30180811E7
310
7A2291F6E7F7FAA5E0F60215BC6024E48DE436C511F0628B8CA189982D4D83CCA17D305A7E923C37941CFDFDCD93ACAF735EF5F0E61BBD3E6C41A59B242790D3A3BAC7064DCD89AA2E37214EC839820949D5CAA31E240D2948E48F690298974A96BA9A8432BC90F5071D6537C9666EA4564796B7AFFFA548077BEEA75F6308
310
3435074BA182F3699557397F71548383FDA8CA34D99B981E72835ECDA5DDDC151315173D05A21F651AAF8524E88209E2E7A737ED1045800CE3390050BCFB8BE588DF111617874C62575039CA588EEFDEFEFE319B739DE2EDC147092A262611E159650E787917885EF08F1F51B8F2D8A71D60B58B190FEF9541A1BE94BC19FE
310
A50784DA1419FE4B0FB51B8D36B5FF8E1286FD8AF42B91E59A5F1CC4D60174E764045FD8C57B18209B217F89A62252BD20BE0E63E12B8E8F029FE19E0E8D0870F58721A557082250D5424F7909369376E41666C0EE77CD87CB283F661D5FB6D0DA023CB67320A20DC7BE661E9E1BFE5463085C557DA1FF9BE835733766C3D1
310
39F2CF9E2208873AD0EB4814DE9E6BF2CAF81614D4D43906ED1C05A3265CABBFE192770FC2F64F940CB6B17B5F166F133C9AEEAD2641807C3E69515171DD74C4A85311513D6EC9530B3B601B6BA3EBFF3B5C3D2F7D69765141E345F75433953D013ADDF8F6AA7DC3F4A7563FE5C7D367937E2900D7EAD0F9FC9A4A1A9B5BDF
310
1FEF08532660C01C5D6DE22199AA774383E306DAB87E301ABB7D213887F9869D4942D0D71E94B27EDF216A318BD488D45DF84529EF575AF3C3938C0AAA0215B01994153E2054A0B894DA5C784980633AAD48576957CF4AEAEAFADC7C587368551C73DBE1E57C58AC713303A8BFC258BD04B51724459FF9E24C03A81E0E0679
310
CEB9B348C0DC998FEB9C6D6EFA77D247CC8F92D3848599ED89A23218D0636465AD1CEEB7DC140D7426F83491C4E8E8281C2FB35240918FFECE880CA2A42D70E8B20B34DF5221C7DB0CF90ECCB9C745B37A47E9B716FF7A97B7A252C1F3814DC7B1E1A7F72B8751D524EF7CAE45B0C73B3BE7D08ED39781B380DDFC9AA4A474
310
9C9493DB5BAD07A6EA6C092FBD0E85DB004DF06B8C9D3089C5320187E4CE1846158C7EA7DDAE8AD9AFFF21AA3A1026BB06A259845E8232DEE62811A4DA9CEAB3A4887320B76E2AE5615EAB7BDF738CBDD01F1E64064BC13D9EC53576751CA8CACD58B3CEB0E6CA585BD089B2A59B9FC101403387AADBDBE70586B93D64BF3A
310
D4453EF9C3B6A93817E8346991798601344F79A83C51F3D50F7BF2683A3605F51A72449489E0EE6169C749C60B1035651103AEE24D24E51A759C840DD3FC6504DA6FE107510E447B43461C79D22970B75DE5E1BD3007D1AFC619A4A4A69B5626AF5E9B8374E20677F77E2F8E73DF868E8BEC7EBA7B6A75EEF7205E1AB9486C
310
B642741D6E03FF13FCCEDB1C4AC129886268B01CDF4B124AF797CF784F3C6DEC97A17D4B558070A0F1C04DA4FF9BDBF34159AEFE958479824B3F58EBD1E19088A2AFDE501B6F2052368A3FD0E650A179EFAB1561E1D27527077136E652676C3670F42DCB3352F48F6BC86D2C3B0051727E41A0A4DC6CE2BE9D47F5CAA2935A
310
3C0539AF080665997194ABECD723B08129CC5B6B21D2E7D54CD4D12610E7E9FB8306771A89576C7A982002775ED44F3F744CF21EEBB27A631671D921938AAEE3EB0D19CD1E083727F607823E817BF599DCED5394E37EEBC2E88782E638920CA641EF74D4CDFCDEF06F4278ECB18E31E7E9876F2D783C8BF429C75395F57E98
310
C2B495A3DA077EB3AC3C158608B6B57FE3EA48484D9A480096FCEE0DE880950E7E5A5714131C5C41AAA29FD19AE81AC145FA1B9E85C7169A5AB837B213493DF7E9AA4B5FBF9CDEB36EBD21EF1181B7CF7366AB2A951D01E37AF4EB835D1BE8C117CFBE7625D2EBCDB0B20C5A4B45CED0BCDE3EE8DA9DA78C2E21DEAAFFD119
310
7E463C33CC6A80FB785669B856EFF7A8CCCA2841B5A5369173320B1170C368B2748D81062EA0296E5E2D95D7667A4A46D98A6FF475C76AAB0A8C8D45E226FAFC9FE0133EA9F60111F99CA81ACE03A1D14C89E8B0D69079C91464FA1D99E651D0EAF606F345C42A8A1AA9BA391031582B96D5B4176A77AADB01F12FD298A75D
310
EEBB2C82F0B8650E880722F8DDD90C56A7A058E5FDEF1AC93545BA27367C76F5D8F9690CB6F8DAE141EDD7971F0FB548A2AE435F224D6E5954CA155512F7332029D5A1230854B79F258EC5FFDB09F5F6343A8EB193229B7F7E79B3E48F8E183860B38C8269D1B53738FF1E0BACF6AADA6D4869E9DE708E79B5DADCC09B1BC7
310
6F649731CFAF59A83FD8BAE4C749D66FA87A3810D4D62FFE826FA400C0F325D2BC0F3CA35F5847B82A2ACC7961745C823E4D863D54460AF792CE6F79B5C7A33B25C3AEA6CDE15A919B6367D781E9D44F61BF828672594A3E1D9EDD6DF179A81F27EAC05B936575D73E05C209DDD2115CFB705DF9BBF3C911589B3640735E9E
310
618FC9C36A7326C82B2205E244C55D56FDB9D5DC93CE958D4BF8174D2B3DA54CB3C09F2C2A6DFF73D23B2197355761AD421EC581284A7EF8DE2CE3497C0C804D49B41DFD6A7360844E5BEFFB495CFCDB97A4595911CDBA623274CE852B5E278AF0BEB1770E9D37CD977B2766A7DED0E94B840E1E95E8C77DE5CB6354AF7871
310
427C28ADBEEF7BA0A28E19DE9ACD75F379FE373EAE6DDDAE3834692F9C2B03B4FCA8FCA9ABE8EEEBEBB725B88A7C90941E850682CA04061A7DF0CE82ED49BFAFFD42C309818FAE14755CAAE78B0F73243ECCCAD7DF58FCB9CDFAE7A4D3E6671A613639130D056C8383C8F4FCF4808C331E544DD26E4755D09EA05253B3049A
310
1E32587CC25D72E073E2CD96D04A71BBCB0038FEC3F53D254199C3CDC67CD66640269431860225392B2CB3ECD0B4498AAE78BA1994246AE1EE78F2EDFB79F6C6CB6B5E279C4D373FBC21CB2698C9ACBBEB6A4BB6B39E16AB0E421CCBFC7654D81ED86022F9BB522146F9F4772E2D0E4FA70120C95A85A417BF5078B232F475
310
4363EB1750B2AC2148EB46B1EA72AD9B4D23ADCBC589D70106C3EC2ABEEED84DFE28E718C6C83502C28E9FDD3B09DA0A6F6F7B72B706A31C9E2A331EE70DA56A083D2177BFD63C55B11D8D949FAFCF90B23A1E24B9B5018B9A17E99F2890EC302F330FE7936E2C23F0D237EC8916F5166AB84B62A21BB0B950146962D754F9
310
2CC2C8877BED8FC7B7B25726DD19545392570B3A2C66B58F027BEF412E552D12A588C4A3CC5C3193FCB3485EFFF700D0B9EEC077754A33DC1FB9E25AF814628F91DDFECB667D3F7690803F38D13F8AE39353523BB08FC6760144AFA2CE28236F65EDBB3D5F59A57D612B99E3D7E5F8A851666BF9B5A6658EFC96EEB37A378A
310
BB0EB3FDDF1303AF32C41BD1C8560745D7BD81066B0D6313359CF488563D3BA3F8E2185D1FAA3EBA1397C9D0E3DD232180A4DCADB6AF25DB3AC3CC26589C8239E66E81547BC7E2F328F9884764CA37EB5DBE390DFC03A5246B456A7C3684C4377D0EEF9A350680FA9A077E8B2957B489E09AB1AD41316944C2254B5984830F
310
691C93CAA767EECF976FA5647538830B5E63236A6F0365C1E0F3E327F24FE35EDDBD7360B0F7374837409F7A6311BECC12B7026D4FA1AE204FA3F5FE904B1F420C7A9044AE58E403E7C4848E7DA25DC9EDAC79DD756FAA26B9EA83ACE8A214A2612A22AFA19DAE7DBAC5F8CDE1292A485F98DAC731A29FE01A3966E96BCB9F
310
B5A4C8830E1B9AF0C54B87FBE221A097036E5D28D1F869F810C06A9BB0AC0612F69AEBAF893C6E7AD59460208BAB3A6B09CA4F6BDDAB8CF0D1F84B72487498395A70DCD754796E271099A567A55CF242BBED64696378BB6CF25EF0FCDB589F3A82F1116D010A9AB9FA4358809EE0C973A2B4229BAA876A70B03AB49CBA7FBE
310
71DB1832FFD32F9BF2C8E98075CACAFB36921235D0F552B6A67E94E094097A5D7DF681B40623DA535ADA7A9AD8E9A62407D7C9A5AE51D62A17A83A23728DE86BB56115804D3F2675F2C6B87541A0FC497BF0CA86420F558C9859EBE9FAD62747E323E3AADC03FDCDDFE7407B09DA90B44E3185723C5381EAEF589765E2F7A0
310
99BA46695BAD60CEF3491B8A171F5F56444F7CE9455312C3498C74173AEA0214EC029833B34B650CBB5A5508D5091665309642791708ECF27CF11DB3D797D6CFE474453BD4BFADB768094B2147814D81C7CBAF8228DCAF5564B5891F5EF6A860EB2E323CB82AB868D8EA048880D63B0DE5341F1B3D53297B928A11E15F25E5
310
148990F710747C3509ED14909C552EBE3973246FCE55D00564D8310BC3EBC5085D08D806799B77D6C57FDF5E55837F9E934F09C03C729271B64F12D0A9F9E938107CAF7BF1EC8CF1BB9B42363D33070F4CACB425E605DDB0A34A12BB936DE286B9887A4E2E558F0886498BFF49C311D96C277CF6A9FC0D75AD0ECC5226D7E0
310
E3572012E56D7FDE4410CEC7A6D0F997F225A2055B8B92E3956E875AE4993CB3D4C9063AF98FD45E1BAB165640A43439A2C9181A7C355B297C0A0CCFFAE19B6FA3C2BA238A885FBC98B8F6DAF4B94B97304878DF4D8BFF6A4AEDF79E90ED4E68F00CD7299F4E0D83E35601AF0CBEF18C1E870E74758FA91F5131075004DB3C
310
FCF09AE1DABC11957FD9808C92E8A678CE9DBE40DDA0E0D1D505AAFBCBA208232BFB6FB3704E8985E61ADE53DE74152F5C7DE74B1DEDCD37DC3E8FB30D7EBA8B9EFFC3606BF90B8D438279CB7709FC7C00D327F41817EEA71CD9E49FE9C8C9A81C70915D9F0F15958EC5AA4C3BBFAF46986B90F188BDB24B89DE3C6F29EC3E
310
6F66D84856EE96A35E657CA41B41EFD8DBFA16AD6E91439EA92B40B21C053249F51AE50EB0B24C770FFAF40DF12C8436366819C48E36547D4E7B72FE2BBF10828583057814A668BDF183F6B2E58DFB151103E56303E63D00F39C27C4661605DB644D19175D02E3F0241E8FC3458D17AAAADB117CE9EEA690D0DB01E634878C
310
04C2C9310B69FCAB831151E3AD293BEF6E46B0ABCECB50F5939B39C613D41E81FAE8D34CAE3C4566B761D37185FE864AC32FCB71AEF39DAA5BAB88609BB980CD2F07A8F941653B529567726E2B2A58D079DD57E1E5E31426CF184A04D7B03B985F276D47406AF276FE32E3328BA866EB1FD39BEF57863A317634AA5FE46740
310
9B3873F5069EF0D71AF00AD189D17BA1974ECDB2D623E9E14086386A6AAB5807825C37B015BFE892AFD154920EC437EB945D958E18622E1E0FE2FA06557CE4BB9BBD05A2D40E774DA2B65473791E314B7D6C886820B2FCFE4AA272B3B8B15E7344A145E8AF919B5454D89D36D413E87211186BF6F645E5EC94DCCE8E1C7990
310
22E4EC9BC86D7A0F2AFB1FC4B2CE48F84B3F49ECE65BAD24CADCC07EFF39AB06BE9E6B27A059938EA7208838455383DDBCFCD967DDE4650EF92A14FF933C975DB20BD7FEEBC4487576485963D757D16340D9599FEB362F775F38CA4185A86F74B629C81B133644A3B18FD056E997E0734F9BE26D11C0AAFC669E2AC9FC41D2
310
81F8B2E1C35AE27BCE05F3DA295488096688719D974DF1B5D182DB7792288697F8763CFB43562C1CDEE11C4AABD5C22B6E33F6F389CFC3477C5919DC0D533F8A7A1846B7ADB60ABDC26C43D0CFC8910B7C15EE22675BD02702ED39DB77A87A192CA7A543E6205B979B9F5A6B512A3CA799E198B2D5797C0AF8D1D872CA455D
310
4D431A7879D4DD76110B5FF7F4176B54477A9EB5E4A5D11214FDA585F0382751D8E2582BA5D2075053298FEB8F1537304E32CB22C2E2B693DC0A760B1DFCA751BDC445AFDCBB12820ED85F6D5298933C7EF1211E9E057684056CDA3FEF3BB6052355E162DF27C59E965A8DDB7F9437EB72CDDA3A090DE65A5B2F50326247B7
310
EC67B73ACC7047FC9B353D6EE990F772207C6EC52B39DC2F3C0754821DAB559F7C1809C7D0DD5B0499D0442E0A6E391B3D5DB46D11E731E6794EC77523FBDAA242ED67F9FA1FB684255671F63C9BCFE6E7E896D51001A6113EF2298BA494E0B0980D1FA5B9D60796554C02256B1E0345FB7C6186B6A19D2DCA270416262845
310
FA4F42DB5D9B0A0B6F07FCA2E56C242522E001E0CEB734AF310FC8BFB57E38E03AACE93B3326A2197891E68452B26A6307FDABFEE0223D3C03C3C73D2D5BC054C8311F12004CAE488E5C29287F8156A2CAA4AD0D7BE6B97264E4139F437CE73ADF52E5134C52B819777C18B323A5924E4F67AFD13B1CDC3A61793A79FAF5C0
310
CEB718E441071E797C6DCCB9EFCF7E4A1E9F3DF3C2F9C9E8294E9586868788C972857FB0556D7A26941A7EEB9B580AD78EC40B85DC906B4120A563CA3B87797ED612D3B035962BB75F6515A393F4CB057F564CDF54F2E5A024514E6A1F901DB80C7E70B1FC05E356A7E72FABF4775B3E3FB8F70A2A8E7B6A94542BB3041579
310
78CCC999E707A29CC795E67A59CC546A5D47B368954CA7B6E75EC9E1F6FC73CE3B4F71F8CB1A6B15923D61EAAEB14626AAA9D04A26EB9C66CD1BE86CA31A5D8703DE04CD1EBCE4F5CCB62F93909AD11E55799A781A956ED27D3E738F4538CB04ADABC7DAEF20BC35BA6A90BCC1DC61BA05F20D8832FFB9BC9B15E2DB838A0A
310
FBB7E0C82A562127E0446894F427794C3037186F622BF24DE1B00AA10A23BFA47B2A180D6DA5AD6F7326FEB8C100C2D7142EB2A0B2A9D1008A09BA343D70E054AB69E2A7EDB783CBD92537FAF4A44D1296AC2792729104B3276C276C951D0CF3CF3F1E6B017720A7B8505A5FF9589365979678C36F1BAF759EAF57C60F1FF5
310
FE9DCF5F8E764FF25A2D06CF25117A8FED51884C13B2B750DB0E4F5E3D64124FCF11F0AD8F1CC3B3DA4B38ED22BF1CB2585EE6BFEBBA63FBFD44F9537B9B37BDD6B358720F98A8125AED4349CCFEB0E135F19E208A04CA7E2B10711185D72E381F448036EF57C9F874E54A971CA37A639E986AC0226DC5AA00D5B14FEA9192
310
234B3DE617814FC221C92F33F1D392F297731B567FD98FD91D989379AF567A65B8ADF177591DB90FBEA99BF4ED11B16E50A0AB1DBF1156D034BBE04D69D08F939D8E92BF525A1DDAFF80ECBC95D8F45D3FDD289FD23F7D8B452F8EBB34EC082DEEE68E18EDDF072060FAD2AB1504DD4879BF67099FC58F6E9DEFBF645D1633
310
4A3E9A127C6F1AF6132CF287E433B43A0EE93812B4AA0B194E03EE3FF91EF9C6ED0074A2F6EB18A96A7C9890B1FCDA1F2095E944DB911ED54C60DF16FB74C8CE9BDC7C54C4F14078CF73C2FFF1F1BBCCD7CF64F71407EA1683DBC410D226627F66E509060D5C0AFD611DE681D509DB8DD12FB1265B03C6F5C55FF4C30BD941
310
87FF692B4F152982502F193098A789526A038AB529A52BC0DC4FB6285CBAC10A8B8DB75DCD9BDABBB221E27D1F8DA9F5EE5926A1C8AA9BA9BC09239C6A7F12914EA3B59EFF7AAEC3FFCCE56F1C5C2980AD072793527565E774F4631DB178CEEC691B1F367BEA0CF2907E1D6B854D527065979DDEF002D8B2ACEA7CE21AE297
310
737EDE1D45B31233B73FEA35BCFDD0B09721FDBAF6432681F2FD10C3E9EFB246FD6E854B344ACC9D8A0EEF876A7314B49B6A499FC650B099D650DBFEC7638ADFD245E2B7839DA5AC5F7D5623FC0ECEEC8653FC9B2BDD1AD4D00A566FBA7186DD3C9CD26512551637498CADB950FEC71ADB9A5524285DE328B8EC7EC75D2345
310
AEC6A27C42AF6D9B92155315C80DBFCABBB7DA0FAE425C4FB896B15C9BFAC4FE67DF5A23D30C93DA4D8F36FB15D100050DA6062E22AEC5F4DAC4F6FEEF97AE05DE63C6D38F9E068A20BC5E3B6BCD75320C5090924E7F93640A7735B1A43451C2D91EE62C6238B797349E59890AF3A520DF4A87095F3ABEC2E61F0593416CE4
310
6CDCBE0E00E2523FCCD04408588B5B6C9DB6459C786CE378770B54F51DA3A5E1DF2A3349BEAAC234A6CF8993B598B3B25B4B113E353A4D750FA7534749430F3EBF2512E7EA3FD43C6AB9A1F765A58463B306721A15D224FAFE8C6F5E3432D57EE697DA0DD5A9D4866A8BCCAAA9DFF1F06047851408FEC060471D0E3EB86BFA
310
F46E4B5E60311DC3E3CEA147C75CF971BE74689507154FF2D2E92F15CDB2B9182B11459FD8ACAC5A85F174BC94A7F4EE4C4F5CAFA7C02E37BF0BC77B7DCD0C047BC316F562A01A441AFA7931CC84A28CB9F4AA367EB515778F29BFE61195FA671F4352E5E46E3A64773F1F76EE5EB36D7BCE9BCEAD837A4D77F8DB8C92AEEF
310
6711920D7C7D0F76B0FD0EB7AB83724CD35BCA7D36DDDF5FBB7FF6F04A91F3E2BB3B8F1A43CD659639507FF6331C5F697BCC782AE57D757A27D97F1AB9E0AEDB43F92F1B2AACDF5FEC8ADBAF9F814E2027003BA2F9E144B1938A7A04050AE5D953B82C45619165C813A10E76DD6906B3C16438064D14CDA713AEC420034613
310
E1AC7241904A49FBF87409AFB1FCB9B72FE7933A87D8FBEDACECE4EDCF6A4FE9FB94D5DEB74FAB7CFEAE17EE965DF980DCCA2D04134994F9A2E94D2265DA4FE6AA7B7AC15FACAC2B5ABBCD7DFF542C5314FDAB2E1B9D8B65220B8E2B638BE008E8DCA22678C820C5053664D15E89F2D735B51A84955E81A443545E9FF787BE
310
0FA700A76D136C27DA179A7C6E8939E01BE756E19CB292798063D8B97F44E8A27BCF3A614FEB8BE974A718E86F7EC99B53CA35FA24F61F2B07266684623A3D4CF073E511F3A10A8FDAFAF0078C577F4DF9D339FE7862E5FA47CF4344209E5BF76D783B1B48E152AD281B15FCB934DCDA49CEC5706B1EE8B460F435324A5CAD
310
154725E21AB8044B75A557A79F6C807B9340AA3D92503E866F4274412926C8C504E4D5EF8C0E68DD0B028781A6B4054F11CF18941F101C57CCC796773ABC8DED9CD91FE5788806C05E548895354AEAC96546D55B0E94A59F148D061F42AA398D822CDECA4CDE79E13469BDCC44FDC990F366BA5978C15F97ED80CBFD73B0CD
310
9B8B83A4F6845BDFBFAF034019473FB9A63BD55D3A4A7284757071574029A4D016DCCBE95DD679EF3C4880BF169422F8C89B68A988D2B13793CAED4F74DE7486C72DC94DF46B8E93D8E02EFCB1FF9B3BA10C8AE7F653DF94F4AF466CDDCEF5776687F7C4C14B63E4EED1719DC2EC482D7DBCC7AE518CDE3D5FF86D39000EC3
310
673C0044E1D308BF05F74D1B5F033A7D1BE7F74BC55BBE3E4A20F920946CA0271EB17BD2B80E5660ACB8A29A79F5E4BBA49D4D945B6EEF4A7EFEAA65E5555BBB57A7E15D2F83C69F30BBB978D2B39F1F26FC097424D39BB33CA3D87ABF64E307938B685BAD44F71556A30B7E712CA4FE600613C3E554B69ADE949A7CFE214D
310
F1FFF05CB82151EC6FC31950239F94CF7AD39DC473F6EA356E5EC2C4EFA04383CEFE985A127484366FBEE3C0EC4FEA363E4F6632AE781392FD45D67B63FB8DF70E82734F431FD3443172A0E30A83D60982D55FA6A2CF86DBA8382502ACC6CDEF3B907982EED1160E14863FA242F9757347E1544275CCDCF71ECD5F8621CBEA
310
326B8BA884AD7F825781923E66971F04010D574C541D8427A438A37EEF8AF88240EED7362C953F5A81DE2D56109CDE2524EA0F5D2F87308C0C47BD97AD605878AB8589E17CA83930CB5E0DCCD75853D68B1AB136594926DE426C367428E9334AFAFF90ECE221BB5DC9E5BB53D2CDEF954EAA9CD814F0E5725F1965DD458E5F
310
8487683AD86B9D0076BE3EE91EB1CECC5331A67A3F79D8B27587C12EC2A6A70474749F27B4C0BBAFB94B34189E88DC18964BE4121B9137FD516C7755356E50D6714E31ACD222621EBBCD1CFF81D87479056A9DA0E0B8EA19D24CF937DA89F78E8650CCBDC110AAB6C4E46DCBFD0446BA9E2060E81F314AC2031E88135E5476
310
AC0160EF5C0DD2EEF1B8B5CB2D198BE9A554A9093B5F7D7E4B5407DDFCA1D9C152FD97F55BFFFDFE802954DFEC8995B983E28AC92F1971E28F531DC407A1280EB125F64A72E617EFB27DFBCEDCDA2D6F2BDADA36873EE46B9BE1782998C63DA7182BC383FB6FD15DA472B175D7E8B4FC88F38D6E07FEAA3FA3CBB8F6B449EC
310
F14D2175E5C5CCA3A42ABF24CA6C9395AF74535F4DDB38CB84F56614B0FD32D7E19CA5CF988DB4449C40E23DF2B16772594554579094450F56F253CD25EA7F77366FB1CFE79696C428BB64D5A41E986189427E5E4D7E2DAE3D5BB4972B3DC44EAABDDDD63A2264ECFA5C786EB0EE1FDC5BE34FA0F08376869FD1E61EA06CAE
310
15191135445EE8F0394161C3266A596AA035572BB0C8876180D8B9C77D307DF9DCDF7365ABDA6F3A2366436457A4DFC1F259666569A9E4A79C817BDD5610E5200FCE894A358EC72858D50EF67545DA81C6FACE3D457BAF70367E1E6BDD9A952FB4F56247F58F523B97E640246051A72F79BE42FFA0B3187F63097F91C48B86
310
8586F714B0EBD5A00A8412C1236E1298F60C72BE6C96B82B404CADAA304AE9F303176B14BA53FBC2D5E86377E35542019E24D97B96A49B2C0E5006E7795954DEAF5DA58958839043C6C70BD3B1B33B6DC5C31316D8A6923F142E26F6711A2258AF977DDF1F970ECC4F1F2B434B96D81BEB6E89BF3BBB3C7C8CC80505070723
310
D6D7D7D3C8CA27CA164A26024FED94B12A86031867241DA53D929636DA600F050BC40CE48B8BA03D69224720DEE2ED2127390BDF5E6EA64527BBD4C4C63FA76BB801FEEC0E61218EC98A8A86CD8313781617877E66692839B9468CF4DB8E50A73986E558E309C0D6F676F921BE02F1185454DC75B111572FF9D27D85EA14C0
310
5AD7271225B391C4275659CA4A43759D0BA44639BE4C30A84DB7F67A41399FB95CBF923B1B1672ABC807C1590557FB18D811983FA97F5E609516D62281D38B1281F68FC75528C35E4CD7DF0F7DBB5E5DD69C414EBEA2F4A5B241B996BA77AE6C772E367408C633EA3E438B68563EA8BE7667F3A4C4FDEEA52ABD78A2820F44
310
3B7914A15F180018D231E64519C56A12F6CA7C8DAE18F06F6B769DBF92329EF6A5D18FBCE600F36BD8E8198DE5CDAA96181F3A756EBA5501CEE58F497EA4F418A2B82565B9BCC611713C0B708CCA1F398B78C5F7D03B3437CC18F13061F55C7BEDADD5ACB1DB0E36D3CE47FF6EA1A563A57E9649EA5D14D1A50EAA45746338
310
1C073777EF1600607BAF6428A7DDC079D47A204EF1E1F1F0589FB054D45E02CE623B3823C317C601E589E22B1E88B448524B86A82828E32345EC18AE17214B42F8C41C6D428016D9BA31DDCB47572561E5A402E5BA4FCE55F78AF7268524AA04130F3A20BA5D1E9F9948EA48FC8F5314FDB35E21898198060034ACE5E3E2BB
310
CA34092518F275190AF65F45867FF0900AA4B81F25427414C372BF51DC29AA855C5428EE1EEDD6B849AD60F6E73475C2D2523F8A2772C840A478DED18A8C5C91B085F255DC4F54EA7AA8947354FD17ECF8FB3B4A0DE7B483CAF3A1165EE05BBA413E5C1FEF3DE1D6B8F2F3F3251C17D9FCAB48A9AAF63AC773A0E413BBC46A
310
9ADF84A566FC920E4D8C52C9769EE3301CADEEEDD92B312E02E2A7E35B7F1E7D203FE5A7D75578B06E99D0E46FFADB8FDA17ED8880390DA29094202D6F645F76F6F96409CDA05495A96E84B04A00D1A6C6C81D7F3DE9376E828CCF144EE50E364ACCE7237EA0BFB5607ED1AC3CFE73794E5B61739D14DF1743441B1AC98F00
310
ECEDE9E7301FA29755FBEFA68C91EF2B314CF510537EF1ABFC9A762496280B546F5EDAAF8A5B387D469FC9A878A92828C88608453ACEC6094DCA54111E7AD5B2663DFE2DD151B7F123B9F4FEF8EE36AB125FD7AD52A59B1B765B3E3F73E3F73DEA93875004D2AFFE3CDE9493B87A9904DD052028949041A91DC0E1BA47BA71
310
4343FD5B25E0A6A09503AFC17C790058A836A324FE31D7893512E28230332F153181C1E018E1124EBE1BA262AA428A518237D1EA7275E48C5C561BD19ED6912EDD8367DA0F31E40EEAE9683DA9257525AEA7B632B97119E17145A90231768A4F3B9120FF32E8319B015E3CBE26F1A754177D8185345817C096B0CE443A955D
310
13AC15E1FB5DEEA0239EC32A3C92241A237B0B02FFCB4F93CF2B02570C8D192E2F2A68CEEB42F12E6F8CEEFF46C251E22B4341C56FB08CCE550E7A9D6F4D6564B9EA52A83D5BF2C6E03FA19D2775E15A8A7ACF30A13C259EE7F5EF2AC3BA354F1500E1A07FC63FB4686E2F12EC69719F9ECF5FE3F35598DF2CE944008CE78F
310
0911BA5BE5D0A34E0098FF038669C26030BA9B300303039852A8F6F496341737CA7E0D2E3AAA36DE0A70AA7D9CA0D54D9AD84B18A44C9E625475E1C97B93BEBB38DCE7D227E67A2D00F531436136355F243D1FC0D712C5765754FA22FCFFAE97919161F46D6E61ACB37D83777B385889770B50765B127768443A5C4D3A4E35
310
A3151111F146B7CA116F918A049F1C272F2CD7976C69A0068773451659A97E0F4A08FE604C3FF6CE7385DB19F4D3ABC8A0D80DA8A42096AC377DB49382B36E270B6FA7570188B4B7D1DDDDA82ACA487CCA5D38BD3BD039ADBAFA4ACFF27809239B722081E2EB9F145320553D183F28471C388BC8814E5045676767AB58A8E7
310
2D1CED2CA731379515D2E533E4CF0B39DFC625F97AC4836831A4DE330E87A8126FA17EBE583D614E71E22A8DBF2825599743E0640037303E8E1B1E8EA4E1ABFA4F62907B5E4E0E5DCFDAB417C36C6848A2B8D15F1E505434C0707E16B1CFC2A1C36A42BBF55734F8F4301DDC2A5110CEE8C0747F69519265012A2174BF4E95
310
5ECD4FDE095A3ABC70536B7AD0B9D7892F81287D667C108703C9B66A221E9A0929D030008F77FF6F5D2108EF5706FC87A3069B976F7C9FC3239D13D283CDEA83597461079FEEE049B0F392889898B7D87D31F8D60ED7B56B91823A8E4EDDB36C6172ECEE42BD42B12CD67994FA0F0DFAE9389356F4CD4425A4B8AA55CBF7EC
310
D585C6A2C2316791E43D5C06841ADBB226A87FD61515FFBB0167B74E56BD7F3E90A57A97FEDCBDF483A0D6699A8C0849CAEB4947FAA90D8E332D9DEBD9F4738C37DA0CAF9CF3DAA68BCB67C420459C7A64498D6E848E5CADE92BB6901F607AA331104A67F7CD650EE169B1DAE94D2C31C2F993632259B6957E246EFE4C5481
310
107B07118607700040E5812A2A2A38DA0076875258C753F60E0F2662C748EDD5F3F3686B8FC3BD6FE631ECCAA1E8B1C1E565AD117E54893E79F4672E32F9E46B2A183DFDCF3EECB4D4D077DBEA0DA254D256045109670050129E9B9B1A9E4A11344D61497A992778095151510C4BB7EF2009B63AA4360635312E4CF668B7E0
310
D3D85A8688E2BD83B569439892ADB63461930D428E0DE42E4AC57CE48DA5CC1449530D8BD3D6A0F08DF20C8E8F570F2CFFFCEA286E30969B4654D498A58D9DA782E19FE3F002181838925592C4A1EF0B332D88B61A92C644547BED490D3A42CFFAB70E36D961F694F6307F72FF15A1C79D5B1B5CEFD353D9E2B52566DEC8F8
310
F09CB3E8359C0F68EBBB7898243E34E12A015B2685AB303C04D3A9E00671FF3DFF0A184E4A2ABEB2B666AF5B3A209C73D8EF29DCDB069C9F391EEE9DD0F74C7BCDE16F8F02E3B8816122BBEB50665775B600549D8BB33A54A6BF940C028118BC6878C79958D6784F9DEAA6E26748386FFAF8D0D0101E2847B6563F5D8DC1D7
310
8F787BE00E2C941AE12148D4A81599FE8F68D4DA5CDED75530ADE138240300EE13B0FC13A1687FED6774662C05A2B7DFB186732F0D7A93545D8B0A6390AE5054D9CB582DA846D7A061B3358B45E2B52DDE63E114397EDB7E09233A579155D795BE76102CF277F4DF8B188C4F2879BEAE3C08347124BF9ED23B128259FE107D
310
31E34A652F090B30B39E0D9AF917B76A2806135621A8A60681F16AF216514BBD02711585B5B1AE823F4B2D0369EA5B6BCB863072727FFC871CA6C9AB79A814D989057E9470A3D238BC87CBB4A0EA49AFE2B86F22E499793CAA9047080450166BDC357524561E258C77CB697F1ABB32562CF87C3B7AA12F911EF19FB3E5C022
310
22E887D08202A60A17151F5E053A86B437771088B4FEE14D652C43E8D939995D34545E12E2FF93D4E366EAD25F10CB7DED141563C3D0C447AF06078A91135FD4B9611583CB4BF3BD167F2399CEAB0E0100F8FFC305F00F1711717173138B4B48C83022295DE657EFEDD97F238ECA80F528AFB4F8D67AD4E2594B9A3AA86D74
310
87EFC313BA95745C186F0CDD84CC12DC9CB0424B42203D351FD9C0A3AF10CC7F388E0329279087386421F194F4A29464C1DEF7EF8BE515E4A199DCD5B909342598D8FE6A231F71336248D5CEC5454455C7BE383B3BC7B260FED27F703FDC39A170F3827239102F59D4DEE7FEF82EAA1A5E4BA94DCC4CC44E7E2EDE20F24244
310
E4454369D2E87C3F823F193FD4FD27E1C23984B01898D15ABC20711A8A558054951A6AE280096BA36CBA439603B7B0B4C45F248C14B2383B4B5CD8ECECE4FF859AD4A6CA2326D020EF090F4041D28DB66E5256B56232CC52829DE8060BAE6BBF37D4B7469B822454FE93210A3E8D15E69FFCF01123222611C51C4FD0A041A0
310
CFA2471CF6BE38D2B20FA4C3525B5B8B586759475CF80ADFE67A284AC24651E52B8E683D24C2622642F27E7C3C22783BCF63648BC398BD6CD0D9C97E7E7E3EACB6126DB7A6C1FD9F1031302EE67ED96F22B77C7CA0239BB324207559B105E4693EB26EC46182A92C9C0DBD24F29B31C5C5AC1F84300E0E17CEEAC15F5736FA
310
4A98971E2F1423BFCD68D4BBD5F86E74B40A369F39507C88FCDB35D2DD8DEBEA4AF999E23CF2816D204200DF6E611781B9884C1AC8888B4DE397320472959434323A5A36B22A8E1F721A270DF3BD65E4A31C11FF048AFB0D8B7B6881423793963A23CFCE935FC189ED36FAE35C46DA3574C979E4394BE52084F3081837BE03
310
3396D2EBD80F1F691B273F660D2B32FA27A33B1DE4ADA5F0FA4651511102DFA410DDA86E065272CA314D5249DF91B06BB92807B28EFD54F08F7B525252782CD276DD02E6B0319B13DF87B1F6361AD6B28FC0D711CF445429B9E5A433CD493051C49A9E03DDB1B147D880253514A5DED88009018620EE229101C041950E2D8A
310
A8E1F5F5438E0C0C0C60EEDEE9E3E0C051948C69F84BB7B2A48A1F3C8EB9E6864687F4F4F6F6E2FA87608ADAF9C5E117B7C1A737E710769DA1D15ECE6A84502AA855398712D5FB51BE92E4EF824969CE18278798AC303C2C7980DD2500ADF8FB1E6D6C2FAAFF9987178923334A244758BAA01A9A1B70FA5097D01E1CC2A58D
310
AD0EC94CE6430AA9B0C10D75E3C6BAC670EFBADEE1607739CE0FC18A2587E3EC3058562014C64219C69BC269082D5C2F4A659278D585755912176D78A1B641719C2A394CED495A1AC5D583FD2F5EDD93308EA7EAE8A6DD396598BDBD3D4CFED62D18A5BDFDE0DD5C80D1A89BA62697B131AE7CE9A6594138582F1B37D68F17
310
49AC7CB67A70695D48A4A056AC1FBD4E82358CEAE38F54B95A9016F9000F9879C0D9D131768635CA798895F27D6F1614F11F2838A83611AA51C9A3DDB539D42979C29F10465655C17BEC3E2760B80DCBF609198C7B171A531905F3EC218D696025975E986C6B4C666666787271F202805577DD5A3EF0CAFAF91B62DC4B2DB4
310
217A7606282F31D8DDBC290593BAA93EA6353AFA9939B877978481E15CFC9F2755CDC00C538F63A4BA3E80AE009B73CA0185687D339A507D165B74290D6EE46D5C58148F020C3668ABE9EF2F7549170DC80DB41FFC1D678FF19AEB10C7133832B104B80F691B3138F97A92D26E551F1F110400D45AC71A9B9AC41A1A1B1DAE
310
ED0B0810638EFFB511D46B121C6FEA0F38CD00E03CFFEB9713FE1F9C263E4DDEC160D0497FA9A132BA608584057FB15380825DE6C7FC3C667EE947D488A09898D8E939C4953BF4EC9836344D2CC6B2971B2A21A572B06096F4982D2CC7232D46E8EA69DC83722E267754D777F97F96D5DA74E1E75178084D0E70F12AD33E5F
310
71EF2AFA599B2BEBF60A5BE475F444F240CBFE8143C334E7ED9150FEEFEF7EB020C4DBED388DD1D6A167A76F3CBF119B578AE8CFA7736ACAFA4440A1C47185638A0D2F3EB5BDDEFDA958FB13CE4AA4923D5BF840392D45544329525749734866684BF7F8D9D54D892E19BCA9F829A0F8BFCBEEA6CFDFC61D74EA1A645ED7A1
310
FF241739F15694BD835B66FEC5677E40FE69BD3F91AE402F036537218A401CB0828604AD189E575015C6F3F6BBC8AC79CF6C70653847254B31551EFCBEB5978B9DB85D58D0FA41A9DFE9C624834AA04949D24B5AE6D299E072D152D12097920F14AA92C31C3B97E28B6C2E6E9C23D63043ECBBC0A60FDF5BD0C33C127EA8A3
310
308B8B6AFFEB28B4455BF6E7AF4FC6222728357EB8E46E85053E6A8843AB23295BF838ABDA94658FEF3F832F147046B4ACD6F7D48E8FCC9618582961C898D1C7A253C91BFECBDA6BA18A1FCF70755DCCEE2222F41B76D23CA98D0CB3D95F0CF66D57FFF65E2A90F5DF40FC3187621E981BD0BC1D992787212688976B94A8F0
310
C6EF646624B570B78E068826F87CE27041A95C9A4871FF65CC17FCB1639629AD6A9517000D63AC231F3D741CB8430777E7ECF80CE7A3F73C0F162F7E56AA71F4DA80A33CD6ACEE78E2C11FAC03DAFCE929B106F8F6B3ED2DC71FF994BD9CEF4E9A94896EF1B6E2B7B4978168BCF0847A3D2A4F1B0500B926E634B174548E9F
310
BAD27153FB5FC36799B1E6C7C38A94E1F9E996796D7B485E635D5287A2AE76FBD11A341DB3F8F810385BB7296391973DC6C37C452A9305AEBBE0CDB6C566DB59FE60C8E94B1FD090354BF51439FFD1B48D725228FFA88C84F686F547107A7A235665A4593B7C34D748C1AC8D56DD5DA861EEFBADDECBBD65117E65851F9035
310
1AEB65F0EFCFF4BCFEF24CB7A5879699FAC437A7AF9099186CF006BB923A59E37D7A36A29FD8D2CBB914A5E9D0A8FD212FBF796AE9A67958FF1D5D8B85F78F96219D4714EB919929241B6C018AAE0C02069F8D919961EC5DDFBFB7573E3AC8E08BFB7C8534BE6DE045B3CD63DBD71F7638BA2309CAE398EA3A7D8F98BBBC7A
310
EB367EFA5CFA27A9F8F2F52FE878058E6209C026453F8E7E8A237DFC389E9590F6059B397CFD65183BBF936E86896612A5B5FEE49DAC8455D026218AFEBEC12B3523A45B57B82C9C97E02ACFA1184DB18E48CF615DBF39C3CC6F0B4AE6BBEEA2E39D944E290302FA3DE33FA7E40296E2EF7BF1CD855BBECFAD0FD622BEE974
310
6FC4FDFDE545AE6E3BC234CADF83A0FB76DFB145BF3828AE3436368AC24989454F8FF70A177672C711CAA1A76107218CF948CA01F873520E7A2B118EBB161ABAD432932029628B6761590C98AB590C8C8C79798CE9F715BA696E839E9131A4BB68BE923F1747FBFF165331FFDD4D05997ACD168F12CA75348DAC04C7F509FE
310
83898A8B421181AF492861CE81E4A2DD0A30850CFA95E05F097FF70F9E777310D584A75BA7018922E271DAB1D785671157685B7D383D3E074DDB4F1E44EF04B07BAAC75A062077C54B9752C738C9D804D402E02851F3F89605AF189738C18C021D2139EAF72513824E10DDD3047BACC8521ED7E98B257D1166903B1B08FA6F
310
918FD7E162913FEC7D0EF4787E29C35FBA8C6E2C9C20E9AB30AE42CA2A01A090E7D010C1B5BF9CEE2A304BF3A987FB40D836979B79E18D70F257DA61E808472DD85B82761825779D6B90CAEB0F23360C6F80A7D7D77545E95B3DFF0CF96A827F9B5BCECD2C9698718417EF80FEEDEE938AFF55859D0D540B7FE09435583A6F
310
04874A0C7E8CF234DF4879722000167F5872CEC6BF3EF7E5A8CC8121E6A359227C8A29C95212F9F735BC72A887D56B8F309FC525BFB4FD767AAEC4AEFF249CFBBD2DE1AB9969A6155C7D8DABC307E47324C1F916C7BCFF40ABA5644E9FFB9238D19ADADA49D9610F01ABBA57E4DFCBDCCBB2B93C8953206C91DE01B0E2651A
310
6D6C31721915B31F7B7CBCE55466F6D70402788FA91D73BE4ADCBA99A35F17D6B83383704917D6833F0FA3CD45C926ADB8BC17999A4A0AFBCE2541F7B8CF4C2F5FBA611B3E626D64407CB32C122DFF4EF8674D6EDBB86C8F7C6A16D50FA685E2CCA34F8F7D1D8265BB0042E9D7F1F666F7BE5FAA5184DF58E12122A42EF02F
310
461B3F369AC746F96528AD208512AB56844CF75B97F352DF7995024FB02855385854F3798670D01CAC771AC3E1889EC25F61A20C1F8CAB46898817F9C47E2CDA1F286BF2F358298709FE567C91133E2638C8B53975E753EA8BFD3578B5F7186B7BF084EBA3F77BAC3132A5779902EC22AF2D2E79F42D324E083386DAEE9810
310
D1B44A5DAA54513C7A71E52A4AB9257D975B621308FE4D2141CC3DCFE946C154A3C1DFCCA7629EC69ACFA831634ADDA93C0388D2A9A2DDAFCF957C6995BCE7FBB6DC4EBAE79E63EB08E9A25F52F67076F7093CA545CA3053B5BF576DEAD4E0017143C5F759F32B2D6F145B52B67B48909B7C7FCA6586EE385A2189C16932CB
310
6DDFD9152AE317C430492A578ED27B72D85D40C7C93C097939E1B50F4D67F05334FE9DC362C30B7FF561B95259138ECFD9274C8D695C31B14D4EAA9F3D7FA8DDF652F8C5DEFA23284C799B7D94416DEE81E05A866302DC70192A5368EA65E1CED8BF107A1E2D3119A71E85DC1A7B0C1E93274CE04DD0F2ABC8AC7C987FDB00
310
2B6F81757B43502EF7A0D92E416494FAEEA4C9C090CD9557AA4D532F4996A272B94355C5A0E4974EEA9627476F30809B94D8D8D860062E02204643BEC7D0438AF800FC7E2B26955D595421E83C69E1A07E0E3122285835F014AD538188CF9737CE76D464A353FA55A001AB2526B84E985083693BC76FE211CA1D000679C889
310
E3C009832C87E1AC2EDD05C302557422DF0800E316FCAC86978A371F025A6C7DAA9F333E7BD160403A1A06EA75AA9888FF01504B0304140006080800D0031D4B51464CB48900000043010000360000006662782F33343241303236372D393441452D343846302D393437332D3533453934334442344641362F646972656374
310
6F72792E786D6C9D8F310EC2300C45AF127987122606C71DD918B841D4B851A43646695A717C52A85029031293A5A76FBF6FACEF7DA7264E43906840EF0FA03836E242F406C6DCEE4EA06AC22492573150D1F66C60C640E8938CB705396EEDD86DE9B5042FE27813D640EA63BB001C722AF6E55CB61E4863F58284D5D3F53D
310
D715CE1C3985E63FD7F1B7EBDD617E9F1E504B0304140006080800D0031D4BDB8F418740070000211C0000340000006662782F33343241303236372D393441452D343846302D393437332D3533453934334442344641362F6F626A656374732E786D6CDD595B8FDA3814FE2B56F665F7213702CC5031545C4A85BAD356455D
310
ED5B648261BC939B9C6406F6D7EFB16387381320D38B542D230DC1718ECFF9CEFD64FCF61085E889B08C26F19DE15A8E81481C245B1AEFEF8C22DF99B7067A3B41639624796D9F81621C913B832F1B93F19E25452A97B664878BB0B9BA9CFD8DB280C4C4404188B3ECCEC8820712610B1779B225D9A3B5C539B6F6BB83E55A
310
E5469DEC9EE1F4A171548A1989736015D663A0223970F59F20923D19DB7C83B6CDEBB6AD77619B2D04D719A57196E33878C155E3B8DE19AE1AC7796E7FF1AE371899837EDF33FBC39E6BCE96B385E9DE78CE7C389F8FA6EF46069A8C374912560A4849BC052D1E8D893BB6F99D4A7C89421BDF4112C7249068B66DD8124997
310
92AC898906AC2B44AB29A494B5B6E07514FECCB64EA0682C69682BE1D477DD7A93CD3F0042D6C54A5946B8956739035D4BEC4B7F70C676B9AAE9856628C23961148728A41B86192808B6960AD2C8706FE1A410C74C6851D1ABF30A867DDD97DAB8DC1561C8FDD798084FF3C11F499E09CEE8BF849DB8AF9F063C81B4058DF3
310
5B296C7E4C81C4686C8BC5F29ED793374B20D12EC47BB01610936FF27A0DBCE63C16AC16C6E4C3727358F3F8D07E78CA9294B09C5B9E7066E9774A8335D302E3EB004A89ABAEBB132A5F00FA8F807CC50B1A83E6183DF40F7D253BC371B64B5804DA410E321DF8E7207EF9E26A6C570F4F10D262E5394CC16D7F10A69A18DA
310
D9354827E32730FA847952B8758043B0E97B1A733F07434161024B10EF779B83315941308545780A87203DFC8D6D7E89E0ABA403F1A6A1A1B6F0DB4151CA619A7E76D2D57BB01946834A559A8CE7F01DFC107CA78BF58775C1763820F7D2B1176447639A43326D6748035D73F9AFAB8FC22367C73FF1B1EE83DAAE00CED927
310
3C70B4E8652DF582846280159E874BD588957B0AEE1E8638264991C9F5B640152461C2FCCDD12F7DB8F5ACBF94119487490B680D6690DD0346530E8A3191EAAA22A175C2290313C34C9AE0BE54ABBF29A2D4C75152C43CD6BEB4C5261F1068B8290255414D59B6725B45764B77BB2283E8D54A72AE01291D5A112E4DBC0F81
310
AC8D5F46760C43164D629F4212066F693D413BA002EF32CF1909773E0DC322F277348444E247383D43BFA304F5D4F5488ECF09DBB612D42D4B39A5B2210EB8045681A4D25519F4A54E1979A2BCCE14094DA5036D872C448D49FF4CBEE0A9A20550658CC2CCA7D3F974E80C96E6C05D2ECDBE371D9933F7E6D6749DF96C341F
310
2D7ACBDE4D934F15AEEA090F54C9EB1CCDFFF28722DAC4988670838B8DB7E99BB7227DDED9101B6DAFDF9B3ABDE18D39EA4FDF99FDDBA50357379E39F0DE8DFADE62D65F4E8736235952B0806476CF767C659269BC3FC795E2EE651085BAE67AB653FA6A0AF3FF0DA2EF9B494153E2AF1A44ABD8D55211760DA2FCD16608C5
310
C123CF517E00655FABFB348268938FB638F7CAB8EC589E233EAE3BEA39A3DEED685819FBC5402DCEF9EE38D72641008D6791FB498A039AB727D4062E1DE3F4AB728BE5B90304E854FFAB432EE71979884F23BC27FE0EF336A125305E93A03587EDC324CB684C32D1E6BD28FF1A341D0BAA293DE7B61821CDFC88E4F85BEC4F
310
F40D0D9B86D81CFAD090E67C2470B52AA80C5AB620E728F2F61712B790FFE867384AC3B2D5BD8681DB5310A826A7CDE238D3FC8827B0371FE7BEB3256272718D7AC5BEAA0F5AB5D6A43EFA66F267E05175CD4F84471DD1BD74B206EE887F6E21A80C07AE77CAEC32AC9CC34A1D95F3462E2CA0F50C8EFE33A1FB874E856637
310
9DD44AB6B2A8CE49047D2CCE0BD6C95F8703E7C541322E341CA276D22B8B43D1C0A9160ECC587470E7CADBDA315087D218065D9D04792145AB5A842EC4508FCFAE5EE1D7171DA34EF5BBE3E54FAF98EBCE1789E9CF751CA05A2E03B08C3E5A4DDD5A756BF550F68CF30002E95A7C9B33F0882DD99E1A338D5C5B89AEEAD36B
310
D5F38A07D40846B698C7D97B7E117EC1A06A689F335B166D76B9BEE289CD82E9F4890F8D699DD6A7F7EB061558E9FCF4678E11796E5090AB73DE0D5F20F575756AFA1B14A4445F57171EFF253A0AA5C0DA1C0DC6C159125298CA932DDA9304B2378C1D3A741B2C2299C8CA60BC3248A957021D9E7E2A87AA39DE84EAE9E001
310
C3643A94BD5811C0541432E69D21D7D16F3007E5A348319DB21EA10D9331CC4005A37706586C4EA1DBB23630CF12D34341BD31AF04C7C6F19EE7FBF2A9EAF7E9318E0E44A5935CD59E2EB848C9346782C236152F0AA0EA2B6F4CC6DF2EBA6207E11C2E37455E09735A38492341506F044AE160ECF728E13D404171592ED712
310
7B34483A8DE62FDA4149D5CC31DB8BF97A0DEFE9E2B3CD47E3AB4F280D8B3D57E7A5EE57A364F2AE3B2CCA29D4180C438A99625E43CEDFD89F5902EF9822B4A46004E8F7C3EDF00F7B9E445112974BF654BEA942EB0778EFB4B5D5CC0FDA78C71DD8620A20E7FAFE0667C4C2DBEC111640B58CF2E16809B166005534AD1980
310
D208D7053CA6ED5F2D90AC8D6A13927AD8E5F088A13E0247E22F73B8DBD437D42690E00BC095B879BA500B639BC1147CF21F504B0304140006080800D0031D4B7582766AE0000000550100003C0000006662782F33343241303236372D393441452D343846302D393437332D3533453934334442344641362F7265736F7572
310
6365732F322F636E782E786D6C4D90CD6A042110845F6510721C7526876C82E3BE444EB92CC6E935B26A0FFE84E4EDD36E0C048496AA8FA6BAD4F92B86E91372F19836B670C9264816779FDCC65ABDCE27369DB5CA88F51FC6A664226CACCB4C2B97B11D43DAE16A5AE86AF0E93644797190207B7B399263930DA6948D15FB
310
01D170D32AEE506E7C37D5F0856728D8B2055A517D84B1C266301576A657B93CCDF234AFCFAF52BE3CD25BDF94E8A456EF8861F03E55C8783CACD2227D1325924A7440AB96FDA0FA1964FCC5E3144F09B2B52A35530703ABDF07613E1A07E28EFCBA5A897E248D7B03347B21FA07504B0304140006080800D0031D4BFF15A4
310
A45D000000800000003A0000006662782F33343241303236372D393441452D343846302D393437332D3533453934334442344641362F7265736F75726365732F636E782E786D6C4D8B3B0E80201005AF42B6F75B59F0390B113044D83508C6E30BC6C26AF226F3B8BA6360974DA7271430F523308B2B198F9B80925DB70053
310
9227A2FCCB80A18E5640D320F996A81C9F32D6E9129A0D1EF74FCE750E6D57BC7165FBCA07504B0304140006080800D0031D4B51AFEEF94101000056050000300000006662782F33343241303236372D393441452D343846302D393437332D3533453934334442344641362F636E782E786D6CCD94CF4A033110C65F650978
310
DCBF1EAC924DC1834FE041BC65B3D3356D36599289D8B77752B7AD22450F85167208935FE0FB265F862F3F4693BD830FDAD996D545C532B0CAF5DA0E2D8BB8CA172C5B0AEE9DC36F18CBAC1CA165A9CC041FBC8BD35CEA6125A34955A3ED662E4A44AFBB881058A68C0CA16541BDC1280B19D1F51036452F511675E121B8E8
310
15D07DD423CCF7950789D033D154F55D5E2DF2E6FEB9AA1E6E6935AFBC4CA4E09D7366E6B545F06EBA692AE5686B494EC5CB04081EBD9EA9E48189A3B6A2D39697742E7820BD769839DC4E899B26A395446A54E91402E604811C79F9050B5E26C73F7C3F3DBE1C35D0AED71E143ABFBD581BEA536D38482B2811FFEBC20EFC
310
CBBCEBD664F972EF7ED2F02CEC6C76F7C90D14DDDF49A03C493B986BFC000769E7CF3F0D16D4EA1A4DEF959DC973B91B81F4F069228A4F504B0304140006080800D0031D4BF5C967CD7F000000A30000000B0000006662782F636E782E786D6C4D8C4D0E83201844AF42BE3D960AF527010C4DF51EA6A2212234544C8F5F68
310
5C74F5262F33C3BBCF66D1A1C3DB7827E05A1040DA3DFD64DC2220EE336E00759207EFF7BF1A20376E5A40D620F9127C7C9D6AD2F3186DB6D6B8F59494958A94558D5BA67ACC9A81A454537CA37DCBE8E3CE0655A5C5254F127E7F89F95E7E01504B0304140006080800D0031D4BA6D797065F000000820000000700000063
310
6E782E786D6C4DCB3B0E80201045D1AD90E9FD7516806B51190811670C8A61F982B1B0BAC9C97B72CA7B1037C6D3332918DA1E04D2CAC69353902EDB8C20262D23F3F59B81A079470595414B17391D1F19B4730A5583A7ED43BBE4025D9592775E5ADFFA01504B0304140006080800D0031D4BECFD112DA800000026010000
310
130000005B436F6E74656E745F54797065735D2E786D6C7D4F4B0EC22010BD0A61DF525D18634ABB506FE00510A79458060253536F2FD89D5197F3FED3F68B9BD80362B21E25DFD40D6780DADF2C1AC9671AAA3D677DD75E9E0112CB5A4C928F44E12044D22338956A1F003333F8E814E5331A1194BE2B0362DB343BA13D12
310
2055543278D79E6050F344ECBC6478EDCD76CE8EABAE5449AE4298AC56946789C28AAFBEABC53F3EAF09A84A1441B91F0101CD4780756578C173A578FFDDBD00504B0304140006080800D0031D4B3DEE336E64000000790000001B0000006175746F6465736B2D64657369676E2D7061636B6167652E786D6C35CBC10E8320
310
0C00D05F21DCA56CA76D41FC96062B120735B69A7DBE268BB7777961F8D5AF396893C2ADB70FE7ADA196782C2DF776D7A97B5933C430F15651E5469C55D70F80A4992A3ADC954792C525AE70A1E4D6AD9816CC044FEFDF01FE3FDE907802504B0304140006080800D0031D4B3D4EF1DEF30000008E0100003D000000666278
310
2F33343241303236372D393441452D343846302D393437332D3533453934334442344641362F7265736F75726365732F322F636F72652E786D6C8550CB6EC32010FC156BEF6070E2D4AE3051E5D45FD0536F08888B1283C5A3EAE71762576A4F9556DAD53033CB0E3B7F2DF7EA53FB609C1D80620295B6D22963E70152BCA2
310
0EAA3367DEB9F88B0695158B1EA0C0C0D9EC5D5A77483A1BB52DA8754AEFA0084147A8E43D0F0304F9A11781458A99116E7815F226668D29DE789CA564D42E352ABB99ABD11E3899A6EED8528AC86B3BA2231D3BD4F72F2744DBF1442EE3D44FED85D545CC5934CBCF76E9B5885A016F087D42A4434DFF46C8F32157F3CEEA
310
C2E42C449F6FDE9796EB329DD51BFAC72DADEA7FB7646C3C34BBDBA608C069FEDCE381B3BAA493DB23BADC4B92FC1B504B0304140006080800D0031D4B2BD5461DF9000000960100003B0000006662782F33343241303236372D393441452D343846302D393437332D3533453934334442344641362F7265736F7572636573
310
2F636F72652E786D6C8550CB6E833010FC15B477834D420A95715491F2053DF566990DB5126CE447D5CFAF1DA8D49E2A595A6B76667677F8F96BB9179FE8BCB6A607565228D0283B6933F710C395B4509C0577D6865F34288C5CB0870C83E0B3B371DD21654D4093516327DC41E93D0628D43D7D7AF0EA031759CA1812C3DF
310
CA55AA9B9CB164E5C6133C463DED523D25377DD5E840D0716C8F0D6384BE360339B2A1255DF77222AC194EF4328CDDD85C7895C58207BDFC4C570E65C009444DD913A12DA9BB374A9F0FE9D5EFBCCA4CC17D70E9E67D68BE0E84436FA353E879B575FFB8C675FADF356A130EF5EEBA293C0896967C3404AF724AA93C224C35
310
272ABE01504B0304140006080800D0031D4B6C4A06ADF2000000B1010000310000006662782F33343241303236372D393441452D343846302D393437332D3533453934334442344641362F636F72652E786D6C8D50CB6EC32010FC156BEFD818DCD88E3091AB265FD0536F08131725068B47D5CF2FC4AED4DE2221ED6A98D9
310
995D76FA5EEEC597725E5B33405D6228949176D2661E20862BEAA03871E6AC0D7F685018B1A801320C9CCDCEC67587A43541998C1A3BA91D14DEAB0085BCA766002F3FD5224A114362F85BB90A7913B32AEB72E37116F4F22B954E89A026E004D72DC21D22FD3BC6479A1EF96055667216A39E762B3D25777DD5CA01A70D19
310
3139B4A86FC6336ABA0B4E5D4BD10B3DF70D7D7B6D2EE3815559CC990F2EEDBC0FC9DB3D2BDF84FF32C7757A22B3368192DD705378E075CAF3F8E0ACCA074CE571DD54F3B1F90F504B0304140006080800D0031D4BE01BA50E53010000DD0200000C0000006662782F636F72652E786D6C8D525D6F832014FD2B8677146CED
310
74419AC5CE5FB0A7BD51A58E54C12098FEFC811F713EAC5B3442CEBDE7DC7B4E24E747D70623D783503207384420E0B252B5904D0EACB9C11404674AB452E6471B0824EB780E3C0C2869B4B2FD02554A1A2E3D2A55CD17900D033720A85A77C9C1507DF18E85CC1AD731DCC39E5577D6F01087731F25D68A7AA18ADAA9899B
310
E01A505496E931C118A2F7A480475CA430CBDE4E1027C5095D8A322B930B893C991223BA757AA53933BC063446F805A214C6D90742AF07F7C69F24F29D940C463BCFCB50EF0ED0DBF541A219DFE9D9BEFE5BCF0A690EF1A237330640B15B6F2A5012F97CDC3185B7CFD00D76F919766D570B77078DBC324A1F5DA556762B8D
310
ACB5DC49A3607A4834579DF224F09B4EFC44E7B9860B8AC9C6ADC68CBB5EADF1D3F73BF55CC3D13C02A974C7DA6DB979C5EDBB0DDA595AE9956A95FE0F7BB5BA8619F91F937E03504B0304140006080800D0031D4B0F69E27207010000B201000008000000636F72652E786D6C8D50CB6EC32010FC15C41D1B9C38B5234C54
310
39F517F4D41B05E2A2D860F188DABF2F24546A6F959016CDCCEECC2E3D7DAE0BB829E7B53503241586401961A536F30063B8A00E8213A3CEDAF04B0681E1AB1A608621A3B3B3712B90B02628935163A52A20F75E0508C4923E03F4E243ADBCE2312485BF561B17573EAB8A540F1DA341AF3FADC2291E9484ACC1E409E10E35
310
FD2BC6C75D7ACD1BADB392D118B52C565A26777DD1CA4186A7A9DBB78420FCD28E684FC60EF5FDF30191763CE0F338F5537BA6756E66D40797762E4352CE003CBF655F5A3F2846DFAD5D8A208592C09AE52B99D03A137F42C74DFE23B43661D794818F0E0F194981EE4432CE174CE57EDE54F3B5D937504B01021400140006
310
080800D0031D4B0000000000000000000000003700000000000000000000000000000000006662782F33343241303236372D393441452D343846302D393437332D3533453934334442344641362F617474726962757465732E62696E504B01021400140006080800D0031D4B00000000000000000000000035000000000000
310
00000000000000550000006662782F33343241303236372D393441452D343846302D393437332D3533453934334442344641362F76657274696365732E62696E504B01021400140006080800D0031D4BF270F13306000000040000003600000000000000000000000000A80000006662782F33343241303236372D39344145
310
2D343846302D393437332D3533453934334442344641362F747269616E676C65732E62696E504B01021400140006080800D0031D4B88E57597CD3F0000904100004200000000000000000000000000020100006662782F33343241303236372D393441452D343846302D393437332D3533453934334442344641362F726573
310
6F75726365732F322F305F67656E657269632E706E67504B01021400140006080800D0031D4B51464CB4890000004301000036000000000000000000000000002F4100006662782F33343241303236372D393441452D343846302D393437332D3533453934334442344641362F6469726563746F72792E786D6C504B010214
310
00140006080800D0031D4BDB8F418740070000211C000034000000000000000000000000000C4200006662782F33343241303236372D393441452D343846302D393437332D3533453934334442344641362F6F626A656374732E786D6C504B01021400140006080800D0031D4B7582766AE0000000550100003C0000000000
310
00000000000000009E4900006662782F33343241303236372D393441452D343846302D393437332D3533453934334442344641362F7265736F75726365732F322F636E782E786D6C504B01021400140006080800D0031D4BFF15A4A45D000000800000003A00000000000000000000000000D84A00006662782F3334324130
310
3236372D393441452D343846302D393437332D3533453934334442344641362F7265736F75726365732F636E782E786D6C504B01021400140006080800D0031D4B51AFEEF9410100005605000030000000000000000000000000008D4B00006662782F33343241303236372D393441452D343846302D393437332D35334539
310
34334442344641362F636E782E786D6C504B01021400140006080800D0031D4BF5C967CD7F000000A30000000B000000000000000000000000001C4D00006662782F636E782E786D6C504B01021400140006080800D0031D4BA6D797065F000000820000000700000000000000000000000000C44D0000636E782E786D6C50
310
4B01021400140006080800D0031D4BECFD112DA8000000260100001300000000000000000000000000484E00005B436F6E74656E745F54797065735D2E786D6C504B01021400140006080800D0031D4B3DEE336E64000000790000001B00000000000000000000000000214F00006175746F6465736B2D64657369676E2D70
310
61636B6167652E786D6C504B01021400140006080800D0031D4B3D4EF1DEF30000008E0100003D00000000000000000000000000BE4F00006662782F33343241303236372D393441452D343846302D393437332D3533453934334442344641362F7265736F75726365732F322F636F72652E786D6C504B0102140014000608
310
0800D0031D4B2BD5461DF9000000960100003B000000000000000000000000000C5100006662782F33343241303236372D393441452D343846302D393437332D3533453934334442344641362F7265736F75726365732F636F72652E786D6C504B01021400140006080800D0031D4B6C4A06ADF2000000B101000031000000
310
000000000000000000005E5200006662782F33343241303236372D393441452D343846302D393437332D3533453934334442344641362F636F72652E786D6C504B01021400140006080800D0031D4BE01BA50E53010000DD0200000C000000000000000000000000009F5300006662782F636F72652E786D6C504B01021400
310
140006080800D0031D4B0F69E27207010000B201000008000000000000000000000000001C550000636F72652E786D6C504B050600000000120012002D060000495600000000
  0
XRECORD
  5
17
102
{ACAD_REACTORS
330
12
102
}
330
12
100
AcDbXrecord
280
     1
270
     1
271
     1
  0
XRECORD
  5
16
102
{ACAD_REACTORS
330
12
102
}
330
12
100
AcDbXrecord
280
     1
270
     1
271
     1
  0
XRECORD
  5
18
102
{ACAD_REACTORS
330
12
102
}
330
12
100
AcDbXrecord
280
     1
270
     1
271
     1
  0
XRECORD
  5
15
102
{ACAD_REACTORS
330
12
102
}
330
12
100
AcDbXrecord
280
     1
270
     1
271
     1
  0
XRECORD
  5
24
102
{ACAD_REACTORS
330
22
102
}
330
22
100
AcDbXrecord
280
     1
270
     1
271
     1
  0
XRECORD
  5
23
102
{ACAD_REACTORS
330
22
102
}
330
22
100
AcDbXrecord
280
     1
270
     1
271
     1
  0
XRECORD
  5
27
102
{ACAD_REACTORS
330
22
102
}
330
22
100
AcDbXrecord
280
     1
270
     1
271
     1
  0
XRECORD
  5
26
102
{ACAD_REACTORS
330
22
102
}
330
22
100
AcDbXrecord
280
     1
270
     1
271
     1
  0
XRECORD
  5
28
102
{ACAD_REACTORS
330
22
102
}
330
22
100
AcDbXrecord
280
     1
270
     1
271
     1
  0
XRECORD
  5
25
102
{ACAD_REACTORS
330
22
102
}
330
22
100
AcDbXrecord
280
     1
270
     1
271
     1
  0
XRECORD
  5
A73
102
{ACAD_REACTORS
330
A72
102
}
330
A72
100
AcDbXrecord
280
     1
102
ACAD_ROUNDTRIP_2012_MLEADER_STYLE
298
     1
  0
XRECORD
  5
A75
102
{ACAD_REACTORS
330
A74
102
}
330
A74
100
AcDbXrecord
280
     1
102
DISPLAYNAME
  1
Imperial24
102
FLAGS
 90
        0
  0
CELLSTYLEMAP
  5
A30
102
{ACAD_REACTORS
330
A2F
102
}
330
A2F
100
AcDbCellStyleMap
 90
        3
300
CELLSTYLE
  1
TABLEFORMAT_BEGIN
 90
        5
170
     1
 91
        0
 92
    32768
 62
   257
 93
        1
300
CONTENTFORMAT
  1
CONTENTFORMAT_BEGIN
 90
        0
 91
        0
 92
      512
 93
        0
300

 40
0.0
140
1.0
 94
        5
 62
     0
340
55
144
0.25
309
CONTENTFORMAT_END
171
     0
 94
        0
309
TABLEFORMAT_END
  1
CELLSTYLE_BEGIN
 90
        1
 91
        1
300
_TITLE
309
CELLSTYLE_END
300
CELLSTYLE
  1
TABLEFORMAT_BEGIN
 90
        5
170
     1
 91
        0
 92
        0
 62
   257
 93
        1
300
CONTENTFORMAT
  1
CONTENTFORMAT_BEGIN
 90
        0
 91
        0
 92
      512
 93
        0
300

 40
0.0
140
1.0
 94
        5
 62
     0
340
55
144
0.18
309
CONTENTFORMAT_END
171
     0
 94
        0
309
TABLEFORMAT_END
  1
CELLSTYLE_BEGIN
 90
        2
 91
        1
300
_HEADER
309
CELLSTYLE_END
300
CELLSTYLE
  1
TABLEFORMAT_BEGIN
 90
        5
170
     1
 91
        0
 92
        0
 62
   257
 93
        1
300
CONTENTFORMAT
  1
CONTENTFORMAT_BEGIN
 90
        0
 91
        0
 92
      512
 93
        0
300

 40
0.0
140
1.0
 94
        2
 62
     0
340
55
144
0.18
309
CONTENTFORMAT_END
171
     0
 94
        0
309
TABLEFORMAT_END
  1
CELLSTYLE_BEGIN
 90
        3
 91
        2
300
_DATA
309
CELLSTYLE_END
  0
XRECORD
  5
A4D
102
{ACAD_REACTORS
330
A4C
102
}
330
A4C
100
AcDbXrecord
280
     1
102
RTVSPost2010Prop28
280
     1
102
RTVSPost2010PropOp28
 70
     1
102
RTVSPost2010Prop29
280
     1
102
RTVSPost2010PropOp29
 70
     1
102
RTVSPost2010Prop30
280
     0
102
RTVSPost2010PropOp30
 70
     1
102
RTVSPost2010Prop31
280
     0
102
RTVSPost2010PropOp31
 70
     1
102
RTVSPost2010Prop32
280
     0
102
RTVSPost2010PropOp32
 70
     1
102
RTVSPost2010Prop33
280
     0
102
RTVSPost2010PropOp33
 70
     1
102
RTVSPost2010Prop34
280
     0
102
RTVSPost2010PropOp34
 70
     1
102
RTVSPost2010Prop35
280
     0
102
RTVSPost2010PropOp35
 70
     1
102
RTVSPost2010Prop36
280
     0
102
RTVSPost2010PropOp36
 70
     1
102
RTVSPost2010Prop37
 90
       50
102
RTVSPost2010PropOp37
 70
     1
102
RTVSPost2010Prop38
140
0.0
102
RTVSPost2010PropOp38
 70
     1
102
RTVSPost2010Prop39
140
1.0
102
RTVSPost2010PropOp39
 70
     1
102
RTVSPost2010Prop40
 90
        0
102
RTVSPost2010PropOp40
 70
     1
102
RTVSPost2010Prop41ColorIndex
 90
       18
102
RTVSPost2010Prop41ColorRGB
 90
        0
102
RTVSPost2010PropOp41
 70
     1
102
RTVSPost2010Prop42
 90
       50
102
RTVSPost2010PropOp42
 70
     1
102
RTVSPost2010Prop43
 90
        3
102
RTVSPost2010PropOp43
 70
     1
102
RTVSPost2010Prop44ColorIndex
 90
        5
102
RTVSPost2010Prop44ColorRGB
 90
      255
102
RTVSPost2010PropOp44
 70
     1
102
RTVSPost2010Prop45
280
     0
102
RTVSPost2010PropOp45
 70
     1
102
RTVSPost2010Prop46
 90
       50
102
RTVSPost2010PropOp46
 70
     1
102
RTVSPost2010Prop47
 90
       50
102
RTVSPost2010PropOp47
 70
     1
102
RTVSPost2010Prop48
 90
       50
102
RTVSPost2010PropOp48
 70
     1
102
RTVSPost2010Prop49
280
     0
102
RTVSPost2010PropOp49
 70
     1
102
RTVSPost2010Prop50
 90
       50
102
RTVSPost2010PropOp50
 70
     1
102
RTVSPost2010Prop51ColorIndex
 90
      256
102
RTVSPost2010Prop51ColorRGB
 90
-16777216
102
RTVSPost2010PropOp51
 70
     0
102
RTVSPost2010Prop52
140
1.0
102
RTVSPost2010PropOp52
 70
     0
102
RTVSPost2010Prop53
 90
        2
102
RTVSPost2010PropOp53
 70
     1
102
RTVSPost2010Prop54
  1
strokes_ogs.tif
102
RTVSPost2010PropOp54
 70
     1
102
RTVSPost2010Prop55
280
     0
102
RTVSPost2010PropOp55
 70
     1
102
RTVSPost2010Prop56
140
1.0
102
RTVSPost2010PropOp56
 70
     1
102
RTVSPost2010Prop57
140
1.0
102
RTVSPost2010PropOp57
 70
     1
  0
XRECORD
  5
A4B
102
{ACAD_REACTORS
330
A4A
102
}
330
A4A
100
AcDbXrecord
280
     1
102
RTVSPost2010Prop28
280
     0
102
RTVSPost2010PropOp28
 70
     1
102
RTVSPost2010Prop29
280
     1
102
RTVSPost2010PropOp29
 70
     1
102
RTVSPost2010Prop30
280
     1
102
RTVSPost2010PropOp30
 70
     1
102
RTVSPost2010Prop31
280
     0
102
RTVSPost2010PropOp31
 70
     1
102
RTVSPost2010Prop32
280
     0
102
RTVSPost2010PropOp32
 70
     1
102
RTVSPost2010Prop33
280
     0
102
RTVSPost2010PropOp33
 70
     1
102
RTVSPost2010Prop34
280
     0
102
RTVSPost2010PropOp34
 70
     1
102
RTVSPost2010Prop35
280
     0
102
RTVSPost2010PropOp35
 70
     1
102
RTVSPost2010Prop36
280
     0
102
RTVSPost2010PropOp36
 70
     1
102
RTVSPost2010Prop37
 90
       50
102
RTVSPost2010PropOp37
 70
     1
102
RTVSPost2010Prop38
140
0.0
102
RTVSPost2010PropOp38
 70
     1
102
RTVSPost2010Prop39
140
1.0
102
RTVSPost2010PropOp39
 70
     1
102
RTVSPost2010Prop40
 90
        0
102
RTVSPost2010PropOp40
 70
     1
102
RTVSPost2010Prop41ColorIndex
 90
       18
102
RTVSPost2010Prop41ColorRGB
 90
        0
102
RTVSPost2010PropOp41
 70
     1
102
RTVSPost2010Prop42
 90
       50
102
RTVSPost2010PropOp42
 70
     1
102
RTVSPost2010Prop43
 90
        3
102
RTVSPost2010PropOp43
 70
     1
102
RTVSPost2010Prop44ColorIndex
 90
        5
102
RTVSPost2010Prop44ColorRGB
 90
      255
102
RTVSPost2010PropOp44
 70
     1
102
RTVSPost2010Prop45
280
     0
102
RTVSPost2010PropOp45
 70
     1
102
RTVSPost2010Prop46
 90
       50
102
RTVSPost2010PropOp46
 70
     1
102
RTVSPost2010Prop47
 90
       50
102
RTVSPost2010PropOp47
 70
     1
102
RTVSPost2010Prop48
 90
       50
102
RTVSPost2010PropOp48
 70
     1
102
RTVSPost2010Prop49
280
     0
102
RTVSPost2010PropOp49
 70
     1
102
RTVSPost2010Prop50
 90
       50
102
RTVSPost2010PropOp50
 70
     1
102
RTVSPost2010Prop51ColorIndex
 90
      256
102
RTVSPost2010Prop51ColorRGB
 90
-16777216
102
RTVSPost2010PropOp51
 70
     0
102
RTVSPost2010Prop52
140
1.0
102
RTVSPost2010PropOp52
 70
     0
102
RTVSPost2010Prop53
 90
        2
102
RTVSPost2010PropOp53
 70
     1
102
RTVSPost2010Prop54
  1
strokes_ogs.tif
102
RTVSPost2010PropOp54
 70
     1
102
RTVSPost2010Prop55
280
     0
102
RTVSPost2010PropOp55
 70
     1
102
RTVSPost2010Prop56
140
1.0
102
RTVSPost2010PropOp56
 70
     1
102
RTVSPost2010Prop57
140
1.0
102
RTVSPost2010PropOp57
 70
     1
  0
XRECORD
  5
A59
102
{ACAD_REACTORS
330
A58
102
}
330
A58
100
AcDbXrecord
280
     1
102
RTVSPost2010Prop28
280
     0
102
RTVSPost2010PropOp28
 70
     1
102
RTVSPost2010Prop29
280
     1
102
RTVSPost2010PropOp29
 70
     1
102
RTVSPost2010Prop30
280
     1
102
RTVSPost2010PropOp30
 70
     1
102
RTVSPost2010Prop31
280
     0
102
RTVSPost2010PropOp31
 70
     1
102
RTVSPost2010Prop32
280
     0
102
RTVSPost2010PropOp32
 70
     1
102
RTVSPost2010Prop33
280
     0
102
RTVSPost2010PropOp33
 70
     1
102
RTVSPost2010Prop34
280
     0
102
RTVSPost2010PropOp34
 70
     1
102
RTVSPost2010Prop35
280
     0
102
RTVSPost2010PropOp35
 70
     1
102
RTVSPost2010Prop36
280
     0
102
RTVSPost2010PropOp36
 70
     1
102
RTVSPost2010Prop37
 90
       50
102
RTVSPost2010PropOp37
 70
     1
102
RTVSPost2010Prop38
140
0.0
102
RTVSPost2010PropOp38
 70
     1
102
RTVSPost2010Prop39
140
1.0
102
RTVSPost2010PropOp39
 70
     1
102
RTVSPost2010Prop40
 90
        0
102
RTVSPost2010PropOp40
 70
     1
102
RTVSPost2010Prop41ColorIndex
 90
       18
102
RTVSPost2010Prop41ColorRGB
 90
        0
102
RTVSPost2010PropOp41
 70
     1
102
RTVSPost2010Prop42
 90
       50
102
RTVSPost2010PropOp42
 70
     1
102
RTVSPost2010Prop43
 90
        3
102
RTVSPost2010PropOp43
 70
     1
102
RTVSPost2010Prop44ColorIndex
 90
        5
102
RTVSPost2010Prop44ColorRGB
 90
      255
102
RTVSPost2010PropOp44
 70
     1
102
RTVSPost2010Prop45
280
     0
102
RTVSPost2010PropOp45
 70
     1
102
RTVSPost2010Prop46
 90
       50
102
RTVSPost2010PropOp46
 70
     1
102
RTVSPost2010Prop47
 90
       50
102
RTVSPost2010PropOp47
 70
     1
102
RTVSPost2010Prop48
 90
       50
102
RTVSPost2010PropOp48
 70
     1
102
RTVSPost2010Prop49
280
     0
102
RTVSPost2010PropOp49
 70
     1
102
RTVSPost2010Prop50
 90
       50
102
RTVSPost2010PropOp50
 70
     1
102
RTVSPost2010Prop51ColorIndex
 90
      256
102
RTVSPost2010Prop51ColorRGB
 90
-16777216
102
RTVSPost2010PropOp51
 70
     0
102
RTVSPost2010Prop52
140
1.0
102
RTVSPost2010PropOp52
 70
     0
102
RTVSPost2010Prop53
 90
        2
102
RTVSPost2010PropOp53
 70
     1
102
RTVSPost2010Prop54
  1
strokes_ogs.tif
102
RTVSPost2010PropOp54
 70
     1
102
RTVSPost2010Prop55
280
     0
102
RTVSPost2010PropOp55
 70
     1
102
RTVSPost2010Prop56
140
1.0
102
RTVSPost2010PropOp56
 70
     1
102
RTVSPost2010Prop57
140
1.0
102
RTVSPost2010PropOp57
 70
     1
  0
XRECORD
  5
A61
102
{ACAD_REACTORS
330
A60
102
}
330
A60
100
AcDbXrecord
280
     1
102
RTVSPost2010Prop28
280
     0
102
RTVSPost2010PropOp28
 70
     1
102
RTVSPost2010Prop29
280
     1
102
RTVSPost2010PropOp29
 70
     1
102
RTVSPost2010Prop30
280
     1
102
RTVSPost2010PropOp30
 70
     1
102
RTVSPost2010Prop31
280
     0
102
RTVSPost2010PropOp31
 70
     1
102
RTVSPost2010Prop32
280
     0
102
RTVSPost2010PropOp32
 70
     1
102
RTVSPost2010Prop33
280
     0
102
RTVSPost2010PropOp33
 70
     1
102
RTVSPost2010Prop34
280
     0
102
RTVSPost2010PropOp34
 70
     1
102
RTVSPost2010Prop35
280
     0
102
RTVSPost2010PropOp35
 70
     1
102
RTVSPost2010Prop36
280
     0
102
RTVSPost2010PropOp36
 70
     1
102
RTVSPost2010Prop37
 90
       50
102
RTVSPost2010PropOp37
 70
     1
102
RTVSPost2010Prop38
140
0.0
102
RTVSPost2010PropOp38
 70
     1
102
RTVSPost2010Prop39
140
1.0
102
RTVSPost2010PropOp39
 70
     1
102
RTVSPost2010Prop40
 90
        0
102
RTVSPost2010PropOp40
 70
     1
102
RTVSPost2010Prop41ColorIndex
 90
       18
102
RTVSPost2010Prop41ColorRGB
 90
        0
102
RTVSPost2010PropOp41
 70
     1
102
RTVSPost2010Prop42
 90
       50
102
RTVSPost2010PropOp42
 70
     1
102
RTVSPost2010Prop43
 90
        3
102
RTVSPost2010PropOp43
 70
     1
102
RTVSPost2010Prop44ColorIndex
 90
        5
102
RTVSPost2010Prop44ColorRGB
 90
      255
102
RTVSPost2010PropOp44
 70
     1
102
RTVSPost2010Prop45
280
     0
102
RTVSPost2010PropOp45
 70
     1
102
RTVSPost2010Prop46
 90
       50
102
RTVSPost2010PropOp46
 70
     1
102
RTVSPost2010Prop47
 90
       50
102
RTVSPost2010PropOp47
 70
     1
102
RTVSPost2010Prop48
 90
       50
102
RTVSPost2010PropOp48
 70
     1
102
RTVSPost2010Prop49
280
     0
102
RTVSPost2010PropOp49
 70
     1
102
RTVSPost2010Prop50
 90
       50
102
RTVSPost2010PropOp50
 70
     1
102
RTVSPost2010Prop51ColorIndex
 90
      256
102
RTVSPost2010Prop51ColorRGB
 90
-16777216
102
RTVSPost2010PropOp51
 70
     0
102
RTVSPost2010Prop52
140
1.0
102
RTVSPost2010PropOp52
 70
     0
102
RTVSPost2010Prop53
 90
        2
102
RTVSPost2010PropOp53
 70
     1
102
RTVSPost2010Prop54
  1
strokes_ogs.tif
102
RTVSPost2010PropOp54
 70
     1
102
RTVSPost2010Prop55
280
     0
102
RTVSPost2010PropOp55
 70
     1
102
RTVSPost2010Prop56
140
1.0
102
RTVSPost2010PropOp56
 70
     1
102
RTVSPost2010Prop57
140
1.0
102
RTVSPost2010PropOp57
 70
     1
  0
XRECORD
  5
A53
102
{ACAD_REACTORS
330
A52
102
}
330
A52
100
AcDbXrecord
280
     1
102
RTVSPost2010Prop28
280
     0
102
RTVSPost2010PropOp28
 70
     1
102
RTVSPost2010Prop29
280
     1
102
RTVSPost2010PropOp29
 70
     1
102
RTVSPost2010Prop30
280
     1
102
RTVSPost2010PropOp30
 70
     1
102
RTVSPost2010Prop31
280
     0
102
RTVSPost2010PropOp31
 70
     1
102
RTVSPost2010Prop32
280
     0
102
RTVSPost2010PropOp32
 70
     1
102
RTVSPost2010Prop33
280
     0
102
RTVSPost2010PropOp33
 70
     1
102
RTVSPost2010Prop34
280
     0
102
RTVSPost2010PropOp34
 70
     1
102
RTVSPost2010Prop35
280
     0
102
RTVSPost2010PropOp35
 70
     1
102
RTVSPost2010Prop36
280
     0
102
RTVSPost2010PropOp36
 70
     1
102
RTVSPost2010Prop37
 90
       50
102
RTVSPost2010PropOp37
 70
     1
102
RTVSPost2010Prop38
140
0.0
102
RTVSPost2010PropOp38
 70
     1
102
RTVSPost2010Prop39
140
1.0
102
RTVSPost2010PropOp39
 70
     1
102
RTVSPost2010Prop40
 90
        0
102
RTVSPost2010PropOp40
 70
     1
102
RTVSPost2010Prop41ColorIndex
 90
       18
102
RTVSPost2010Prop41ColorRGB
 90
        0
102
RTVSPost2010PropOp41
 70
     1
102
RTVSPost2010Prop42
 90
       50
102
RTVSPost2010PropOp42
 70
     1
102
RTVSPost2010Prop43
 90
        3
102
RTVSPost2010PropOp43
 70
     1
102
RTVSPost2010Prop44ColorIndex
 90
        5
102
RTVSPost2010Prop44ColorRGB
 90
      255
102
RTVSPost2010PropOp44
 70
     1
102
RTVSPost2010Prop45
280
     0
102
RTVSPost2010PropOp45
 70
     1
102
RTVSPost2010Prop46
 90
       50
102
RTVSPost2010PropOp46
 70
     1
102
RTVSPost2010Prop47
 90
       50
102
RTVSPost2010PropOp47
 70
     1
102
RTVSPost2010Prop48
 90
       50
102
RTVSPost2010PropOp48
 70
     1
102
RTVSPost2010Prop49
280
     0
102
RTVSPost2010PropOp49
 70
     1
102
RTVSPost2010Prop50
 90
       50
102
RTVSPost2010PropOp50
 70
     1
102
RTVSPost2010Prop51ColorIndex
 90
      256
102
RTVSPost2010Prop51ColorRGB
 90
-16777216
102
RTVSPost2010PropOp51
 70
     0
102
RTVSPost2010Prop52
140
1.0
102
RTVSPost2010PropOp52
 70
     0
102
RTVSPost2010Prop53
 90
        2
102
RTVSPost2010PropOp53
 70
     1
102
RTVSPost2010Prop54
  1
strokes_ogs.tif
102
RTVSPost2010PropOp54
 70
     1
102
RTVSPost2010Prop55
280
     0
102
RTVSPost2010PropOp55
 70
     1
102
RTVSPost2010Prop56
140
1.0
102
RTVSPost2010PropOp56
 70
     1
102
RTVSPost2010Prop57
140
1.0
102
RTVSPost2010PropOp57
 70
     1
  0
XRECORD
  5
A57
102
{ACAD_REACTORS
330
A56
102
}
330
A56
100
AcDbXrecord
280
     1
102
RTVSPost2010Prop28
280
     0
102
RTVSPost2010PropOp28
 70
     1
102
RTVSPost2010Prop29
280
     1
102
RTVSPost2010PropOp29
 70
     1
102
RTVSPost2010Prop30
280
     1
102
RTVSPost2010PropOp30
 70
     1
102
RTVSPost2010Prop31
280
     0
102
RTVSPost2010PropOp31
 70
     1
102
RTVSPost2010Prop32
280
     0
102
RTVSPost2010PropOp32
 70
     1
102
RTVSPost2010Prop33
280
     0
102
RTVSPost2010PropOp33
 70
     1
102
RTVSPost2010Prop34
280
     0
102
RTVSPost2010PropOp34
 70
     1
102
RTVSPost2010Prop35
280
     0
102
RTVSPost2010PropOp35
 70
     1
102
RTVSPost2010Prop36
280
     0
102
RTVSPost2010PropOp36
 70
     1
102
RTVSPost2010Prop37
 90
       50
102
RTVSPost2010PropOp37
 70
     1
102
RTVSPost2010Prop38
140
0.0
102
RTVSPost2010PropOp38
 70
     1
102
RTVSPost2010Prop39
140
1.0
102
RTVSPost2010PropOp39
 70
     1
102
RTVSPost2010Prop40
 90
        0
102
RTVSPost2010PropOp40
 70
     1
102
RTVSPost2010Prop41ColorIndex
 90
       18
102
RTVSPost2010Prop41ColorRGB
 90
        0
102
RTVSPost2010PropOp41
 70
     1
102
RTVSPost2010Prop42
 90
       50
102
RTVSPost2010PropOp42
 70
     1
102
RTVSPost2010Prop43
 90
        3
102
RTVSPost2010PropOp43
 70
     1
102
RTVSPost2010Prop44ColorIndex
 90
        5
102
RTVSPost2010Prop44ColorRGB
 90
      255
102
RTVSPost2010PropOp44
 70
     1
102
RTVSPost2010Prop45
280
     0
102
RTVSPost2010PropOp45
 70
     1
102
RTVSPost2010Prop46
 90
       50
102
RTVSPost2010PropOp46
 70
     1
102
RTVSPost2010Prop47
 90
       50
102
RTVSPost2010PropOp47
 70
     1
102
RTVSPost2010Prop48
 90
       50
102
RTVSPost2010PropOp48
 70
     1
102
RTVSPost2010Prop49
280
     0
102
RTVSPost2010PropOp49
 70
     1
102
RTVSPost2010Prop50
 90
       50
102
RTVSPost2010PropOp50
 70
     1
102
RTVSPost2010Prop51ColorIndex
 90
      256
102
RTVSPost2010Prop51ColorRGB
 90
-16777216
102
RTVSPost2010PropOp51
 70
     0
102
RTVSPost2010Prop52
140
1.0
102
RTVSPost2010PropOp52
 70
     0
102
RTVSPost2010Prop53
 90
        2
102
RTVSPost2010PropOp53
 70
     1
102
RTVSPost2010Prop54
  1
strokes_ogs.tif
102
RTVSPost2010PropOp54
 70
     1
102
RTVSPost2010Prop55
280
     0
102
RTVSPost2010PropOp55
 70
     1
102
RTVSPost2010Prop56
140
1.0
102
RTVSPost2010PropOp56
 70
     1
102
RTVSPost2010Prop57
140
1.0
102
RTVSPost2010PropOp57
 70
     1
  0
XRECORD
  5
A71
102
{ACAD_REACTORS
330
A70
102
}
330
A70
100
AcDbXrecord
280
     1
102
RTVSPost2010Prop28
280
     0
102
RTVSPost2010PropOp28
 70
     0
102
RTVSPost2010Prop29
280
     1
102
RTVSPost2010PropOp29
 70
     0
102
RTVSPost2010Prop30
280
     1
102
RTVSPost2010PropOp30
 70
     0
102
RTVSPost2010Prop31
280
     0
102
RTVSPost2010PropOp31
 70
     0
102
RTVSPost2010Prop32
280
     0
102
RTVSPost2010PropOp32
 70
     0
102
RTVSPost2010Prop33
280
     0
102
RTVSPost2010PropOp33
 70
     0
102
RTVSPost2010Prop34
280
     0
102
RTVSPost2010PropOp34
 70
     0
102
RTVSPost2010Prop35
280
     0
102
RTVSPost2010PropOp35
 70
     0
102
RTVSPost2010Prop36
280
     0
102
RTVSPost2010PropOp36
 70
     0
102
RTVSPost2010Prop37
 90
       50
102
RTVSPost2010PropOp37
 70
     0
102
RTVSPost2010Prop38
140
0.0
102
RTVSPost2010PropOp38
 70
     0
102
RTVSPost2010Prop39
140
1.0
102
RTVSPost2010PropOp39
 70
     0
102
RTVSPost2010Prop40
 90
        0
102
RTVSPost2010PropOp40
 70
     0
102
RTVSPost2010Prop41ColorIndex
 90
       18
102
RTVSPost2010Prop41ColorRGB
 90
        0
102
RTVSPost2010PropOp41
 70
     0
102
RTVSPost2010Prop42
 90
       50
102
RTVSPost2010PropOp42
 70
     0
102
RTVSPost2010Prop43
 90
        3
102
RTVSPost2010PropOp43
 70
     0
102
RTVSPost2010Prop44ColorIndex
 90
        5
102
RTVSPost2010Prop44ColorRGB
 90
      255
102
RTVSPost2010PropOp44
 70
     0
102
RTVSPost2010Prop45
280
     0
102
RTVSPost2010PropOp45
 70
     0
102
RTVSPost2010Prop46
 90
       50
102
RTVSPost2010PropOp46
 70
     0
102
RTVSPost2010Prop47
 90
       50
102
RTVSPost2010PropOp47
 70
     0
102
RTVSPost2010Prop48
 90
       50
102
RTVSPost2010PropOp48
 70
     0
102
RTVSPost2010Prop49
280
     0
102
RTVSPost2010PropOp49
 70
     0
102
RTVSPost2010Prop50
 90
       50
102
RTVSPost2010PropOp50
 70
     0
102
RTVSPost2010Prop51ColorIndex
 90
      256
102
RTVSPost2010Prop51ColorRGB
 90
-16777216
102
RTVSPost2010PropOp51
 70
     0
102
RTVSPost2010Prop52
140
1.0
102
RTVSPost2010PropOp52
 70
     0
102
RTVSPost2010Prop53
 90
        2
102
RTVSPost2010PropOp53
 70
     0
102
RTVSPost2010Prop54
  1
strokes_ogs.tif
102
RTVSPost2010PropOp54
 70
     0
102
RTVSPost2010Prop55
280
     0
102
RTVSPost2010PropOp55
 70
     0
102
RTVSPost2010Prop56
140
1.0
102
RTVSPost2010PropOp56
 70
     0
102
RTVSPost2010Prop57
140
1.0
102
RTVSPost2010PropOp57
 70
     0
  0
XRECORD
  5
A5F
102
{ACAD_REACTORS
330
A5E
102
}
330
A5E
100
AcDbXrecord
280
     1
102
RTVSPost2010Prop28
280
     0
102
RTVSPost2010PropOp28
 70
     1
102
RTVSPost2010Prop29
280
     1
102
RTVSPost2010PropOp29
 70
     1
102
RTVSPost2010Prop30
280
     1
102
RTVSPost2010PropOp30
 70
     1
102
RTVSPost2010Prop31
280
     0
102
RTVSPost2010PropOp31
 70
     1
102
RTVSPost2010Prop32
280
     0
102
RTVSPost2010PropOp32
 70
     1
102
RTVSPost2010Prop33
280
     0
102
RTVSPost2010PropOp33
 70
     1
102
RTVSPost2010Prop34
280
     0
102
RTVSPost2010PropOp34
 70
     1
102
RTVSPost2010Prop35
280
     0
102
RTVSPost2010PropOp35
 70
     1
102
RTVSPost2010Prop36
280
     0
102
RTVSPost2010PropOp36
 70
     1
102
RTVSPost2010Prop37
 90
       50
102
RTVSPost2010PropOp37
 70
     1
102
RTVSPost2010Prop38
140
0.0
102
RTVSPost2010PropOp38
 70
     1
102
RTVSPost2010Prop39
140
1.0
102
RTVSPost2010PropOp39
 70
     1
102
RTVSPost2010Prop40
 90
        0
102
RTVSPost2010PropOp40
 70
     1
102
RTVSPost2010Prop41ColorIndex
 90
       18
102
RTVSPost2010Prop41ColorRGB
 90
        0
102
RTVSPost2010PropOp41
 70
     1
102
RTVSPost2010Prop42
 90
       50
102
RTVSPost2010PropOp42
 70
     1
102
RTVSPost2010Prop43
 90
        3
102
RTVSPost2010PropOp43
 70
     1
102
RTVSPost2010Prop44ColorIndex
 90
        5
102
RTVSPost2010Prop44ColorRGB
 90
      255
102
RTVSPost2010PropOp44
 70
     1
102
RTVSPost2010Prop45
280
     0
102
RTVSPost2010PropOp45
 70
     1
102
RTVSPost2010Prop46
 90
       50
102
RTVSPost2010PropOp46
 70
     1
102
RTVSPost2010Prop47
 90
       50
102
RTVSPost2010PropOp47
 70
     1
102
RTVSPost2010Prop48
 90
       50
102
RTVSPost2010PropOp48
 70
     1
102
RTVSPost2010Prop49
280
     0
102
RTVSPost2010PropOp49
 70
     1
102
RTVSPost2010Prop50
 90
       50
102
RTVSPost2010PropOp50
 70
     1
102
RTVSPost2010Prop51ColorIndex
 90
      256
102
RTVSPost2010Prop51ColorRGB
 90
-16777216
102
RTVSPost2010PropOp51
 70
     0
102
RTVSPost2010Prop52
140
1.0
102
RTVSPost2010PropOp52
 70
     0
102
RTVSPost2010Prop53
 90
        2
102
RTVSPost2010PropOp53
 70
     1
102
RTVSPost2010Prop54
  1
strokes_ogs.tif
102
RTVSPost2010PropOp54
 70
     1
102
RTVSPost2010Prop55
280
     0
102
RTVSPost2010PropOp55
 70
     1
102
RTVSPost2010Prop56
140
1.0
102
RTVSPost2010PropOp56
 70
     1
102
RTVSPost2010Prop57
140
1.0
102
RTVSPost2010PropOp57
 70
     1
  0
XRECORD
  5
A43
102
{ACAD_REACTORS
330
A42
102
}
330
A42
100
AcDbXrecord
280
     1
102
RTVSPost2010Prop28
280
     0
102
RTVSPost2010PropOp28
 70
     1
102
RTVSPost2010Prop29
280
     1
102
RTVSPost2010PropOp29
 70
     1
102
RTVSPost2010Prop30
280
     1
102
RTVSPost2010PropOp30
 70
     1
102
RTVSPost2010Prop31
280
     0
102
RTVSPost2010PropOp31
 70
     1
102
RTVSPost2010Prop32
280
     0
102
RTVSPost2010PropOp32
 70
     1
102
RTVSPost2010Prop33
280
     0
102
RTVSPost2010PropOp33
 70
     1
102
RTVSPost2010Prop34
280
     0
102
RTVSPost2010PropOp34
 70
     1
102
RTVSPost2010Prop35
280
     0
102
RTVSPost2010PropOp35
 70
     1
102
RTVSPost2010Prop36
280
     0
102
RTVSPost2010PropOp36
 70
     1
102
RTVSPost2010Prop37
 90
       50
102
RTVSPost2010PropOp37
 70
     1
102
RTVSPost2010Prop38
140
0.0
102
RTVSPost2010PropOp38
 70
     1
102
RTVSPost2010Prop39
140
1.0
102
RTVSPost2010PropOp39
 70
     1
102
RTVSPost2010Prop40
 90
        0
102
RTVSPost2010PropOp40
 70
     1
102
RTVSPost2010Prop41ColorIndex
 90
       18
102
RTVSPost2010Prop41ColorRGB
 90
        0
102
RTVSPost2010PropOp41
 70
     1
102
RTVSPost2010Prop42
 90
       50
102
RTVSPost2010PropOp42
 70
     1
102
RTVSPost2010Prop43
 90
        3
102
RTVSPost2010PropOp43
 70
     1
102
RTVSPost2010Prop44ColorIndex
 90
        5
102
RTVSPost2010Prop44ColorRGB
 90
      255
102
RTVSPost2010PropOp44
 70
     1
102
RTVSPost2010Prop45
280
     0
102
RTVSPost2010PropOp45
 70
     1
102
RTVSPost2010Prop46
 90
       50
102
RTVSPost2010PropOp46
 70
     1
102
RTVSPost2010Prop47
 90
       50
102
RTVSPost2010PropOp47
 70
     1
102
RTVSPost2010Prop48
 90
       50
102
RTVSPost2010PropOp48
 70
     1
102
RTVSPost2010Prop49
280
     0
102
RTVSPost2010PropOp49
 70
     1
102
RTVSPost2010Prop50
 90
       50
102
RTVSPost2010PropOp50
 70
     1
102
RTVSPost2010Prop51ColorIndex
 90
      256
102
RTVSPost2010Prop51ColorRGB
 90
-16777216
102
RTVSPost2010PropOp51
 70
     0
102
RTVSPost2010Prop52
140
1.0
102
RTVSPost2010PropOp52
 70
     0
102
RTVSPost2010Prop53
 90
        2
102
RTVSPost2010PropOp53
 70
     1
102
RTVSPost2010Prop54
  1
strokes_ogs.tif
102
RTVSPost2010PropOp54
 70
     1
102
RTVSPost2010Prop55
280
     0
102
RTVSPost2010PropOp55
 70
     1
102
RTVSPost2010Prop56
140
1.0
102
RTVSPost2010PropOp56
 70
     1
102
RTVSPost2010Prop57
140
1.0
102
RTVSPost2010PropOp57
 70
     1
  0
XRECORD
  5
A45
102
{ACAD_REACTORS
330
A44
102
}
330
A44
100
AcDbXrecord
280
     1
102
RTVSPost2010Prop28
280
     0
102
RTVSPost2010PropOp28
 70
     1
102
RTVSPost2010Prop29
280
     1
102
RTVSPost2010PropOp29
 70
     1
102
RTVSPost2010Prop30
280
     1
102
RTVSPost2010PropOp30
 70
     1
102
RTVSPost2010Prop31
280
     0
102
RTVSPost2010PropOp31
 70
     1
102
RTVSPost2010Prop32
280
     0
102
RTVSPost2010PropOp32
 70
     1
102
RTVSPost2010Prop33
280
     0
102
RTVSPost2010PropOp33
 70
     1
102
RTVSPost2010Prop34
280
     0
102
RTVSPost2010PropOp34
 70
     1
102
RTVSPost2010Prop35
280
     0
102
RTVSPost2010PropOp35
 70
     1
102
RTVSPost2010Prop36
280
     0
102
RTVSPost2010PropOp36
 70
     1
102
RTVSPost2010Prop37
 90
       50
102
RTVSPost2010PropOp37
 70
     1
102
RTVSPost2010Prop38
140
0.0
102
RTVSPost2010PropOp38
 70
     1
102
RTVSPost2010Prop39
140
1.0
102
RTVSPost2010PropOp39
 70
     1
102
RTVSPost2010Prop40
 90
        0
102
RTVSPost2010PropOp40
 70
     1
102
RTVSPost2010Prop41ColorIndex
 90
       18
102
RTVSPost2010Prop41ColorRGB
 90
        0
102
RTVSPost2010PropOp41
 70
     1
102
RTVSPost2010Prop42
 90
       50
102
RTVSPost2010PropOp42
 70
     1
102
RTVSPost2010Prop43
 90
        3
102
RTVSPost2010PropOp43
 70
     1
102
RTVSPost2010Prop44ColorIndex
 90
        5
102
RTVSPost2010Prop44ColorRGB
 90
      255
102
RTVSPost2010PropOp44
 70
     1
102
RTVSPost2010Prop45
280
     0
102
RTVSPost2010PropOp45
 70
     1
102
RTVSPost2010Prop46
 90
       50
102
RTVSPost2010PropOp46
 70
     1
102
RTVSPost2010Prop47
 90
       50
102
RTVSPost2010PropOp47
 70
     1
102
RTVSPost2010Prop48
 90
       50
102
RTVSPost2010PropOp48
 70
     1
102
RTVSPost2010Prop49
280
     0
102
RTVSPost2010PropOp49
 70
     1
102
RTVSPost2010Prop50
 90
       50
102
RTVSPost2010PropOp50
 70
     1
102
RTVSPost2010Prop51ColorIndex
 90
      256
102
RTVSPost2010Prop51ColorRGB
 90
-16777216
102
RTVSPost2010PropOp51
 70
     0
102
RTVSPost2010Prop52
140
1.0
102
RTVSPost2010PropOp52
 70
     0
102
RTVSPost2010Prop53
 90
        2
102
RTVSPost2010PropOp53
 70
     1
102
RTVSPost2010Prop54
  1
strokes_ogs.tif
102
RTVSPost2010PropOp54
 70
     1
102
RTVSPost2010Prop55
280
     0
102
RTVSPost2010PropOp55
 70
     1
102
RTVSPost2010Prop56
140
1.0
102
RTVSPost2010PropOp56
 70
     1
102
RTVSPost2010Prop57
140
1.0
102
RTVSPost2010PropOp57
 70
     1
  0
XRECORD
  5
A47
102
{ACAD_REACTORS
330
A46
102
}
330
A46
100
AcDbXrecord
280
     1
102
RTVSPost2010Prop28
280
     0
102
RTVSPost2010PropOp28
 70
     1
102
RTVSPost2010Prop29
280
     1
102
RTVSPost2010PropOp29
 70
     1
102
RTVSPost2010Prop30
280
     1
102
RTVSPost2010PropOp30
 70
     1
102
RTVSPost2010Prop31
280
     0
102
RTVSPost2010PropOp31
 70
     1
102
RTVSPost2010Prop32
280
     0
102
RTVSPost2010PropOp32
 70
     1
102
RTVSPost2010Prop33
280
     0
102
RTVSPost2010PropOp33
 70
     1
102
RTVSPost2010Prop34
280
     0
102
RTVSPost2010PropOp34
 70
     1
102
RTVSPost2010Prop35
280
     0
102
RTVSPost2010PropOp35
 70
     1
102
RTVSPost2010Prop36
280
     0
102
RTVSPost2010PropOp36
 70
     1
102
RTVSPost2010Prop37
 90
       50
102
RTVSPost2010PropOp37
 70
     1
102
RTVSPost2010Prop38
140
0.0
102
RTVSPost2010PropOp38
 70
     1
102
RTVSPost2010Prop39
140
1.0
102
RTVSPost2010PropOp39
 70
     1
102
RTVSPost2010Prop40
 90
        0
102
RTVSPost2010PropOp40
 70
     1
102
RTVSPost2010Prop41ColorIndex
 90
       18
102
RTVSPost2010Prop41ColorRGB
 90
        0
102
RTVSPost2010PropOp41
 70
     1
102
RTVSPost2010Prop42
 90
       50
102
RTVSPost2010PropOp42
 70
     1
102
RTVSPost2010Prop43
 90
        3
102
RTVSPost2010PropOp43
 70
     1
102
RTVSPost2010Prop44ColorIndex
 90
        5
102
RTVSPost2010Prop44ColorRGB
 90
      255
102
RTVSPost2010PropOp44
 70
     1
102
RTVSPost2010Prop45
280
     0
102
RTVSPost2010PropOp45
 70
     1
102
RTVSPost2010Prop46
 90
       50
102
RTVSPost2010PropOp46
 70
     1
102
RTVSPost2010Prop47
 90
       50
102
RTVSPost2010PropOp47
 70
     1
102
RTVSPost2010Prop48
 90
       50
102
RTVSPost2010PropOp48
 70
     1
102
RTVSPost2010Prop49
280
     0
102
RTVSPost2010PropOp49
 70
     1
102
RTVSPost2010Prop50
 90
       50
102
RTVSPost2010PropOp50
 70
     1
102
RTVSPost2010Prop51ColorIndex
 90
      256
102
RTVSPost2010Prop51ColorRGB
 90
-16777216
102
RTVSPost2010PropOp51
 70
     0
102
RTVSPost2010Prop52
140
1.0
102
RTVSPost2010PropOp52
 70
     0
102
RTVSPost2010Prop53
 90
        2
102
RTVSPost2010PropOp53
 70
     1
102
RTVSPost2010Prop54
  1
strokes_ogs.tif
102
RTVSPost2010PropOp54
 70
     1
102
RTVSPost2010Prop55
280
     0
102
RTVSPost2010PropOp55
 70
     1
102
RTVSPost2010Prop56
140
1.0
102
RTVSPost2010PropOp56
 70
     1
102
RTVSPost2010Prop57
140
1.0
102
RTVSPost2010PropOp57
 70
     1
  0
XRECORD
  5
A49
102
{ACAD_REACTORS
330
A48
102
}
330
A48
100
AcDbXrecord
280
     1
102
RTVSPost2010Prop28
280
     0
102
RTVSPost2010PropOp28
 70
     1
102
RTVSPost2010Prop29
280
     1
102
RTVSPost2010PropOp29
 70
     1
102
RTVSPost2010Prop30
280
     1
102
RTVSPost2010PropOp30
 70
     1
102
RTVSPost2010Prop31
280
     0
102
RTVSPost2010PropOp31
 70
     1
102
RTVSPost2010Prop32
280
     0
102
RTVSPost2010PropOp32
 70
     1
102
RTVSPost2010Prop33
280
     0
102
RTVSPost2010PropOp33
 70
     1
102
RTVSPost2010Prop34
280
     0
102
RTVSPost2010PropOp34
 70
     1
102
RTVSPost2010Prop35
280
     0
102
RTVSPost2010PropOp35
 70
     1
102
RTVSPost2010Prop36
280
     0
102
RTVSPost2010PropOp36
 70
     1
102
RTVSPost2010Prop37
 90
       50
102
RTVSPost2010PropOp37
 70
     1
102
RTVSPost2010Prop38
140
0.0
102
RTVSPost2010PropOp38
 70
     1
102
RTVSPost2010Prop39
140
1.0
102
RTVSPost2010PropOp39
 70
     1
102
RTVSPost2010Prop40
 90
        0
102
RTVSPost2010PropOp40
 70
     1
102
RTVSPost2010Prop41ColorIndex
 90
       18
102
RTVSPost2010Prop41ColorRGB
 90
        0
102
RTVSPost2010PropOp41
 70
     1
102
RTVSPost2010Prop42
 90
       50
102
RTVSPost2010PropOp42
 70
     1
102
RTVSPost2010Prop43
 90
        3
102
RTVSPost2010PropOp43
 70
     1
102
RTVSPost2010Prop44ColorIndex
 90
        5
102
RTVSPost2010Prop44ColorRGB
 90
      255
102
RTVSPost2010PropOp44
 70
     1
102
RTVSPost2010Prop45
280
     0
102
RTVSPost2010PropOp45
 70
     1
102
RTVSPost2010Prop46
 90
       50
102
RTVSPost2010PropOp46
 70
     1
102
RTVSPost2010Prop47
 90
       50
102
RTVSPost2010PropOp47
 70
     1
102
RTVSPost2010Prop48
 90
       50
102
RTVSPost2010PropOp48
 70
     1
102
RTVSPost2010Prop49
280
     0
102
RTVSPost2010PropOp49
 70
     1
102
RTVSPost2010Prop50
 90
       50
102
RTVSPost2010PropOp50
 70
     1
102
RTVSPost2010Prop51ColorIndex
 90
      256
102
RTVSPost2010Prop51ColorRGB
 90
-16777216
102
RTVSPost2010PropOp51
 70
     0
102
RTVSPost2010Prop52
140
1.0
102
RTVSPost2010PropOp52
 70
     0
102
RTVSPost2010Prop53
 90
        2
102
RTVSPost2010PropOp53
 70
     1
102
RTVSPost2010Prop54
  1
strokes_ogs.tif
102
RTVSPost2010PropOp54
 70
     1
102
RTVSPost2010Prop55
280
     0
102
RTVSPost2010PropOp55
 70
     1
102
RTVSPost2010Prop56
140
1.0
102
RTVSPost2010PropOp56
 70
     1
102
RTVSPost2010Prop57
140
1.0
102
RTVSPost2010PropOp57
 70
     1
  0
XRECORD
  5
A51
102
{ACAD_REACTORS
330
A50
102
}
330
A50
100
AcDbXrecord
280
     1
102
RTVSPost2010Prop28
280
     0
102
RTVSPost2010PropOp28
 70
     1
102
RTVSPost2010Prop29
280
     1
102
RTVSPost2010PropOp29
 70
     1
102
RTVSPost2010Prop30
280
     1
102
RTVSPost2010PropOp30
 70
     1
102
RTVSPost2010Prop31
280
     0
102
RTVSPost2010PropOp31
 70
     1
102
RTVSPost2010Prop32
280
     0
102
RTVSPost2010PropOp32
 70
     1
102
RTVSPost2010Prop33
280
     0
102
RTVSPost2010PropOp33
 70
     1
102
RTVSPost2010Prop34
280
     0
102
RTVSPost2010PropOp34
 70
     1
102
RTVSPost2010Prop35
280
     0
102
RTVSPost2010PropOp35
 70
     1
102
RTVSPost2010Prop36
280
     0
102
RTVSPost2010PropOp36
 70
     1
102
RTVSPost2010Prop37
 90
       50
102
RTVSPost2010PropOp37
 70
     1
102
RTVSPost2010Prop38
140
0.0
102
RTVSPost2010PropOp38
 70
     1
102
RTVSPost2010Prop39
140
1.0
102
RTVSPost2010PropOp39
 70
     1
102
RTVSPost2010Prop40
 90
        0
102
RTVSPost2010PropOp40
 70
     1
102
RTVSPost2010Prop41ColorIndex
 90
       18
102
RTVSPost2010Prop41ColorRGB
 90
        0
102
RTVSPost2010PropOp41
 70
     1
102
RTVSPost2010Prop42
 90
       50
102
RTVSPost2010PropOp42
 70
     1
102
RTVSPost2010Prop43
 90
        3
102
RTVSPost2010PropOp43
 70
     1
102
RTVSPost2010Prop44ColorIndex
 90
        5
102
RTVSPost2010Prop44ColorRGB
 90
      255
102
RTVSPost2010PropOp44
 70
     1
102
RTVSPost2010Prop45
280
     0
102
RTVSPost2010PropOp45
 70
     1
102
RTVSPost2010Prop46
 90
       50
102
RTVSPost2010PropOp46
 70
     1
102
RTVSPost2010Prop47
 90
       50
102
RTVSPost2010PropOp47
 70
     1
102
RTVSPost2010Prop48
 90
       50
102
RTVSPost2010PropOp48
 70
     1
102
RTVSPost2010Prop49
280
     0
102
RTVSPost2010PropOp49
 70
     1
102
RTVSPost2010Prop50
 90
       50
102
RTVSPost2010PropOp50
 70
     1
102
RTVSPost2010Prop51ColorIndex
 90
      256
102
RTVSPost2010Prop51ColorRGB
 90
-16777216
102
RTVSPost2010PropOp51
 70
     0
102
RTVSPost2010Prop52
140
1.0
102
RTVSPost2010PropOp52
 70
     0
102
RTVSPost2010Prop53
 90
        2
102
RTVSPost2010PropOp53
 70
     1
102
RTVSPost2010Prop54
  1
strokes_ogs.tif
102
RTVSPost2010PropOp54
 70
     1
102
RTVSPost2010Prop55
280
     0
102
RTVSPost2010PropOp55
 70
     1
102
RTVSPost2010Prop56
140
1.0
102
RTVSPost2010PropOp56
 70
     1
102
RTVSPost2010Prop57
140
1.0
102
RTVSPost2010PropOp57
 70
     1
  0
XRECORD
  5
A6D
102
{ACAD_REACTORS
330
A6C
102
}
330
A6C
100
AcDbXrecord
280
     1
102
RTVSPost2010Prop28
280
     0
102
RTVSPost2010PropOp28
 70
     0
102
RTVSPost2010Prop29
280
     1
102
RTVSPost2010PropOp29
 70
     0
102
RTVSPost2010Prop30
280
     1
102
RTVSPost2010PropOp30
 70
     0
102
RTVSPost2010Prop31
280
     0
102
RTVSPost2010PropOp31
 70
     0
102
RTVSPost2010Prop32
280
     0
102
RTVSPost2010PropOp32
 70
     0
102
RTVSPost2010Prop33
280
     0
102
RTVSPost2010PropOp33
 70
     0
102
RTVSPost2010Prop34
280
     0
102
RTVSPost2010PropOp34
 70
     0
102
RTVSPost2010Prop35
280
     0
102
RTVSPost2010PropOp35
 70
     0
102
RTVSPost2010Prop36
280
     0
102
RTVSPost2010PropOp36
 70
     0
102
RTVSPost2010Prop37
 90
       50
102
RTVSPost2010PropOp37
 70
     0
102
RTVSPost2010Prop38
140
0.0
102
RTVSPost2010PropOp38
 70
     0
102
RTVSPost2010Prop39
140
1.0
102
RTVSPost2010PropOp39
 70
     0
102
RTVSPost2010Prop40
 90
        0
102
RTVSPost2010PropOp40
 70
     0
102
RTVSPost2010Prop41ColorIndex
 90
       18
102
RTVSPost2010Prop41ColorRGB
 90
        0
102
RTVSPost2010PropOp41
 70
     0
102
RTVSPost2010Prop42
 90
       50
102
RTVSPost2010PropOp42
 70
     0
102
RTVSPost2010Prop43
 90
        3
102
RTVSPost2010PropOp43
 70
     0
102
RTVSPost2010Prop44ColorIndex
 90
        5
102
RTVSPost2010Prop44ColorRGB
 90
      255
102
RTVSPost2010PropOp44
 70
     0
102
RTVSPost2010Prop45
280
     0
102
RTVSPost2010PropOp45
 70
     0
102
RTVSPost2010Prop46
 90
       50
102
RTVSPost2010PropOp46
 70
     0
102
RTVSPost2010Prop47
 90
       50
102
RTVSPost2010PropOp47
 70
     0
102
RTVSPost2010Prop48
 90
       50
102
RTVSPost2010PropOp48
 70
     0
102
RTVSPost2010Prop49
280
     0
102
RTVSPost2010PropOp49
 70
     0
102
RTVSPost2010Prop50
 90
       50
102
RTVSPost2010PropOp50
 70
     0
102
RTVSPost2010Prop51ColorIndex
 90
      256
102
RTVSPost2010Prop51ColorRGB
 90
-16777216
102
RTVSPost2010PropOp51
 70
     0
102
RTVSPost2010Prop52
140
1.0
102
RTVSPost2010PropOp52
 70
     0
102
RTVSPost2010Prop53
 90
        2
102
RTVSPost2010PropOp53
 70
     0
102
RTVSPost2010Prop54
  1
strokes_ogs.tif
102
RTVSPost2010PropOp54
 70
     0
102
RTVSPost2010Prop55
280
     0
102
RTVSPost2010PropOp55
 70
     0
102
RTVSPost2010Prop56
140
1.0
102
RTVSPost2010PropOp56
 70
     0
102
RTVSPost2010Prop57
140
1.0
102
RTVSPost2010PropOp57
 70
     0
  0
XRECORD
  5
A5D
102
{ACAD_REACTORS
330
A5C
102
}
330
A5C
100
AcDbXrecord
280
     1
102
RTVSPost2010Prop28
280
     0
102
RTVSPost2010PropOp28
 70
     1
102
RTVSPost2010Prop29
280
     1
102
RTVSPost2010PropOp29
 70
     1
102
RTVSPost2010Prop30
280
     1
102
RTVSPost2010PropOp30
 70
     1
102
RTVSPost2010Prop31
280
     0
102
RTVSPost2010PropOp31
 70
     1
102
RTVSPost2010Prop32
280
     0
102
RTVSPost2010PropOp32
 70
     1
102
RTVSPost2010Prop33
280
     0
102
RTVSPost2010PropOp33
 70
     1
102
RTVSPost2010Prop34
280
     0
102
RTVSPost2010PropOp34
 70
     1
102
RTVSPost2010Prop35
280
     0
102
RTVSPost2010PropOp35
 70
     1
102
RTVSPost2010Prop36
280
     0
102
RTVSPost2010PropOp36
 70
     1
102
RTVSPost2010Prop37
 90
       50
102
RTVSPost2010PropOp37
 70
     1
102
RTVSPost2010Prop38
140
0.0
102
RTVSPost2010PropOp38
 70
     1
102
RTVSPost2010Prop39
140
1.0
102
RTVSPost2010PropOp39
 70
     1
102
RTVSPost2010Prop40
 90
        0
102
RTVSPost2010PropOp40
 70
     1
102
RTVSPost2010Prop41ColorIndex
 90
       18
102
RTVSPost2010Prop41ColorRGB
 90
        0
102
RTVSPost2010PropOp41
 70
     1
102
RTVSPost2010Prop42
 90
       50
102
RTVSPost2010PropOp42
 70
     1
102
RTVSPost2010Prop43
 90
        3
102
RTVSPost2010PropOp43
 70
     1
102
RTVSPost2010Prop44ColorIndex
 90
        5
102
RTVSPost2010Prop44ColorRGB
 90
      255
102
RTVSPost2010PropOp44
 70
     1
102
RTVSPost2010Prop45
280
     0
102
RTVSPost2010PropOp45
 70
     1
102
RTVSPost2010Prop46
 90
       50
102
RTVSPost2010PropOp46
 70
     1
102
RTVSPost2010Prop47
 90
       50
102
RTVSPost2010PropOp47
 70
     1
102
RTVSPost2010Prop48
 90
       50
102
RTVSPost2010PropOp48
 70
     1
102
RTVSPost2010Prop49
280
     0
102
RTVSPost2010PropOp49
 70
     1
102
RTVSPost2010Prop50
 90
       50
102
RTVSPost2010PropOp50
 70
     1
102
RTVSPost2010Prop51ColorIndex
 90
      256
102
RTVSPost2010Prop51ColorRGB
 90
-16777216
102
RTVSPost2010PropOp51
 70
     0
102
RTVSPost2010Prop52
140
1.0
102
RTVSPost2010PropOp52
 70
     0
102
RTVSPost2010Prop53
 90
        2
102
RTVSPost2010PropOp53
 70
     1
102
RTVSPost2010Prop54
  1
strokes_ogs.tif
102
RTVSPost2010PropOp54
 70
     1
102
RTVSPost2010Prop55
280
     0
102
RTVSPost2010PropOp55
 70
     1
102
RTVSPost2010Prop56
140
1.0
102
RTVSPost2010PropOp56
 70
     1
102
RTVSPost2010Prop57
140
1.0
102
RTVSPost2010PropOp57
 70
     1
  0
XRECORD
  5
A6F
102
{ACAD_REACTORS
330
A6E
102
}
330
A6E
100
AcDbXrecord
280
     1
102
RTVSPost2010Prop28
280
     0
102
RTVSPost2010PropOp28
 70
     0
102
RTVSPost2010Prop29
280
     1
102
RTVSPost2010PropOp29
 70
     0
102
RTVSPost2010Prop30
280
     1
102
RTVSPost2010PropOp30
 70
     0
102
RTVSPost2010Prop31
280
     0
102
RTVSPost2010PropOp31
 70
     0
102
RTVSPost2010Prop32
280
     0
102
RTVSPost2010PropOp32
 70
     0
102
RTVSPost2010Prop33
280
     0
102
RTVSPost2010PropOp33
 70
     0
102
RTVSPost2010Prop34
280
     0
102
RTVSPost2010PropOp34
 70
     0
102
RTVSPost2010Prop35
280
     0
102
RTVSPost2010PropOp35
 70
     0
102
RTVSPost2010Prop36
280
     0
102
RTVSPost2010PropOp36
 70
     0
102
RTVSPost2010Prop37
 90
       50
102
RTVSPost2010PropOp37
 70
     0
102
RTVSPost2010Prop38
140
0.0
102
RTVSPost2010PropOp38
 70
     0
102
RTVSPost2010Prop39
140
1.0
102
RTVSPost2010PropOp39
 70
     0
102
RTVSPost2010Prop40
 90
        0
102
RTVSPost2010PropOp40
 70
     0
102
RTVSPost2010Prop41ColorIndex
 90
       18
102
RTVSPost2010Prop41ColorRGB
 90
        0
102
RTVSPost2010PropOp41
 70
     0
102
RTVSPost2010Prop42
 90
       50
102
RTVSPost2010PropOp42
 70
     0
102
RTVSPost2010Prop43
 90
        3
102
RTVSPost2010PropOp43
 70
     0
102
RTVSPost2010Prop44ColorIndex
 90
        5
102
RTVSPost2010Prop44ColorRGB
 90
      255
102
RTVSPost2010PropOp44
 70
     0
102
RTVSPost2010Prop45
280
     0
102
RTVSPost2010PropOp45
 70
     0
102
RTVSPost2010Prop46
 90
       50
102
RTVSPost2010PropOp46
 70
     0
102
RTVSPost2010Prop47
 90
       50
102
RTVSPost2010PropOp47
 70
     0
102
RTVSPost2010Prop48
 90
       50
102
RTVSPost2010PropOp48
 70
     0
102
RTVSPost2010Prop49
280
     0
102
RTVSPost2010PropOp49
 70
     0
102
RTVSPost2010Prop50
 90
       50
102
RTVSPost2010PropOp50
 70
     0
102
RTVSPost2010Prop51ColorIndex
 90
      256
102
RTVSPost2010Prop51ColorRGB
 90
-16777216
102
RTVSPost2010PropOp51
 70
     0
102
RTVSPost2010Prop52
140
1.0
102
RTVSPost2010PropOp52
 70
     0
102
RTVSPost2010Prop53
 90
        2
102
RTVSPost2010PropOp53
 70
     0
102
RTVSPost2010Prop54
  1
strokes_ogs.tif
102
RTVSPost2010PropOp54
 70
     0
102
RTVSPost2010Prop55
280
     0
102
RTVSPost2010PropOp55
 70
     0
102
RTVSPost2010Prop56
140
1.0
102
RTVSPost2010PropOp56
 70
     0
102
RTVSPost2010Prop57
140
1.0
102
RTVSPost2010PropOp57
 70
     0
  0
XRECORD
  5
A55
102
{ACAD_REACTORS
330
A54
102
}
330
A54
100
AcDbXrecord
280
     1
102
RTVSPost2010Prop28
280
     0
102
RTVSPost2010PropOp28
 70
     1
102
RTVSPost2010Prop29
280
     1
102
RTVSPost2010PropOp29
 70
     1
102
RTVSPost2010Prop30
280
     1
102
RTVSPost2010PropOp30
 70
     1
102
RTVSPost2010Prop31
280
     0
102
RTVSPost2010PropOp31
 70
     1
102
RTVSPost2010Prop32
280
     0
102
RTVSPost2010PropOp32
 70
     1
102
RTVSPost2010Prop33
280
     0
102
RTVSPost2010PropOp33
 70
     1
102
RTVSPost2010Prop34
280
     0
102
RTVSPost2010PropOp34
 70
     1
102
RTVSPost2010Prop35
280
     0
102
RTVSPost2010PropOp35
 70
     1
102
RTVSPost2010Prop36
280
     0
102
RTVSPost2010PropOp36
 70
     1
102
RTVSPost2010Prop37
 90
       50
102
RTVSPost2010PropOp37
 70
     1
102
RTVSPost2010Prop38
140
0.0
102
RTVSPost2010PropOp38
 70
     1
102
RTVSPost2010Prop39
140
1.0
102
RTVSPost2010PropOp39
 70
     1
102
RTVSPost2010Prop40
 90
        0
102
RTVSPost2010PropOp40
 70
     1
102
RTVSPost2010Prop41ColorIndex
 90
       18
102
RTVSPost2010Prop41ColorRGB
 90
        0
102
RTVSPost2010PropOp41
 70
     1
102
RTVSPost2010Prop42
 90
       50
102
RTVSPost2010PropOp42
 70
     1
102
RTVSPost2010Prop43
 90
        3
102
RTVSPost2010PropOp43
 70
     1
102
RTVSPost2010Prop44ColorIndex
 90
        5
102
RTVSPost2010Prop44ColorRGB
 90
      255
102
RTVSPost2010PropOp44
 70
     1
102
RTVSPost2010Prop45
280
     0
102
RTVSPost2010PropOp45
 70
     1
102
RTVSPost2010Prop46
 90
       50
102
RTVSPost2010PropOp46
 70
     1
102
RTVSPost2010Prop47
 90
       50
102
RTVSPost2010PropOp47
 70
     1
102
RTVSPost2010Prop48
 90
       50
102
RTVSPost2010PropOp48
 70
     1
102
RTVSPost2010Prop49
280
     0
102
RTVSPost2010PropOp49
 70
     1
102
RTVSPost2010Prop50
 90
       50
102
RTVSPost2010PropOp50
 70
     1
102
RTVSPost2010Prop51ColorIndex
 90
      256
102
RTVSPost2010Prop51ColorRGB
 90
-16777216
102
RTVSPost2010PropOp51
 70
     0
102
RTVSPost2010Prop52
140
1.0
102
RTVSPost2010PropOp52
 70
     0
102
RTVSPost2010Prop53
 90
        2
102
RTVSPost2010PropOp53
 70
     1
102
RTVSPost2010Prop54
  1
strokes_ogs.tif
102
RTVSPost2010PropOp54
 70
     1
102
RTVSPost2010Prop55
280
     0
102
RTVSPost2010PropOp55
 70
     1
102
RTVSPost2010Prop56
140
1.0
102
RTVSPost2010PropOp56
 70
     1
102
RTVSPost2010Prop57
140
1.0
102
RTVSPost2010PropOp57
 70
     1
  0
XRECORD
  5
A6B
102
{ACAD_REACTORS
330
A6A
102
}
330
A6A
100
AcDbXrecord
280
     1
102
RTVSPost2010Prop28
280
     0
102
RTVSPost2010PropOp28
 70
     1
102
RTVSPost2010Prop29
280
     1
102
RTVSPost2010PropOp29
 70
     1
102
RTVSPost2010Prop30
280
     1
102
RTVSPost2010PropOp30
 70
     1
102
RTVSPost2010Prop31
280
     0
102
RTVSPost2010PropOp31
 70
     1
102
RTVSPost2010Prop32
280
     0
102
RTVSPost2010PropOp32
 70
     1
102
RTVSPost2010Prop33
280
     0
102
RTVSPost2010PropOp33
 70
     1
102
RTVSPost2010Prop34
280
     0
102
RTVSPost2010PropOp34
 70
     1
102
RTVSPost2010Prop35
280
     0
102
RTVSPost2010PropOp35
 70
     1
102
RTVSPost2010Prop36
280
     0
102
RTVSPost2010PropOp36
 70
     1
102
RTVSPost2010Prop37
 90
       50
102
RTVSPost2010PropOp37
 70
     1
102
RTVSPost2010Prop38
140
0.0
102
RTVSPost2010PropOp38
 70
     1
102
RTVSPost2010Prop39
140
1.0
102
RTVSPost2010PropOp39
 70
     1
102
RTVSPost2010Prop40
 90
        0
102
RTVSPost2010PropOp40
 70
     1
102
RTVSPost2010Prop41ColorIndex
 90
       18
102
RTVSPost2010Prop41ColorRGB
 90
        0
102
RTVSPost2010PropOp41
 70
     1
102
RTVSPost2010Prop42
 90
       50
102
RTVSPost2010PropOp42
 70
     1
102
RTVSPost2010Prop43
 90
        3
102
RTVSPost2010PropOp43
 70
     1
102
RTVSPost2010Prop44ColorIndex
 90
        5
102
RTVSPost2010Prop44ColorRGB
 90
      255
102
RTVSPost2010PropOp44
 70
     1
102
RTVSPost2010Prop45
280
     0
102
RTVSPost2010PropOp45
 70
     1
102
RTVSPost2010Prop46
 90
       50
102
RTVSPost2010PropOp46
 70
     1
102
RTVSPost2010Prop47
 90
       50
102
RTVSPost2010PropOp47
 70
     1
102
RTVSPost2010Prop48
 90
       50
102
RTVSPost2010PropOp48
 70
     1
102
RTVSPost2010Prop49
280
     0
102
RTVSPost2010PropOp49
 70
     1
102
RTVSPost2010Prop50
 90
       50
102
RTVSPost2010PropOp50
 70
     1
102
RTVSPost2010Prop51ColorIndex
 90
      256
102
RTVSPost2010Prop51ColorRGB
 90
-16777216
102
RTVSPost2010PropOp51
 70
     0
102
RTVSPost2010Prop52
140
1.0
102
RTVSPost2010PropOp52
 70
     0
102
RTVSPost2010Prop53
 90
        2
102
RTVSPost2010PropOp53
 70
     1
102
RTVSPost2010Prop54
  1
strokes_ogs.tif
102
RTVSPost2010PropOp54
 70
     1
102
RTVSPost2010Prop55
280
     0
102
RTVSPost2010PropOp55
 70
     1
102
RTVSPost2010Prop56
140
1.0
102
RTVSPost2010PropOp56
 70
     1
102
RTVSPost2010Prop57
140
1.0
102
RTVSPost2010PropOp57
 70
     1
  0
XRECORD
  5
A69
102
{ACAD_REACTORS
330
A68
102
}
330
A68
100
AcDbXrecord
280
     1
102
RTVSPost2010Prop28
280
     0
102
RTVSPost2010PropOp28
 70
     1
102
RTVSPost2010Prop29
280
     1
102
RTVSPost2010PropOp29
 70
     1
102
RTVSPost2010Prop30
280
     1
102
RTVSPost2010PropOp30
 70
     1
102
RTVSPost2010Prop31
280
     0
102
RTVSPost2010PropOp31
 70
     1
102
RTVSPost2010Prop32
280
     0
102
RTVSPost2010PropOp32
 70
     1
102
RTVSPost2010Prop33
280
     0
102
RTVSPost2010PropOp33
 70
     1
102
RTVSPost2010Prop34
280
     0
102
RTVSPost2010PropOp34
 70
     1
102
RTVSPost2010Prop35
280
     0
102
RTVSPost2010PropOp35
 70
     1
102
RTVSPost2010Prop36
280
     0
102
RTVSPost2010PropOp36
 70
     1
102
RTVSPost2010Prop37
 90
       50
102
RTVSPost2010PropOp37
 70
     1
102
RTVSPost2010Prop38
140
0.0
102
RTVSPost2010PropOp38
 70
     1
102
RTVSPost2010Prop39
140
1.0
102
RTVSPost2010PropOp39
 70
     1
102
RTVSPost2010Prop40
 90
        0
102
RTVSPost2010PropOp40
 70
     1
102
RTVSPost2010Prop41ColorIndex
 90
       18
102
RTVSPost2010Prop41ColorRGB
 90
        0
102
RTVSPost2010PropOp41
 70
     1
102
RTVSPost2010Prop42
 90
       50
102
RTVSPost2010PropOp42
 70
     1
102
RTVSPost2010Prop43
 90
        3
102
RTVSPost2010PropOp43
 70
     1
102
RTVSPost2010Prop44ColorIndex
 90
        5
102
RTVSPost2010Prop44ColorRGB
 90
      255
102
RTVSPost2010PropOp44
 70
     1
102
RTVSPost2010Prop45
280
     0
102
RTVSPost2010PropOp45
 70
     1
102
RTVSPost2010Prop46
 90
       50
102
RTVSPost2010PropOp46
 70
     1
102
RTVSPost2010Prop47
 90
       50
102
RTVSPost2010PropOp47
 70
     1
102
RTVSPost2010Prop48
 90
       50
102
RTVSPost2010PropOp48
 70
     1
102
RTVSPost2010Prop49
280
     0
102
RTVSPost2010PropOp49
 70
     1
102
RTVSPost2010Prop50
 90
       50
102
RTVSPost2010PropOp50
 70
     1
102
RTVSPost2010Prop51ColorIndex
 90
      256
102
RTVSPost2010Prop51ColorRGB
 90
-16777216
102
RTVSPost2010PropOp51
 70
     0
102
RTVSPost2010Prop52
140
1.0
102
RTVSPost2010PropOp52
 70
     0
102
RTVSPost2010Prop53
 90
        2
102
RTVSPost2010PropOp53
 70
     1
102
RTVSPost2010Prop54
  1
strokes_ogs.tif
102
RTVSPost2010PropOp54
 70
     1
102
RTVSPost2010Prop55
280
     0
102
RTVSPost2010PropOp55
 70
     1
102
RTVSPost2010Prop56
140
1.0
102
RTVSPost2010PropOp56
 70
     1
102
RTVSPost2010Prop57
140
1.0
102
RTVSPost2010PropOp57
 70
     1
  0
XRECORD
  5
A63
102
{ACAD_REACTORS
330
A62
102
}
330
A62
100
AcDbXrecord
280
     1
102
RTVSPost2010Prop28
280
     0
102
RTVSPost2010PropOp28
 70
     1
102
RTVSPost2010Prop29
280
     1
102
RTVSPost2010PropOp29
 70
     1
102
RTVSPost2010Prop30
280
     1
102
RTVSPost2010PropOp30
 70
     1
102
RTVSPost2010Prop31
280
     0
102
RTVSPost2010PropOp31
 70
     1
102
RTVSPost2010Prop32
280
     0
102
RTVSPost2010PropOp32
 70
     1
102
RTVSPost2010Prop33
280
     0
102
RTVSPost2010PropOp33
 70
     1
102
RTVSPost2010Prop34
280
     0
102
RTVSPost2010PropOp34
 70
     1
102
RTVSPost2010Prop35
280
     0
102
RTVSPost2010PropOp35
 70
     1
102
RTVSPost2010Prop36
280
     0
102
RTVSPost2010PropOp36
 70
     1
102
RTVSPost2010Prop37
 90
       50
102
RTVSPost2010PropOp37
 70
     1
102
RTVSPost2010Prop38
140
0.0
102
RTVSPost2010PropOp38
 70
     1
102
RTVSPost2010Prop39
140
1.0
102
RTVSPost2010PropOp39
 70
     1
102
RTVSPost2010Prop40
 90
        0
102
RTVSPost2010PropOp40
 70
     1
102
RTVSPost2010Prop41ColorIndex
 90
       18
102
RTVSPost2010Prop41ColorRGB
 90
        0
102
RTVSPost2010PropOp41
 70
     1
102
RTVSPost2010Prop42
 90
       50
102
RTVSPost2010PropOp42
 70
     1
102
RTVSPost2010Prop43
 90
        3
102
RTVSPost2010PropOp43
 70
     1
102
RTVSPost2010Prop44ColorIndex
 90
        5
102
RTVSPost2010Prop44ColorRGB
 90
      255
102
RTVSPost2010PropOp44
 70
     1
102
RTVSPost2010Prop45
280
     0
102
RTVSPost2010PropOp45
 70
     1
102
RTVSPost2010Prop46
 90
       50
102
RTVSPost2010PropOp46
 70
     1
102
RTVSPost2010Prop47
 90
       50
102
RTVSPost2010PropOp47
 70
     1
102
RTVSPost2010Prop48
 90
       50
102
RTVSPost2010PropOp48
 70
     1
102
RTVSPost2010Prop49
280
     0
102
RTVSPost2010PropOp49
 70
     1
102
RTVSPost2010Prop50
 90
       50
102
RTVSPost2010PropOp50
 70
     1
102
RTVSPost2010Prop51ColorIndex
 90
      256
102
RTVSPost2010Prop51ColorRGB
 90
-16777216
102
RTVSPost2010PropOp51
 70
     0
102
RTVSPost2010Prop52
140
1.0
102
RTVSPost2010PropOp52
 70
     0
102
RTVSPost2010Prop53
 90
        2
102
RTVSPost2010PropOp53
 70
     1
102
RTVSPost2010Prop54
  1
strokes_ogs.tif
102
RTVSPost2010PropOp54
 70
     1
102
RTVSPost2010Prop55
280
     0
102
RTVSPost2010PropOp55
 70
     1
102
RTVSPost2010Prop56
140
1.0
102
RTVSPost2010PropOp56
 70
     1
102
RTVSPost2010Prop57
140
1.0
102
RTVSPost2010PropOp57
 70
     1
  0
XRECORD
  5
A65
102
{ACAD_REACTORS
330
A64
102
}
330
A64
100
AcDbXrecord
280
     1
102
RTVSPost2010Prop28
280
     0
102
RTVSPost2010PropOp28
 70
     1
102
RTVSPost2010Prop29
280
     1
102
RTVSPost2010PropOp29
 70
     1
102
RTVSPost2010Prop30
280
     1
102
RTVSPost2010PropOp30
 70
     1
102
RTVSPost2010Prop31
280
     0
102
RTVSPost2010PropOp31
 70
     1
102
RTVSPost2010Prop32
280
     0
102
RTVSPost2010PropOp32
 70
     1
102
RTVSPost2010Prop33
280
     0
102
RTVSPost2010PropOp33
 70
     1
102
RTVSPost2010Prop34
280
     0
102
RTVSPost2010PropOp34
 70
     1
102
RTVSPost2010Prop35
280
     0
102
RTVSPost2010PropOp35
 70
     1
102
RTVSPost2010Prop36
280
     0
102
RTVSPost2010PropOp36
 70
     1
102
RTVSPost2010Prop37
 90
       50
102
RTVSPost2010PropOp37
 70
     1
102
RTVSPost2010Prop38
140
0.0
102
RTVSPost2010PropOp38
 70
     1
102
RTVSPost2010Prop39
140
1.0
102
RTVSPost2010PropOp39
 70
     1
102
RTVSPost2010Prop40
 90
        0
102
RTVSPost2010PropOp40
 70
     1
102
RTVSPost2010Prop41ColorIndex
 90
       18
102
RTVSPost2010Prop41ColorRGB
 90
        0
102
RTVSPost2010PropOp41
 70
     1
102
RTVSPost2010Prop42
 90
       50
102
RTVSPost2010PropOp42
 70
     1
102
RTVSPost2010Prop43
 90
        3
102
RTVSPost2010PropOp43
 70
     1
102
RTVSPost2010Prop44ColorIndex
 90
        5
102
RTVSPost2010Prop44ColorRGB
 90
      255
102
RTVSPost2010PropOp44
 70
     1
102
RTVSPost2010Prop45
280
     0
102
RTVSPost2010PropOp45
 70
     1
102
RTVSPost2010Prop46
 90
       50
102
RTVSPost2010PropOp46
 70
     1
102
RTVSPost2010Prop47
 90
       50
102
RTVSPost2010PropOp47
 70
     1
102
RTVSPost2010Prop48
 90
       50
102
RTVSPost2010PropOp48
 70
     1
102
RTVSPost2010Prop49
280
     0
102
RTVSPost2010PropOp49
 70
     1
102
RTVSPost2010Prop50
 90
       50
102
RTVSPost2010PropOp50
 70
     1
102
RTVSPost2010Prop51ColorIndex
 90
      256
102
RTVSPost2010Prop51ColorRGB
 90
-16777216
102
RTVSPost2010PropOp51
 70
     0
102
RTVSPost2010Prop52
140
1.0
102
RTVSPost2010PropOp52
 70
     0
102
RTVSPost2010Prop53
 90
        2
102
RTVSPost2010PropOp53
 70
     1
102
RTVSPost2010Prop54
  1
strokes_ogs.tif
102
RTVSPost2010PropOp54
 70
     1
102
RTVSPost2010Prop55
280
     0
102
RTVSPost2010PropOp55
 70
     1
102
RTVSPost2010Prop56
140
1.0
102
RTVSPost2010PropOp56
 70
     1
102
RTVSPost2010Prop57
140
1.0
102
RTVSPost2010PropOp57
 70
     1
  0
XRECORD
  5
A5B
102
{ACAD_REACTORS
330
A5A
102
}
330
A5A
100
AcDbXrecord
280
     1
102
RTVSPost2010Prop28
280
     0
102
RTVSPost2010PropOp28
 70
     1
102
RTVSPost2010Prop29
280
     1
102
RTVSPost2010PropOp29
 70
     1
102
RTVSPost2010Prop30
280
     1
102
RTVSPost2010PropOp30
 70
     1
102
RTVSPost2010Prop31
280
     0
102
RTVSPost2010PropOp31
 70
     1
102
RTVSPost2010Prop32
280
     0
102
RTVSPost2010PropOp32
 70
     1
102
RTVSPost2010Prop33
280
     0
102
RTVSPost2010PropOp33
 70
     1
102
RTVSPost2010Prop34
280
     0
102
RTVSPost2010PropOp34
 70
     1
102
RTVSPost2010Prop35
280
     0
102
RTVSPost2010PropOp35
 70
     1
102
RTVSPost2010Prop36
280
     0
102
RTVSPost2010PropOp36
 70
     1
102
RTVSPost2010Prop37
 90
       50
102
RTVSPost2010PropOp37
 70
     1
102
RTVSPost2010Prop38
140
0.0
102
RTVSPost2010PropOp38
 70
     1
102
RTVSPost2010Prop39
140
1.0
102
RTVSPost2010PropOp39
 70
     1
102
RTVSPost2010Prop40
 90
        0
102
RTVSPost2010PropOp40
 70
     1
102
RTVSPost2010Prop41ColorIndex
 90
       18
102
RTVSPost2010Prop41ColorRGB
 90
        0
102
RTVSPost2010PropOp41
 70
     1
102
RTVSPost2010Prop42
 90
       50
102
RTVSPost2010PropOp42
 70
     1
102
RTVSPost2010Prop43
 90
        3
102
RTVSPost2010PropOp43
 70
     1
102
RTVSPost2010Prop44ColorIndex
 90
        5
102
RTVSPost2010Prop44ColorRGB
 90
      255
102
RTVSPost2010PropOp44
 70
     1
102
RTVSPost2010Prop45
280
     0
102
RTVSPost2010PropOp45
 70
     1
102
RTVSPost2010Prop46
 90
       50
102
RTVSPost2010PropOp46
 70
     1
102
RTVSPost2010Prop47
 90
       50
102
RTVSPost2010PropOp47
 70
     1
102
RTVSPost2010Prop48
 90
       50
102
RTVSPost2010PropOp48
 70
     1
102
RTVSPost2010Prop49
280
     0
102
RTVSPost2010PropOp49
 70
     1
102
RTVSPost2010Prop50
 90
       50
102
RTVSPost2010PropOp50
 70
     1
102
RTVSPost2010Prop51ColorIndex
 90
      256
102
RTVSPost2010Prop51ColorRGB
 90
-16777216
102
RTVSPost2010PropOp51
 70
     0
102
RTVSPost2010Prop52
140
1.0
102
RTVSPost2010PropOp52
 70
     0
102
RTVSPost2010Prop53
 90
        2
102
RTVSPost2010PropOp53
 70
     1
102
RTVSPost2010Prop54
  1
strokes_ogs.tif
102
RTVSPost2010PropOp54
 70
     1
102
RTVSPost2010Prop55
280
     0
102
RTVSPost2010PropOp55
 70
     1
102
RTVSPost2010Prop56
140
1.0
102
RTVSPost2010PropOp56
 70
     1
102
RTVSPost2010Prop57
140
1.0
102
RTVSPost2010PropOp57
 70
     1
  0
XRECORD
  5
A4F
102
{ACAD_REACTORS
330
A4E
102
}
330
A4E
100
AcDbXrecord
280
     1
102
RTVSPost2010Prop28
280
     0
102
RTVSPost2010PropOp28
 70
     1
102
RTVSPost2010Prop29
280
     1
102
RTVSPost2010PropOp29
 70
     1
102
RTVSPost2010Prop30
280
     1
102
RTVSPost2010PropOp30
 70
     1
102
RTVSPost2010Prop31
280
     0
102
RTVSPost2010PropOp31
 70
     1
102
RTVSPost2010Prop32
280
     0
102
RTVSPost2010PropOp32
 70
     1
102
RTVSPost2010Prop33
280
     0
102
RTVSPost2010PropOp33
 70
     1
102
RTVSPost2010Prop34
280
     0
102
RTVSPost2010PropOp34
 70
     1
102
RTVSPost2010Prop35
280
     0
102
RTVSPost2010PropOp35
 70
     1
102
RTVSPost2010Prop36
280
     0
102
RTVSPost2010PropOp36
 70
     1
102
RTVSPost2010Prop37
 90
       50
102
RTVSPost2010PropOp37
 70
     1
102
RTVSPost2010Prop38
140
0.0
102
RTVSPost2010PropOp38
 70
     1
102
RTVSPost2010Prop39
140
1.0
102
RTVSPost2010PropOp39
 70
     1
102
RTVSPost2010Prop40
 90
        0
102
RTVSPost2010PropOp40
 70
     1
102
RTVSPost2010Prop41ColorIndex
 90
       18
102
RTVSPost2010Prop41ColorRGB
 90
        0
102
RTVSPost2010PropOp41
 70
     1
102
RTVSPost2010Prop42
 90
       50
102
RTVSPost2010PropOp42
 70
     1
102
RTVSPost2010Prop43
 90
        3
102
RTVSPost2010PropOp43
 70
     1
102
RTVSPost2010Prop44ColorIndex
 90
        5
102
RTVSPost2010Prop44ColorRGB
 90
      255
102
RTVSPost2010PropOp44
 70
     1
102
RTVSPost2010Prop45
280
     0
102
RTVSPost2010PropOp45
 70
     1
102
RTVSPost2010Prop46
 90
       50
102
RTVSPost2010PropOp46
 70
     1
102
RTVSPost2010Prop47
 90
       50
102
RTVSPost2010PropOp47
 70
     1
102
RTVSPost2010Prop48
 90
       50
102
RTVSPost2010PropOp48
 70
     1
102
RTVSPost2010Prop49
280
     0
102
RTVSPost2010PropOp49
 70
     1
102
RTVSPost2010Prop50
 90
       50
102
RTVSPost2010PropOp50
 70
     1
102
RTVSPost2010Prop51ColorIndex
 90
      256
102
RTVSPost2010Prop51ColorRGB
 90
-16777216
102
RTVSPost2010PropOp51
 70
     0
102
RTVSPost2010Prop52
140
1.0
102
RTVSPost2010PropOp52
 70
     0
102
RTVSPost2010Prop53
 90
        2
102
RTVSPost2010PropOp53
 70
     1
102
RTVSPost2010Prop54
  1
strokes_ogs.tif
102
RTVSPost2010PropOp54
 70
     1
102
RTVSPost2010Prop55
280
     0
102
RTVSPost2010PropOp55
 70
     1
102
RTVSPost2010Prop56
140
1.0
102
RTVSPost2010PropOp56
 70
     1
102
RTVSPost2010Prop57
140
1.0
102
RTVSPost2010PropOp57
 70
     1
  0
XRECORD
  5
A67
102
{ACAD_REACTORS
330
A66
102
}
330
A66
100
AcDbXrecord
280
     1
102
RTVSPost2010Prop28
280
     0
102
RTVSPost2010PropOp28
 70
     1
102
RTVSPost2010Prop29
280
     1
102
RTVSPost2010PropOp29
 70
     1
102
RTVSPost2010Prop30
280
     1
102
RTVSPost2010PropOp30
 70
     1
102
RTVSPost2010Prop31
280
     0
102
RTVSPost2010PropOp31
 70
     1
102
RTVSPost2010Prop32
280
     0
102
RTVSPost2010PropOp32
 70
     1
102
RTVSPost2010Prop33
280
     0
102
RTVSPost2010PropOp33
 70
     1
102
RTVSPost2010Prop34
280
     0
102
RTVSPost2010PropOp34
 70
     1
102
RTVSPost2010Prop35
280
     0
102
RTVSPost2010PropOp35
 70
     1
102
RTVSPost2010Prop36
280
     0
102
RTVSPost2010PropOp36
 70
     1
102
RTVSPost2010Prop37
 90
       50
102
RTVSPost2010PropOp37
 70
     1
102
RTVSPost2010Prop38
140
0.0
102
RTVSPost2010PropOp38
 70
     1
102
RTVSPost2010Prop39
140
1.0
102
RTVSPost2010PropOp39
 70
     1
102
RTVSPost2010Prop40
 90
        0
102
RTVSPost2010PropOp40
 70
     1
102
RTVSPost2010Prop41ColorIndex
 90
       18
102
RTVSPost2010Prop41ColorRGB
 90
        0
102
RTVSPost2010PropOp41
 70
     1
102
RTVSPost2010Prop42
 90
       50
102
RTVSPost2010PropOp42
 70
     1
102
RTVSPost2010Prop43
 90
        3
102
RTVSPost2010PropOp43
 70
     1
102
RTVSPost2010Prop44ColorIndex
 90
        5
102
RTVSPost2010Prop44ColorRGB
 90
      255
102
RTVSPost2010PropOp44
 70
     1
102
RTVSPost2010Prop45
280
     0
102
RTVSPost2010PropOp45
 70
     1
102
RTVSPost2010Prop46
 90
       50
102
RTVSPost2010PropOp46
 70
     1
102
RTVSPost2010Prop47
 90
       50
102
RTVSPost2010PropOp47
 70
     1
102
RTVSPost2010Prop48
 90
       50
102
RTVSPost2010PropOp48
 70
     1
102
RTVSPost2010Prop49
280
     0
102
RTVSPost2010PropOp49
 70
     1
102
RTVSPost2010Prop50
 90
       50
102
RTVSPost2010PropOp50
 70
     1
102
RTVSPost2010Prop51ColorIndex
 90
      256
102
RTVSPost2010Prop51ColorRGB
 90
-16777216
102
RTVSPost2010PropOp51
 70
     0
102
RTVSPost2010Prop52
140
1.0
102
RTVSPost2010PropOp52
 70
     0
102
RTVSPost2010Prop53
 90
        2
102
RTVSPost2010PropOp53
 70
     1
102
RTVSPost2010Prop54
  1
strokes_ogs.tif
102
RTVSPost2010PropOp54
 70
     1
102
RTVSPost2010Prop55
280
     0
102
RTVSPost2010PropOp55
 70
     1
102
RTVSPost2010Prop56
140
1.0
102
RTVSPost2010PropOp56
 70
     1
102
RTVSPost2010Prop57
140
1.0
102
RTVSPost2010PropOp57
 70
     1
  0
ENDSEC
  0
EOF
