  0
SECTION
  2
HEADER
  9
$ACADVER
  1
AC1024
  9
$ACADMAINTVER
 70
   181
  9
$DWGCODEPAGE
  3
ANSI_1252
  9
$AUTHOR
  1
KIM
  9
$CUSTOMPROPERTYTAG
  1
Manager
  9
$CUSTOMPROPERTY
  1

  9
$CUSTOMPROPERTYTAG
  1
Company
  9
$CUSTOMPROPERTY
  1

  9
$CUSTOMPROPERTYTAG
  1
Category
  9
$CUSTOMPROPERTY
  1

  9
$CUSTOMPROPERTYTAG
  1
Part Number
  9
$CUSTOMPROPERTY
  1
491104_
  9
$CUSTOMPROPERTYTAG
  1
Description
  9
$CUSTOMPROPERTY
  1

  9
$CUSTOMPROPERTYTAG
  1
Project
  9
$CUSTOMPROPERTY
  1

  9
$CUSTOMPROPERTYTAG
  1
Designer
  9
$CUSTOMPROPERTY
  1
KIM
  9
$CUSTOMPROPERTYTAG
  1
Engineer
  9
$CUSTOMPROPERTY
  1

  9
$CUSTOMPROPERTYTAG
  1
Authority
  9
$CUSTOMPROPERTY
  1

  9
$CUSTOMPROPERTYTAG
  1
Cost Center
  9
$CUSTOMPROPERTY
  1

  9
$CUSTOMPROPERTYTAG
  1
Cost
  9
$CUSTOMPROPERTY
  1

  9
$CUSTOMPROPERTYTAG
  1
Vendor
  9
$CUSTOMPROPERTY
  1

  9
$CUSTOMPROPERTYTAG
  1
User Status
  9
$CUSTOMPROPERTY
  1

  9
$CUSTOMPROPERTYTAG
  1
Design Status
  9
$CUSTOMPROPERTY
  1
WorkInProgress
  9
$CUSTOMPROPERTYTAG
  1
Checked by
  9
$CUSTOMPROPERTY
  1

  9
$CUSTOMPROPERTYTAG
  1
Engr Approved by
  9
$CUSTOMPROPERTY
  1

  9
$CUSTOMPROPERTYTAG
  1
Mfg Approved by
  9
$CUSTOMPROPERTY
  1

  9
$CUSTOMPROPERTYTAG
  1
Date Created
  9
$CUSTOMPROPERTY
  1
08/29/2017
  9
$CUSTOMPROPERTYTAG
  1
Stock Number
  9
$CUSTOMPROPERTY
  1

  9
$INSBASE
 10
0.0
 20
0.0
 30
0.0
  9
$EXTMIN
 10
0.0
 20
0.0
 30
0.0
  9
$EXTMAX
 10
840.9999999999998
 20
594.0
 30
0.0
  9
$LIMMIN
 10
0.0
 20
0.0
  9
$LIMMAX
 10
840.9999999999998
 20
594.0
  9
$ORTHOMODE
 70
     0
  9
$REGENMODE
 70
     1
  9
$FILLMODE
 70
     1
  9
$QTEXTMODE
 70
     0
  9
$MIRRTEXT
 70
     0
  9
$LTSCALE
 40
1.0
  9
$ATTMODE
 70
     1
  9
$TEXTSIZE
 40
0.2
  9
$TRACEWID
 40
0.05
  9
$TEXTSTYLE
  7
Standard
  9
$CLAYER
  8
0
  9
$CELTYPE
  6
ByLayer
  9
$CECOLOR
 62
   256
  9
$CELTSCALE
 40
1.0
  9
$DISPSILH
 70
     0
  9
$DIMSCALE
 40
1.0
  9
$DIMASZ
 40
1.799999999999999
  9
$DIMEXO
 40
0.0625
  9
$DIMDLI
 40
0.38
  9
$DIMRND
 40
0.0
  9
$DIMDLE
 40
0.0
  9
$DIMEXE
 40
0.18
  9
$DIMTP
 40
0.0
  9
$DIMTM
 40
0.0
  9
$DIMTXT
 40
0.25
  9
$DIMCEN
 40
0.09
  9
$DIMTSZ
 40
0.0
  9
$DIMTOL
 70
     0
  9
$DIMLIM
 70
     0
  9
$DIMTIH
 70
     1
  9
$DIMTOH
 70
     1
  9
$DIMSE1
 70
     0
  9
$DIMSE2
 70
     0
  9
$DIMTAD
 70
     0
  9
$DIMZIN
 70
     0
  9
$DIMBLK
  1

  9
$DIMASO
 70
     1
  9
$DIMSHO
 70
     1
  9
$DIMPOST
  1

  9
$DIMAPOST
  1

  9
$DIMALT
 70
     0
  9
$DIMALTD
 70
     2
  9
$DIMALTF
 40
25.4
  9
$DIMLFAC
 40
1.0
  9
$DIMTOFL
 70
     0
  9
$DIMTVP
 40
0.0
  9
$DIMTIX
 70
     0
  9
$DIMSOXD
 70
     0
  9
$DIMSAH
 70
     0
  9
$DIMBLK1
  1

  9
$DIMBLK2
  1

  9
$DIMSTYLE
  2
Standard
  9
$DIMCLRD
 70
     0
  9
$DIMCLRE
 70
     0
  9
$DIMCLRT
 70
     0
  9
$DIMTFAC
 40
1.0
  9
$DIMGAP
 40
0.09
  9
$DIMJUST
 70
     0
  9
$DIMSD1
 70
     0
  9
$DIMSD2
 70
     0
  9
$DIMTOLJ
 70
     1
  9
$DIMTZIN
 70
     0
  9
$DIMALTZ
 70
     0
  9
$DIMALTTZ
 70
     0
  9
$DIMUPT
 70
     0
  9
$DIMDEC
 70
     4
  9
$DIMTDEC
 70
     4
  9
$DIMALTU
 70
     2
  9
$DIMALTTD
 70
     2
  9
$DIMTXSTY
  7
Standard
  9
$DIMAUNIT
 70
     0
  9
$DIMADEC
 70
     0
  9
$DIMALTRND
 40
0.0
  9
$DIMAZIN
 70
     0
  9
$DIMDSEP
 70
    46
  9
$DIMATFIT
 70
     3
  9
$DIMFRAC
 70
     0
  9
$DIMLDRBLK
  1

  9
$DIMLUNIT
 70
     2
  9
$DIMLWD
 70
    -2
  9
$DIMLWE
 70
    -2
  9
$DIMTMOVE
 70
     0
  9
$DIMFXL
 40
1.0
  9
$DIMFXLON
 70
     0
  9
$DIMJOGANG
 40
0.7853981633974483
  9
$DIMTFILL
 70
     0
  9
$DIMTFILLCLR
 70
     0
  9
$DIMARCSYM
 70
     0
  9
$DIMLTYPE
  6

  9
$DIMLTEX1
  6

  9
$DIMLTEX2
  6

  9
$DIMTXTDIRECTION
 70
     0
  9
$LUNITS
 70
     2
  9
$LUPREC
 70
     4
  9
$SKETCHINC
 40
0.1
  9
$FILLETRAD
 40
0.0
  9
$AUNITS
 70
     0
  9
$AUPREC
 70
     0
  9
$MENU
  1
.
  9
$ELEVATION
 40
0.0
  9
$PELEVATION
 40
0.0
  9
$THICKNESS
 40
0.0
  9
$LIMCHECK
 70
     0
  9
$CHAMFERA
 40
0.0
  9
$CHAMFERB
 40
0.0
  9
$CHAMFERC
 40
0.0
  9
$CHAMFERD
 40
0.0
  9
$SKPOLY
 70
     0
  9
$TDCREATE
 40
2457995.021184792
  9
$TDUCREATE
 40
2457994.896184792
  9
$TDUPDATE
 40
2457995.021184792
  9
$TDUUPDATE
 40
2457994.896184792
  9
$TDINDWG
 40
0.0000070023
  9
$TDUSRTIMER
 40
0.0000070023
  9
$USRTIMER
 70
     1
  9
$ANGBASE
 50
0.0
  9
$ANGDIR
 70
     0
  9
$PDMODE
 70
     0
  9
$PDSIZE
 40
0.0
  9
$PLINEWID
 40
0.0
  9
$SPLFRAME
 70
     0
  9
$SPLINETYPE
 70
     6
  9
$SPLINESEGS
 70
     8
  9
$HANDSEED
  5
A91
  9
$SURFTAB1
 70
     6
  9
$SURFTAB2
 70
     6
  9
$SURFTYPE
 70
     6
  9
$SURFU
 70
     6
  9
$SURFV
 70
     6
  9
$UCSBASE
  2

  9
$UCSNAME
  2

  9
$UCSORG
 10
0.0
 20
0.0
 30
0.0
  9
$UCSXDIR
 10
1.0
 20
0.0
 30
0.0
  9
$UCSYDIR
 10
0.0
 20
1.0
 30
0.0
  9
$UCSORTHOREF
  2

  9
$UCSORTHOVIEW
 70
     0
  9
$UCSORGTOP
 10
0.0
 20
0.0
 30
0.0
  9
$UCSORGBOTTOM
 10
0.0
 20
0.0
 30
0.0
  9
$UCSORGLEFT
 10
0.0
 20
0.0
 30
0.0
  9
$UCSORGRIGHT
 10
0.0
 20
0.0
 30
0.0
  9
$UCSORGFRONT
 10
0.0
 20
0.0
 30
0.0
  9
$UCSORGBACK
 10
0.0
 20
0.0
 30
0.0
  9
$PUCSBASE
  2

  9
$PUCSNAME
  2

  9
$PUCSORG
 10
0.0
 20
0.0
 30
0.0
  9
$PUCSXDIR
 10
1.0
 20
0.0
 30
0.0
  9
$PUCSYDIR
 10
0.0
 20
1.0
 30
0.0
  9
$PUCSORTHOREF
  2

  9
$PUCSORTHOVIEW
 70
     0
  9
$PUCSORGTOP
 10
0.0
 20
0.0
 30
0.0
  9
$PUCSORGBOTTOM
 10
0.0
 20
0.0
 30
0.0
  9
$PUCSORGLEFT
 10
0.0
 20
0.0
 30
0.0
  9
$PUCSORGRIGHT
 10
0.0
 20
0.0
 30
0.0
  9
$PUCSORGFRONT
 10
0.0
 20
0.0
 30
0.0
  9
$PUCSORGBACK
 10
0.0
 20
0.0
 30
0.0
  9
$USERI1
 70
     0
  9
$USERI2
 70
     0
  9
$USERI3
 70
     0
  9
$USERI4
 70
     0
  9
$USERI5
 70
     0
  9
$USERR1
 40
0.0
  9
$USERR2
 40
0.0
  9
$USERR3
 40
0.0
  9
$USERR4
 40
0.0
  9
$USERR5
 40
0.0
  9
$WORLDVIEW
 70
     1
  9
$SHADEDGE
 70
     3
  9
$SHADEDIF
 70
    70
  9
$TILEMODE
 70
     1
  9
$MAXACTVP
 70
    64
  9
$PINSBASE
 10
0.0
 20
0.0
 30
0.0
  9
$PLIMCHECK
 70
     0
  9
$PEXTMIN
 10
0.0
 20
0.0
 30
0.0
  9
$PEXTMAX
 10
840.9999999999998
 20
594.0
 30
0.0
  9
$PLIMMIN
 10
0.0
 20
0.0
  9
$PLIMMAX
 10
840.9999999999998
 20
594.0
  9
$UNITMODE
 70
     0
  9
$VISRETAIN
 70
     1
  9
$PLINEGEN
 70
     0
  9
$PSLTSCALE
 70
     1
  9
$TREEDEPTH
 70
  3020
  9
$CMLSTYLE
  2
Standard
  9
$CMLJUST
 70
     0
  9
$CMLSCALE
 40
1.0
  9
$PROXYGRAPHICS
 70
     1
  9
$MEASUREMENT
 70
     1
  9
$CELWEIGHT
370
    -1
  9
$ENDCAPS
280
     0
  9
$JOINSTYLE
280
     0
  9
$LWDISPLAY
290
     0
  9
$INSUNITS
 70
     4
  9
$HYPERLINKBASE
  1

  9
$STYLESHEET
  1

  9
$XEDIT
290
     1
  9
$CEPSNTYPE
380
     0
  9
$PSTYLEMODE
290
     1
  9
$FINGERPRINTGUID
  2
{87B85595-8924-44D1-AB81-CE7D5CB5CD4C}
  9
$VERSIONGUID
  2
{BF3C4096-8954-46D7-9017-62F230739283}
  9
$EXTNAMES
290
     1
  9
$PSVPSCALE
 40
0.0
  9
$OLESTARTUP
290
     0
  9
$SORTENTS
280
   127
  9
$INDEXCTL
280
     0
  9
$HIDETEXT
280
     1
  9
$XCLIPFRAME
280
     2
  9
$HALOGAP
280
     0
  9
$OBSCOLOR
 70
   257
  9
$OBSLTYPE
280
     0
  9
$INTERSECTIONDISPLAY
280
     0
  9
$INTERSECTIONCOLOR
 70
   257
  9
$DIMASSOC
280
     1
  9
$PROJECTNAME
  1

  9
$CAMERADISPLAY
290
     0
  9
$LENSLENGTH
 40
50.0
  9
$CAMERAHEIGHT
 40
0.0
  9
$STEPSPERSEC
 40
2.0
  9
$STEPSIZE
 40
6.0
  9
$3DDWFPREC
 40
2.0
  9
$PSOLWIDTH
 40
0.25
  9
$PSOLHEIGHT
 40
4.0
  9
$LOFTANG1
 40
1.570796326794896
  9
$LOFTANG2
 40
1.570796326794896
  9
$LOFTMAG1
 40
0.0
  9
$LOFTMAG2
 40
0.0
  9
$LOFTPARAM
 70
     7
  9
$LOFTNORMALS
280
     1
  9
$LATITUDE
 40
37.795
  9
$LONGITUDE
 40
-122.394
  9
$NORTHDIRECTION
 40
0.0
  9
$TIMEZONE
 70
 -8000
  9
$LIGHTGLYPHDISPLAY
280
     1
  9
$TILEMODELIGHTSYNCH
280
     1
  9
$CMATERIAL
347
11
  9
$SOLIDHIST
280
     0
  9
$SHOWHIST
280
     1
  9
$DWFFRAME
280
     2
  9
$DGNFRAME
280
     0
  9
$REALWORLDSCALE
290
     1
  9
$INTERFERECOLOR
 62
     1
  9
$INTERFEREOBJVS
345
33
  9
$INTERFEREVPVS
346
30
  9
$CSHADOW
280
     0
  9
$SHADOWPLANELOCATION
 40
0.0
  0
ENDSEC
  0
SECTION
  2
CLASSES
  0
CLASS
  1
ACDBDICTIONARYWDFLT
  2
AcDbDictionaryWithDefault
  3
ObjectDBX Classes
 90
        0
 91
        1
280
     0
281
     0
  0
CLASS
  1
MATERIAL
  2
AcDbMaterial
  3
ObjectDBX Classes
 90
     1153
 91
        3
280
     0
281
     0
  0
CLASS
  1
VISUALSTYLE
  2
AcDbVisualStyle
  3
ObjectDBX Classes
 90
     4095
 91
       24
280
     0
281
     0
  0
CLASS
  1
SCALE
  2
AcDbScale
  3
ObjectDBX Classes
 90
     1153
 91
       17
280
     0
281
     0
  0
CLASS
  1
TABLESTYLE
  2
AcDbTableStyle
  3
ObjectDBX Classes
 90
     4095
 91
        1
280
     0
281
     0
  0
CLASS
  1
MLEADERSTYLE
  2
AcDbMLeaderStyle
  3
ACDB_MLEADERSTYLE_CLASS
 90
     4095
 91
        1
280
     0
281
     0
  0
CLASS
  1
ACDBSECTIONVIEWSTYLE
  2
AcDbSectionViewStyle
  3
ObjectDBX Classes
 90
     1025
 91
        1
280
     0
281
     0
  0
CLASS
  1
ACDBDETAILVIEWSTYLE
  2
AcDbDetailViewStyle
  3
ObjectDBX Classes
 90
     1025
 91
        1
280
     0
281
     0
  0
CLASS
  1
DICTIONARYVAR
  2
AcDbDictionaryVar
  3
ObjectDBX Classes
 90
        0
 91
        5
280
     0
281
     0
  0
CLASS
  1
CELLSTYLEMAP
  2
AcDbCellStyleMap
  3
ObjectDBX Classes
 90
     1152
 91
        1
280
     0
281
     0
  0
ENDSEC
  0
SECTION
  2
TABLES
  0
TABLE
  2
VPORT
  5
8
330
0
100
AcDbSymbolTable
 70
     1
  0
VPORT
  5
57
330
8
100
AcDbSymbolTableRecord
100
AcDbViewportTableRecord
  2
*Active
 70
     0
 10
0.0
 20
0.0
 11
1.0
 21
1.0
 12
420.4999999999999
 22
297.0
 13
0.0
 23
0.0
 14
1.0
 24
1.0
 15
0.0
 25
0.0
 16
0.0
 26
0.0
 36
1.0
 17
0.0
 27
0.0
 37
0.0
 40
594.0
 41
1.415824915824915
 42
50.0
 43
0.0
 44
0.0
 50
0.0
 51
0.0
 71
     0
 72
   100
 73
     1
 74
     1
 75
     0
 76
     0
 77
     0
 78
     0
281
     0
 65
     1
110
0.0
120
0.0
130
0.0
111
1.0
121
0.0
131
0.0
112
0.0
122
1.0
132
0.0
 79
     0
146
0.0
 60
     3
 61
     5
292
     1
282
     1
141
0.0
142
0.0
 63
   250
421
  3355443
  0
ENDTAB
  0
TABLE
  2
LTYPE
  5
5
330
0
100
AcDbSymbolTable
 70
    59
  0
LTYPE
  5
5B
330
5
100
AcDbSymbolTableRecord
100
AcDbLinetypeTableRecord
  2
ByBlock
 70
     0
  3

 72
    65
 73
     0
 40
0.0
  0
LTYPE
  5
5C
330
5
100
AcDbSymbolTableRecord
100
AcDbLinetypeTableRecord
  2
ByLayer
 70
     0
  3

 72
    65
 73
     0
 40
0.0
  0
LTYPE
  5
5D
330
5
100
AcDbSymbolTableRecord
100
AcDbLinetypeTableRecord
  2
Continuous
 70
     0
  3
Solid line
 72
    65
 73
     0
 40
0.0
  0
LTYPE
  5
78
330
5
100
AcDbSymbolTableRecord
100
AcDbLinetypeTableRecord
  2
Section_View_Lines
 70
     0
  3
Section View Lines
 72
    65
 73
     4
 40
0.8406
 49
0.6614
 74
     0
 49
-0.0827
 74
     0
 49
0.0138
 74
     0
 49
-0.0827
 74
     0
  0
LTYPE
  5
79
330
5
100
AcDbSymbolTableRecord
100
AcDbLinetypeTableRecord
  2
CHAIN
 70
     0
  3
Chain ____ _ ____ _ ____ _ ____ _ ____ _ ____
 72
    65
 73
     4
 40
0.3543
 49
0.2362
 74
     0
 49
-0.0295
 74
     0
 49
0.0591
 74
     0
 49
-0.0295
 74
     0
  0
LTYPE
  5
7A
330
5
100
AcDbSymbolTableRecord
100
AcDbLinetypeTableRecord
  2
DASH_DOT
 70
     0
  3
Dash dot _._._._._._._._._._._._._._._.
 72
    65
 73
     4
 40
0.182
 49
0.1181
 74
     0
 49
-0.0295
 74
     0
 49
0.0049
 74
     0
 49
-0.0295
 74
     0
  0
LTYPE
  5
7B
330
5
100
AcDbSymbolTableRecord
100
AcDbLinetypeTableRecord
  2
DASH_DOUBLE_DOT
 70
     0
  3
Dash Double Dot __ __ . __ __ . __ __ . __ _
 72
    65
 73
     6
 40
0.2164
 49
0.1181
 74
     0
 49
-0.0295
 74
     0
 49
0.0049
 74
     0
 49
-0.0295
 74
     0
 49
0.0049
 74
     0
 49
-0.0295
 74
     0
  0
LTYPE
  5
7C
330
5
100
AcDbSymbolTableRecord
100
AcDbLinetypeTableRecord
  2
DASH_TRIPLE_DOT
 70
     0
  3
Dash Triple-Dot _ . . . _ . . . _ . . . _
 72
    65
 73
     8
 40
0.2508
 49
0.1181
 74
     0
 49
-0.0295
 74
     0
 49
0.0049
 74
     0
 49
-0.0295
 74
     0
 49
0.0049
 74
     0
 49
-0.0295
 74
     0
 49
0.0049
 74
     0
 49
-0.0295
 74
     0
  0
LTYPE
  5
7D
330
5
100
AcDbSymbolTableRecord
100
AcDbLinetypeTableRecord
  2
DASHED
 70
     0
  3
Dashed __ __ __ __ __ __ __ __ __ __ __ __ __ _
 72
    65
 73
     2
 40
0.2068
 49
0.1655
 74
     0
 49
-0.0413
 74
     0
  0
LTYPE
  5
7E
330
5
100
AcDbSymbolTableRecord
100
AcDbLinetypeTableRecord
  2
DASHED_SPACE
 70
     0
  3
Dashed Space __ __ __ __ __ __ __ __ __ __ __ _
 72
    65
 73
     2
 40
0.2067
 49
0.1654
 74
     0
 49
-0.0413
 74
     0
  0
LTYPE
  5
7F
330
5
100
AcDbSymbolTableRecord
100
AcDbLinetypeTableRecord
  2
DOTTED
 70
     0
  3
Dotted . . . . . . . . . . . . . . . . . . . . 
 72
    65
 73
     2
 40
0.0481
 49
0.0068
 74
     0
 49
-0.0413
 74
     0
  0
LTYPE
  5
80
330
5
100
AcDbSymbolTableRecord
100
AcDbLinetypeTableRecord
  2
DOUBLE_DASH_CHAIN
 70
     0
  3
Double Dash Chain ___ _ _ ___ _ _ ___ _ _ ___ _
 72
    65
 73
     6
 40
1.240299999999999
 49
0.6614
 74
     0
 49
-0.0827
 74
     0
 49
0.1654
 74
     0
 49
-0.0827
 74
     0
 49
0.1654
 74
     0
 49
-0.0827
 74
     0
  0
LTYPE
  5
81
330
5
100
AcDbSymbolTableRecord
100
AcDbLinetypeTableRecord
  2
DOUBLE_DASH_DOT
 70
     0
  3
Double Dash Dot __ __ . __ __ . __ __ . __ _
 72
    65
 73
     6
 40
0.3296
 49
0.1181
 74
     0
 49
-0.0295
 74
     0
 49
0.1181
 74
     0
 49
-0.0295
 74
     0
 49
0.0049
 74
     0
 49
-0.0295
 74
     0
  0
LTYPE
  5
82
330
5
100
AcDbSymbolTableRecord
100
AcDbLinetypeTableRecord
  2
DOUBLE_DASH_DOUBLE_DOT
 70
     0
  3
Double Dash Double Dot _ _ . . _ _ . . _ _
 72
    65
 73
     8
 40
0.364
 49
0.1181
 74
     0
 49
-0.0295
 74
     0
 49
0.1181
 74
     0
 49
-0.0295
 74
     0
 49
0.0049
 74
     0
 49
-0.0295
 74
     0
 49
0.0049
 74
     0
 49
-0.0295
 74
     0
  0
LTYPE
  5
83
330
5
100
AcDbSymbolTableRecord
100
AcDbLinetypeTableRecord
  2
DOUBLE_DASH_TRIPLE_DOT
 70
     0
  3
Double Dash Triple Dot __ __ . . . __ __ . . .
 72
    65
 73
    10
 40
0.3984
 49
0.1181
 74
     0
 49
-0.0295
 74
     0
 49
0.1181
 74
     0
 49
-0.0295
 74
     0
 49
0.0049
 74
     0
 49
-0.0295
 74
     0
 49
0.0049
 74
     0
 49
-0.0295
 74
     0
 49
0.0049
 74
     0
 49
-0.0295
 74
     0
  0
LTYPE
  5
84
330
5
100
AcDbSymbolTableRecord
100
AcDbLinetypeTableRecord
  2
LONG_DASH_DOTTED
 70
     0
  3
Long Dash Dotted ____ . ____ . ____ . ____ . _
 72
    65
 73
     4
 40
0.3001
 49
0.2362
 74
     0
 49
-0.0295
 74
     0
 49
0.0049
 74
     0
 49
-0.0295
 74
     0
  0
LTYPE
  5
85
330
5
100
AcDbSymbolTableRecord
100
AcDbLinetypeTableRecord
  2
LONG_DASH_DOUBLE_DOT
 70
     0
  3
Long Dash Double Dot ____ . . ____ . . ____ . .
 72
    65
 73
     6
 40
0.3345
 49
0.2362
 74
     0
 49
-0.0295
 74
     0
 49
0.0049
 74
     0
 49
-0.0295
 74
     0
 49
0.0049
 74
     0
 49
-0.0295
 74
     0
  0
LTYPE
  5
86
330
5
100
AcDbSymbolTableRecord
100
AcDbLinetypeTableRecord
  2
LONG_DASH_TRIPLE_DOT
 70
     0
  3
Long Dash Triple Dot ____ ... ____ ... ____
 72
    65
 73
     8
 40
0.3689
 49
0.2362
 74
     0
 49
-0.0295
 74
     0
 49
0.0049
 74
     0
 49
-0.0295
 74
     0
 49
0.0049
 74
     0
 49
-0.0295
 74
     0
 49
0.0049
 74
     0
 49
-0.0295
 74
     0
  0
LTYPE
  5
87
330
5
100
AcDbSymbolTableRecord
100
AcDbLinetypeTableRecord
  2
BORDER
 70
     0
  3
Border __ __ . __ __ . __ __ . __ __ . __ __ .
 72
    65
 73
     6
 40
44.45
 49
12.7
 74
     0
 49
-6.349999999999999
 74
     0
 49
12.7
 74
     0
 49
-6.349999999999999
 74
     0
 49
0.0
 74
     0
 49
-6.349999999999999
 74
     0
  0
LTYPE
  5
88
330
5
100
AcDbSymbolTableRecord
100
AcDbLinetypeTableRecord
  2
BORDER2
 70
     0
  3
Border (.5x) __.__.__.__.__.__.__.__.__.__.__.
 72
    65
 73
     6
 40
22.225
 49
6.349999999999999
 74
     0
 49
-3.174999999999999
 74
     0
 49
6.349999999999999
 74
     0
 49
-3.174999999999999
 74
     0
 49
0.0
 74
     0
 49
-3.174999999999999
 74
     0
  0
LTYPE
  5
89
330
5
100
AcDbSymbolTableRecord
100
AcDbLinetypeTableRecord
  2
BORDERX2
 70
     0
  3
Border (2x) ____  ____  .  ____  ____  .  ___
 72
    65
 73
     6
 40
88.9
 49
25.4
 74
     0
 49
-12.7
 74
     0
 49
25.4
 74
     0
 49
-12.7
 74
     0
 49
0.0
 74
     0
 49
-12.7
 74
     0
  0
LTYPE
  5
8A
330
5
100
AcDbSymbolTableRecord
100
AcDbLinetypeTableRecord
  2
CENTER
 70
     0
  3
Center ____ _ ____ _ ____ _ ____ _ ____ _ ____
 72
    65
 73
     4
 40
50.8
 49
31.75
 74
     0
 49
-6.349999999999999
 74
     0
 49
6.349999999999999
 74
     0
 49
-6.349999999999999
 74
     0
  0
LTYPE
  5
8B
330
5
100
AcDbSymbolTableRecord
100
AcDbLinetypeTableRecord
  2
CENTER2
 70
     0
  3
Center (.5x) ___ _ ___ _ ___ _ ___ _ ___ _ ___
 72
    65
 73
     4
 40
28.575
 49
19.05
 74
     0
 49
-3.174999999999999
 74
     0
 49
3.174999999999999
 74
     0
 49
-3.174999999999999
 74
     0
  0
LTYPE
  5
8C
330
5
100
AcDbSymbolTableRecord
100
AcDbLinetypeTableRecord
  2
CENTERX2
 70
     0
  3
Center (2x) ________  __  ________  __  _____
 72
    65
 73
     4
 40
101.6
 49
63.5
 74
     0
 49
-12.7
 74
     0
 49
12.7
 74
     0
 49
-12.7
 74
     0
  0
LTYPE
  5
8D
330
5
100
AcDbSymbolTableRecord
100
AcDbLinetypeTableRecord
  2
DASHDOT2
 70
     0
  3
Dash dot (.5x) _._._._._._._._._._._._._._._.
 72
    65
 73
     4
 40
12.7
 49
6.349999999999999
 74
     0
 49
-3.174999999999999
 74
     0
 49
0.0
 74
     0
 49
-3.174999999999999
 74
     0
  0
LTYPE
  5
8E
330
5
100
AcDbSymbolTableRecord
100
AcDbLinetypeTableRecord
  2
DASHDOTX2
 70
     0
  3
Dash dot (2x) ____  .  ____  .  ____  .  ___
 72
    65
 73
     4
 40
50.8
 49
25.4
 74
     0
 49
-12.7
 74
     0
 49
0.0
 74
     0
 49
-12.7
 74
     0
  0
LTYPE
  5
8F
330
5
100
AcDbSymbolTableRecord
100
AcDbLinetypeTableRecord
  2
DASHED2
 70
     0
  3
Dashed (.5x) _ _ _ _ _ _ _ _ _ _ _ _ _ _ _ _ _
 72
    65
 73
     2
 40
9.524999999999998
 49
6.349999999999999
 74
     0
 49
-3.174999999999999
 74
     0
  0
LTYPE
  5
90
330
5
100
AcDbSymbolTableRecord
100
AcDbLinetypeTableRecord
  2
DASHEDX2
 70
     0
  3
Dashed (2x) ____  ____  ____  ____  ____  ___
 72
    65
 73
     2
 40
38.1
 49
25.4
 74
     0
 49
-12.7
 74
     0
  0
LTYPE
  5
91
330
5
100
AcDbSymbolTableRecord
100
AcDbLinetypeTableRecord
  2
DIVIDE
 70
     0
  3
Divide ____ . . ____ . . ____ . . ____ . . ____
 72
    65
 73
     6
 40
31.75
 49
12.7
 74
     0
 49
-6.349999999999999
 74
     0
 49
0.0
 74
     0
 49
-6.349999999999999
 74
     0
 49
0.0
 74
     0
 49
-6.349999999999999
 74
     0
  0
LTYPE
  5
92
330
5
100
AcDbSymbolTableRecord
100
AcDbLinetypeTableRecord
  2
DIVIDE2
 70
     0
  3
Divide (.5x) __..__..__..__..__..__..__..__.._
 72
    65
 73
     6
 40
15.875
 49
6.349999999999999
 74
     0
 49
-3.174999999999999
 74
     0
 49
0.0
 74
     0
 49
-3.174999999999999
 74
     0
 49
0.0
 74
     0
 49
-3.174999999999999
 74
     0
  0
LTYPE
  5
93
330
5
100
AcDbSymbolTableRecord
100
AcDbLinetypeTableRecord
  2
DIVIDEX2
 70
     0
  3
Divide (2x) ________  .  .  ________  .  .  _
 72
    65
 73
     6
 40
63.49999999999999
 49
25.4
 74
     0
 49
-12.7
 74
     0
 49
0.0
 74
     0
 49
-12.7
 74
     0
 49
0.0
 74
     0
 49
-12.7
 74
     0
  0
LTYPE
  5
94
330
5
100
AcDbSymbolTableRecord
100
AcDbLinetypeTableRecord
  2
DOT
 70
     0
  3
Dot . . . . . . . . . . . . . . . . . . . . . .
 72
    65
 73
     2
 40
6.349999999999999
 49
0.0
 74
     0
 49
-6.349999999999999
 74
     0
  0
LTYPE
  5
95
330
5
100
AcDbSymbolTableRecord
100
AcDbLinetypeTableRecord
  2
DOT2
 70
     0
  3
Dot (.5x) .....................................
 72
    65
 73
     2
 40
3.174999999999999
 49
0.0
 74
     0
 49
-3.174999999999999
 74
     0
  0
LTYPE
  5
96
330
5
100
AcDbSymbolTableRecord
100
AcDbLinetypeTableRecord
  2
DOTX2
 70
     0
  3
Dot (2x) .  .  .  .  .  .  .  .  .  .  .  .  . 
 72
    65
 73
     2
 40
12.7
 49
0.0
 74
     0
 49
-12.7
 74
     0
  0
LTYPE
  5
97
330
5
100
AcDbSymbolTableRecord
100
AcDbLinetypeTableRecord
  2
HIDDEN
 70
     0
  3
Hidden __ __ __ __ __ __ __ __ __ __ __ __ __ _
 72
    65
 73
     2
 40
9.524999999999998
 49
6.349999999999999
 74
     0
 49
-3.174999999999999
 74
     0
  0
LTYPE
  5
98
330
5
100
AcDbSymbolTableRecord
100
AcDbLinetypeTableRecord
  2
HIDDEN2
 70
     0
  3
Hidden (.5x) _ _ _ _ _ _ _ _ _ _ _ _ _ _ _ _ _
 72
    65
 73
     2
 40
4.762499999999999
 49
3.174999999999999
 74
     0
 49
-1.587499999999999
 74
     0
  0
LTYPE
  5
99
330
5
100
AcDbSymbolTableRecord
100
AcDbLinetypeTableRecord
  2
HIDDENX2
 70
     0
  3
Hidden (2x) ____ ____ ____ ____ ____ ____ ____
 72
    65
 73
     2
 40
19.05
 49
12.7
 74
     0
 49
-6.349999999999999
 74
     0
  0
LTYPE
  5
9A
330
5
100
AcDbSymbolTableRecord
100
AcDbLinetypeTableRecord
  2
PHANTOM
 70
     0
  3
Phantom ______  __  __  ______  __  __  ______
 72
    65
 73
     6
 40
63.5
 49
31.75
 74
     0
 49
-6.349999999999999
 74
     0
 49
6.349999999999999
 74
     0
 49
-6.349999999999999
 74
     0
 49
6.349999999999999
 74
     0
 49
-6.349999999999999
 74
     0
  0
LTYPE
  5
9B
330
5
100
AcDbSymbolTableRecord
100
AcDbLinetypeTableRecord
  2
PHANTOM2
 70
     0
  3
Phantom (.5x) ___ _ _ ___ _ _ ___ _ _ ___ _ _
 72
    65
 73
     6
 40
31.75
 49
15.875
 74
     0
 49
-3.174999999999999
 74
     0
 49
3.174999999999999
 74
     0
 49
-3.174999999999999
 74
     0
 49
3.174999999999999
 74
     0
 49
-3.174999999999999
 74
     0
  0
LTYPE
  5
9C
330
5
100
AcDbSymbolTableRecord
100
AcDbLinetypeTableRecord
  2
PHANTOMX2
 70
     0
  3
Phantom (2x) ____________    ____    ____   _
 72
    65
 73
     6
 40
127.0
 49
63.5
 74
     0
 49
-12.7
 74
     0
 49
12.7
 74
     0
 49
-12.7
 74
     0
 49
12.7
 74
     0
 49
-12.7
 74
     0
  0
LTYPE
  5
9D
330
5
100
AcDbSymbolTableRecord
100
AcDbLinetypeTableRecord
  2
ACAD_ISO02W100
 70
     0
  3
ISO dash __ __ __ __ __ __ __ __ __ __ __ __ __
 72
    65
 73
     2
 40
15.0
 49
12.0
 74
     0
 49
-3.0
 74
     0
  0
LTYPE
  5
9E
330
5
100
AcDbSymbolTableRecord
100
AcDbLinetypeTableRecord
  2
ACAD_ISO03W100
 70
     0
  3
ISO dash space __    __    __    __    __    __
 72
    65
 73
     2
 40
30.0
 49
12.0
 74
     0
 49
-18.0
 74
     0
  0
LTYPE
  5
9F
330
5
100
AcDbSymbolTableRecord
100
AcDbLinetypeTableRecord
  2
ACAD_ISO04W100
 70
     0
  3
ISO long-dash dot ____ . ____ . ____ . ____ . _
 72
    65
 73
     4
 40
30.0
 49
24.0
 74
     0
 49
-3.0
 74
     0
 49
0.0
 74
     0
 49
-3.0
 74
     0
  0
LTYPE
  5
A0
330
5
100
AcDbSymbolTableRecord
100
AcDbLinetypeTableRecord
  2
ACAD_ISO05W100
 70
     0
  3
ISO long-dash double-dot ____ .. ____ .. ____ .
 72
    65
 73
     6
 40
33.0
 49
24.0
 74
     0
 49
-3.0
 74
     0
 49
0.0
 74
     0
 49
-3.0
 74
     0
 49
0.0
 74
     0
 49
-3.0
 74
     0
  0
LTYPE
  5
A1
330
5
100
AcDbSymbolTableRecord
100
AcDbLinetypeTableRecord
  2
ACAD_ISO06W100
 70
     0
  3
ISO long-dash triple-dot ____ ... ____ ... ____
 72
    65
 73
     8
 40
36.0
 49
24.0
 74
     0
 49
-3.0
 74
     0
 49
0.0
 74
     0
 49
-3.0
 74
     0
 49
0.0
 74
     0
 49
-3.0
 74
     0
 49
0.0
 74
     0
 49
-3.0
 74
     0
  0
LTYPE
  5
A2
330
5
100
AcDbSymbolTableRecord
100
AcDbLinetypeTableRecord
  2
ACAD_ISO07W100
 70
     0
  3
ISO dot . . . . . . . . . . . . . . . . . . . .
 72
    65
 73
     2
 40
3.0
 49
0.0
 74
     0
 49
-3.0
 74
     0
  0
LTYPE
  5
A3
330
5
100
AcDbSymbolTableRecord
100
AcDbLinetypeTableRecord
  2
ACAD_ISO08W100
 70
     0
  3
ISO long-dash short-dash ____ __ ____ __ ____ _
 72
    65
 73
     4
 40
36.0
 49
24.0
 74
     0
 49
-3.0
 74
     0
 49
6.0
 74
     0
 49
-3.0
 74
     0
  0
LTYPE
  5
A4
330
5
100
AcDbSymbolTableRecord
100
AcDbLinetypeTableRecord
  2
ACAD_ISO09W100
 70
     0
  3
ISO long-dash double-short-dash ____ __ __ ____
 72
    65
 73
     6
 40
45.0
 49
24.0
 74
     0
 49
-3.0
 74
     0
 49
6.0
 74
     0
 49
-3.0
 74
     0
 49
6.0
 74
     0
 49
-3.0
 74
     0
  0
LTYPE
  5
A5
330
5
100
AcDbSymbolTableRecord
100
AcDbLinetypeTableRecord
  2
ACAD_ISO10W100
 70
     0
  3
ISO dash dot __ . __ . __ . __ . __ . __ . __ .
 72
    65
 73
     4
 40
18.0
 49
12.0
 74
     0
 49
-3.0
 74
     0
 49
0.0
 74
     0
 49
-3.0
 74
     0
  0
LTYPE
  5
A6
330
5
100
AcDbSymbolTableRecord
100
AcDbLinetypeTableRecord
  2
ACAD_ISO11W100
 70
     0
  3
ISO double-dash dot __ __ . __ __ . __ __ . __ 
 72
    65
 73
     6
 40
33.0
 49
12.0
 74
     0
 49
-3.0
 74
     0
 49
12.0
 74
     0
 49
-3.0
 74
     0
 49
0.0
 74
     0
 49
-3.0
 74
     0
  0
LTYPE
  5
A7
330
5
100
AcDbSymbolTableRecord
100
AcDbLinetypeTableRecord
  2
ACAD_ISO12W100
 70
     0
  3
ISO dash double-dot __ . . __ . . __ . . __ . .
 72
    65
 73
     6
 40
21.0
 49
12.0
 74
     0
 49
-3.0
 74
     0
 49
0.0
 74
     0
 49
-3.0
 74
     0
 49
0.0
 74
     0
 49
-3.0
 74
     0
  0
LTYPE
  5
A8
330
5
100
AcDbSymbolTableRecord
100
AcDbLinetypeTableRecord
  2
ACAD_ISO13W100
 70
     0
  3
ISO double-dash double-dot __ __ . . __ __ . . 
 72
    65
 73
     8
 40
36.0
 49
12.0
 74
     0
 49
-3.0
 74
     0
 49
12.0
 74
     0
 49
-3.0
 74
     0
 49
0.0
 74
     0
 49
-3.0
 74
     0
 49
0.0
 74
     0
 49
-3.0
 74
     0
  0
LTYPE
  5
A9
330
5
100
AcDbSymbolTableRecord
100
AcDbLinetypeTableRecord
  2
ACAD_ISO14W100
 70
     0
  3
ISO dash triple-dot __ . . . __ . . . __ . . . 
 72
    65
 73
     8
 40
24.0
 49
12.0
 74
     0
 49
-3.0
 74
     0
 49
0.0
 74
     0
 49
-3.0
 74
     0
 49
0.0
 74
     0
 49
-3.0
 74
     0
 49
0.0
 74
     0
 49
-3.0
 74
     0
  0
LTYPE
  5
AA
330
5
100
AcDbSymbolTableRecord
100
AcDbLinetypeTableRecord
  2
ACAD_ISO15W100
 70
     0
  3
ISO double-dash triple-dot __ __ . . . __ __ . 
 72
    65
 73
    10
 40
39.0
 49
12.0
 74
     0
 49
-3.0
 74
     0
 49
12.0
 74
     0
 49
-3.0
 74
     0
 49
0.0
 74
     0
 49
-3.0
 74
     0
 49
0.0
 74
     0
 49
-3.0
 74
     0
 49
0.0
 74
     0
 49
-3.0
 74
     0
  0
LTYPE
  5
AD
330
5
100
AcDbSymbolTableRecord
100
AcDbLinetypeTableRecord
  2
FENCELINE1
 70
     0
  3
Fenceline circle ----0-----0----0-----0----0---
 72
    65
 73
     4
 40
36.83
 49
6.349999999999999
 74
     0
 49
-2.54
 74
     4
 75
   133
340
AC
 46
2.54
 50
0.0
 44
-2.54
 45
0.0
 49
-2.54
 74
     0
 49
25.4
 74
     0
  0
LTYPE
  5
AE
330
5
100
AcDbSymbolTableRecord
100
AcDbLinetypeTableRecord
  2
FENCELINE2
 70
     0
  3
Fenceline square ----[]-----[]----[]-----[]----
 72
    65
 73
     4
 40
36.83
 49
6.349999999999999
 74
     0
 49
-2.54
 74
     4
 75
   132
340
AC
 46
2.54
 50
0.0
 44
-2.54
 45
0.0
 49
-2.54
 74
     0
 49
25.4
 74
     0
  0
LTYPE
  5
AF
330
5
100
AcDbSymbolTableRecord
100
AcDbLinetypeTableRecord
  2
TRACKS
 70
     0
  3
Tracks -|-|-|-|-|-|-|-|-|-|-|-|-|-|-|-|-|-|-|-|
 72
    65
 73
     2
 40
7.62
 49
3.81
 74
     4
 75
   130
340
AC
 46
6.349999999999999
 50
0.0
 44
0.0
 45
0.0
 49
3.81
 74
     0
  0
LTYPE
  5
B0
330
5
100
AcDbSymbolTableRecord
100
AcDbLinetypeTableRecord
  2
BATTING
 70
     0
  3
Batting SSSSSSSSSSSSSSSSSSSSSSSSSSSSSSSSSSSSSSS
 72
    65
 73
     4
 40
10.16254
 49
0.00254
 74
     0
 49
-2.54
 74
     4
 75
   134
340
AC
 46
2.54
 50
0.0
 44
-2.54
 45
0.0
 49
-5.08
 74
     4
 75
   134
340
AC
 46
2.54
 50
180.0
 44
2.54
 45
0.0
 49
-2.54
 74
     0
  0
LTYPE
  5
B1
330
5
100
AcDbSymbolTableRecord
100
AcDbLinetypeTableRecord
  2
HOT_WATER_SUPPLY
 70
     0
  3
Hot water supply ---- HW ---- HW ---- HW ----
 72
    65
 73
     3
 40
22.86
 49
12.7
 74
     0
 49
-5.08
 74
     2
 75
     0
340
55
 46
2.54
 50
0.0
 44
-2.54
 45
-1.27
  9
HW
 49
-5.08
 74
     0
  0
LTYPE
  5
B2
330
5
100
AcDbSymbolTableRecord
100
AcDbLinetypeTableRecord
  2
GAS_LINE
 70
     0
  3
Gas line ----GAS----GAS----GAS----GAS----GAS---
 72
    65
 73
     3
 40
24.13
 49
12.7
 74
     0
 49
-5.08
 74
     2
 75
     0
340
55
 46
2.54
 50
0.0
 44
-2.54
 45
-1.27
  9
GAS
 49
-6.349999999999999
 74
     0
  0
LTYPE
  5
B3
330
5
100
AcDbSymbolTableRecord
100
AcDbLinetypeTableRecord
  2
ZIGZAG
 70
     0
  3
Zig zag /\/\/\/\/\/\/\/\/\/\/\/\/\/\/\/\/\/\/\/
 72
    65
 73
     4
 40
20.32254
 49
0.00254
 74
     0
 49
-5.08
 74
     4
 75
   131
340
AC
 46
5.08
 50
0.0
 44
-5.08
 45
0.0
 49
-10.16
 74
     4
 75
   131
340
AC
 46
5.08
 50
180.0
 44
5.08
 45
0.0
 49
-5.08
 74
     0
  0
ENDTAB
  0
TABLE
  2
LAYER
  5
2
330
0
100
AcDbSymbolTable
 70
    27
  0
LAYER
  5
54
330
2
100
AcDbSymbolTableRecord
100
AcDbLayerTableRecord
  2
0
 70
     0
 62
     7
  6
Continuous
370
    -3
390
F
347
21
  0
LAYER
  5
B7
330
2
100
AcDbSymbolTableRecord
100
AcDbLayerTableRecord
  2
Border (ISO)
 70
     0
 62
     7
  6
Continuous
370
    70
390
F
347
21
  0
LAYER
  5
BC
330
2
100
AcDbSymbolTableRecord
100
AcDbLayerTableRecord
  2
Dimension (ISO)
 70
     0
 62
     7
  6
Continuous
370
    25
390
F
347
21
  0
LAYER
  5
BD
330
2
100
AcDbSymbolTableRecord
100
AcDbLayerTableRecord
  2
Hatch (ISO)
 70
     0
 62
     7
  6
Continuous
370
    18
390
F
347
21
  0
LAYER
  5
C3
330
2
100
AcDbSymbolTableRecord
100
AcDbLayerTableRecord
  2
Section Line (ISO)
 70
     0
 62
     7
  6
CHAIN
370
    70
390
F
347
21
  0
LAYER
  5
C5
330
2
100
AcDbSymbolTableRecord
100
AcDbLayerTableRecord
  2
Symbol (ISO)
 70
     0
 62
     7
  6
Continuous
370
    25
390
F
347
21
  0
LAYER
  5
C6
330
2
100
AcDbSymbolTableRecord
100
AcDbLayerTableRecord
  2
Title (ISO)
 70
     0
 62
     7
  6
Continuous
370
    50
390
F
347
21
  0
LAYER
  5
C8
330
2
100
AcDbSymbolTableRecord
100
AcDbLayerTableRecord
  2
Visible (ISO)
 70
     0
 62
     7
  6
Continuous
370
    50
390
F
347
21
  0
LAYER
  5
27C
330
2
100
AcDbSymbolTableRecord
100
AcDbLayerTableRecord
  2
Defpoints
 70
     0
 62
     7
  6
Continuous
290
     0
370
    -3
390
F
347
21
  0
ENDTAB
  0
TABLE
  2
STYLE
  5
3
330
0
100
AcDbSymbolTable
 70
     5
  0
STYLE
  5
55
330
3
100
AcDbSymbolTableRecord
100
AcDbTextStyleTableRecord
  2
Standard
 70
     0
 40
0.0
 41
1.0
 50
0.0
 71
     0
 42
0.2
  3
tahoma.ttf
  4

1001
ACAD
1000
Tahoma
1071
      256
  0
STYLE
  5
5A
330
3
100
AcDbSymbolTableRecord
100
AcDbTextStyleTableRecord
  2
Annotative
 70
     0
 40
0.0
 41
1.0
 50
0.0
 71
     0
 42
0.2
  3
txt
  4

1001
AcadAnnotative
1000
AnnotativeData
1002
{
1070
     1
1070
     1
1002
}
  0
STYLE
  5
AC
330
3
100
AcDbSymbolTableRecord
100
AcDbTextStyleTableRecord
  2

 70
     1
 40
0.0
 41
1.0
 50
0.0
 71
     0
 42
0.2
  3
ltypeshp.shx
  4

  0
STYLE
  5
CD
330
3
100
AcDbSymbolTableRecord
100
AcDbTextStyleTableRecord
  2
Label Text (ISO)
 70
     0
 40
0.0
 41
1.0
 50
0.0
 71
     0
 42
0.2
  3
tahoma.ttf
  4

1001
ACAD
1000
Tahoma
1071
      256
  0
STYLE
  5
CE
330
3
100
AcDbSymbolTableRecord
100
AcDbTextStyleTableRecord
  2
Note Text (ISO)
 70
     0
 40
0.0
 41
1.0
 50
0.0
 71
     0
 42
0.2
  3
tahoma.ttf
  4

1001
ACAD
1000
Tahoma
1071
      256
  0
ENDTAB
  0
TABLE
  2
VIEW
  5
6
330
0
100
AcDbSymbolTable
 70
     0
  0
ENDTAB
  0
TABLE
  2
UCS
  5
7
330
0
100
AcDbSymbolTable
 70
     0
  0
ENDTAB
  0
TABLE
  2
APPID
  5
9
330
0
100
AcDbSymbolTable
 70
     3
  0
APPID
  5
56
330
9
100
AcDbSymbolTableRecord
100
AcDbRegAppTableRecord
  2
ACAD
 70
     0
  0
APPID
  5
5E
330
9
100
AcDbSymbolTableRecord
100
AcDbRegAppTableRecord
  2
AcadAnnotative
 70
     0
  0
APPID
  5
171
330
9
100
AcDbSymbolTableRecord
100
AcDbRegAppTableRecord
  2
AcadAnnoPO
 70
     0
  0
ENDTAB
  0
TABLE
  2
DIMSTYLE
  5
A
330
0
100
AcDbSymbolTable
 70
    15
100
AcDbDimStyleTable
 71
     2
340
D7
340
58
  0
DIMSTYLE
105
58
330
A
100
AcDbSymbolTableRecord
100
AcDbDimStyleTableRecord
  2
Standard
 70
     0
340
55
  0
DIMSTYLE
105
59
330
A
100
AcDbSymbolTableRecord
100
AcDbDimStyleTableRecord
  2
Annotative
 70
     0
340
55
1001
AcadAnnotative
1000
AnnotativeData
1002
{
1070
     1
1070
     1
1002
}
  0
DIMSTYLE
105
CF
330
A
100
AcDbSymbolTableRecord
100
AcDbDimStyleTableRecord
  2
Default - Method 1b (ISO)
 70
     0
 41
2.5
 42
0.0
 43
5.999999999999999
 44
3.174999999999999
 45
0.00000001
 46
10.0
 73
     0
 77
     1
 78
     8
 79
     2
140
2.5
143
0.03937
146
1.399999976158142
147
0.762
171
     3
172
     1
176
   256
177
   256
178
   232
179
     2
271
     2
272
     2
274
     3
278
    44
284
     8
286
     8
340
CE
371
    -1
372
    -1
  0
DIMSTYLE
105
D0
330
A
100
AcDbSymbolTableRecord
100
AcDbDimStyleTableRecord
  2
Default - Method 1b (ISO)$7
 70
     0
 41
2.5
 42
0.0
 43
5.999999999999999
 44
3.174999999999999
 45
0.00000001
 46
10.0
 73
     0
 77
     1
 78
     8
 79
     2
140
2.5
143
0.03937
146
1.399999976158142
147
0.762
171
     3
172
     1
176
   256
177
   256
178
   232
179
     2
271
     2
272
     2
274
     3
278
    44
284
     8
286
     8
340
CE
371
    -1
372
    -1
  0
DIMSTYLE
105
D1
330
A
100
AcDbSymbolTableRecord
100
AcDbDimStyleTableRecord
  2
Default - Method 2a (ISO)
 70
     0
 41
2.5
 42
0.0
 43
5.999999999999999
 44
3.174999999999999
 45
0.00000001
 46
10.0
 77
     1
 78
     8
 79
     2
140
2.5
143
0.03937
146
1.399999976158142
147
0.762
171
     3
172
     1
176
   256
177
   256
178
   232
179
     2
271
     2
272
     2
274
     3
278
    44
284
     8
286
     8
340
CE
371
    -1
372
    -1
  0
DIMSTYLE
105
D2
330
A
100
AcDbSymbolTableRecord
100
AcDbDimStyleTableRecord
  2
Default - Method 2a (ISO)$7
 70
     0
 41
2.5
 42
0.0
 43
5.999999999999999
 44
3.174999999999999
 45
0.00000001
 46
10.0
 77
     1
 78
     8
 79
     2
140
2.5
143
0.03937
146
1.399999976158142
147
0.762
171
     3
172
     1
176
   256
177
   256
178
   232
179
     2
271
     2
272
     2
274
     3
278
    44
284
     8
286
     8
340
CE
371
    -1
372
    -1
  0
DIMSTYLE
105
D3
330
A
100
AcDbSymbolTableRecord
100
AcDbDimStyleTableRecord
  2
Default - Method 2b (ISO)
 70
     0
 41
2.5
 42
0.0
 43
5.999999999999999
 44
3.174999999999999
 45
0.00000001
 46
10.0
 77
     1
 78
     8
 79
     2
140
2.5
143
0.03937
147
0.762
171
     3
172
     1
176
   256
177
   256
178
   232
179
     2
271
     2
272
     1
274
     3
278
    44
284
     8
286
     8
340
CE
371
    -1
372
    -1
  0
DIMSTYLE
105
D4
330
A
100
AcDbSymbolTableRecord
100
AcDbDimStyleTableRecord
  2
Default - Method 2b (ISO)$7
 70
     0
 41
2.5
 42
0.0
 43
5.999999999999999
 44
3.174999999999999
 45
0.00000001
 46
10.0
 77
     1
 78
     8
 79
     2
140
2.5
143
0.03937
147
0.762
171
     3
172
     1
176
   256
177
   256
178
   232
179
     2
271
     2
272
     1
274
     3
278
    44
284
     8
286
     8
340
CE
371
    -1
372
    -1
  0
DIMSTYLE
105
D5
330
A
100
AcDbSymbolTableRecord
100
AcDbDimStyleTableRecord
  2
Default - mm [in] (ISO)
 70
     0
  4
 in
 41
2.5
 42
0.0
 43
5.999999999999999
 44
3.174999999999999
 45
0.00000001
 46
10.0
 73
     0
 74
     0
 77
     1
 78
     8
 79
     2
140
2.5
143
0.03937
146
1.399999976158142
147
0.762
170
     1
171
     3
172
     1
176
   256
177
   256
178
   232
179
     3
271
     3
272
     2
274
     3
275
     1
278
    44
284
     8
285
     8
286
     8
340
CE
371
    -1
372
    -1
  0
DIMSTYLE
105
D6
330
A
100
AcDbSymbolTableRecord
100
AcDbDimStyleTableRecord
  2
Default - mm [in] (ISO)$7
 70
     0
  4
 in
 41
2.5
 42
0.0
 43
5.999999999999999
 44
3.174999999999999
 45
0.00000001
 46
10.0
 73
     0
 74
     0
 77
     1
 78
     8
 79
     2
140
2.5
143
0.03937
146
1.399999976158142
147
0.762
170
     1
171
     3
172
     1
176
   256
177
   256
178
   232
179
     3
271
     3
272
     2
274
     3
275
     1
278
    44
284
     8
285
     8
286
     8
340
CE
371
    -1
372
    -1
  0
DIMSTYLE
105
D7
102
{ACAD_REACTORS
330
27B
330
355
330
426
330
4FF
330
5D5
330
6AB
330
78D
330
86F
330
945
102
}
330
A
100
AcDbSymbolTableRecord
100
AcDbDimStyleTableRecord
  2
Default (ISO)
 70
     0
 41
2.5
 42
0.0
 43
5.999999999999999
 44
3.174999999999999
 45
0.00000001
 46
10.0
 73
     0
 74
     0
 77
     1
140
2.5
143
0.03937
146
1.402080059051513
147
0.762
171
     3
172
     1
176
   256
177
   256
178
   232
179
     2
271
     2
272
     2
274
     3
278
    44
340
CE
371
    -1
372
    -1
  0
DIMSTYLE
105
D8
330
A
100
AcDbSymbolTableRecord
100
AcDbDimStyleTableRecord
  2
Default (ISO)$7
 70
     0
 41
2.5
 42
0.0
 43
5.999999999999999
 44
3.174999999999999
 45
0.00000001
 46
10.0
 73
     0
 74
     0
 77
     1
140
2.5
143
0.03937
146
1.402080059051513
147
0.762
171
     3
172
     1
176
   256
177
   256
178
   232
179
     2
271
     2
272
     2
274
     3
278
    44
340
CE
371
    -1
372
    -1
  0
DIMSTYLE
105
D9
330
A
100
AcDbSymbolTableRecord
100
AcDbDimStyleTableRecord
  2
Alternate (ISO)
 70
     0
 41
2.5
340
55
342
DA
  0
DIMSTYLE
105
EC
330
A
100
AcDbSymbolTableRecord
100
AcDbDimStyleTableRecord
  2
Datum (ISO)
 70
     0
 41
2.5
340
55
342
DA
  0
DIMSTYLE
105
FB
330
A
100
AcDbSymbolTableRecord
100
AcDbDimStyleTableRecord
  2
Large (ISO)
 70
     0
 41
5.0
340
55
342
DA
  0
ENDTAB
  0
TABLE
  2
BLOCK_RECORD
  5
1
330
0
100
AcDbSymbolTable
 70
    16
  0
BLOCK_RECORD
  5
70
330
1
100
AcDbSymbolTableRecord
100
AcDbBlockTableRecord
  2
*Model_Space
340
73
 70
     0
280
     1
281
     0
  0
BLOCK_RECORD
  5
6C
330
1
100
AcDbSymbolTableRecord
100
AcDbBlockTableRecord
  2
*Paper_Space
340
6F
 70
     0
280
     1
281
     0
  0
BLOCK_RECORD
  5
74
330
1
100
AcDbSymbolTableRecord
100
AcDbBlockTableRecord
  2
*Paper_Space0
340
77
 70
     0
280
     1
281
     0
  0
BLOCK_RECORD
  5
DA
330
1
100
AcDbSymbolTableRecord
100
AcDbBlockTableRecord
  2
_Closed
340
0
 70
     0
280
     1
281
     0
  0
BLOCK_RECORD
  5
E1
330
1
100
AcDbSymbolTableRecord
100
AcDbBlockTableRecord
  2
DatumFilled45
340
0
 70
     0
280
     1
281
     0
  0
BLOCK_RECORD
  5
ED
330
1
100
AcDbSymbolTableRecord
100
AcDbBlockTableRecord
  2
Filled-1
340
0
 70
     0
280
     1
281
     0
  0
BLOCK_RECORD
  5
FC
330
1
100
AcDbSymbolTableRecord
100
AcDbBlockTableRecord
  2
Borders Default Border
340
0
102
{BLKREFS
331
16B
102
}
 70
     0
280
     1
281
     0
  0
BLOCK_RECORD
  5
16C
330
1
100
AcDbSymbolTableRecord
100
AcDbBlockTableRecord
  2
Title Blocks ISO
340
0
102
{BLKREFS
331
173
102
}
 70
     0
280
     1
281
     0
  0
BLOCK_RECORD
  5
1D1
330
1
100
AcDbSymbolTableRecord
100
AcDbBlockTableRecord
  2
2dTransSection0
340
0
102
{BLKREFS
331
1F1
102
}
 70
     0
280
     1
281
     0
  0
BLOCK_RECORD
  5
27D
330
1
100
AcDbSymbolTableRecord
100
AcDbBlockTableRecord
  2
*D7
340
0
 70
     0
280
     1
281
     0
  0
BLOCK_RECORD
  5
356
330
1
100
AcDbSymbolTableRecord
100
AcDbBlockTableRecord
  2
*D8
340
0
 70
     0
280
     1
281
     0
  0
BLOCK_RECORD
  5
427
330
1
100
AcDbSymbolTableRecord
100
AcDbBlockTableRecord
  2
*D9
340
0
 70
     0
280
     1
281
     0
  0
BLOCK_RECORD
  5
500
330
1
100
AcDbSymbolTableRecord
100
AcDbBlockTableRecord
  2
*D10
340
0
 70
     0
280
     1
281
     0
  0
BLOCK_RECORD
  5
5D6
330
1
100
AcDbSymbolTableRecord
100
AcDbBlockTableRecord
  2
*D11
340
0
 70
     0
280
     1
281
     0
  0
BLOCK_RECORD
  5
6AC
330
1
100
AcDbSymbolTableRecord
100
AcDbBlockTableRecord
  2
*D12
340
0
 70
     0
280
     1
281
     0
  0
BLOCK_RECORD
  5
78E
330
1
100
AcDbSymbolTableRecord
100
AcDbBlockTableRecord
  2
*D13
340
0
 70
     0
280
     1
281
     0
  0
BLOCK_RECORD
  5
870
330
1
100
AcDbSymbolTableRecord
100
AcDbBlockTableRecord
  2
*D14
340
0
 70
     0
280
     1
281
     0
  0
BLOCK_RECORD
  5
946
330
1
100
AcDbSymbolTableRecord
100
AcDbBlockTableRecord
  2
*D15
340
0
 70
     0
280
     1
281
     0
  0
ENDTAB
  0
ENDSEC
  0
SECTION
  2
BLOCKS
  0
BLOCK
  5
71
330
70
100
AcDbEntity
  8
0
100
AcDbBlockBegin
  2
*Model_Space
 70
     0
 10
0.0
 20
0.0
 30
0.0
  3
*Model_Space
  1

  0
ENDBLK
  5
72
330
70
100
AcDbEntity
  8
0
100
AcDbBlockEnd
  0
BLOCK
  5
6D
330
6C
100
AcDbEntity
 67
     1
  8
0
100
AcDbBlockBegin
  2
*Paper_Space
 70
     0
 10
0.0
 20
0.0
 30
0.0
  3
*Paper_Space
  1

  0
ENDBLK
  5
6E
330
6C
100
AcDbEntity
 67
     1
  8
0
100
AcDbBlockEnd
  0
BLOCK
  5
75
330
74
100
AcDbEntity
 67
     1
  8
0
100
AcDbBlockBegin
  2
*Paper_Space0
 70
     0
 10
0.0
 20
0.0
 30
0.0
  3
*Paper_Space0
  1

  0
ENDBLK
  5
76
330
74
100
AcDbEntity
 67
     1
  8
0
100
AcDbBlockEnd
  0
BLOCK
  5
DF
330
DA
100
AcDbEntity
  8
0
100
AcDbBlockBegin
  2
_Closed
 70
     0
 10
0.0
 20
0.0
 30
0.0
  3
_Closed
  1

  0
LINE
  5
DB
330
DA
100
AcDbEntity
  8
0
  6
ByBlock
 62
     0
370
    -2
100
AcDbLine
 10
-1.0
 20
0.1666666666666666
 30
0.0
 11
0.0
 21
0.0
 31
0.0
  0
LINE
  5
DC
330
DA
100
AcDbEntity
  8
0
  6
ByBlock
 62
     0
370
    -2
100
AcDbLine
 10
0.0
 20
0.0
 30
0.0
 11
-1.0
 21
-0.1666666666666666
 31
0.0
  0
LINE
  5
DD
330
DA
100
AcDbEntity
  8
0
  6
ByBlock
 62
     0
370
    -2
100
AcDbLine
 10
-1.0
 20
0.1666666666666666
 30
0.0
 11
-1.0
 21
-0.1666666666666666
 31
0.0
  0
LINE
  5
DE
330
DA
100
AcDbEntity
  8
0
  6
ByBlock
 62
     0
370
    -2
100
AcDbLine
 10
0.0
 20
0.0
 30
0.0
 11
-1.0
 21
0.0
 31
0.0
  0
ENDBLK
  5
E0
330
DA
100
AcDbEntity
  8
0
100
AcDbBlockEnd
  0
BLOCK
  5
E2
330
E1
100
AcDbEntity
  8
0
100
AcDbBlockBegin
  2
DatumFilled45
 70
     0
 10
0.0
 20
0.0
 30
0.0
  3
DatumFilled45
  1

  0
POLYLINE
  5
E4
330
E1
100
AcDbEntity
  8
0
 62
     0
100
AcDb2dPolyline
 66
     1
 10
0.0
 20
0.0
 30
0.0
 70
   128
  0
VERTEX
  5
E5
330
E4
100
AcDbEntity
  8
0
 62
     0
100
AcDbVertex
100
AcDb2dVertex
 10
0.0
 20
1.0
 30
0.0
  0
VERTEX
  5
E6
330
E4
100
AcDbEntity
  8
0
 62
     0
100
AcDbVertex
100
AcDb2dVertex
 10
0.0
 20
-1.0
 30
0.0
  0
VERTEX
  5
E8
330
E4
100
AcDbEntity
  8
0
 62
     0
100
AcDbVertex
100
AcDb2dVertex
 10
-1.0
 20
0.0
 30
0.0
  0
VERTEX
  5
E9
330
E4
100
AcDbEntity
  8
0
 62
     0
100
AcDbVertex
100
AcDb2dVertex
 10
0.0
 20
1.0
 30
0.0
  0
SEQEND
  5
E7
330
E4
100
AcDbEntity
  8
0
 62
     0
  0
SOLID
  5
EB
330
E1
100
AcDbEntity
  8
0
 62
     0
100
AcDbTrace
 10
0.0
 20
1.0
 30
0.0
 11
0.0
 21
-1.0
 31
0.0
 12
-1.0
 22
0.0
 32
0.0
 13
0.0
 23
1.0
 33
0.0
  0
ENDBLK
  5
E3
330
E1
100
AcDbEntity
  8
0
100
AcDbBlockEnd
  0
BLOCK
  5
EE
330
ED
100
AcDbEntity
  8
0
100
AcDbBlockBegin
  2
Filled-1
 70
     0
 10
0.0
 20
0.0
 30
0.0
  3
Filled-1
  1

  0
LINE
  5
F0
330
ED
100
AcDbEntity
  8
0
 62
     0
100
AcDbLine
 10
-1.0
 20
0.0
 30
0.0
 11
0.0
 21
0.0
 31
0.0
  0
POLYLINE
  5
F1
330
ED
100
AcDbEntity
  8
0
 62
     0
100
AcDb2dPolyline
 66
     1
 10
0.0
 20
0.0
 30
0.0
 70
   128
  0
VERTEX
  5
F2
330
F1
100
AcDbEntity
  8
0
 62
     0
100
AcDbVertex
100
AcDb2dVertex
 10
-1.0
 20
-0.1
 30
0.0
  0
VERTEX
  5
F3
330
F1
100
AcDbEntity
  8
0
 62
     0
100
AcDbVertex
100
AcDb2dVertex
 10
0.0
 20
0.0
 30
0.0
  0
VERTEX
  5
F5
330
F1
100
AcDbEntity
  8
0
 62
     0
100
AcDbVertex
100
AcDb2dVertex
 10
-1.0
 20
0.1
 30
0.0
  0
VERTEX
  5
F6
330
F1
100
AcDbEntity
  8
0
 62
     0
100
AcDbVertex
100
AcDb2dVertex
 10
-1.0
 20
-0.1
 30
0.0
  0
SEQEND
  5
F4
330
F1
100
AcDbEntity
  8
0
 62
     0
  0
SOLID
  5
F7
330
ED
100
AcDbEntity
  8
0
 62
     0
100
AcDbTrace
 10
-1.0
 20
-0.1
 30
0.0
 11
0.0
 21
0.0
 31
0.0
 12
-1.0
 22
0.1
 32
0.0
 13
-1.0
 23
-0.1
 33
0.0
  0
LINE
  5
F8
330
ED
100
AcDbEntity
  8
0
 62
     0
100
AcDbLine
 10
-1.0
 20
-0.1
 30
0.0
 11
0.0
 21
0.0
 31
0.0
  0
LINE
  5
F9
330
ED
100
AcDbEntity
  8
0
 62
     0
100
AcDbLine
 10
0.0
 20
0.0
 30
0.0
 11
-1.0
 21
0.1
 31
0.0
  0
LINE
  5
FA
330
ED
100
AcDbEntity
  8
0
 62
     0
100
AcDbLine
 10
-1.0
 20
0.1
 30
0.0
 11
-1.0
 21
-0.1
 31
0.0
  0
ENDBLK
  5
EF
330
ED
100
AcDbEntity
  8
0
100
AcDbBlockEnd
  0
BLOCK
  5
FD
330
FC
100
AcDbEntity
  8
0
100
AcDbBlockBegin
  2
Borders Default Border
 70
     0
 10
0.0
 20
0.0
 30
0.0
  3
Borders Default Border
  1

  0
POLYLINE
  5
FF
330
FC
100
AcDbEntity
  8
Border (ISO)
100
AcDb2dPolyline
 66
     1
 10
0.0
 20
0.0
 30
0.0
 70
   128
  0
VERTEX
  5
100
330
FF
100
AcDbEntity
  8
Border (ISO)
100
AcDbVertex
100
AcDb2dVertex
 10
20.0
 20
20.0
 30
0.0
  0
VERTEX
  5
101
330
FF
100
AcDbEntity
  8
Border (ISO)
100
AcDbVertex
100
AcDb2dVertex
 10
20.0
 20
574.000015258789
 30
0.0
  0
VERTEX
  5
103
330
FF
100
AcDbEntity
  8
Border (ISO)
100
AcDbVertex
100
AcDb2dVertex
 10
820.999984741211
 20
574.000015258789
 30
0.0
  0
VERTEX
  5
104
330
FF
100
AcDbEntity
  8
Border (ISO)
100
AcDbVertex
100
AcDb2dVertex
 10
820.999984741211
 20
20.0
 30
0.0
  0
VERTEX
  5
105
330
FF
100
AcDbEntity
  8
Border (ISO)
100
AcDbVertex
100
AcDb2dVertex
 10
20.0
 20
20.0
 30
0.0
  0
SEQEND
  5
102
330
FF
100
AcDbEntity
  8
Border (ISO)
  0
POLYLINE
  5
106
330
FC
100
AcDbEntity
  8
Border (ISO)
100
AcDb2dPolyline
 66
     1
 10
0.0
 20
0.0
 30
0.0
 70
   128
  0
VERTEX
  5
107
330
106
100
AcDbEntity
  8
Border (ISO)
100
AcDbVertex
100
AcDb2dVertex
 10
420.4999923706054
 20
0.0
 30
0.0
  0
VERTEX
  5
108
330
106
100
AcDbEntity
  8
Border (ISO)
100
AcDbVertex
100
AcDb2dVertex
 10
420.4999923706054
 20
20.0
 30
0.0
  0
VERTEX
  5
10A
330
106
100
AcDbEntity
  8
Border (ISO)
100
AcDbVertex
100
AcDb2dVertex
 10
414.7264862060547
 20
10.0
 30
0.0
  0
VERTEX
  5
10B
330
106
100
AcDbEntity
  8
Border (ISO)
100
AcDbVertex
100
AcDb2dVertex
 10
426.2734985351562
 20
10.0
 30
0.0
  0
VERTEX
  5
10C
330
106
100
AcDbEntity
  8
Border (ISO)
100
AcDbVertex
100
AcDb2dVertex
 10
420.4999923706054
 20
20.0
 30
0.0
  0
SEQEND
  5
109
330
106
100
AcDbEntity
  8
Border (ISO)
  0
POLYLINE
  5
10D
330
FC
100
AcDbEntity
  8
Border (ISO)
100
AcDb2dPolyline
 66
     1
 10
0.0
 20
0.0
 30
0.0
 70
   128
  0
VERTEX
  5
10E
330
10D
100
AcDbEntity
  8
Border (ISO)
100
AcDbVertex
100
AcDb2dVertex
 10
420.4999923706054
 20
594.0000152587891
 30
0.0
  0
VERTEX
  5
10F
330
10D
100
AcDbEntity
  8
Border (ISO)
100
AcDbVertex
100
AcDb2dVertex
 10
420.4999923706054
 20
574.000015258789
 30
0.0
  0
VERTEX
  5
111
330
10D
100
AcDbEntity
  8
Border (ISO)
100
AcDbVertex
100
AcDb2dVertex
 10
414.7264862060547
 20
584.000015258789
 30
0.0
  0
VERTEX
  5
112
330
10D
100
AcDbEntity
  8
Border (ISO)
100
AcDbVertex
100
AcDb2dVertex
 10
426.2734985351562
 20
584.000015258789
 30
0.0
  0
VERTEX
  5
113
330
10D
100
AcDbEntity
  8
Border (ISO)
100
AcDbVertex
100
AcDb2dVertex
 10
420.4999923706054
 20
574.000015258789
 30
0.0
  0
SEQEND
  5
110
330
10D
100
AcDbEntity
  8
Border (ISO)
  0
POLYLINE
  5
114
330
FC
100
AcDbEntity
  8
Border (ISO)
100
AcDb2dPolyline
 66
     1
 10
0.0
 20
0.0
 30
0.0
 70
   128
  0
VERTEX
  5
115
330
114
100
AcDbEntity
  8
Border (ISO)
100
AcDbVertex
100
AcDb2dVertex
 10
0.0
 20
297.0000076293946
 30
0.0
  0
VERTEX
  5
116
330
114
100
AcDbEntity
  8
Border (ISO)
100
AcDbVertex
100
AcDb2dVertex
 10
20.0
 20
297.0000076293946
 30
0.0
  0
VERTEX
  5
118
330
114
100
AcDbEntity
  8
Border (ISO)
100
AcDbVertex
100
AcDb2dVertex
 10
10.0
 20
302.773494720459
 30
0.0
  0
VERTEX
  5
119
330
114
100
AcDbEntity
  8
Border (ISO)
100
AcDbVertex
100
AcDb2dVertex
 10
10.0
 20
291.2265014648438
 30
0.0
  0
VERTEX
  5
11A
330
114
100
AcDbEntity
  8
Border (ISO)
100
AcDbVertex
100
AcDb2dVertex
 10
20.0
 20
297.0000076293946
 30
0.0
  0
SEQEND
  5
117
330
114
100
AcDbEntity
  8
Border (ISO)
  0
POLYLINE
  5
11B
330
FC
100
AcDbEntity
  8
Border (ISO)
100
AcDb2dPolyline
 66
     1
 10
0.0
 20
0.0
 30
0.0
 70
   128
  0
VERTEX
  5
11C
330
11B
100
AcDbEntity
  8
Border (ISO)
100
AcDbVertex
100
AcDb2dVertex
 10
840.9999847412109
 20
297.0000076293946
 30
0.0
  0
VERTEX
  5
11D
330
11B
100
AcDbEntity
  8
Border (ISO)
100
AcDbVertex
100
AcDb2dVertex
 10
820.999984741211
 20
297.0000076293946
 30
0.0
  0
VERTEX
  5
11F
330
11B
100
AcDbEntity
  8
Border (ISO)
100
AcDbVertex
100
AcDb2dVertex
 10
830.9999847412109
 20
302.773494720459
 30
0.0
  0
VERTEX
  5
120
330
11B
100
AcDbEntity
  8
Border (ISO)
100
AcDbVertex
100
AcDb2dVertex
 10
830.9999847412109
 20
291.2265014648438
 30
0.0
  0
VERTEX
  5
121
330
11B
100
AcDbEntity
  8
Border (ISO)
100
AcDbVertex
100
AcDb2dVertex
 10
820.999984741211
 20
297.0000076293946
 30
0.0
  0
SEQEND
  5
11E
330
11B
100
AcDbEntity
  8
Border (ISO)
  0
LINE
  5
122
330
FC
100
AcDbEntity
  8
Border (ISO)
100
AcDbLine
 10
70.08333206176757
 20
20.0
 30
0.0
 11
70.08333206176757
 21
17.10000038146972
 31
0.0
  0
LINE
  5
123
330
FC
100
AcDbEntity
  8
Border (ISO)
100
AcDbLine
 10
70.08333206176757
 20
574.000015258789
 30
0.0
 11
70.08333206176757
 21
576.8999862670898
 31
0.0
  0
LINE
  5
124
330
FC
100
AcDbEntity
  8
Border (ISO)
100
AcDbLine
 10
140.1666641235351
 20
20.0
 30
0.0
 11
140.1666641235351
 21
17.10000038146972
 31
0.0
  0
LINE
  5
125
330
FC
100
AcDbEntity
  8
Border (ISO)
100
AcDbLine
 10
140.1666641235351
 20
574.000015258789
 30
0.0
 11
140.1666641235351
 21
576.8999862670898
 31
0.0
  0
LINE
  5
126
330
FC
100
AcDbEntity
  8
Border (ISO)
100
AcDbLine
 10
210.2499961853027
 20
20.0
 30
0.0
 11
210.2499961853027
 21
17.10000038146972
 31
0.0
  0
LINE
  5
127
330
FC
100
AcDbEntity
  8
Border (ISO)
100
AcDbLine
 10
210.2499961853027
 20
574.000015258789
 30
0.0
 11
210.2499961853027
 21
576.8999862670898
 31
0.0
  0
LINE
  5
128
330
FC
100
AcDbEntity
  8
Border (ISO)
100
AcDbLine
 10
280.3333282470703
 20
20.0
 30
0.0
 11
280.3333282470703
 21
17.10000038146972
 31
0.0
  0
LINE
  5
129
330
FC
100
AcDbEntity
  8
Border (ISO)
100
AcDbLine
 10
280.3333282470703
 20
574.000015258789
 30
0.0
 11
280.3333282470703
 21
576.8999862670898
 31
0.0
  0
LINE
  5
12A
330
FC
100
AcDbEntity
  8
Border (ISO)
100
AcDbLine
 10
350.4166793823242
 20
20.0
 30
0.0
 11
350.4166793823242
 21
17.10000038146972
 31
0.0
  0
LINE
  5
12B
330
FC
100
AcDbEntity
  8
Border (ISO)
100
AcDbLine
 10
350.4166793823242
 20
574.000015258789
 30
0.0
 11
350.4166793823242
 21
576.8999862670898
 31
0.0
  0
LINE
  5
12C
330
FC
100
AcDbEntity
  8
Border (ISO)
100
AcDbLine
 10
490.5833435058593
 20
20.0
 30
0.0
 11
490.5833435058593
 21
17.10000038146972
 31
0.0
  0
LINE
  5
12D
330
FC
100
AcDbEntity
  8
Border (ISO)
100
AcDbLine
 10
490.5833435058593
 20
574.000015258789
 30
0.0
 11
490.5833435058593
 21
576.8999862670898
 31
0.0
  0
LINE
  5
12E
330
FC
100
AcDbEntity
  8
Border (ISO)
100
AcDbLine
 10
560.6666564941406
 20
20.0
 30
0.0
 11
560.6666564941406
 21
17.10000038146972
 31
0.0
  0
LINE
  5
12F
330
FC
100
AcDbEntity
  8
Border (ISO)
100
AcDbLine
 10
560.6666564941406
 20
574.000015258789
 30
0.0
 11
560.6666564941406
 21
576.8999862670898
 31
0.0
  0
LINE
  5
130
330
FC
100
AcDbEntity
  8
Border (ISO)
100
AcDbLine
 10
630.7500076293945
 20
20.0
 30
0.0
 11
630.7500076293945
 21
17.10000038146972
 31
0.0
  0
LINE
  5
131
330
FC
100
AcDbEntity
  8
Border (ISO)
100
AcDbLine
 10
630.7500076293945
 20
574.000015258789
 30
0.0
 11
630.7500076293945
 21
576.8999862670898
 31
0.0
  0
LINE
  5
132
330
FC
100
AcDbEntity
  8
Border (ISO)
100
AcDbLine
 10
700.8333587646484
 20
20.0
 30
0.0
 11
700.8333587646484
 21
17.10000038146972
 31
0.0
  0
LINE
  5
133
330
FC
100
AcDbEntity
  8
Border (ISO)
100
AcDbLine
 10
700.8333587646484
 20
574.000015258789
 30
0.0
 11
700.8333587646484
 21
576.8999862670898
 31
0.0
  0
LINE
  5
134
330
FC
100
AcDbEntity
  8
Border (ISO)
100
AcDbLine
 10
770.9166717529297
 20
20.0
 30
0.0
 11
770.9166717529297
 21
17.10000038146972
 31
0.0
  0
LINE
  5
135
330
FC
100
AcDbEntity
  8
Border (ISO)
100
AcDbLine
 10
770.9166717529297
 20
574.000015258789
 30
0.0
 11
770.9166717529297
 21
576.8999862670898
 31
0.0
  0
MTEXT
  5
136
330
FC
100
AcDbEntity
  8
Border (ISO)
 62
   232
420
 13238372
100
AcDbMText
 10
34.47766113364014
 20
574.3999999999999
 30
0.0
 40
2.5
 41
0.0
 46
0.0
 71
     7
 72
     1
  1
1
  7
Note Text (ISO)
 73
     1
 44
1.0
  0
MTEXT
  5
138
330
FC
100
AcDbEntity
  8
Border (ISO)
 62
   232
420
 13238372
100
AcDbMText
 10
34.47766113364014
 20
17.1
 30
0.0
 40
2.5
 41
0.0
 46
0.0
 71
     7
 72
     1
  1
1
  7
Note Text (ISO)
 73
     1
 44
1.0
  0
MTEXT
  5
139
330
FC
100
AcDbEntity
  8
Border (ISO)
 62
   232
420
 13238372
100
AcDbMText
 10
104.3669939703322
 20
574.3999999999999
 30
0.0
 40
2.5
 41
0.0
 46
0.0
 71
     7
 72
     1
  1
2
  7
Note Text (ISO)
 73
     1
 44
1.0
  0
MTEXT
  5
13A
330
FC
100
AcDbEntity
  8
Border (ISO)
 62
   232
420
 13238372
100
AcDbMText
 10
104.3669939703322
 20
17.1
 30
0.0
 40
2.5
 41
0.0
 46
0.0
 71
     7
 72
     1
  1
2
  7
Note Text (ISO)
 73
     1
 44
1.0
  0
MTEXT
  5
13B
330
FC
100
AcDbEntity
  8
Border (ISO)
 62
   232
420
 13238372
100
AcDbMText
 10
174.4303272524654
 20
574.3473257688805
 30
0.0
 40
2.5
 41
0.0
 46
0.0
 71
     7
 72
     1
  1
3
  7
Note Text (ISO)
 73
     1
 44
1.0
  0
MTEXT
  5
13C
330
FC
100
AcDbEntity
  8
Border (ISO)
 62
   232
420
 13238372
100
AcDbMText
 10
174.4303272524654
 20
17.04732576888055
 30
0.0
 40
2.5
 41
0.0
 46
0.0
 71
     7
 72
     1
  1
3
  7
Note Text (ISO)
 73
     1
 44
1.0
  0
MTEXT
  5
13D
330
FC
100
AcDbEntity
  8
Border (ISO)
 62
   232
420
 13238372
100
AcDbMText
 10
244.4196603451581
 20
574.3999999999999
 30
0.0
 40
2.5
 41
0.0
 46
0.0
 71
     7
 72
     1
  1
4
  7
Note Text (ISO)
 73
     1
 44
1.0
  0
MTEXT
  5
13E
330
FC
100
AcDbEntity
  8
Border (ISO)
 62
   232
420
 13238372
100
AcDbMText
 10
244.4196603451581
 20
17.1
 30
0.0
 40
2.5
 41
0.0
 46
0.0
 71
     7
 72
     1
  1
4
  7
Note Text (ISO)
 73
     1
 44
1.0
  0
MTEXT
  5
13F
330
FC
100
AcDbEntity
  8
Border (ISO)
 62
   232
420
 13238372
100
AcDbMText
 10
314.6429940368923
 20
574.3473257688805
 30
0.0
 40
2.5
 41
0.0
 46
0.0
 71
     7
 72
     1
  1
5
  7
Note Text (ISO)
 73
     1
 44
1.0
  0
MTEXT
  5
140
330
FC
100
AcDbEntity
  8
Border (ISO)
 62
   232
420
 13238372
100
AcDbMText
 10
314.6429940368923
 20
17.04732576888055
 30
0.0
 40
2.5
 41
0.0
 46
0.0
 71
     7
 72
     1
  1
5
  7
Note Text (ISO)
 73
     1
 44
1.0
  0
MTEXT
  5
141
330
FC
100
AcDbEntity
  8
Border (ISO)
 62
   232
420
 13238372
100
AcDbMText
 10
384.6603272012653
 20
574.3473257688805
 30
0.0
 40
2.5
 41
0.0
 46
0.0
 71
     7
 72
     1
  1
6
  7
Note Text (ISO)
 73
     1
 44
1.0
  0
MTEXT
  5
142
330
FC
100
AcDbEntity
  8
Border (ISO)
 62
   232
420
 13238372
100
AcDbMText
 10
384.6603272012653
 20
17.04732576888055
 30
0.0
 40
2.5
 41
0.0
 46
0.0
 71
     7
 72
     1
  1
6
  7
Note Text (ISO)
 73
     1
 44
1.0
  0
MTEXT
  5
143
330
FC
100
AcDbEntity
  8
Border (ISO)
 62
   232
420
 13238372
100
AcDbMText
 10
454.7676605960387
 20
574.3999999999999
 30
0.0
 40
2.5
 41
0.0
 46
0.0
 71
     7
 72
     1
  1
7
  7
Note Text (ISO)
 73
     1
 44
1.0
  0
MTEXT
  5
144
330
FC
100
AcDbEntity
  8
Border (ISO)
 62
   232
420
 13238372
100
AcDbMText
 10
454.7676605960387
 20
17.1
 30
0.0
 40
2.5
 41
0.0
 46
0.0
 71
     7
 72
     1
  1
7
  7
Note Text (ISO)
 73
     1
 44
1.0
  0
MTEXT
  5
145
330
FC
100
AcDbEntity
  8
Border (ISO)
 62
   232
420
 13238372
100
AcDbMText
 10
524.8089938218518
 20
574.3432739056646
 30
0.0
 40
2.5
 41
0.0
 46
0.0
 71
     7
 72
     1
  1
8
  7
Note Text (ISO)
 73
     1
 44
1.0
  0
MTEXT
  5
146
330
FC
100
AcDbEntity
  8
Border (ISO)
 62
   232
420
 13238372
100
AcDbMText
 10
524.8089938218518
 20
17.04327390566468
 30
0.0
 40
2.5
 41
0.0
 46
0.0
 71
     7
 72
     1
  1
8
  7
Note Text (ISO)
 73
     1
 44
1.0
  0
MTEXT
  5
147
330
FC
100
AcDbEntity
  8
Border (ISO)
 62
   232
420
 13238372
100
AcDbMText
 10
594.882327129585
 20
574.3513776320964
 30
0.0
 40
2.5
 41
0.0
 46
0.0
 71
     7
 72
     1
  1
9
  7
Note Text (ISO)
 73
     1
 44
1.0
  0
MTEXT
  5
148
330
FC
100
AcDbEntity
  8
Border (ISO)
 62
   232
420
 13238372
100
AcDbMText
 10
594.882327129585
 20
17.05137763209641
 30
0.0
 40
2.5
 41
0.0
 46
0.0
 71
     7
 72
     1
  1
9
  7
Note Text (ISO)
 73
     1
 44
1.0
  0
MTEXT
  5
149
330
FC
100
AcDbEntity
  8
Border (ISO)
 62
   232
420
 13238372
100
AcDbMText
 10
664.2896546431711
 20
574.3473257688805
 30
0.0
 40
2.5
 41
0.0
 46
0.0
 71
     7
 72
     1
  1
10
  7
Note Text (ISO)
 73
     1
 44
1.0
  0
MTEXT
  5
14A
330
FC
100
AcDbEntity
  8
Border (ISO)
 62
   232
420
 13238372
100
AcDbMText
 10
664.2896546431711
 20
17.04732576888055
 30
0.0
 40
2.5
 41
0.0
 46
0.0
 71
     7
 72
     1
  1
10
  7
Note Text (ISO)
 73
     1
 44
1.0
  0
MTEXT
  5
14B
330
FC
100
AcDbEntity
  8
Border (ISO)
 62
   232
420
 13238372
100
AcDbMText
 10
734.3729879765045
 20
574.3999999999999
 30
0.0
 40
2.5
 41
0.0
 46
0.0
 71
     7
 72
     1
  1
11
  7
Note Text (ISO)
 73
     1
 44
1.0
  0
MTEXT
  5
14C
330
FC
100
AcDbEntity
  8
Border (ISO)
 62
   232
420
 13238372
100
AcDbMText
 10
734.3729879765045
 20
17.1
 30
0.0
 40
2.5
 41
0.0
 46
0.0
 71
     7
 72
     1
  1
11
  7
Note Text (ISO)
 73
     1
 44
1.0
  0
MTEXT
  5
14D
330
FC
100
AcDbEntity
  8
Border (ISO)
 62
   232
420
 13238372
100
AcDbMText
 10
804.4563213098378
 20
574.3999999999999
 30
0.0
 40
2.5
 41
0.0
 46
0.0
 71
     7
 72
     1
  1
12
  7
Note Text (ISO)
 73
     1
 44
1.0
  0
MTEXT
  5
14E
330
FC
100
AcDbEntity
  8
Border (ISO)
 62
   232
420
 13238372
100
AcDbMText
 10
804.4563213098378
 20
17.1
 30
0.0
 40
2.5
 41
0.0
 46
0.0
 71
     7
 72
     1
  1
12
  7
Note Text (ISO)
 73
     1
 44
1.0
  0
LINE
  5
14F
330
FC
100
AcDbEntity
  8
Border (ISO)
100
AcDbLine
 10
20.0
 20
74.25000190734863
 30
0.0
 11
17.10000038146972
 21
74.25000190734863
 31
0.0
  0
LINE
  5
150
330
FC
100
AcDbEntity
  8
Border (ISO)
100
AcDbLine
 10
820.999984741211
 20
74.25000190734863
 30
0.0
 11
823.8999938964843
 21
74.25000190734863
 31
0.0
  0
LINE
  5
151
330
FC
100
AcDbEntity
  8
Border (ISO)
100
AcDbLine
 10
20.0
 20
148.5000038146973
 30
0.0
 11
17.10000038146972
 21
148.5000038146973
 31
0.0
  0
LINE
  5
152
330
FC
100
AcDbEntity
  8
Border (ISO)
100
AcDbLine
 10
820.999984741211
 20
148.5000038146973
 30
0.0
 11
823.8999938964843
 21
148.5000038146973
 31
0.0
  0
LINE
  5
153
330
FC
100
AcDbEntity
  8
Border (ISO)
100
AcDbLine
 10
20.0
 20
222.7499961853027
 30
0.0
 11
17.10000038146972
 21
222.7499961853027
 31
0.0
  0
LINE
  5
154
330
FC
100
AcDbEntity
  8
Border (ISO)
100
AcDbLine
 10
820.999984741211
 20
222.7499961853027
 30
0.0
 11
823.8999938964843
 21
222.7499961853027
 31
0.0
  0
LINE
  5
155
330
FC
100
AcDbEntity
  8
Border (ISO)
100
AcDbLine
 10
20.0
 20
371.25
 30
0.0
 11
17.10000038146972
 21
371.25
 31
0.0
  0
LINE
  5
156
330
FC
100
AcDbEntity
  8
Border (ISO)
100
AcDbLine
 10
820.999984741211
 20
371.25
 30
0.0
 11
823.8999938964843
 21
371.25
 31
0.0
  0
LINE
  5
157
330
FC
100
AcDbEntity
  8
Border (ISO)
100
AcDbLine
 10
20.0
 20
445.4999923706054
 30
0.0
 11
17.10000038146972
 21
445.4999923706054
 31
0.0
  0
LINE
  5
158
330
FC
100
AcDbEntity
  8
Border (ISO)
100
AcDbLine
 10
820.999984741211
 20
445.4999923706054
 30
0.0
 11
823.8999938964843
 21
445.4999923706054
 31
0.0
  0
LINE
  5
159
330
FC
100
AcDbEntity
  8
Border (ISO)
100
AcDbLine
 10
20.0
 20
519.7499847412109
 30
0.0
 11
17.10000038146972
 21
519.7499847412109
 31
0.0
  0
LINE
  5
15A
330
FC
100
AcDbEntity
  8
Border (ISO)
100
AcDbLine
 10
820.999984741211
 20
519.7499847412109
 30
0.0
 11
823.8999938964843
 21
519.7499847412109
 31
0.0
  0
MTEXT
  5
15B
330
FC
100
AcDbEntity
  8
Border (ISO)
 62
   232
420
 13238372
100
AcDbMText
 10
17.28659316639921
 20
555.625
 30
0.0
 40
2.5
 41
0.0
 46
0.0
 71
     7
 72
     1
  1
A
  7
Note Text (ISO)
 73
     1
 44
1.0
  0
MTEXT
  5
15C
330
FC
100
AcDbEntity
  8
Border (ISO)
 62
   232
420
 13238372
100
AcDbMText
 10
821.5865931663993
 20
555.625
 30
0.0
 40
2.5
 41
0.0
 46
0.0
 71
     7
 72
     1
  1
A
  7
Note Text (ISO)
 73
     1
 44
1.0
  0
MTEXT
  5
15D
330
FC
100
AcDbEntity
  8
Border (ISO)
 62
   232
420
 13238372
100
AcDbMText
 10
17.58703467771087
 20
481.3749999999999
 30
0.0
 40
2.5
 41
0.0
 46
0.0
 71
     7
 72
     1
  1
B
  7
Note Text (ISO)
 73
     1
 44
1.0
  0
MTEXT
  5
15E
330
FC
100
AcDbEntity
  8
Border (ISO)
 62
   232
420
 13238372
100
AcDbMText
 10
821.8870346777109
 20
481.3749999999999
 30
0.0
 40
2.5
 41
0.0
 46
0.0
 71
     7
 72
     1
  1
B
  7
Note Text (ISO)
 73
     1
 44
1.0
  0
MTEXT
  5
15F
330
FC
100
AcDbEntity
  8
Border (ISO)
 62
   232
420
 13238372
100
AcDbMText
 10
17.42778797951198
 20
407.0804294999689
 30
0.0
 40
2.5
 41
0.0
 46
0.0
 71
     7
 72
     1
  1
C
  7
Note Text (ISO)
 73
     1
 44
1.0
  0
MTEXT
  5
160
330
FC
100
AcDbEntity
  8
Border (ISO)
 62
   232
420
 13238372
100
AcDbMText
 10
821.7277879795119
 20
407.0804294999689
 30
0.0
 40
2.5
 41
0.0
 46
0.0
 71
     7
 72
     1
  1
C
  7
Note Text (ISO)
 73
     1
 44
1.0
  0
MTEXT
  5
161
330
FC
100
AcDbEntity
  8
Border (ISO)
 62
   232
420
 13238372
100
AcDbMText
 10
17.43407686575924
 20
332.8750000000001
 30
0.0
 40
2.5
 41
0.0
 46
0.0
 71
     7
 72
     1
  1
D
  7
Note Text (ISO)
 73
     1
 44
1.0
  0
MTEXT
  5
162
330
FC
100
AcDbEntity
  8
Border (ISO)
 62
   232
420
 13238372
100
AcDbMText
 10
821.7340768657592
 20
332.8750000000001
 30
0.0
 40
2.5
 41
0.0
 46
0.0
 71
     7
 72
     1
  1
D
  7
Note Text (ISO)
 73
     1
 44
1.0
  0
MTEXT
  5
163
330
FC
100
AcDbEntity
  8
Border (ISO)
 62
   232
420
 13238372
100
AcDbMText
 10
17.63565709218059
 20
258.6250000000001
 30
0.0
 40
2.5
 41
0.0
 46
0.0
 71
     7
 72
     1
  1
E
  7
Note Text (ISO)
 73
     1
 44
1.0
  0
MTEXT
  5
164
330
FC
100
AcDbEntity
  8
Border (ISO)
 62
   232
420
 13238372
100
AcDbMText
 10
821.9356570921807
 20
258.6250000000001
 30
0.0
 40
2.5
 41
0.0
 46
0.0
 71
     7
 72
     1
  1
E
  7
Note Text (ISO)
 73
     1
 44
1.0
  0
MTEXT
  5
165
330
FC
100
AcDbEntity
  8
Border (ISO)
 62
   232
420
 13238372
100
AcDbMText
 10
17.70352577194248
 20
184.375
 30
0.0
 40
2.5
 41
0.0
 46
0.0
 71
     7
 72
     1
  1
F
  7
Note Text (ISO)
 73
     1
 44
1.0
  0
MTEXT
  5
166
330
FC
100
AcDbEntity
  8
Border (ISO)
 62
   232
420
 13238372
100
AcDbMText
 10
822.0035257719425
 20
184.375
 30
0.0
 40
2.5
 41
0.0
 46
0.0
 71
     7
 72
     1
  1
F
  7
Note Text (ISO)
 73
     1
 44
1.0
  0
MTEXT
  5
167
330
FC
100
AcDbEntity
  8
Border (ISO)
 62
   232
420
 13238372
100
AcDbMText
 10
17.31230986621833
 20
110.0763776320965
 30
0.0
 40
2.5
 41
0.0
 46
0.0
 71
     7
 72
     1
  1
G
  7
Note Text (ISO)
 73
     1
 44
1.0
  0
MTEXT
  5
168
330
FC
100
AcDbEntity
  8
Border (ISO)
 62
   232
420
 13238372
100
AcDbMText
 10
821.6123098662183
 20
110.0763776320965
 30
0.0
 40
2.5
 41
0.0
 46
0.0
 71
     7
 72
     1
  1
G
  7
Note Text (ISO)
 73
     1
 44
1.0
  0
MTEXT
  5
169
330
FC
100
AcDbEntity
  8
Border (ISO)
 62
   232
420
 13238372
100
AcDbMText
 10
17.43914169594322
 20
35.87500000000007
 30
0.0
 40
2.5
 41
0.0
 46
0.0
 71
     7
 72
     1
  1
H
  7
Note Text (ISO)
 73
     1
 44
1.0
  0
MTEXT
  5
16A
330
FC
100
AcDbEntity
  8
Border (ISO)
 62
   232
420
 13238372
100
AcDbMText
 10
821.7391416959433
 20
35.87500000000007
 30
0.0
 40
2.5
 41
0.0
 46
0.0
 71
     7
 72
     1
  1
H
  7
Note Text (ISO)
 73
     1
 44
1.0
  0
ENDBLK
  5
FE
330
FC
100
AcDbEntity
  8
0
100
AcDbBlockEnd
  0
BLOCK
  5
16D
330
16C
100
AcDbEntity
  8
0
100
AcDbBlockBegin
  2
Title Blocks ISO
 70
     2
 10
0.0
 20
0.0
 30
0.0
  3
Title Blocks ISO
  1

  0
ATTDEF
  5
16F
102
{ACAD_XDICTIONARY
360
A4A
102
}
330
16C
100
AcDbEntity
  8
Title (ISO)
 62
   232
420
 13238372
100
AcDbText
 10
34.15585882339947
 20
73.13494450671268
 30
0.0
 40
2.5
  1
491104110063
  7
Note Text (ISO)
100
AcDbAttributeDefinition
280
     0
  3
PART NUMBER
  2
PART_NUMBER_001
 70
     0
280
     0
  0
ATTDEF
  5
172
102
{ACAD_XDICTIONARY
360
A4F
102
}
330
16C
100
AcDbEntity
  8
Title (ISO)
 62
   232
420
 13238372
100
AcDbText
 10
33.83688029166227
 20
63.39776635682264
 30
0.0
 40
2.5
  1
PLASSON REDUCING COUPLER
  7
Note Text (ISO)
100
AcDbAttributeDefinition
280
     0
  3
DESCRIPTION
  2
DESCRIPTION_001
 70
     0
280
     0
  0
ATTDEF
  5
A4D
102
{ACAD_XDICTIONARY
360
A4E
102
}
330
16C
100
AcDbEntity
  8
Title (ISO)
 62
   232
420
 13238372
100
AcDbText
 10
33.71095685392651
 20
59.17905135204449
 30
0.0
 40
2.5
  1
110-63
  7
Note Text (ISO)
100
AcDbAttributeDefinition
280
     0
  3
DESCRIPTION
  2
DESCRIPTION_002
 70
     0
280
     0
  0
ENDBLK
  5
16E
330
16C
100
AcDbEntity
  8
0
100
AcDbBlockEnd
  0
BLOCK
  5
1D2
330
1D1
100
AcDbEntity
  8
0
100
AcDbBlockBegin
  2
2dTransSection0
 70
     0
 10
0.0
 20
0.0
 30
0.0
  3
2dTransSection0
  1

  0
LINE
  5
1D4
330
1D1
100
AcDbEntity
  8
Section Line (ISO)
  6
CHAIN
 48
46.62152481079101
100
AcDbLine
 10
164.3843097684158
 20
40.02878755550763
 30
0.0
 11
538.6984484604604
 21
40.02878755550763
 31
0.0
  0
LINE
  5
1D5
330
1D1
100
AcDbEntity
  8
Section Line (ISO)
  6
Continuous
370
   140
100
AcDbLine
 10
164.3843097684158
 20
40.02878755550763
 30
0.0
 11
175.3023157985047
 21
40.02878755550763
 31
0.0
  0
LINE
  5
1D6
330
1D1
100
AcDbEntity
  8
Section Line (ISO)
  6
Continuous
370
   140
100
AcDbLine
 10
527.7804424303715
 20
40.02878755550763
 30
0.0
 11
538.6984484604604
 21
40.02878755550763
 31
0.0
  0
LINE
  5
1D7
330
1D1
100
AcDbEntity
  8
Section Line (ISO)
  6
Continuous
100
AcDbLine
 10
169.8433127834602
 20
37.52878755550764
 30
0.0
 11
169.8433127834602
 21
40.02878755550763
 31
0.0
  0
POLYLINE
  5
1D8
330
1D1
100
AcDbEntity
  8
Section Line (ISO)
  6
Continuous
100
AcDb2dPolyline
 66
     1
 10
0.0
 20
0.0
 30
0.0
 70
   128
  0
VERTEX
  5
1D9
330
1D8
100
AcDbEntity
  8
Section Line (ISO)
  6
Continuous
100
AcDbVertex
100
AcDb2dVertex
 10
170.343310615982
 20
37.52878755549251
 30
0.0
  0
VERTEX
  5
1DA
330
1D8
100
AcDbEntity
  8
Section Line (ISO)
  6
Continuous
100
AcDbVertex
100
AcDb2dVertex
 10
169.8433182453765
 20
40.02878755550763
 30
0.0
  0
VERTEX
  5
1DC
330
1D8
100
AcDbEntity
  8
Section Line (ISO)
  6
Continuous
100
AcDbVertex
100
AcDb2dVertex
 10
169.3433068012847
 20
37.52878755549251
 30
0.0
  0
VERTEX
  5
1DD
330
1D8
100
AcDbEntity
  8
Section Line (ISO)
  6
Continuous
100
AcDbVertex
100
AcDb2dVertex
 10
170.343310615982
 20
37.52878755549251
 30
0.0
  0
SEQEND
  5
1DB
330
1D8
100
AcDbEntity
  8
Section Line (ISO)
  6
Continuous
  0
SOLID
  5
1DE
330
1D1
100
AcDbEntity
  8
Section Line (ISO)
100
AcDbTrace
 10
170.343310615982
 20
37.52878755549251
 30
0.0
 11
169.8433182453765
 21
40.02878755550763
 31
0.0
 12
169.3433068012847
 22
37.52878755549251
 32
0.0
 13
170.343310615982
 23
37.52878755549251
 33
0.0
  0
LINE
  5
1DF
330
1D1
100
AcDbEntity
  8
Section Line (ISO)
  6
Continuous
100
AcDbLine
 10
170.3433127834603
 20
37.52878755550764
 30
0.0
 11
169.8433127834602
 21
40.02878755550763
 31
0.0
  0
LINE
  5
1E0
330
1D1
100
AcDbEntity
  8
Section Line (ISO)
  6
Continuous
100
AcDbLine
 10
169.8433127834602
 20
40.02878755550763
 30
0.0
 11
169.3433127834602
 21
37.52878755550764
 31
0.0
  0
LINE
  5
1E1
330
1D1
100
AcDbEntity
  8
Section Line (ISO)
  6
Continuous
100
AcDbLine
 10
169.3433127834602
 20
37.52878755550764
 30
0.0
 11
170.3433127834603
 21
37.52878755550764
 31
0.0
  0
LINE
  5
1E2
330
1D1
100
AcDbEntity
  8
Section Line (ISO)
  6
Continuous
100
AcDbLine
 10
169.8433127834602
 20
32.62603712622364
 30
0.0
 11
169.8433127834602
 21
37.52878755550764
 31
0.0
  0
LINE
  5
1E3
330
1D1
100
AcDbEntity
  8
Section Line (ISO)
  6
Continuous
100
AcDbLine
 10
533.2394454454159
 20
37.52878755550764
 30
0.0
 11
533.2394454454159
 21
40.02878755550763
 31
0.0
  0
POLYLINE
  5
1E4
330
1D1
100
AcDbEntity
  8
Section Line (ISO)
  6
Continuous
100
AcDb2dPolyline
 66
     1
 10
0.0
 20
0.0
 30
0.0
 70
   128
  0
VERTEX
  5
1E5
330
1E4
100
AcDbEntity
  8
Section Line (ISO)
  6
Continuous
100
AcDbVertex
100
AcDb2dVertex
 10
533.7394497608794
 20
37.52878755549251
 30
0.0
  0
VERTEX
  5
1E6
330
1E4
100
AcDbEntity
  8
Section Line (ISO)
  6
Continuous
100
AcDbVertex
100
AcDb2dVertex
 10
533.2394478535308
 20
40.02878755550763
 30
0.0
  0
VERTEX
  5
1E8
330
1E4
100
AcDbEntity
  8
Section Line (ISO)
  6
Continuous
100
AcDbVertex
100
AcDb2dVertex
 10
532.7394459461821
 20
37.52878755549251
 30
0.0
  0
VERTEX
  5
1E9
330
1E4
100
AcDbEntity
  8
Section Line (ISO)
  6
Continuous
100
AcDbVertex
100
AcDb2dVertex
 10
533.7394497608794
 20
37.52878755549251
 30
0.0
  0
SEQEND
  5
1E7
330
1E4
100
AcDbEntity
  8
Section Line (ISO)
  6
Continuous
  0
SOLID
  5
1EA
330
1D1
100
AcDbEntity
  8
Section Line (ISO)
100
AcDbTrace
 10
533.7394497608794
 20
37.52878755549251
 30
0.0
 11
533.2394478535308
 21
40.02878755550763
 31
0.0
 12
532.7394459461821
 22
37.52878755549251
 32
0.0
 13
533.7394497608794
 23
37.52878755549251
 33
0.0
  0
LINE
  5
1EB
330
1D1
100
AcDbEntity
  8
Section Line (ISO)
  6
Continuous
100
AcDbLine
 10
533.739445445416
 20
37.52878755550764
 30
0.0
 11
533.2394454454159
 21
40.02878755550763
 31
0.0
  0
LINE
  5
1EC
330
1D1
100
AcDbEntity
  8
Section Line (ISO)
  6
Continuous
100
AcDbLine
 10
533.2394454454159
 20
40.02878755550763
 30
0.0
 11
532.7394454454159
 21
37.52878755550764
 31
0.0
  0
LINE
  5
1ED
330
1D1
100
AcDbEntity
  8
Section Line (ISO)
  6
Continuous
100
AcDbLine
 10
532.7394454454159
 20
37.52878755550764
 30
0.0
 11
533.739445445416
 21
37.52878755550764
 31
0.0
  0
LINE
  5
1EE
330
1D1
100
AcDbEntity
  8
Section Line (ISO)
  6
Continuous
100
AcDbLine
 10
533.2394454454159
 20
32.62603712622364
 30
0.0
 11
533.2394454454159
 21
37.52878755550764
 31
0.0
  0
MTEXT
  5
1EF
330
1D1
100
AcDbEntity
  8
Section Line (ISO)
100
AcDbMText
 10
168.3545430975913
 20
28.02878731708906
 30
0.0
 40
3.499999940395355
 41
0.0
 46
0.0
 71
     7
 72
     1
  1
A
  7
Label Text (ISO)
 73
     1
 44
1.0
  0
MTEXT
  5
1F0
330
1D1
100
AcDbEntity
  8
Section Line (ISO)
100
AcDbMText
 10
531.7506757595469
 20
28.02878731708906
 30
0.0
 40
3.499999940395355
 41
0.0
 46
0.0
 71
     7
 72
     1
  1
A
  7
Label Text (ISO)
 73
     1
 44
1.0
  0
ENDBLK
  5
1D3
330
1D1
100
AcDbEntity
  8
0
100
AcDbBlockEnd
  0
BLOCK
  5
27E
330
27D
100
AcDbEntity
  8
0
100
AcDbBlockBegin
  2
*D7
 70
     1
 10
0.0
 20
0.0
 30
0.0
  3
*D7
  1

  0
LINE
  5
34C
330
27D
100
AcDbEntity
  8
Dimension (ISO)
440
 16777216
100
AcDbLine
 10
465.0312187885894
 20
814.1926081922294
 30
0.0
 11
490.2062187885896
 21
814.1926081922294
 31
0.0
  0
LINE
  5
34D
330
27D
100
AcDbEntity
  8
Dimension (ISO)
440
 16777216
100
AcDbLine
 10
465.0312187885894
 20
704.1926081922293
 30
0.0
 11
490.2062187885896
 21
704.1926081922293
 31
0.0
  0
LINE
  5
34E
330
27D
100
AcDbEntity
  8
Dimension (ISO)
440
 16777216
100
AcDbLine
 10
487.0312187885896
 20
811.6926081922294
 30
0.0
 11
487.0312187885896
 21
706.6926081922294
 31
0.0
  0
SOLID
  5
34F
330
27D
100
AcDbEntity
  8
Dimension (ISO)
440
 16777216
100
AcDbTrace
 10
486.6145521219229
 20
811.6926081922294
 30
0.0
 11
487.4478854552562
 21
811.6926081922294
 31
0.0
 12
487.0312187885896
 22
814.1926081922294
 32
0.0
 13
487.0312187885896
 23
814.1926081922294
 33
0.0
  0
SOLID
  5
350
330
27D
100
AcDbEntity
  8
Dimension (ISO)
440
 16777216
100
AcDbTrace
 10
486.6145521219229
 20
706.6926081922294
 30
0.0
 11
487.4478854552562
 21
706.6926081922294
 31
0.0
 12
487.0312187885896
 22
704.1926081922293
 32
0.0
 13
487.0312187885896
 23
704.1926081922293
 33
0.0
  0
MTEXT
  5
351
330
27D
100
AcDbEntity
  8
Dimension (ISO)
 62
   232
420
 13238372
440
 16777216
100
AcDbMText
 10
482.5077208555794
 20
752.698858430872
 30
0.0
 40
2.5
 41
0.0
 46
0.0
 71
     1
 72
     1
  1
\A1;\fAIGDT|b0|i0;\H2.5000;\ln\fTahoma|b0|i0;\H2.5000;110,00
  7
Note Text (ISO)
 11
0.0000000000000001
 21
1.0
 31
0.0
 73
     1
 44
1.0
  0
POINT
  5
352
330
27D
100
AcDbEntity
  8
Defpoints
 62
     0
440
 16777216
100
AcDbPoint
 10
465.0312187885894
 20
814.1926081922294
 30
0.0
  0
POINT
  5
353
330
27D
100
AcDbEntity
  8
Defpoints
 62
     0
440
 16777216
100
AcDbPoint
 10
465.0312187885894
 20
704.1926081922293
 30
0.0
  0
POINT
  5
354
330
27D
100
AcDbEntity
  8
Defpoints
 62
     0
440
 16777216
100
AcDbPoint
 10
487.0312187885896
 20
704.1926081922293
 30
0.0
  0
ENDBLK
  5
27F
330
27D
100
AcDbEntity
  8
0
100
AcDbBlockEnd
  0
BLOCK
  5
357
330
356
100
AcDbEntity
  8
0
100
AcDbBlockBegin
  2
*D8
 70
     1
 10
0.0
 20
0.0
 30
0.0
  3
*D8
  1

  0
LINE
  5
41F
330
356
100
AcDbEntity
  8
Dimension (ISO)
440
 16777216
100
AcDbLine
 10
462.5312187885895
 20
753.0353657658695
 30
0.0
 11
389.5312187885895
 21
753.0353657658695
 31
0.0
  0
SOLID
  5
420
330
356
100
AcDbEntity
  8
Dimension (ISO)
440
 16777216
100
AcDbTrace
 10
462.5312187885895
 20
753.4520324325361
 30
0.0
 11
462.5312187885895
 21
752.6186990992028
 31
0.0
 12
465.0312187885894
 22
753.0353657658695
 32
0.0
 13
465.0312187885894
 23
753.0353657658695
 33
0.0
  0
SOLID
  5
421
330
356
100
AcDbEntity
  8
Dimension (ISO)
440
 16777216
100
AcDbTrace
 10
389.5312187885895
 20
753.4520324325361
 30
0.0
 11
389.5312187885895
 21
752.6186990992028
 31
0.0
 12
387.0312187885895
 22
753.0353657658695
 32
0.0
 13
387.0312187885895
 23
753.0353657658695
 33
0.0
  0
MTEXT
  5
422
330
356
100
AcDbEntity
  8
Dimension (ISO)
 62
   232
420
 13238372
440
 16777216
100
AcDbMText
 10
421.9093249267054
 20
756.9756733343202
 30
0.0
 40
2.5
 41
0.0
 46
0.0
 71
     1
 72
     1
  1
\A1;78,00
  7
Note Text (ISO)
 73
     1
 44
1.0
  0
POINT
  5
423
330
356
100
AcDbEntity
  8
Defpoints
 62
     0
440
 16777216
100
AcDbPoint
 10
465.0312187885894
 20
759.1926081922293
 30
0.0
  0
POINT
  5
424
330
356
100
AcDbEntity
  8
Defpoints
 62
     0
440
 16777216
100
AcDbPoint
 10
387.0312187885895
 20
759.1926081922293
 30
0.0
  0
POINT
  5
425
330
356
100
AcDbEntity
  8
Defpoints
 62
     0
440
 16777216
100
AcDbPoint
 10
387.0312187885895
 20
753.0353657658695
 30
0.0
  0
ENDBLK
  5
358
330
356
100
AcDbEntity
  8
0
100
AcDbBlockEnd
  0
BLOCK
  5
428
330
427
100
AcDbEntity
  8
0
100
AcDbBlockBegin
  2
*D9
 70
     1
 10
0.0
 20
0.0
 30
0.0
  3
*D9
  1

  0
LINE
  5
4F8
330
427
100
AcDbEntity
  8
Dimension (ISO)
440
 16777216
100
AcDbLine
 10
358.5312187885895
 20
753.0353657658695
 30
0.0
 11
306.5312187885895
 21
753.0353657658695
 31
0.0
  0
SOLID
  5
4F9
330
427
100
AcDbEntity
  8
Dimension (ISO)
440
 16777216
100
AcDbTrace
 10
358.5312187885895
 20
753.4520324325361
 30
0.0
 11
358.5312187885895
 21
752.6186990992028
 31
0.0
 12
361.0312187885895
 22
753.0353657658695
 32
0.0
 13
361.0312187885895
 23
753.0353657658695
 33
0.0
  0
SOLID
  5
4FA
330
427
100
AcDbEntity
  8
Dimension (ISO)
440
 16777216
100
AcDbTrace
 10
306.5312187885895
 20
753.4520324325361
 30
0.0
 11
306.5312187885895
 21
752.6186990992028
 31
0.0
 12
304.0312187885895
 22
753.0353657658695
 32
0.0
 13
304.0312187885895
 23
753.0353657658695
 33
0.0
  0
MTEXT
  5
4FB
330
427
100
AcDbEntity
  8
Dimension (ISO)
 62
   232
420
 13238372
440
 16777216
100
AcDbMText
 10
320.9303121663281
 20
756.9689574176408
 30
0.0
 40
2.5
 41
0.0
 46
0.0
 71
     1
 72
     1
  1
\A1;57,00
  7
Note Text (ISO)
 73
     1
 44
1.0
  0
POINT
  5
4FC
330
427
100
AcDbEntity
  8
Defpoints
 62
     0
440
 16777216
100
AcDbPoint
 10
361.0312187885895
 20
759.1926081922293
 30
0.0
  0
POINT
  5
4FD
330
427
100
AcDbEntity
  8
Defpoints
 62
     0
440
 16777216
100
AcDbPoint
 10
304.0312187885895
 20
759.1926081922293
 30
0.0
  0
POINT
  5
4FE
330
427
100
AcDbEntity
  8
Defpoints
 62
     0
440
 16777216
100
AcDbPoint
 10
304.0312187885895
 20
753.0353657658695
 30
0.0
  0
ENDBLK
  5
429
330
427
100
AcDbEntity
  8
0
100
AcDbBlockEnd
  0
BLOCK
  5
501
330
500
100
AcDbEntity
  8
0
100
AcDbBlockBegin
  2
*D10
 70
     1
 10
0.0
 20
0.0
 30
0.0
  3
*D10
  1

  0
LINE
  5
5CC
330
500
100
AcDbEntity
  8
Dimension (ISO)
440
 16777216
100
AcDbLine
 10
418.2312187885894
 20
828.6926081922295
 30
0.0
 11
518.9791310017212
 21
828.6926081922295
 31
0.0
  0
LINE
  5
5CD
330
500
100
AcDbEntity
  8
Dimension (ISO)
440
 16777216
100
AcDbLine
 10
418.2312187885894
 20
689.6926081922294
 30
0.0
 11
518.9791310017211
 21
689.6926081922294
 31
0.0
  0
LINE
  5
5CE
330
500
100
AcDbEntity
  8
Dimension (ISO)
440
 16777216
100
AcDbLine
 10
515.8041310017213
 20
826.1926081922295
 30
0.0
 11
515.8041310017211
 21
692.1926081922293
 31
0.0
  0
SOLID
  5
5CF
330
500
100
AcDbEntity
  8
Dimension (ISO)
440
 16777216
100
AcDbTrace
 10
515.3874643350547
 20
826.1926081922295
 30
0.0
 11
516.2207976683879
 21
826.1926081922295
 31
0.0
 12
515.8041310017213
 22
828.6926081922295
 32
0.0
 13
515.8041310017213
 23
828.6926081922295
 33
0.0
  0
SOLID
  5
5D0
330
500
100
AcDbEntity
  8
Dimension (ISO)
440
 16777216
100
AcDbTrace
 10
515.3874643350546
 20
692.1926081922293
 30
0.0
 11
516.2207976683878
 21
692.1926081922293
 31
0.0
 12
515.8041310017211
 22
689.6926081922294
 32
0.0
 13
515.8041310017211
 23
689.6926081922294
 33
0.0
  0
MTEXT
  5
5D1
330
500
100
AcDbEntity
  8
Dimension (ISO)
 62
   232
420
 13238372
440
 16777216
100
AcDbMText
 10
511.8688603707798
 20
754.2387801517044
 30
0.0
 40
2.5
 41
0.0
 46
0.0
 71
     1
 72
     1
  1
\A1;139,00
  7
Note Text (ISO)
 11
0.0000000000000001
 21
1.0
 31
0.0
 73
     1
 44
1.0
  0
POINT
  5
5D2
330
500
100
AcDbEntity
  8
Defpoints
 62
     0
440
 16777216
100
AcDbPoint
 10
418.2312187885894
 20
828.6926081922295
 30
0.0
  0
POINT
  5
5D3
330
500
100
AcDbEntity
  8
Defpoints
 62
     0
440
 16777216
100
AcDbPoint
 10
418.2312187885894
 20
689.6926081922294
 30
0.0
  0
POINT
  5
5D4
330
500
100
AcDbEntity
  8
Defpoints
 62
     0
440
 16777216
100
AcDbPoint
 10
515.8041310017211
 20
689.6926081922294
 30
0.0
  0
ENDBLK
  5
502
330
500
100
AcDbEntity
  8
0
100
AcDbBlockEnd
  0
BLOCK
  5
5D7
330
5D6
100
AcDbEntity
  8
0
100
AcDbBlockBegin
  2
*D11
 70
     1
 10
0.0
 20
0.0
 30
0.0
  3
*D11
  1

  0
LINE
  5
6A2
330
5D6
100
AcDbEntity
  8
Dimension (ISO)
440
 16777216
100
AcDbLine
 10
453.9312187885895
 20
843.1926081922295
 30
0.0
 11
535.7973714850758
 21
843.1926081922295
 31
0.0
  0
LINE
  5
6A3
330
5D6
100
AcDbEntity
  8
Dimension (ISO)
440
 16777216
100
AcDbLine
 10
465.0312187885894
 20
759.1926081922293
 30
0.0
 11
535.7973714850756
 21
759.1926081922293
 31
0.0
  0
LINE
  5
6A4
330
5D6
100
AcDbEntity
  8
Dimension (ISO)
440
 16777216
100
AcDbLine
 10
532.6223714850758
 20
840.6926081922295
 30
0.0
 11
532.6223714850757
 21
761.6926081922294
 31
0.0
  0
SOLID
  5
6A5
330
5D6
100
AcDbEntity
  8
Dimension (ISO)
440
 16777216
100
AcDbTrace
 10
532.2057048184092
 20
840.6926081922295
 30
0.0
 11
533.0390381517425
 21
840.6926081922295
 31
0.0
 12
532.6223714850758
 22
843.1926081922295
 32
0.0
 13
532.6223714850758
 23
843.1926081922295
 33
0.0
  0
SOLID
  5
6A6
330
5D6
100
AcDbEntity
  8
Dimension (ISO)
440
 16777216
100
AcDbTrace
 10
532.2057048184091
 20
761.6926081922294
 30
0.0
 11
533.0390381517424
 21
761.6926081922294
 31
0.0
 12
532.6223714850757
 22
759.1926081922293
 32
0.0
 13
532.6223714850757
 23
759.1926081922293
 33
0.0
  0
MTEXT
  5
6A7
330
5D6
100
AcDbEntity
  8
Dimension (ISO)
 62
   232
420
 13238372
440
 16777216
100
AcDbMText
 10
528.682063916625
 20
797.0497270907229
 30
0.0
 40
2.5
 41
0.0
 46
0.0
 71
     1
 72
     1
  1
\A1;84,00
  7
Note Text (ISO)
 11
0.0000000000000001
 21
1.0
 31
0.0
 73
     1
 44
1.0
  0
POINT
  5
6A8
330
5D6
100
AcDbEntity
  8
Defpoints
 62
     0
440
 16777216
100
AcDbPoint
 10
453.9312187885895
 20
843.1926081922295
 30
0.0
  0
POINT
  5
6A9
330
5D6
100
AcDbEntity
  8
Defpoints
 62
     0
440
 16777216
100
AcDbPoint
 10
465.0312187885894
 20
759.1926081922293
 30
0.0
  0
POINT
  5
6AA
330
5D6
100
AcDbEntity
  8
Defpoints
 62
     0
440
 16777216
100
AcDbPoint
 10
532.6223714850757
 20
759.1926081922293
 30
0.0
  0
ENDBLK
  5
5D8
330
5D6
100
AcDbEntity
  8
0
100
AcDbBlockEnd
  0
BLOCK
  5
6AD
330
6AC
100
AcDbEntity
  8
0
100
AcDbBlockBegin
  2
*D12
 70
     1
 10
0.0
 20
0.0
 30
0.0
  3
*D12
  1

  0
LINE
  5
784
330
6AC
100
AcDbEntity
  8
Dimension (ISO)
440
 16777216
100
AcDbLine
 10
315.1312187885896
 20
820.1926081922294
 30
0.0
 11
290.8562187885896
 21
820.1926081922294
 31
0.0
  0
LINE
  5
785
330
6AC
100
AcDbEntity
  8
Dimension (ISO)
440
 16777216
100
AcDbLine
 10
304.0312187885895
 20
759.1926081922293
 30
0.0
 11
290.8562187885896
 21
759.1926081922293
 31
0.0
  0
LINE
  5
786
330
6AC
100
AcDbEntity
  8
Dimension (ISO)
440
 16777216
100
AcDbLine
 10
294.0312187885896
 20
817.6926081922294
 30
0.0
 11
294.0312187885896
 21
761.6926081922294
 31
0.0
  0
SOLID
  5
787
330
6AC
100
AcDbEntity
  8
Dimension (ISO)
440
 16777216
100
AcDbTrace
 10
293.6145521219229
 20
817.6926081922294
 30
0.0
 11
294.4478854552563
 21
817.6926081922294
 31
0.0
 12
294.0312187885896
 22
820.1926081922294
 32
0.0
 13
294.0312187885896
 23
820.1926081922294
 33
0.0
  0
SOLID
  5
788
330
6AC
100
AcDbEntity
  8
Dimension (ISO)
440
 16777216
100
AcDbTrace
 10
293.6145521219229
 20
761.6926081922294
 30
0.0
 11
294.4478854552563
 21
761.6926081922294
 31
0.0
 12
294.0312187885896
 22
759.1926081922293
 32
0.0
 13
294.0312187885896
 23
759.1926081922293
 33
0.0
  0
MTEXT
  5
789
330
6AC
100
AcDbEntity
  8
Dimension (ISO)
 62
   232
420
 13238372
440
 16777216
100
AcDbMText
 10
290.0976271368181
 20
779.0589614761568
 30
0.0
 40
2.5
 41
0.0
 46
0.0
 71
     1
 72
     1
  1
\A1;61,00
  7
Note Text (ISO)
 11
0.0000000000000001
 21
1.0
 31
0.0
 73
     1
 44
1.0
  0
POINT
  5
78A
330
6AC
100
AcDbEntity
  8
Defpoints
 62
     0
440
 16777216
100
AcDbPoint
 10
315.1312187885896
 20
820.1926081922294
 30
0.0
  0
POINT
  5
78B
330
6AC
100
AcDbEntity
  8
Defpoints
 62
     0
440
 16777216
100
AcDbPoint
 10
304.0312187885895
 20
759.1926081922293
 30
0.0
  0
POINT
  5
78C
330
6AC
100
AcDbEntity
  8
Defpoints
 62
     0
440
 16777216
100
AcDbPoint
 10
294.0312187885896
 20
759.1926081922293
 30
0.0
  0
ENDBLK
  5
6AE
330
6AC
100
AcDbEntity
  8
0
100
AcDbBlockEnd
  0
BLOCK
  5
78F
330
78E
100
AcDbEntity
  8
0
100
AcDbBlockBegin
  2
*D13
 70
     1
 10
0.0
 20
0.0
 30
0.0
  3
*D13
  1

  0
LINE
  5
866
330
78E
100
AcDbEntity
  8
Dimension (ISO)
440
 16777216
100
AcDbLine
 10
304.0312187885895
 20
790.6926081922295
 30
0.0
 11
295.9950064754557
 21
790.6926081922295
 31
0.0
  0
LINE
  5
867
330
78E
100
AcDbEntity
  8
Dimension (ISO)
440
 16777216
100
AcDbLine
 10
304.0312187885895
 20
727.6926081922294
 30
0.0
 11
295.9950064754557
 21
727.6926081922294
 31
0.0
  0
LINE
  5
868
330
78E
100
AcDbEntity
  8
Dimension (ISO)
440
 16777216
100
AcDbLine
 10
299.1700064754557
 20
788.1926081922295
 30
0.0
 11
299.1700064754557
 21
730.1926081922293
 31
0.0
  0
SOLID
  5
869
330
78E
100
AcDbEntity
  8
Dimension (ISO)
440
 16777216
100
AcDbTrace
 10
298.753339808789
 20
788.1926081922295
 30
0.0
 11
299.5866731421224
 21
788.1926081922295
 31
0.0
 12
299.1700064754557
 22
790.6926081922295
 32
0.0
 13
299.1700064754557
 23
790.6926081922295
 33
0.0
  0
SOLID
  5
86A
330
78E
100
AcDbEntity
  8
Dimension (ISO)
440
 16777216
100
AcDbTrace
 10
298.753339808789
 20
730.1926081922293
 30
0.0
 11
299.5866731421224
 21
730.1926081922293
 31
0.0
 12
299.1700064754557
 22
727.6926081922294
 32
0.0
 13
299.1700064754557
 23
727.6926081922294
 33
0.0
  0
MTEXT
  5
86B
330
78E
100
AcDbEntity
  8
Dimension (ISO)
 62
   232
420
 13238372
440
 16777216
100
AcDbMText
 10
294.6465085424455
 20
740.137407786796
 30
0.0
 40
2.5
 41
0.0
 46
0.0
 71
     1
 72
     1
  1
\A1;\fAIGDT|b0|i0;\H2.5000;\ln\fTahoma|b0|i0;\H2.5000;63,00
  7
Note Text (ISO)
 11
0.0000000000000001
 21
1.0
 31
0.0
 73
     1
 44
1.0
  0
POINT
  5
86C
330
78E
100
AcDbEntity
  8
Defpoints
 62
     0
440
 16777216
100
AcDbPoint
 10
304.0312187885895
 20
790.6926081922295
 30
0.0
  0
POINT
  5
86D
330
78E
100
AcDbEntity
  8
Defpoints
 62
     0
440
 16777216
100
AcDbPoint
 10
304.0312187885895
 20
727.6926081922294
 30
0.0
  0
POINT
  5
86E
330
78E
100
AcDbEntity
  8
Defpoints
 62
     0
440
 16777216
100
AcDbPoint
 10
299.1700064754557
 20
727.6926081922294
 30
0.0
  0
ENDBLK
  5
790
330
78E
100
AcDbEntity
  8
0
100
AcDbBlockEnd
  0
BLOCK
  5
871
330
870
100
AcDbEntity
  8
0
100
AcDbBlockBegin
  2
*D14
 70
     1
 10
0.0
 20
0.0
 30
0.0
  3
*D14
  1

  0
LINE
  5
93C
330
870
100
AcDbEntity
  8
Dimension (ISO)
440
 16777216
100
AcDbLine
 10
338.2312187885895
 20
800.1926081922293
 30
0.0
 11
267.730902790208
 21
800.1926081922293
 31
0.0
  0
LINE
  5
93D
330
870
100
AcDbEntity
  8
Dimension (ISO)
440
 16777216
100
AcDbLine
 10
338.2312187885895
 20
718.1926081922295
 30
0.0
 11
267.730902790208
 21
718.1926081922295
 31
0.0
  0
LINE
  5
93E
330
870
100
AcDbEntity
  8
Dimension (ISO)
440
 16777216
100
AcDbLine
 10
270.905902790208
 20
797.6926081922294
 30
0.0
 11
270.905902790208
 21
720.6926081922294
 31
0.0
  0
SOLID
  5
93F
330
870
100
AcDbEntity
  8
Dimension (ISO)
440
 16777216
100
AcDbTrace
 10
270.4892361235413
 20
797.6926081922294
 30
0.0
 11
271.3225694568747
 21
797.6926081922294
 31
0.0
 12
270.905902790208
 22
800.1926081922293
 32
0.0
 13
270.905902790208
 23
800.1926081922293
 33
0.0
  0
SOLID
  5
940
330
870
100
AcDbEntity
  8
Dimension (ISO)
440
 16777216
100
AcDbTrace
 10
270.4892361235413
 20
720.6926081922294
 30
0.0
 11
271.3225694568747
 21
720.6926081922294
 31
0.0
 12
270.905902790208
 22
718.1926081922295
 32
0.0
 13
270.905902790208
 23
718.1926081922295
 33
0.0
  0
MTEXT
  5
941
330
870
100
AcDbEntity
  8
Dimension (ISO)
 62
   232
420
 13238372
440
 16777216
100
AcDbMText
 10
266.9655952217572
 20
738.0497270907227
 30
0.0
 40
2.5
 41
0.0
 46
0.0
 71
     1
 72
     1
  1
\A1;82,00
  7
Note Text (ISO)
 11
0.0000000000000001
 21
1.0
 31
0.0
 73
     1
 44
1.0
  0
POINT
  5
942
330
870
100
AcDbEntity
  8
Defpoints
 62
     0
440
 16777216
100
AcDbPoint
 10
338.2312187885895
 20
800.1926081922293
 30
0.0
  0
POINT
  5
943
330
870
100
AcDbEntity
  8
Defpoints
 62
     0
440
 16777216
100
AcDbPoint
 10
338.2312187885895
 20
718.1926081922295
 30
0.0
  0
POINT
  5
944
330
870
100
AcDbEntity
  8
Defpoints
 62
     0
440
 16777216
100
AcDbPoint
 10
270.905902790208
 20
718.1926081922295
 30
0.0
  0
ENDBLK
  5
872
330
870
100
AcDbEntity
  8
0
100
AcDbBlockEnd
  0
BLOCK
  5
947
330
946
100
AcDbEntity
  8
0
100
AcDbBlockBegin
  2
*D15
 70
     1
 10
0.0
 20
0.0
 30
0.0
  3
*D15
  1

  0
LINE
  5
A12
330
946
100
AcDbEntity
  8
Dimension (ISO)
440
 16777216
100
AcDbLine
 10
465.0312187885894
 20
704.1926081922293
 30
0.0
 11
465.0312187885894
 21
671.0176081922294
 31
0.0
  0
LINE
  5
A13
330
946
100
AcDbEntity
  8
Dimension (ISO)
440
 16777216
100
AcDbLine
 10
304.0312187885895
 20
727.6926081922294
 30
0.0
 11
304.0312187885895
 21
671.0176081922294
 31
0.0
  0
LINE
  5
A14
330
946
100
AcDbEntity
  8
Dimension (ISO)
440
 16777216
100
AcDbLine
 10
462.5312187885895
 20
674.1926081922294
 30
0.0
 11
306.5312187885895
 21
674.1926081922294
 31
0.0
  0
SOLID
  5
A15
330
946
100
AcDbEntity
  8
Dimension (ISO)
440
 16777216
100
AcDbTrace
 10
462.5312187885895
 20
674.609274858896
 30
0.0
 11
462.5312187885895
 21
673.7759415255627
 31
0.0
 12
465.0312187885894
 22
674.1926081922294
 32
0.0
 13
465.0312187885894
 23
674.1926081922294
 33
0.0
  0
SOLID
  5
A16
330
946
100
AcDbEntity
  8
Dimension (ISO)
440
 16777216
100
AcDbTrace
 10
306.5312187885895
 20
674.609274858896
 30
0.0
 11
306.5312187885895
 21
673.7759415255627
 31
0.0
 12
304.0312187885895
 22
674.1926081922294
 32
0.0
 13
304.0312187885895
 23
674.1926081922294
 33
0.0
  0
MTEXT
  5
A17
330
946
100
AcDbEntity
  8
Dimension (ISO)
 62
   232
420
 13238372
440
 16777216
100
AcDbMText
 10
379.5773907480645
 20
678.1261998440007
 30
0.0
 40
2.5
 41
0.0
 46
0.0
 71
     1
 72
     1
  1
\A1;161,00
  7
Note Text (ISO)
 73
     1
 44
1.0
  0
POINT
  5
A18
330
946
100
AcDbEntity
  8
Defpoints
 62
     0
440
 16777216
100
AcDbPoint
 10
465.0312187885894
 20
704.1926081922293
 30
0.0
  0
POINT
  5
A19
330
946
100
AcDbEntity
  8
Defpoints
 62
     0
440
 16777216
100
AcDbPoint
 10
304.0312187885895
 20
727.6926081922294
 30
0.0
  0
POINT
  5
A1A
330
946
100
AcDbEntity
  8
Defpoints
 62
     0
440
 16777216
100
AcDbPoint
 10
304.0312187885895
 20
674.1926081922294
 30
0.0
  0
ENDBLK
  5
948
330
946
100
AcDbEntity
  8
0
100
AcDbBlockEnd
  0
ENDSEC
  0
SECTION
  2
ENTITIES
  0
INSERT
  5
16B
330
70
100
AcDbEntity
  8
0
100
AcDbBlockReference
  2
Borders Default Border
 10
0.0
 20
0.0
 30
0.0
  0
INSERT
  5
173
330
70
100
AcDbEntity
  8
0
100
AcDbBlockReference
 66
     1
  2
Title Blocks ISO
 10
821.0
 20
20.0
 30
0.0
  0
ATTRIB
  5
175
102
{ACAD_XDICTIONARY
360
A52
102
}
330
173
100
AcDbEntity
  8
Title (ISO)
 62
   232
420
 13238372
100
AcDbText
 10
855.1558588233993
 20
93.13494450671269
 30
0.0
 40
2.5
  1
491104110063
  7
Note Text (ISO)
100
AcDbAttribute
280
     0
  2
PART_NUMBER_001
 70
     0
280
     0
  0
ATTRIB
  5
176
102
{ACAD_XDICTIONARY
360
A57
102
}
330
173
100
AcDbEntity
  8
Title (ISO)
 62
   232
420
 13238372
100
AcDbText
 10
854.8368802916622
 20
83.39776635682264
 30
0.0
 40
2.5
  1
PLASSON REDUCING COUPLER
  7
Note Text (ISO)
100
AcDbAttribute
280
     0
  2
DESCRIPTION_001
 70
     0
280
     0
  0
ATTRIB
  5
A55
102
{ACAD_XDICTIONARY
360
A56
102
}
330
173
100
AcDbEntity
  8
Title (ISO)
 62
   232
420
 13238372
100
AcDbText
 10
854.7109568539264
 20
79.17905135204448
 30
0.0
 40
2.5
  1
110-63
  7
Note Text (ISO)
100
AcDbAttribute
280
     0
  2
DESCRIPTION_002
 70
     0
280
     1
  0
SEQEND
  5
174
330
173
100
AcDbEntity
  8
0
  0
LINE
  5
177
330
70
100
AcDbEntity
  8
Visible (ISO)
100
AcDbLine
 10
441.4312187886633
 20
365.4273716077983
 30
0.0
 11
456.4312187886632
 21
365.4273716077983
 31
0.0
  0
SPLINE
  5
178
330
70
100
AcDbEntity
  8
Visible (ISO)
100
AcDbSpline
210
0.0
220
0.0
230
1.0
 70
     8
 71
     3
 72
    22
 73
    18
 74
     0
 42
0.000000001
 43
0.0000000001
 40
1.369586261292325
 40
1.369586261292325
 40
1.369586261295565
 40
1.369586261295565
 40
1.712184965888168
 40
1.712184965888168
 40
2.054783670484011
 40
2.054783670484011
 40
2.396978096534331
 40
2.396978096534331
 40
2.739172522584651
 40
2.739172522584651
 40
3.09812011739086
 40
3.09812011739086
 40
3.457067712197069
 40
3.457067712197069
 40
3.808782577103639
 40
3.808782577103639
 40
4.16049744201021
 40
4.16049744201021
 40
4.16049744201021
 40
4.16049744201021
 10
458.2193477932597
 20
344.9889635611754
 30
0.0
 10
458.2193477932555
 20
344.9889635611754
 30
0.0
 10
457.9958006869538
 20
344.9882135930005
 30
0.0
 10
457.0832878174547
 20
345.000512889
 30
0.0
 10
456.3942715278832
 20
345.0153209908153
 30
0.0
 10
454.8021279214444
 20
345.0870674716179
 30
0.0
 10
453.7922442705951
 20
345.1491267479868
 30
0.0
 10
451.5775140662304
 20
345.35324557246
 30
0.0
 10
450.3728810325762
 20
345.4970322174713
 30
0.0
 10
448.0610934730267
 20
345.8368569529681
 30
0.0
 10
446.8018636194569
 20
346.0584400495799
 30
0.0
 10
444.4873960001564
 20
346.5282124874824
 30
0.0
 10
443.4316894189699
 20
346.7745185363375
 30
0.0
 10
441.7795030044382
 20
347.1857370205702
 30
0.0
 10
441.0663753115689
 20
347.3788566119442
 30
0.0
 10
440.1171532896166
 20
347.6429828948921
 30
0.0
 10
439.8813451902491
 20
347.712235315255
 30
0.0
 10
439.8813451902491
 20
347.712235315255
 30
0.0
  0
LINE
  5
179
330
70
100
AcDbEntity
  8
Visible (ISO)
100
AcDbLine
 10
456.4312187886632
 20
365.4273716077983
 30
0.0
 11
458.2193477932597
 21
344.9889635611754
 31
0.0
  0
LINE
  5
17A
330
70
100
AcDbEntity
  8
Visible (ISO)
100
AcDbLine
 10
441.4312187886633
 20
365.4273716077983
 30
0.0
 11
439.8813451902491
 21
347.712235315255
 31
0.0
  0
LINE
  5
17B
330
70
100
AcDbEntity
  8
Visible (ISO)
100
AcDbLine
 10
312.6312187886633
 20
342.4273716077983
 30
0.0
 11
327.6312187886633
 21
342.4273716077983
 31
0.0
  0
SPLINE
  5
17C
330
70
100
AcDbEntity
  8
Visible (ISO)
100
AcDbSpline
210
0.0
220
0.0
230
1.0
 70
     8
 71
     3
 72
    14
 73
    10
 74
     0
 42
0.000000001
 43
0.0000000001
 40
0.0
 40
0.0
 40
0.0
 40
0.0
 40
0.3646239924109738
 40
0.3646239924109738
 40
0.7292479848219476
 40
0.7292479848219476
 40
1.096553248197202
 40
1.096553248197202
 40
1.463858511572458
 40
1.463858511572458
 40
1.463858511572458
 40
1.463858511572458
 10
319.7029103191559
 20
318.9044103495797
 30
0.0
 10
318.4961379077151
 20
318.7645951583273
 30
0.0
 10
317.2109222533614
 20
318.6821853640423
 30
0.0
 10
314.8571137669716
 20
318.6497289580056
 30
0.0
 10
313.7885146213293
 20
318.695837220958
 30
0.0
 10
312.1043329419775
 20
318.8179212682254
 30
0.0
 10
311.3758849151246
 20
318.9018539278217
 30
0.0
 10
310.4115203306907
 20
319.0264705672178
 30
0.0
 10
310.175627592823
 20
319.0639820199929
 30
0.0
 10
310.175627592823
 20
319.0639820199929
 30
0.0
  0
SPLINE
  5
17D
330
70
100
AcDbEntity
  8
Visible (ISO)
100
AcDbSpline
210
0.0
220
0.0
230
1.0
 70
     8
 71
     3
 72
    14
 73
    10
 74
     0
 42
0.000000001
 43
0.0000000001
 40
4.47254294670454
 40
4.47254294670454
 40
4.472542946741891
 40
4.472542946741891
 40
4.85392385330577
 40
4.85392385330577
 40
5.235304759907
 40
5.235304759907
 40
5.626336815085582
 40
5.626336815085582
 40
6.017368870264164
 40
6.017368870264164
 40
6.017368870264164
 40
6.017368870264164
 10
329.8390466698348
 20
321.4212924941376
 30
0.0
 10
329.8390466697849
 20
321.4212924941185
 30
0.0
 10
329.5841037325434
 20
321.3241801419146
 30
0.0
 10
328.5625521131021
 20
320.9617943284495
 30
0.0
 10
327.7964772804443
 20
320.699665821687
 30
0.0
 10
326.0183532358402
 20
320.1593148854749
 30
0.0
 10
324.8778255227029
 20
319.8437080586237
 30
0.0
 10
322.3677626548112
 20
319.2891115379491
 30
0.0
 10
320.9970837855212
 20
319.0543517212901
 30
0.0
 10
319.7029103191559
 20
318.9044103495797
 30
0.0
  0
LINE
  5
17E
330
70
100
AcDbEntity
  8
Visible (ISO)
100
AcDbLine
 10
327.6312187886633
 20
342.4273716077983
 30
0.0
 11
329.8390466698348
 21
321.4212924941376
 31
0.0
  0
LINE
  5
17F
330
70
100
AcDbEntity
  8
Visible (ISO)
100
AcDbLine
 10
312.6312187886633
 20
342.4273716077983
 30
0.0
 11
310.1756275928229
 21
319.0639820199929
 31
0.0
  0
LINE
  5
180
330
70
100
AcDbEntity
  8
Visible (ISO)
100
AcDbLine
 10
348.2062187886632
 20
240.4273716077983
 30
0.0
 11
348.2062187886632
 21
322.4273716077983
 31
0.0
  0
LINE
  5
181
330
70
100
AcDbEntity
  8
Visible (ISO)
100
AcDbLine
 10
338.2312187886634
 20
240.4273716077983
 30
0.0
 11
338.2312187886634
 21
322.4273716077982
 31
0.0
  0
LINE
  5
182
330
70
100
AcDbEntity
  8
Visible (ISO)
100
AcDbLine
 10
376.7062187886633
 20
211.9273716077984
 30
0.0
 11
376.7062187886633
 21
350.9273716077982
 31
0.0
  0
LINE
  5
183
330
70
100
AcDbEntity
  8
Visible (ISO)
100
AcDbLine
 10
418.2312187886632
 20
211.9273716077984
 30
0.0
 11
418.2312187886632
 21
350.9273716077982
 31
0.0
  0
LINE
  5
184
330
70
100
AcDbEntity
  8
Visible (ISO)
100
AcDbLine
 10
465.0312187886632
 20
218.8773716077983
 30
0.0
 11
465.0312187886632
 21
343.9773716077983
 31
0.0
  0
LINE
  5
185
330
70
100
AcDbEntity
  8
Visible (ISO)
100
AcDbLine
 10
304.0312187886633
 20
244.5273716077983
 30
0.0
 11
304.0312187886633
 21
318.3273716077983
 31
0.0
  0
LINE
  5
186
330
70
100
AcDbEntity
  8
Visible (ISO)
100
AcDbLine
 10
338.2312187886632
 20
322.4273716077982
 30
0.0
 11
348.2062187886632
 21
322.4273716077982
 31
0.0
  0
LINE
  5
187
330
70
100
AcDbEntity
  8
Visible (ISO)
100
AcDbLine
 10
338.2312187886632
 20
240.4273716077983
 30
0.0
 11
348.2062187886632
 21
240.4273716077983
 31
0.0
  0
LINE
  5
188
330
70
100
AcDbEntity
  8
Visible (ISO)
100
AcDbLine
 10
348.2062187886632
 20
322.4273716077982
 30
0.0
 11
376.7062187886633
 21
350.9273716077982
 31
0.0
  0
LINE
  5
189
330
70
100
AcDbEntity
  8
Visible (ISO)
100
AcDbLine
 10
348.2062187886632
 20
240.4273716077983
 30
0.0
 11
376.7062187886633
 21
211.9273716077983
 31
0.0
  0
LINE
  5
18A
330
70
100
AcDbEntity
  8
Visible (ISO)
100
AcDbLine
 10
376.7062187886633
 20
350.9273716077982
 30
0.0
 11
418.2312187886632
 21
350.9273716077982
 31
0.0
  0
LINE
  5
18B
330
70
100
AcDbEntity
  8
Visible (ISO)
100
AcDbLine
 10
376.7062187886633
 20
211.9273716077983
 30
0.0
 11
418.2312187886632
 21
211.9273716077983
 31
0.0
  0
LINE
  5
18C
330
70
100
AcDbEntity
  8
Visible (ISO)
100
AcDbLine
 10
465.0312187886632
 20
218.8773716077983
 30
0.0
 11
418.2312187886632
 21
211.9273716077983
 31
0.0
  0
LINE
  5
18D
330
70
100
AcDbEntity
  8
Visible (ISO)
100
AcDbLine
 10
465.0312187886632
 20
343.9773716077983
 30
0.0
 11
458.2193477932597
 21
344.9889635611754
 31
0.0
  0
LINE
  5
18E
330
70
100
AcDbEntity
  8
Visible (ISO)
100
AcDbLine
 10
439.8813451902491
 20
347.712235315255
 30
0.0
 11
418.2312187886632
 21
350.9273716077982
 31
0.0
  0
LINE
  5
18F
330
70
100
AcDbEntity
  8
Visible (ISO)
100
AcDbLine
 10
304.0312187886633
 20
318.3273716077983
 30
0.0
 11
310.1756275928229
 21
319.0639820199929
 31
0.0
  0
LINE
  5
190
330
70
100
AcDbEntity
  8
Visible (ISO)
100
AcDbLine
 10
329.8390466698348
 20
321.4212924941376
 30
0.0
 11
338.2312187886632
 21
322.4273716077982
 31
0.0
  0
LINE
  5
191
330
70
100
AcDbEntity
  8
Visible (ISO)
100
AcDbLine
 10
304.0312187886633
 20
244.5273716077983
 30
0.0
 11
338.2312187886634
 21
240.4273716077983
 31
0.0
  0
LINE
  5
192
330
70
100
AcDbEntity
  8
Visible (ISO)
100
AcDbLine
 10
655.4637468901854
 20
365.4273716077983
 30
0.0
 11
670.4637468901855
 21
365.4273716077983
 31
0.0
  0
LINE
  5
193
330
70
100
AcDbEntity
  8
Visible (ISO)
100
AcDbLine
 10
670.4637468901855
 20
365.4273716077983
 30
0.0
 11
671.7814694607983
 21
350.3657337051655
 31
0.0
  0
LINE
  5
194
330
70
100
AcDbEntity
  8
Visible (ISO)
100
AcDbLine
 10
655.4637468901854
 20
365.4273716077983
 30
0.0
 11
654.1460243195728
 21
350.3657337051655
 31
0.0
  0
LINE
  5
195
330
70
100
AcDbEntity
  8
Visible (ISO)
100
AcDbLine
 10
655.4637468901473
 20
342.4273716077983
 30
0.0
 11
670.4637468901474
 21
342.4273716077983
 31
0.0
  0
SPLINE
  5
196
330
70
100
AcDbEntity
  8
Visible (ISO)
100
AcDbSpline
210
0.0
220
0.0
230
1.0
 70
     8
 71
     3
 72
    24
 73
    20
 74
     0
 42
0.000000001
 43
0.0000000001
 40
0.0
 40
0.0
 40
0.0
 40
0.0
 40
0.3646239924109738
 40
0.3646239924109738
 40
0.7292479848219476
 40
0.7292479848219476
 40
1.096553248197202
 40
1.096553248197202
 40
1.463858511572458
 40
1.463858511572458
 40
1.831163774947713
 40
1.831163774947713
 40
2.198469038322969
 40
2.198469038322969
 40
2.563093030733942
 40
2.563093030733942
 40
2.927717023144916
 40
2.927717023144916
 40
2.97059893059845
 40
2.97059893059845
 40
2.97059893059845
 40
2.97059893059845
 10
672.9269076713128
 20
318.9044103495797
 30
0.0
 10
672.8897382129758
 20
318.7645951583273
 30
0.0
 10
672.6099381130667
 20
318.6821853640423
 30
0.0
 10
671.5561365654178
 20
318.6497289580056
 30
0.0
 10
670.7822711592803
 20
318.695837220958
 30
0.0
 10
669.0212836978246
 20
318.8179212682254
 30
0.0
 10
667.9124681085885
 20
318.9018539278217
 30
0.0
 10
665.4959611763112
 20
319.0264705672178
 30
0.0
 10
664.1880977680618
 20
319.0639820199929
 30
0.0
 10
661.7393960122268
 20
319.0639820199929
 30
0.0
 10
660.4315326039775
 20
319.0264705672178
 30
0.0
 10
658.015025671701
 20
318.9018539278217
 30
0.0
 10
656.9062100824653
 20
318.8179212682254
 30
0.0
 10
655.1452226210106
 20
318.695837220958
 30
0.0
 10
654.3713572148738
 20
318.6497289580056
 30
0.0
 10
653.3175556672262
 20
318.6821853640423
 30
0.0
 10
653.037755567318
 20
318.7645951583273
 30
0.0
 10
652.9962147639639
 20
318.9208534312657
 30
0.0
 10
652.9951150015496
 20
318.9383165449019
 30
0.0
 10
652.997286555174
 20
318.9567439308183
 30
0.0
  0
SPLINE
  5
197
330
70
100
AcDbEntity
  8
Visible (ISO)
100
AcDbSpline
210
0.0
220
0.0
230
1.0
 70
     8
 71
     3
 72
     8
 73
     4
 74
     0
 42
0.000000001
 43
0.0000000001
 40
5.97448696281063
 40
5.97448696281063
 40
5.97448696281063
 40
5.97448696281063
 40
6.017368870264164
 40
6.017368870264164
 40
6.017368870264164
 40
6.017368870264164
 10
672.9302072251207
 20
318.9567439308183
 30
0.0
 10
672.9323787787449
 20
318.9383165449019
 30
0.0
 10
672.9312790163305
 20
318.9208534312657
 30
0.0
 10
672.9269076713128
 20
318.9044103495797
 30
0.0
  0
LINE
  5
198
330
70
100
AcDbEntity
  8
Visible (ISO)
100
AcDbLine
 10
670.4637468901474
 20
342.4273716077983
 30
0.0
 11
672.9306296457357
 21
318.9565500052928
 31
0.0
  0
LINE
  5
199
330
70
100
AcDbEntity
  8
Visible (ISO)
100
AcDbLine
 10
655.4637468901473
 20
342.4273716077983
 30
0.0
 11
652.9968641345589
 21
318.9565500052928
 31
0.0
  0
ARC
  5
19A
330
70
100
AcDbEntity
  8
Visible (ISO)
100
AcDbCircle
 10
662.9637468901526
 20
281.4273716077983
 30
0.0
 40
41.0
100
AcDbArc
 50
103.721145575809
 51
76.27885442419094
  0
CIRCLE
  5
19B
330
70
100
AcDbEntity
  8
Visible (ISO)
100
AcDbCircle
 10
662.9637468901641
 20
281.4273716077983
 30
0.0
 40
69.5
  0
CIRCLE
  5
19C
330
70
100
AcDbEntity
  8
Visible (ISO)
100
AcDbCircle
 10
662.9637468901594
 20
281.4273716077983
 30
0.0
 40
28.34999999999999
  0
CIRCLE
  5
19D
330
70
100
AcDbEntity
  8
Visible (ISO)
100
AcDbCircle
 10
662.9637468901425
 20
281.4273716077983
 30
0.0
 40
31.5
  0
CIRCLE
  5
19E
330
70
100
AcDbEntity
  8
Visible (ISO)
100
AcDbCircle
 10
662.9637468901425
 20
281.4273716077983
 30
0.0
 40
36.90000000000001
  0
LINE
  5
19F
330
70
100
AcDbEntity
  8
Visible (ISO)
100
AcDbLine
 10
348.2062187887482
 20
533.9823238937696
 30
0.0
 11
348.2062187887482
 21
615.9823238937697
 31
0.0
  0
LINE
  5
1A0
330
70
100
AcDbEntity
  8
Visible (ISO)
100
AcDbLine
 10
338.2312187887482
 20
533.9823238937696
 30
0.0
 11
338.2312187887482
 21
615.9823238937697
 31
0.0
  0
LINE
  5
1A1
330
70
100
AcDbEntity
  8
Visible (ISO)
100
AcDbLine
 10
376.7062187887483
 20
505.4823238937697
 30
0.0
 11
376.7062187887483
 21
644.4823238937697
 31
0.0
  0
LINE
  5
1A2
330
70
100
AcDbEntity
  8
Visible (ISO)
100
AcDbLine
 10
418.2312187887482
 20
505.4823238937697
 30
0.0
 11
418.2312187887482
 21
644.4823238937697
 31
0.0
  0
LINE
  5
1A3
330
70
100
AcDbEntity
  8
Visible (ISO)
100
AcDbLine
 10
465.0312187887482
 20
512.4323238937697
 30
0.0
 11
465.0312187887482
 21
637.5323238937697
 31
0.0
  0
LINE
  5
1A4
330
70
100
AcDbEntity
  8
Visible (ISO)
100
AcDbLine
 10
304.0312187887482
 20
538.0823238937696
 30
0.0
 11
304.0312187887482
 21
611.8823238937696
 31
0.0
  0
LINE
  5
1A5
330
70
100
AcDbEntity
  8
Visible (ISO)
100
AcDbLine
 10
338.2312187887482
 20
615.9823238937697
 30
0.0
 11
348.2062187887482
 21
615.9823238937697
 31
0.0
  0
LINE
  5
1A6
330
70
100
AcDbEntity
  8
Visible (ISO)
100
AcDbLine
 10
338.2312187887482
 20
533.9823238937696
 30
0.0
 11
348.2062187887482
 21
533.9823238937696
 31
0.0
  0
LINE
  5
1A7
330
70
100
AcDbEntity
  8
Visible (ISO)
100
AcDbLine
 10
348.2062187887482
 20
615.9823238937697
 30
0.0
 11
376.7062187887483
 21
644.4823238937697
 31
0.0
  0
LINE
  5
1A8
330
70
100
AcDbEntity
  8
Visible (ISO)
100
AcDbLine
 10
348.2062187887482
 20
533.9823238937696
 30
0.0
 11
376.7062187887483
 21
505.4823238937696
 31
0.0
  0
LINE
  5
1A9
330
70
100
AcDbEntity
  8
Visible (ISO)
100
AcDbLine
 10
376.7062187887483
 20
644.4823238937697
 30
0.0
 11
418.2312187887482
 21
644.4823238937697
 31
0.0
  0
LINE
  5
1AA
330
70
100
AcDbEntity
  8
Visible (ISO)
100
AcDbLine
 10
376.7062187887483
 20
505.4823238937697
 30
0.0
 11
418.2312187887482
 21
505.4823238937697
 31
0.0
  0
LINE
  5
1AB
330
70
100
AcDbEntity
  8
Visible (ISO)
100
AcDbLine
 10
465.0312187887482
 20
512.4323238937697
 30
0.0
 11
418.2312187887482
 21
505.4823238937697
 31
0.0
  0
LINE
  5
1AC
330
70
100
AcDbEntity
  8
Visible (ISO)
100
AcDbLine
 10
465.0312187887482
 20
637.5323238937697
 30
0.0
 11
418.2312187887482
 21
644.4823238937697
 31
0.0
  0
LINE
  5
1AD
330
70
100
AcDbEntity
  8
Visible (ISO)
100
AcDbLine
 10
304.0312187887482
 20
611.8823238937696
 30
0.0
 11
338.2312187887483
 21
615.9823238937697
 31
0.0
  0
LINE
  5
1AE
330
70
100
AcDbEntity
  8
Visible (ISO)
100
AcDbLine
 10
304.0312187887482
 20
538.0823238937696
 30
0.0
 11
338.2312187887483
 21
533.9823238937696
 31
0.0
  0
LINE
  5
1AF
330
70
100
AcDbEntity
  8
Visible (ISO)
100
AcDbLine
 10
84.45854210001298
 20
365.4273716077983
 30
0.0
 11
99.458542100013
 21
365.4273716077983
 31
0.0
  0
SPLINE
  5
1B0
330
70
100
AcDbEntity
  8
Visible (ISO)
100
AcDbSpline
210
0.0
220
0.0
230
1.0
 70
     8
 71
     3
 72
    24
 73
    20
 74
     0
 42
0.000000001
 43
0.0000000001
 40
0.0
 40
0.0
 40
0.0
 40
0.0
 40
0.3421944260503195
 40
0.3421944260503195
 40
0.6843888521006391
 40
0.6843888521006391
 40
1.026987556696482
 40
1.026987556696482
 40
1.369586261292325
 40
1.369586261292325
 40
1.712184965888168
 40
1.712184965888168
 40
2.054783670484011
 40
2.054783670484011
 40
2.396978096534331
 40
2.396978096534331
 40
2.739172522584651
 40
2.739172522584651
 40
2.770688733472602
 40
2.770688733472602
 40
2.770688733472602
 40
2.770688733472602
 10
101.1823883867858
 20
345.6628846794004
 30
0.0
 10
101.1585729373258
 20
345.4970322174713
 30
0.0
 10
100.9102417742006
 20
345.35324557246
 30
0.0
 10
99.94835748925126
 20
345.1491267479868
 30
0.0
 10
99.23468003343105
 20
345.0870674716179
 30
0.0
 10
97.60054608717624
 20
345.0153209908153
 30
0.0
 10
96.57028345588898
 20
345.000512889
 30
0.0
 10
94.32026407839405
 20
344.9882135930005
 30
0.0
 10
93.1005377820019
 20
344.9889635611754
 30
0.0
 10
90.81654641802961
 20
344.9889635611754
 30
0.0
 10
89.59682012163732
 20
344.9882135930005
 30
0.0
 10
87.34680074414184
 20
345.000512889
 30
0.0
 10
86.31653811285419
 20
345.0153209908153
 30
0.0
 10
84.68240416659842
 20
345.0870674716179
 30
0.0
 10
83.96872671077764
 20
345.1491267479868
 30
0.0
 10
83.0068424258269
 20
345.35324557246
 30
0.0
 10
82.75851126270099
 20
345.4970322174713
 30
0.0
 10
82.73250240308966
 20
345.6781597416707
 30
0.0
 10
82.73217963288502
 20
345.6938018424141
 30
0.0
 10
82.73373138795452
 20
345.7097877595856
 30
0.0
  0
SPLINE
  5
1B1
330
70
100
AcDbEntity
  8
Visible (ISO)
100
AcDbSpline
210
0.0
220
0.0
230
1.0
 70
     8
 71
     3
 72
     8
 73
     4
 74
     0
 42
0.000000001
 43
0.0000000001
 40
5.550306150547817
 40
5.550306150547817
 40
5.550306150547817
 40
5.550306150547817
 40
5.581822361435769
 40
5.581822361435769
 40
5.581822361435769
 40
5.581822361435769
 10
101.1833528120714
 20
345.7097877595856
 30
0.0
 10
101.184904567141
 20
345.6938018424141
 30
0.0
 10
101.1845817969364
 20
345.6781597416706
 30
0.0
 10
101.1823883867858
 20
345.6628846794004
 30
0.0
  0
LINE
  5
1B2
330
70
100
AcDbEntity
  8
Visible (ISO)
100
AcDbLine
 10
99.458542100013
 20
365.4273716077983
 30
0.0
 11
101.1836126146329
 21
345.7097253997412
 31
0.0
  0
LINE
  5
1B3
330
70
100
AcDbEntity
  8
Visible (ISO)
100
AcDbLine
 10
84.458542100013
 20
365.4273716077983
 30
0.0
 11
82.73347158539309
 21
345.7097253997412
 31
0.0
  0
ARC
  5
1B4
330
70
100
AcDbEntity
  8
Visible (ISO)
100
AcDbCircle
 10
91.95854210000396
 20
281.4273716077983
 30
0.0
 40
69.5
100
AcDbArc
 50
97.28897284313632
 51
82.71102715686376
  0
CIRCLE
  5
1B5
330
70
100
AcDbEntity
  8
Visible (ISO)
100
AcDbCircle
 10
91.95854210001776
 20
281.4273716077983
 30
0.0
 40
62.54999999999996
  0
CIRCLE
  5
1B6
330
70
100
AcDbEntity
  8
Visible (ISO)
100
AcDbCircle
 10
91.95854210001776
 20
281.4273716077983
 30
0.0
 40
55.0
  0
CIRCLE
  5
1B7
330
70
100
AcDbEntity
  8
Visible (ISO)
100
AcDbCircle
 10
91.95854209998776
 20
281.4273716077983
 30
0.0
 40
31.49999999999999
  0
CIRCLE
  5
1B8
330
70
100
AcDbEntity
  8
Visible (ISO)
100
AcDbCircle
 10
91.95854209998776
 20
281.4273716077983
 30
0.0
 40
28.34999999999999
  0
CIRCLE
  5
1B9
330
70
100
AcDbEntity
  8
Visible (ISO)
100
AcDbCircle
 10
448.9312187885895
 20
40.02878755551438
 30
0.0
 40
2.0
  0
CIRCLE
  5
1BA
330
70
100
AcDbEntity
  8
Visible (ISO)
100
AcDbCircle
 10
320.1312187885894
 20
40.02878755550756
 30
0.0
 40
2.0
  0
CIRCLE
  5
1BB
330
70
100
AcDbEntity
  8
Visible (ISO)
100
AcDbCircle
 10
448.9312187885895
 20
40.02878755551527
 30
0.0
 40
5.0
  0
CIRCLE
  5
1BC
330
70
100
AcDbEntity
  8
Visible (ISO)
100
AcDbCircle
 10
448.9312187885895
 20
40.02878755551527
 30
0.0
 40
7.5
  0
SPLINE
  5
1BD
330
70
100
AcDbEntity
  8
Visible (ISO)
100
AcDbSpline
210
0.0
220
0.0
230
1.0
 70
    11
 71
     3
 72
    38
 73
    34
 74
     0
 42
0.000000001
 43
0.0000000001
 40
0.0
 40
0.0
 40
0.0
 40
0.0
 40
0.3421944260503195
 40
0.3421944260503195
 40
0.6843888521006391
 40
0.6843888521006391
 40
1.026987556696482
 40
1.026987556696482
 40
1.369586261292325
 40
1.369586261292325
 40
1.712184965888168
 40
1.712184965888168
 40
2.054783670484011
 40
2.054783670484011
 40
2.396978096534331
 40
2.396978096534331
 40
2.739172522584651
 40
2.739172522584651
 40
3.09812011739086
 40
3.09812011739086
 40
3.457067712197069
 40
3.457067712197069
 40
3.808782577103639
 40
3.808782577103639
 40
4.16049744201021
 40
4.16049744201021
 40
4.512212306916779
 40
4.512212306916779
 40
4.86392717182335
 40
4.86392717182335
 40
5.222874766629559
 40
5.222874766629559
 40
5.581822361435769
 40
5.581822361435769
 40
5.581822361435769
 40
5.581822361435769
 10
449.2446063127474
 20
49.25263384228218
 30
0.0
 10
450.3728810325023
 20
49.22881839282178
 30
0.0
 10
451.5775140661566
 20
48.98048722969619
 30
0.0
 10
453.7922442705212
 20
48.01860294474606
 30
0.0
 10
454.8021279213706
 20
47.30492548892556
 30
0.0
 10
456.3942715278094
 20
45.67079154267023
 30
0.0
 10
457.0832878173809
 20
44.64052891138279
 30
0.0
 10
457.9958006868842
 20
42.39050953388757
 30
0.0
 10
458.2193477931859
 20
41.17078323749535
 30
0.0
 10
458.2193477931859
 20
38.88679187352307
 30
0.0
 10
457.9958006868842
 20
37.66706557713085
 30
0.0
 10
457.0832878173809
 20
35.41704619963565
 30
0.0
 10
456.3942715278094
 20
34.38678356834821
 30
0.0
 10
454.8021279213706
 20
32.75264962209293
 30
0.0
 10
453.7922442705212
 20
32.03897216627246
 30
0.0
 10
451.5775140661566
 20
31.07708788132244
 30
0.0
 10
450.3728810325023
 20
30.82875671819695
 30
0.0
 10
448.0610934729528
 20
30.77995986152415
 30
0.0
 10
446.801863619383
 20
30.99763069366027
 30
0.0
 10
444.4873960000825
 20
31.92975702065088
 30
0.0
 10
443.431689418896
 20
32.64399656557369
 30
0.0
 10
441.7795030043645
 20
34.29103862309749
 30
0.0
 10
441.066375311495
 20
35.32763756448885
 30
0.0
 10
440.1171532895427
 20
37.61015975198178
 30
0.0
 10
439.8813451901752
 20
38.85640467248812
 30
0.0
 10
439.8813451901752
 20
41.20117043853191
 30
0.0
 10
440.1171532895427
 20
42.44741535903822
 30
0.0
 10
441.066375311495
 20
44.72993754653098
 30
0.0
 10
441.7795030043645
 20
45.76653648792223
 30
0.0
 10
443.431689418896
 20
47.41357854544578
 30
0.0
 10
444.4873960000825
 20
48.12781809036845
 30
0.0
 10
446.801863619383
 20
49.05994441735878
 30
0.0
 10
448.0610934729528
 20
49.27761524949477
 30
0.0
 10
449.2446063127474
 20
49.25263384228218
 30
0.0
  0
CIRCLE
  5
1BE
330
70
100
AcDbEntity
  8
Visible (ISO)
100
AcDbCircle
 10
320.1312187885894
 20
40.02878755550844
 30
0.0
 40
5.0
  0
CIRCLE
  5
1BF
330
70
100
AcDbEntity
  8
Visible (ISO)
100
AcDbCircle
 10
320.1312187885894
 20
40.02878755550844
 30
0.0
 40
7.5
  0
SPLINE
  5
1C0
330
70
100
AcDbEntity
  8
Visible (ISO)
100
AcDbSpline
210
0.0
220
0.0
230
1.0
 70
    11
 71
     3
 72
    38
 73
    34
 74
     0
 42
0.000000001
 43
0.0000000001
 40
0.0
 40
0.0
 40
0.0
 40
0.0
 40
0.3646239924109738
 40
0.3646239924109738
 40
0.7292479848219476
 40
0.7292479848219476
 40
1.096553248197202
 40
1.096553248197202
 40
1.463858511572458
 40
1.463858511572458
 40
1.831163774947713
 40
1.831163774947713
 40
2.198469038322969
 40
2.198469038322969
 40
2.563093030733942
 40
2.563093030733942
 40
2.927717023144916
 40
2.927717023144916
 40
3.318749078323498
 40
3.318749078323498
 40
3.70978113350208
 40
3.70978113350208
 40
4.091162040103309
 40
4.091162040103309
 40
4.47254294670454
 40
4.47254294670454
 40
4.85392385330577
 40
4.85392385330577
 40
5.235304759907
 40
5.235304759907
 40
5.626336815085582
 40
5.626336815085582
 40
6.017368870264164
 40
6.017368870264164
 40
6.017368870264164
 40
6.017368870264164
 10
319.702910319082
 20
30.06562677433576
 30
0.0
 10
318.4961379076413
 20
30.10279623267246
 30
0.0
 10
317.2109222532876
 20
30.38259633258114
 30
0.0
 10
314.8571137668977
 20
31.43639788022945
 30
0.0
 10
313.7885146212554
 20
32.21026328636656
 30
0.0
 10
312.1043329419036
 20
33.97125074782188
 30
0.0
 10
311.3758849150508
 20
35.08006633705773
 30
0.0
 10
310.4115203306169
 20
37.49657326933466
 30
0.0
 10
310.1756275927491
 20
38.804436677584
 30
0.0
 10
310.1756275927491
 20
41.25313843341904
 30
0.0
 10
310.4115203306169
 20
42.56100184166836
 30
0.0
 10
311.3758849150508
 20
44.97750877394522
 30
0.0
 10
312.1043329419036
 20
46.08632436318102
 30
0.0
 10
313.7885146212554
 20
47.84731182463627
 30
0.0
 10
314.8571137668977
 20
48.62117723077334
 30
0.0
 10
317.2109222532876
 20
49.67497877842167
 30
0.0
 10
318.4961379076413
 20
49.9547788783304
 30
0.0
 10
320.9970837854474
 20
50.03180981036563
 30
0.0
 10
322.3677626547374
 20
49.79963024765122
 30
0.0
 10
324.8778255226291
 20
48.79159329648915
 30
0.0
 10
326.0183532357664
 20
48.01626147336803
 30
0.0
 10
327.7964772803705
 20
46.23428878115427
 30
0.0
 10
328.5625521130283
 20
45.11566563446208
 30
0.0
 10
329.5841037325195
 20
42.64889087432422
 30
0.0
 10
329.8390466697611
 20
41.30005724417299
 30
0.0
 10
329.8390466697611
 20
38.75751786683146
 30
0.0
 10
329.5841037325195
 20
37.40868423668017
 30
0.0
 10
328.5625521130283
 20
34.94190947654209
 30
0.0
 10
327.7964772803705
 20
33.82328632984975
 30
0.0
 10
326.0183532357664
 20
32.04131363763566
 30
0.0
 10
324.8778255226291
 20
31.26598181451435
 30
0.0
 10
322.3677626547374
 20
30.25794486335196
 30
0.0
 10
320.9970837854474
 20
30.02576530063742
 30
0.0
 10
319.702910319082
 20
30.06562677433576
 30
0.0
  0
LINE
  5
1C1
330
70
100
AcDbEntity
  8
Visible (ISO)
100
AcDbLine
 10
348.2062187885895
 20
-0.9712124445096215
 30
0.0
 11
348.2062187885895
 21
81.02878755549035
 31
0.0
  0
LINE
  5
1C2
330
70
100
AcDbEntity
  8
Visible (ISO)
100
AcDbLine
 10
338.2312187885895
 20
-0.9712124445096304
 30
0.0
 11
338.2312187885895
 21
81.02878755549035
 31
0.0
  0
LINE
  5
1C3
330
70
100
AcDbEntity
  8
Visible (ISO)
100
AcDbLine
 10
376.7062187885894
 20
-29.47121244450963
 30
0.0
 11
376.7062187885894
 21
109.5287875554904
 31
0.0
  0
LINE
  5
1C4
330
70
100
AcDbEntity
  8
Visible (ISO)
100
AcDbLine
 10
418.2312187885894
 20
-29.47121244450962
 30
0.0
 11
418.2312187885894
 21
109.5287875554903
 31
0.0
  0
LINE
  5
1C5
330
70
100
AcDbEntity
  8
Visible (ISO)
100
AcDbLine
 10
465.0312187885893
 20
-22.52121244450959
 30
0.0
 11
465.0312187885893
 21
102.5787875554903
 31
0.0
  0
LINE
  5
1C6
330
70
100
AcDbEntity
  8
Visible (ISO)
100
AcDbLine
 10
304.0312187885894
 20
3.128787555490353
 30
0.0
 11
304.0312187885894
 21
76.92878755549036
 31
0.0
  0
LINE
  5
1C7
330
70
100
AcDbEntity
  8
Visible (ISO)
100
AcDbLine
 10
338.2312187885895
 20
81.02878755549035
 30
0.0
 11
348.2062187885895
 21
81.02878755549035
 31
0.0
  0
LINE
  5
1C8
330
70
100
AcDbEntity
  8
Visible (ISO)
100
AcDbLine
 10
338.2312187885895
 20
-0.9712124445096392
 30
0.0
 11
348.2062187885895
 21
-0.9712124445096392
 31
0.0
  0
LINE
  5
1C9
330
70
100
AcDbEntity
  8
Visible (ISO)
100
AcDbLine
 10
348.2062187885895
 20
81.02878755549035
 30
0.0
 11
376.7062187885894
 21
109.5287875554903
 31
0.0
  0
LINE
  5
1CA
330
70
100
AcDbEntity
  8
Visible (ISO)
100
AcDbLine
 10
348.2062187885895
 20
-0.9712124445096392
 30
0.0
 11
376.7062187885894
 21
-29.47121244450963
 31
0.0
  0
LINE
  5
1CB
330
70
100
AcDbEntity
  8
Visible (ISO)
100
AcDbLine
 10
376.7062187885894
 20
109.5287875554903
 30
0.0
 11
418.2312187885894
 21
109.5287875554903
 31
0.0
  0
LINE
  5
1CC
330
70
100
AcDbEntity
  8
Visible (ISO)
100
AcDbLine
 10
376.7062187885894
 20
-29.47121244450963
 30
0.0
 11
418.2312187885894
 21
-29.47121244450963
 31
0.0
  0
LINE
  5
1CD
330
70
100
AcDbEntity
  8
Visible (ISO)
100
AcDbLine
 10
465.0312187885893
 20
-22.5212124445096
 30
0.0
 11
418.2312187885894
 21
-29.47121244450962
 31
0.0
  0
LINE
  5
1CE
330
70
100
AcDbEntity
  8
Visible (ISO)
100
AcDbLine
 10
465.0312187885893
 20
102.5787875554903
 30
0.0
 11
418.2312187885894
 21
109.5287875554903
 31
0.0
  0
LINE
  5
1CF
330
70
100
AcDbEntity
  8
Visible (ISO)
100
AcDbLine
 10
304.0312187885894
 20
76.92878755549036
 30
0.0
 11
338.2312187885895
 21
81.02878755549035
 31
0.0
  0
LINE
  5
1D0
330
70
100
AcDbEntity
  8
Visible (ISO)
100
AcDbLine
 10
304.0312187885894
 20
3.128787555490353
 30
0.0
 11
338.2312187885895
 21
-0.9712124445096392
 31
0.0
  0
INSERT
  5
1F1
330
70
100
AcDbEntity
  8
Section Line (ISO)
100
AcDbBlockReference
  2
2dTransSection0
 10
0.0
 20
0.0
 30
0.0
  0
LINE
  5
1F2
330
70
100
AcDbEntity
  8
Visible (ISO)
100
AcDbLine
 10
338.2312187885895
 20
718.1926081922295
 30
0.0
 11
348.2062187885895
 21
718.1926081922295
 31
0.0
  0
LINE
  5
1F3
330
70
100
AcDbEntity
  8
Visible (ISO)
100
AcDbLine
 10
348.2062187885895
 20
718.1926081922295
 30
0.0
 11
376.7062187885895
 21
689.6926081922294
 31
0.0
  0
LINE
  5
1F4
330
70
100
AcDbEntity
  8
Visible (ISO)
100
AcDbLine
 10
376.7062187885895
 20
689.6926081922294
 30
0.0
 11
418.2312187885894
 21
689.6926081922294
 31
0.0
  0
LINE
  5
1F5
330
70
100
AcDbEntity
  8
Visible (ISO)
100
AcDbLine
 10
418.2312187885894
 20
689.6926081922294
 30
0.0
 11
465.0312187885894
 21
696.6426081922294
 31
0.0
  0
LINE
  5
1F6
330
70
100
AcDbEntity
  8
Visible (ISO)
100
AcDbLine
 10
465.0312187885894
 20
696.6426081922294
 30
0.0
 11
465.0312187885894
 21
704.1926081922293
 31
0.0
  0
LINE
  5
1F7
330
70
100
AcDbEntity
  8
Visible (ISO)
100
AcDbLine
 10
465.0312187885894
 20
704.1926081922293
 30
0.0
 11
444.2312187885895
 21
704.1926081922293
 31
0.0
  0
LINE
  5
1F8
330
70
100
AcDbEntity
  8
Visible (ISO)
100
AcDbLine
 10
444.2312187885895
 20
704.1926081922293
 30
0.0
 11
433.8312187885895
 21
701.9820199508613
 31
0.0
  0
LINE
  5
1F9
330
70
100
AcDbEntity
  8
Visible (ISO)
100
AcDbLine
 10
433.8312187885895
 20
701.9820199508613
 30
0.0
 11
433.8312187885894
 21
704.1926081922293
 31
0.0
  0
LINE
  5
1FA
330
70
100
AcDbEntity
  8
Visible (ISO)
100
AcDbLine
 10
433.8312187885894
 20
704.1926081922293
 30
0.0
 11
387.0312187885895
 21
704.1926081922293
 31
0.0
  0
LINE
  5
1FB
330
70
100
AcDbEntity
  8
Visible (ISO)
100
AcDbLine
 10
387.0312187885895
 20
704.1926081922293
 30
0.0
 11
363.8812187885895
 21
727.6926081922295
 31
0.0
  0
LINE
  5
1FC
330
70
100
AcDbEntity
  8
Visible (ISO)
100
AcDbLine
 10
363.8812187885895
 20
727.6926081922295
 30
0.0
 11
363.8812187885895
 21
730.8426081922294
 31
0.0
  0
LINE
  5
1FD
330
70
100
AcDbEntity
  8
Visible (ISO)
100
AcDbLine
 10
363.8812187885895
 20
730.8426081922294
 30
0.0
 11
361.0312187885895
 21
730.8426081922294
 31
0.0
  0
LINE
  5
1FE
330
70
100
AcDbEntity
  8
Visible (ISO)
100
AcDbLine
 10
361.0312187885895
 20
730.8426081922294
 30
0.0
 11
361.0312187885895
 21
727.6926081922295
 31
0.0
  0
LINE
  5
1FF
330
70
100
AcDbEntity
  8
Visible (ISO)
100
AcDbLine
 10
361.0312187885895
 20
727.6926081922295
 30
0.0
 11
326.8312187885896
 21
727.6926081922294
 31
0.0
  0
LINE
  5
200
330
70
100
AcDbEntity
  8
Visible (ISO)
100
AcDbLine
 10
326.8312187885896
 20
727.6926081922294
 30
0.0
 11
326.8312187885896
 21
726.0771783235372
 31
0.0
  0
LINE
  5
201
330
70
100
AcDbEntity
  8
Visible (ISO)
100
AcDbLine
 10
326.8312187885896
 20
726.0771783235372
 30
0.0
 11
319.2312187885895
 21
727.6926081922294
 31
0.0
  0
LINE
  5
202
330
70
100
AcDbEntity
  8
Visible (ISO)
100
AcDbLine
 10
319.2312187885895
 20
727.6926081922294
 30
0.0
 11
304.0312187885895
 21
727.6926081922294
 31
0.0
  0
LINE
  5
203
330
70
100
AcDbEntity
  8
Visible (ISO)
100
AcDbLine
 10
304.0312187885895
 20
727.6926081922294
 30
0.0
 11
304.0312187885895
 21
722.2926081922294
 31
0.0
  0
LINE
  5
204
330
70
100
AcDbEntity
  8
Visible (ISO)
100
AcDbLine
 10
304.0312187885895
 20
722.2926081922294
 30
0.0
 11
338.2312187885895
 21
718.1926081922295
 31
0.0
  0
LINE
  5
205
330
70
100
AcDbEntity
  8
Visible (ISO)
100
AcDbLine
 10
348.2062187885895
 20
800.1926081922293
 30
0.0
 11
338.2312187885895
 21
800.1926081922293
 31
0.0
  0
LINE
  5
206
330
70
100
AcDbEntity
  8
Visible (ISO)
100
AcDbLine
 10
338.2312187885895
 20
800.1926081922293
 30
0.0
 11
329.8390466697611
 21
799.1865290785686
 31
0.0
  0
LINE
  5
207
330
70
100
AcDbEntity
  8
Visible (ISO)
100
AcDbLine
 10
329.8390466697611
 20
799.1865290785686
 30
0.0
 11
327.6312187885896
 21
820.1926081922294
 31
0.0
  0
LINE
  5
208
330
70
100
AcDbEntity
  8
Visible (ISO)
100
AcDbLine
 10
327.6312187885896
 20
820.1926081922294
 30
0.0
 11
325.1312187885895
 21
820.1926081922293
 31
0.0
  0
LINE
  5
209
330
70
100
AcDbEntity
  8
Visible (ISO)
100
AcDbLine
 10
325.1312187885895
 20
820.1926081922293
 30
0.0
 11
325.1312187885895
 21
806.1926081922294
 31
0.0
  0
LINE
  5
20A
330
70
100
AcDbEntity
  8
Visible (ISO)
100
AcDbLine
 10
325.1312187885895
 20
806.1926081922294
 30
0.0
 11
322.1312187885895
 21
806.1926081922294
 31
0.0
  0
LINE
  5
20B
330
70
100
AcDbEntity
  8
Visible (ISO)
100
AcDbLine
 10
322.1312187885895
 20
806.1926081922294
 30
0.0
 11
322.1312187885895
 21
817.1926081922293
 31
0.0
  0
LINE
  5
20C
330
70
100
AcDbEntity
  8
Visible (ISO)
100
AcDbLine
 10
322.1312187885895
 20
817.1926081922293
 30
0.0
 11
318.1312187885895
 21
817.1926081922293
 31
0.0
  0
LINE
  5
20D
330
70
100
AcDbEntity
  8
Visible (ISO)
100
AcDbLine
 10
318.1312187885895
 20
817.1926081922293
 30
0.0
 11
318.1312187885895
 21
806.1926081922294
 31
0.0
  0
LINE
  5
20E
330
70
100
AcDbEntity
  8
Visible (ISO)
100
AcDbLine
 10
318.1312187885895
 20
806.1926081922294
 30
0.0
 11
315.1312187885895
 21
806.1926081922294
 31
0.0
  0
LINE
  5
20F
330
70
100
AcDbEntity
  8
Visible (ISO)
100
AcDbLine
 10
315.1312187885895
 20
806.1926081922294
 30
0.0
 11
315.1312187885895
 21
820.1926081922294
 31
0.0
  0
LINE
  5
210
330
70
100
AcDbEntity
  8
Visible (ISO)
100
AcDbLine
 10
315.1312187885895
 20
820.1926081922294
 30
0.0
 11
312.6312187885895
 21
820.1926081922293
 31
0.0
  0
LINE
  5
211
330
70
100
AcDbEntity
  8
Visible (ISO)
100
AcDbLine
 10
312.6312187885895
 20
820.1926081922293
 30
0.0
 11
310.1756275927491
 21
796.8292186044241
 31
0.0
  0
LINE
  5
212
330
70
100
AcDbEntity
  8
Visible (ISO)
100
AcDbLine
 10
310.1756275927491
 20
796.8292186044241
 30
0.0
 11
304.0312187885895
 21
796.0926081922293
 31
0.0
  0
LINE
  5
213
330
70
100
AcDbEntity
  8
Visible (ISO)
100
AcDbLine
 10
304.0312187885895
 20
796.0926081922293
 30
0.0
 11
304.0312187885895
 21
790.6926081922295
 31
0.0
  0
LINE
  5
214
330
70
100
AcDbEntity
  8
Visible (ISO)
100
AcDbLine
 10
304.0312187885895
 20
790.6926081922295
 30
0.0
 11
319.2312187885895
 21
790.6926081922295
 31
0.0
  0
LINE
  5
215
330
70
100
AcDbEntity
  8
Visible (ISO)
100
AcDbLine
 10
319.2312187885895
 20
790.6926081922295
 30
0.0
 11
326.8312187885895
 21
792.3080380609214
 31
0.0
  0
LINE
  5
216
330
70
100
AcDbEntity
  8
Visible (ISO)
100
AcDbLine
 10
326.8312187885895
 20
792.3080380609214
 30
0.0
 11
326.8312187885896
 21
790.6926081922295
 31
0.0
  0
LINE
  5
217
330
70
100
AcDbEntity
  8
Visible (ISO)
100
AcDbLine
 10
326.8312187885896
 20
790.6926081922295
 30
0.0
 11
361.0312187885895
 21
790.6926081922295
 31
0.0
  0
LINE
  5
218
330
70
100
AcDbEntity
  8
Visible (ISO)
100
AcDbLine
 10
361.0312187885895
 20
790.6926081922295
 30
0.0
 11
361.0312187885895
 21
787.5426081922293
 31
0.0
  0
LINE
  5
219
330
70
100
AcDbEntity
  8
Visible (ISO)
100
AcDbLine
 10
361.0312187885895
 20
787.5426081922293
 30
0.0
 11
363.8812187885895
 21
787.5426081922293
 31
0.0
  0
LINE
  5
21A
330
70
100
AcDbEntity
  8
Visible (ISO)
100
AcDbLine
 10
363.8812187885895
 20
787.5426081922293
 30
0.0
 11
363.8812187885895
 21
790.6926081922295
 31
0.0
  0
LINE
  5
21B
330
70
100
AcDbEntity
  8
Visible (ISO)
100
AcDbLine
 10
363.8812187885895
 20
790.6926081922295
 30
0.0
 11
387.0312187885895
 21
814.1926081922294
 31
0.0
  0
LINE
  5
21C
330
70
100
AcDbEntity
  8
Visible (ISO)
100
AcDbLine
 10
387.0312187885895
 20
814.1926081922294
 30
0.0
 11
433.8312187885894
 21
814.1926081922294
 31
0.0
  0
LINE
  5
21D
330
70
100
AcDbEntity
  8
Visible (ISO)
100
AcDbLine
 10
433.8312187885894
 20
814.1926081922294
 30
0.0
 11
433.8312187885894
 21
816.4031964335975
 31
0.0
  0
LINE
  5
21E
330
70
100
AcDbEntity
  8
Visible (ISO)
100
AcDbLine
 10
433.8312187885894
 20
816.4031964335975
 30
0.0
 11
444.2312187885895
 21
814.1926081922294
 31
0.0
  0
LINE
  5
21F
330
70
100
AcDbEntity
  8
Visible (ISO)
100
AcDbLine
 10
444.2312187885895
 20
814.1926081922294
 30
0.0
 11
465.0312187885894
 21
814.1926081922294
 31
0.0
  0
LINE
  5
220
330
70
100
AcDbEntity
  8
Visible (ISO)
100
AcDbLine
 10
465.0312187885894
 20
814.1926081922294
 30
0.0
 11
465.0312187885894
 21
821.7426081922294
 31
0.0
  0
LINE
  5
221
330
70
100
AcDbEntity
  8
Visible (ISO)
100
AcDbLine
 10
465.0312187885894
 20
821.7426081922294
 30
0.0
 11
458.219347793186
 21
822.7542001456066
 31
0.0
  0
LINE
  5
222
330
70
100
AcDbEntity
  8
Visible (ISO)
100
AcDbLine
 10
458.219347793186
 20
822.7542001456066
 30
0.0
 11
456.4312187885895
 21
843.1926081922293
 31
0.0
  0
LINE
  5
223
330
70
100
AcDbEntity
  8
Visible (ISO)
100
AcDbLine
 10
456.4312187885895
 20
843.1926081922293
 30
0.0
 11
453.9312187885895
 21
843.1926081922293
 31
0.0
  0
LINE
  5
224
330
70
100
AcDbEntity
  8
Visible (ISO)
100
AcDbLine
 10
453.9312187885895
 20
843.1926081922293
 30
0.0
 11
453.9312187885895
 21
829.1926081922294
 31
0.0
  0
LINE
  5
225
330
70
100
AcDbEntity
  8
Visible (ISO)
100
AcDbLine
 10
453.9312187885895
 20
829.1926081922294
 30
0.0
 11
450.9312187885894
 21
829.1926081922294
 31
0.0
  0
LINE
  5
226
330
70
100
AcDbEntity
  8
Visible (ISO)
100
AcDbLine
 10
450.9312187885894
 20
829.1926081922294
 30
0.0
 11
450.9312187885894
 21
840.1926081922294
 31
0.0
  0
LINE
  5
227
330
70
100
AcDbEntity
  8
Visible (ISO)
100
AcDbLine
 10
450.9312187885894
 20
840.1926081922294
 30
0.0
 11
446.9312187885895
 21
840.1926081922294
 31
0.0
  0
LINE
  5
228
330
70
100
AcDbEntity
  8
Visible (ISO)
100
AcDbLine
 10
446.9312187885895
 20
840.1926081922294
 30
0.0
 11
446.9312187885895
 21
829.1926081922294
 31
0.0
  0
LINE
  5
229
330
70
100
AcDbEntity
  8
Visible (ISO)
100
AcDbLine
 10
446.9312187885895
 20
829.1926081922294
 30
0.0
 11
443.9312187885895
 21
829.1926081922294
 31
0.0
  0
LINE
  5
22A
330
70
100
AcDbEntity
  8
Visible (ISO)
100
AcDbLine
 10
443.9312187885895
 20
829.1926081922294
 30
0.0
 11
443.9312187885895
 21
843.1926081922295
 31
0.0
  0
LINE
  5
22B
330
70
100
AcDbEntity
  8
Visible (ISO)
100
AcDbLine
 10
443.9312187885895
 20
843.1926081922295
 30
0.0
 11
441.4312187885895
 21
843.1926081922295
 31
0.0
  0
LINE
  5
22C
330
70
100
AcDbEntity
  8
Visible (ISO)
100
AcDbLine
 10
441.4312187885895
 20
843.1926081922295
 30
0.0
 11
439.8813451901753
 21
825.4774718996861
 31
0.0
  0
LINE
  5
22D
330
70
100
AcDbEntity
  8
Visible (ISO)
100
AcDbLine
 10
439.8813451901753
 20
825.4774718996861
 30
0.0
 11
418.2312187885894
 21
828.6926081922295
 31
0.0
  0
LINE
  5
22E
330
70
100
AcDbEntity
  8
Visible (ISO)
100
AcDbLine
 10
418.2312187885894
 20
828.6926081922295
 30
0.0
 11
376.7062187885895
 21
828.6926081922295
 31
0.0
  0
LINE
  5
22F
330
70
100
AcDbEntity
  8
Visible (ISO)
100
AcDbLine
 10
376.7062187885895
 20
828.6926081922295
 30
0.0
 11
348.2062187885895
 21
800.1926081922293
 31
0.0
  0
LINE
  5
230
330
70
100
AcDbEntity
  8
Visible (ISO)
100
AcDbLine
 10
315.1312187885896
 20
820.1926081922293
 30
0.0
 11
325.1312187885895
 21
820.1926081922293
 31
0.0
  0
LINE
  5
231
330
70
100
AcDbEntity
  8
Visible (ISO)
100
AcDbLine
 10
363.8812187885895
 20
730.8426081922294
 30
0.0
 11
363.8812187885895
 21
787.5426081922293
 31
0.0
  0
LINE
  5
232
330
70
100
AcDbEntity
  8
Visible (ISO)
100
AcDbLine
 10
361.0312187885895
 20
730.8426081922294
 30
0.0
 11
361.0312187885895
 21
787.5426081922293
 31
0.0
  0
LINE
  5
233
330
70
100
AcDbEntity
  8
Visible (ISO)
100
AcDbLine
 10
326.8312187885896
 20
727.6926081922294
 30
0.0
 11
326.8312187885896
 21
790.6926081922295
 31
0.0
  0
LINE
  5
234
330
70
100
AcDbEntity
  8
Visible (ISO)
100
AcDbLine
 10
319.2312187885895
 20
727.6926081922294
 30
0.0
 11
319.2312187885895
 21
790.6926081922295
 31
0.0
  0
LINE
  5
235
330
70
100
AcDbEntity
  8
Visible (ISO)
100
AcDbLine
 10
304.0312187885895
 20
727.6926081922294
 30
0.0
 11
304.0312187885895
 21
790.6926081922295
 31
0.0
  0
LINE
  5
236
330
70
100
AcDbEntity
  8
Visible (ISO)
100
AcDbLine
 10
465.0312187885894
 20
704.1926081922293
 30
0.0
 11
465.0312187885894
 21
814.1926081922294
 31
0.0
  0
LINE
  5
237
330
70
100
AcDbEntity
  8
Visible (ISO)
100
AcDbLine
 10
444.2312187885895
 20
704.1926081922293
 30
0.0
 11
444.2312187885895
 21
814.1926081922294
 31
0.0
  0
LINE
  5
238
330
70
100
AcDbEntity
  8
Visible (ISO)
100
AcDbLine
 10
433.8312187885894
 20
704.1926081922293
 30
0.0
 11
433.8312187885894
 21
814.1926081922294
 31
0.0
  0
LINE
  5
239
330
70
100
AcDbEntity
  8
Visible (ISO)
100
AcDbLine
 10
387.0312187885895
 20
704.1926081922293
 30
0.0
 11
387.0312187885895
 21
814.1926081922294
 31
0.0
  0
LINE
  5
23A
330
70
100
AcDbEntity
  8
Visible (ISO)
100
AcDbLine
 10
443.9312187885895
 20
843.1926081922295
 30
0.0
 11
453.9312187885895
 21
843.1926081922295
 31
0.0
  0
MTEXT
  5
23B
330
70
100
AcDbEntity
  8
Symbol (ISO)
100
AcDbMText
 10
371.6688672164291
 20
849.6926082922295
 30
0.0
 40
3.499999940395355
 41
0.0
 46
0.0
 71
     7
 72
     1
  1
A-A ( 1 : 1 )
  7
Label Text (ISO)
 73
     1
 44
1.0
  0
HATCH
  5
27A
330
70
100
AcDbEntity
  8
Hatch (ISO)
100
AcDbHatch
 10
0.0
 20
0.0
 30
0.0
210
0.0
220
0.0
230
1.0
  2
ANSI31
 70
     0
 71
     0
 91
        2
 92
        1
 93
       43
 72
     1
 10
348.2062187885895
 20
800.1926081922293
 11
338.2312187885895
 21
800.1926081922293
 72
     1
 10
338.2312187885895
 20
800.1926081922293
 11
329.8390466697611
 21
799.1865290785686
 72
     1
 10
329.8390466697611
 20
799.1865290785686
 11
327.6312187885895
 21
820.1926081922293
 72
     1
 10
327.6312187885896
 20
820.1926081922294
 11
325.1312187885895
 21
820.1926081922294
 72
     1
 10
325.1312187885895
 20
820.1926081922294
 11
325.1312187885895
 21
806.1926081922294
 72
     1
 10
325.1312187885895
 20
806.1926081922294
 11
322.1312187885895
 21
806.1926081922294
 72
     1
 10
322.1312187885895
 20
806.1926081922294
 11
322.1312187885895
 21
817.1926081922295
 72
     1
 10
322.1312187885895
 20
817.1926081922293
 11
318.1312187885895
 21
817.1926081922293
 72
     1
 10
318.1312187885895
 20
817.1926081922293
 11
318.1312187885895
 21
806.1926081922294
 72
     1
 10
318.1312187885895
 20
806.1926081922294
 11
315.1312187885896
 21
806.1926081922294
 72
     1
 10
315.1312187885895
 20
806.1926081922294
 11
315.1312187885895
 21
820.1926081922294
 72
     1
 10
315.1312187885895
 20
820.1926081922294
 11
312.6312187885895
 21
820.1926081922294
 72
     1
 10
312.6312187885895
 20
820.1926081922294
 11
310.1756275927491
 21
796.8292186044241
 72
     1
 10
310.1756275927491
 20
796.8292186044241
 11
304.0312187885895
 21
796.0926081922295
 72
     1
 10
304.0312187885895
 20
796.0926081922293
 11
304.0312187885895
 21
790.6926081922294
 72
     1
 10
304.0312187885895
 20
790.6926081922295
 11
319.2312187885895
 21
790.6926081922295
 72
     1
 10
319.2312187885895
 20
790.6926081922295
 11
326.8312187885895
 21
792.3080380609217
 72
     1
 10
326.8312187885895
 20
792.3080380609214
 11
326.8312187885895
 21
790.6926081922293
 72
     1
 10
326.8312187885896
 20
790.6926081922295
 11
361.0312187885896
 21
790.6926081922295
 72
     1
 10
361.0312187885895
 20
790.6926081922295
 11
361.0312187885895
 21
787.5426081922295
 72
     1
 10
361.0312187885895
 20
787.5426081922293
 11
363.8812187885895
 21
787.5426081922293
 72
     1
 10
363.8812187885895
 20
787.5426081922293
 11
363.8812187885895
 21
790.6926081922294
 72
     1
 10
363.8812187885895
 20
790.6926081922295
 11
387.0312187885895
 21
814.1926081922294
 72
     1
 10
387.0312187885895
 20
814.1926081922294
 11
433.8312187885894
 21
814.1926081922294
 72
     1
 10
433.8312187885894
 20
814.1926081922294
 11
433.8312187885894
 21
816.4031964335975
 72
     1
 10
433.8312187885894
 20
816.4031964335977
 11
444.2312187885894
 21
814.1926081922294
 72
     1
 10
444.2312187885895
 20
814.1926081922294
 11
465.0312187885894
 21
814.1926081922294
 72
     1
 10
465.0312187885894
 20
814.1926081922294
 11
465.0312187885894
 21
821.7426081922294
 72
     1
 10
465.0312187885894
 20
821.7426081922294
 11
458.2193477931861
 21
822.7542001456065
 72
     1
 10
458.219347793186
 20
822.7542001456066
 11
456.4312187885895
 21
843.1926081922293
 72
     1
 10
456.4312187885895
 20
843.1926081922295
 11
453.9312187885895
 21
843.1926081922295
 72
     1
 10
453.9312187885895
 20
843.1926081922295
 11
453.9312187885895
 21
829.1926081922294
 72
     1
 10
453.9312187885895
 20
829.1926081922294
 11
450.9312187885894
 21
829.1926081922294
 72
     1
 10
450.9312187885894
 20
829.1926081922294
 11
450.9312187885894
 21
840.1926081922294
 72
     1
 10
450.9312187885894
 20
840.1926081922294
 11
446.9312187885894
 21
840.1926081922294
 72
     1
 10
446.9312187885895
 20
840.1926081922294
 11
446.9312187885895
 21
829.1926081922294
 72
     1
 10
446.9312187885895
 20
829.1926081922294
 11
443.9312187885895
 21
829.1926081922294
 72
     1
 10
443.9312187885895
 20
829.1926081922294
 11
443.9312187885895
 21
843.1926081922293
 72
     1
 10
443.9312187885895
 20
843.1926081922295
 11
441.4312187885895
 21
843.1926081922295
 72
     1
 10
441.4312187885895
 20
843.1926081922295
 11
439.8813451901752
 21
825.4774718996863
 72
     1
 10
439.8813451901753
 20
825.4774718996861
 11
418.2312187885894
 21
828.6926081922294
 72
     1
 10
418.2312187885894
 20
828.6926081922295
 11
376.7062187885895
 21
828.6926081922295
 72
     1
 10
376.7062187885895
 20
828.6926081922295
 11
348.2062187885895
 21
800.1926081922295
 97
        0
 92
        1
 93
       19
 72
     1
 10
338.2312187885895
 20
718.1926081922295
 11
348.2062187885895
 21
718.1926081922295
 72
     1
 10
348.2062187885895
 20
718.1926081922295
 11
376.7062187885895
 21
689.6926081922295
 72
     1
 10
376.7062187885895
 20
689.6926081922294
 11
418.2312187885894
 21
689.6926081922294
 72
     1
 10
418.2312187885894
 20
689.6926081922294
 11
465.0312187885894
 21
696.6426081922294
 72
     1
 10
465.0312187885894
 20
696.6426081922294
 11
465.0312187885894
 21
704.1926081922293
 72
     1
 10
465.0312187885894
 20
704.1926081922293
 11
444.2312187885895
 21
704.1926081922293
 72
     1
 10
444.2312187885895
 20
704.1926081922293
 11
433.8312187885895
 21
701.9820199508611
 72
     1
 10
433.8312187885895
 20
701.9820199508613
 11
433.8312187885894
 21
704.1926081922294
 72
     1
 10
433.8312187885894
 20
704.1926081922293
 11
387.0312187885895
 21
704.1926081922293
 72
     1
 10
387.0312187885895
 20
704.1926081922293
 11
363.8812187885895
 21
727.6926081922294
 72
     1
 10
363.8812187885895
 20
727.6926081922295
 11
363.8812187885895
 21
730.8426081922294
 72
     1
 10
363.8812187885895
 20
730.8426081922294
 11
361.0312187885895
 21
730.8426081922294
 72
     1
 10
361.0312187885895
 20
730.8426081922294
 11
361.0312187885895
 21
727.6926081922295
 72
     1
 10
361.0312187885895
 20
727.6926081922295
 11
326.8312187885895
 21
727.6926081922295
 72
     1
 10
326.8312187885896
 20
727.6926081922294
 11
326.8312187885896
 21
726.0771783235371
 72
     1
 10
326.8312187885896
 20
726.0771783235372
 11
319.2312187885895
 21
727.6926081922295
 72
     1
 10
319.2312187885895
 20
727.6926081922294
 11
304.0312187885895
 21
727.6926081922294
 72
     1
 10
304.0312187885895
 20
727.6926081922294
 11
304.0312187885895
 21
722.2926081922294
 72
     1
 10
304.0312187885895
 20
722.2926081922294
 11
338.2312187885895
 21
718.1926081922293
 97
        0
 75
     0
 76
     1
 52
0.0
 41
25.4
 77
     0
 78
     1
 53
45.0
 43
0.0
 44
0.0
 45
-2.245064030267288
 46
2.245064030267288
 79
     0
 98
        1
 10
384.5312187885895
 20
766.4426081922191
  0
DIMENSION
  5
27B
330
70
100
AcDbEntity
  8
Dimension (ISO)
100
AcDbDimension
280
     0
  2
*D7
 10
487.0312187885896
 20
704.1926081922293
 30
0.0
 11
487.0312187885895
 21
759.1926081922293
 31
0.0
 70
   160
  1
\fAIGDT|b0|i0;\H2.5000;\ln\fTahoma|b0|i0;\H2.5000;<>
 42
110.0
 73
     0
 74
     0
 75
     0
  3
Default (ISO)
100
AcDbAlignedDimension
 13
465.0312187885894
 23
814.1926081922294
 33
0.0
 14
465.0312187885894
 24
704.1926081922293
 34
0.0
 50
90.0
100
AcDbRotatedDimension
1001
ACAD
1000
DSTYLE
1002
{
1070
   172
1070
     0
1070
   289
1070
     1
1070
   271
1070
     2
1070
   272
1070
     2
1070
    48
1040
0.0
1070
    47
1040
0.0
1002
}
  0
DIMENSION
  5
355
330
70
100
AcDbEntity
  8
Dimension (ISO)
100
AcDbDimension
280
     0
  2
*D8
 10
387.0312187885895
 20
753.0353657658695
 30
0.0
 11
426.0312187885895
 21
753.0353657658695
 31
0.0
 70
   160
  1
<>
 42
78.0
 73
     0
 74
     0
 75
     0
  3
Default (ISO)
100
AcDbAlignedDimension
 13
465.0312187885894
 23
759.1926081922293
 33
0.0
 14
387.0312187885895
 24
759.1926081922293
 34
0.0
 50
180.0
100
AcDbRotatedDimension
1001
ACAD
1000
DSTYLE
1002
{
1070
   172
1070
     0
1070
   289
1070
     1
1070
   271
1070
     2
1070
    76
1070
     1
1070
    75
1070
     1
1070
   272
1070
     2
1070
    48
1040
0.0
1070
    47
1040
0.0
1002
}
  0
DIMENSION
  5
426
330
70
100
AcDbEntity
  8
Dimension (ISO)
100
AcDbDimension
280
     0
  2
*D9
 10
304.0312187885895
 20
753.0353657658695
 30
0.0
 11
325.0312187885895
 21
753.0353657658695
 31
0.0
 70
   160
  1
<>
 42
57.0
 73
     0
 74
     0
 75
     0
  3
Default (ISO)
100
AcDbAlignedDimension
 13
361.0312187885895
 23
759.1926081922293
 33
0.0
 14
304.0312187885895
 24
759.1926081922293
 34
0.0
 50
180.0
100
AcDbRotatedDimension
1001
ACAD
1000
DSTYLE
1002
{
1070
   172
1070
     0
1070
   289
1070
     1
1070
   271
1070
     2
1070
    76
1070
     1
1070
    75
1070
     1
1070
   272
1070
     2
1070
    48
1040
0.0
1070
    47
1040
0.0
1002
}
  0
DIMENSION
  5
4FF
330
70
100
AcDbEntity
  8
Dimension (ISO)
100
AcDbDimension
280
     0
  2
*D10
 10
515.8041310017211
 20
689.6926081922294
 30
0.0
 11
515.804131001721
 21
759.1926081922293
 31
0.0
 70
   160
  1
<>
 42
139.0000000000001
 73
     0
 74
     0
 75
     0
  3
Default (ISO)
100
AcDbAlignedDimension
 13
418.2312187885894
 23
828.6926081922295
 33
0.0
 14
418.2312187885894
 24
689.6926081922294
 34
0.0
 50
90.0
100
AcDbRotatedDimension
1001
ACAD
1000
DSTYLE
1002
{
1070
   172
1070
     0
1070
   289
1070
     1
1070
   271
1070
     2
1070
   272
1070
     2
1070
    48
1040
0.0
1070
    47
1040
0.0
1002
}
  0
DIMENSION
  5
5D5
330
70
100
AcDbEntity
  8
Dimension (ISO)
100
AcDbDimension
280
     0
  2
*D11
 10
532.6223714850757
 20
759.1926081922293
 30
0.0
 11
532.6223714850756
 21
801.1926081922295
 31
0.0
 70
   160
  1
<>
 42
84.00000000000011
 73
     0
 74
     0
 75
     0
  3
Default (ISO)
100
AcDbAlignedDimension
 13
453.9312187885895
 23
843.1926081922295
 33
0.0
 14
465.0312187885894
 24
759.1926081922293
 34
0.0
 50
90.0
100
AcDbRotatedDimension
1001
ACAD
1000
DSTYLE
1002
{
1070
   172
1070
     0
1070
   289
1070
     1
1070
   271
1070
     2
1070
   272
1070
     2
1070
    48
1040
0.0
1070
    47
1040
0.0
1002
}
  0
DIMENSION
  5
6AB
330
70
100
AcDbEntity
  8
Dimension (ISO)
100
AcDbDimension
280
     0
  2
*D12
 10
294.0312187885896
 20
759.1926081922293
 30
0.0
 11
294.0312187885895
 21
783.1926081922294
 31
0.0
 70
   160
  1
<>
 42
61.00000000000012
 73
     0
 74
     0
 75
     0
  3
Default (ISO)
100
AcDbAlignedDimension
 13
315.1312187885896
 23
820.1926081922294
 33
0.0
 14
304.0312187885895
 24
759.1926081922293
 34
0.0
 50
90.0
100
AcDbRotatedDimension
1001
ACAD
1000
DSTYLE
1002
{
1070
   172
1070
     0
1070
   289
1070
     1
1070
   271
1070
     2
1070
   272
1070
     2
1070
    48
1040
0.0
1070
    47
1040
0.0
1002
}
  0
DIMENSION
  5
78D
330
70
100
AcDbEntity
  8
Dimension (ISO)
100
AcDbDimension
280
     0
  2
*D13
 10
299.1700064754557
 20
727.6926081922294
 30
0.0
 11
299.1700064754556
 21
745.6926081922294
 31
0.0
 70
   160
  1
\fAIGDT|b0|i0;\H2.5000;\ln\fTahoma|b0|i0;\H2.5000;<>
 42
63.00000000000011
 73
     0
 74
     0
 75
     0
  3
Default (ISO)
100
AcDbAlignedDimension
 13
304.0312187885895
 23
790.6926081922295
 33
0.0
 14
304.0312187885895
 24
727.6926081922294
 34
0.0
 50
90.0
100
AcDbRotatedDimension
1001
ACAD
1000
DSTYLE
1002
{
1070
   172
1070
     0
1070
   289
1070
     1
1070
   271
1070
     2
1070
   272
1070
     2
1070
    48
1040
0.0
1070
    47
1040
0.0
1002
}
  0
DIMENSION
  5
86F
330
70
100
AcDbEntity
  8
Dimension (ISO)
100
AcDbDimension
280
     0
  2
*D14
 10
270.905902790208
 20
718.1926081922295
 30
0.0
 11
270.9059027902079
 21
742.1926081922293
 31
0.0
 70
   160
  1
<>
 42
81.99999999999988
 73
     0
 74
     0
 75
     0
  3
Default (ISO)
100
AcDbAlignedDimension
 13
338.2312187885895
 23
800.1926081922293
 33
0.0
 14
338.2312187885895
 24
718.1926081922295
 34
0.0
 50
90.0
100
AcDbRotatedDimension
1001
ACAD
1000
DSTYLE
1002
{
1070
   172
1070
     0
1070
   289
1070
     1
1070
   271
1070
     2
1070
   272
1070
     2
1070
    48
1040
0.0
1070
    47
1040
0.0
1002
}
  0
DIMENSION
  5
945
330
70
100
AcDbEntity
  8
Dimension (ISO)
100
AcDbDimension
280
     0
  2
*D15
 10
304.0312187885895
 20
674.1926081922294
 30
0.0
 11
384.5312187885895
 21
674.1926081922294
 31
0.0
 70
   160
  1
<>
 42
161.0
 73
     0
 74
     0
 75
     0
  3
Default (ISO)
100
AcDbAlignedDimension
 13
465.0312187885894
 23
704.1926081922293
 33
0.0
 14
304.0312187885895
 24
727.6926081922294
 34
0.0
 50
180.0
100
AcDbRotatedDimension
1001
ACAD
1000
DSTYLE
1002
{
1070
   172
1070
     0
1070
   289
1070
     1
1070
   271
1070
     2
1070
   272
1070
     2
1070
    48
1040
0.0
1070
    47
1040
0.0
1002
}
  0
ELLIPSE
  5
A1B
330
70
100
AcDbEntity
  8
Visible (ISO)
100
AcDbEllipse
 10
747.6450792317406
 20
618.8762887164501
 30
0.0
 11
-2.0
 21
0.0000000000000002
 31
0.0
210
0.0
220
0.0
230
1.0
 40
0.5758617009853117
 41
2.972903479732144
 42
6.451874481037235
  0
ELLIPSE
  5
A1C
330
70
100
AcDbEntity
  8
Visible (ISO)
100
AcDbEllipse
 10
656.5697258148997
 20
547.6258969086269
 30
0.0
 11
-1.999999999999993
 21
0.0000000000000003
 31
0.0
210
0.0
220
0.0
230
1.0
 40
0.5758617009853118
 41
2.972903479732145
 42
6.451874481037235
  0
ELLIPSE
  5
A1D
330
70
100
AcDbEntity
  8
Visible (ISO)
100
AcDbEllipse
 10
747.6450792317406
 20
621.3289300909778
 30
0.0
 11
5.000000000000001
 21
-0.0000000000000006
 31
0.0
210
0.0
220
0.0
230
1.0
 40
0.5758617009853117
 41
0.0
 42
6.283185307179586
  0
LINE
  5
A1E
330
70
100
AcDbEntity
  8
Visible (ISO)
100
AcDbLine
 10
749.6450792317407
 20
618.8762887164501
 30
0.0
 11
749.6450792317407
 21
618.6900002563866
 31
0.0
  0
LINE
  5
A1F
330
70
100
AcDbEntity
  8
Visible (ISO)
100
AcDbLine
 10
745.6450792317406
 20
618.8762887164501
 30
0.0
 11
745.6450792317406
 21
618.6900002563866
 31
0.0
  0
ELLIPSE
  5
A20
330
70
100
AcDbEntity
  8
Visible (ISO)
100
AcDbEllipse
 10
747.6450792317406
 20
621.3289300909778
 30
0.0
 11
7.500000000000001
 21
-0.0000000000000011
 31
0.0
210
0.0
220
0.0
230
1.0
 40
0.5758617009853118
 41
0.0
 42
6.283185307179586
  0
SPLINE
  5
A21
330
70
100
AcDbEntity
  8
Visible (ISO)
100
AcDbSpline
210
0.0
220
0.0
230
1.0
 70
     8
 71
     3
 72
    26
 73
    22
 74
     0
 42
0.000000001
 43
0.0000000001
 40
2.012492413470267
 40
2.012492413470267
 40
2.012492413470267
 40
2.012492413470267
 40
2.054783670484011
 40
2.054783670484011
 40
2.396978096534331
 40
2.396978096534331
 40
2.739172522584651
 40
2.739172522584651
 40
3.09812011739086
 40
3.09812011739086
 40
3.457067712197069
 40
3.457067712197069
 40
3.808782577103639
 40
3.808782577103639
 40
4.16049744201021
 40
4.16049744201021
 40
4.512212306916779
 40
4.512212306916779
 40
4.86392717182335
 40
4.86392717182335
 40
4.905014261504627
 40
4.905014261504627
 40
4.905014261504627
 40
4.905014261504627
 10
756.9107459108279
 20
604.9898059511249
 30
0.0
 10
756.9194903722582
 20
604.9106703397503
 30
0.0
 10
756.9247746136626
 20
604.8322447049667
 30
0.0
 10
756.9414453648273
 20
604.1275697815038
 30
0.0
 10
756.7319959556928
 20
603.4764794693739
 30
0.0
 10
755.8461001102926
 20
602.3498524230286
 30
0.0
 10
755.1698925727803
 20
601.875763988026
 30
0.0
 10
753.5697165010138
 20
601.1923668671512
 30
0.0
 10
752.5253900110119
 20
600.9494031215105
 30
0.0
 10
750.2297014158302
 20
600.7705807782212
 30
0.0
 10
748.9781605077235
 20
600.8329036667262
 30
0.0
 10
746.6452536824495
 20
601.1669993960691
 30
0.0
 10
745.4080101141412
 20
601.4565998686809
 30
0.0
 10
743.1228218685823
 20
602.2154496645073
 30
0.0
 10
742.0748521281516
 20
602.6835123242891
 30
0.0
 10
740.4168523546882
 20
603.6382908940693
 30
0.0
 10
739.7023656265004
 20
604.1851594142189
 30
0.0
 10
738.7595800380899
 20
605.2851761211589
 30
0.0
 10
738.5308513247414
 20
605.8397729402595
 30
0.0
 10
738.5328619279337
 20
606.3965018175791
 30
0.0
 10
738.5362117703796
 20
606.4548745699584
 30
0.0
 10
738.5427126365236
 20
606.5132947708743
 30
0.0
  0
LINE
  5
A22
330
70
100
AcDbEntity
  8
Visible (ISO)
100
AcDbLine
 10
755.1308245165268
 20
621.5950863242443
 30
0.0
 11
756.9112010827729
 21
604.9897886785948
 31
0.0
  0
LINE
  5
A23
330
70
100
AcDbEntity
  8
Visible (ISO)
100
AcDbLine
 10
740.1593339469545
 20
621.5950863242443
 30
0.0
 11
738.5423083008977
 21
606.5133375175668
 31
0.0
  0
ELLIPSE
  5
A24
330
70
100
AcDbEntity
  8
Visible (ISO)
100
AcDbEllipse
 10
656.5697258148997
 20
550.0785382831545
 30
0.0
 11
5.000000000000001
 21
-0.0000000000000006
 31
0.0
210
0.0
220
0.0
230
1.0
 40
0.5758617009853117
 41
0.0
 42
6.283185307179586
  0
LINE
  5
A25
330
70
100
AcDbEntity
  8
Visible (ISO)
100
AcDbLine
 10
658.5697258148996
 20
547.6258969086269
 30
0.0
 11
658.5697258148996
 21
547.4396084485634
 31
0.0
  0
LINE
  5
A26
330
70
100
AcDbEntity
  8
Visible (ISO)
100
AcDbLine
 10
654.5697258148997
 20
547.6258969086269
 30
0.0
 11
654.5697258148997
 21
547.4396084485634
 31
0.0
  0
ELLIPSE
  5
A27
330
70
100
AcDbEntity
  8
Visible (ISO)
100
AcDbEllipse
 10
656.5697258148997
 20
550.0785382831545
 30
0.0
 11
7.500000000000001
 21
-0.0000000000000011
 31
0.0
210
0.0
220
0.0
230
1.0
 40
0.5758617009853118
 41
0.0
 42
6.283185307179586
  0
SPLINE
  5
A28
330
70
100
AcDbEntity
  8
Visible (ISO)
100
AcDbSpline
210
0.0
220
0.0
230
1.0
 70
     8
 71
     3
 72
    20
 73
    16
 74
     0
 42
0.000000001
 43
0.0000000001
 40
0.0
 40
0.0
 40
0.0
 40
0.0
 40
0.3646239924109738
 40
0.3646239924109738
 40
0.7292479848219476
 40
0.7292479848219476
 40
1.096553248197202
 40
1.096553248197202
 40
1.463858511572458
 40
1.463858511572458
 40
1.831163774947713
 40
1.831163774947713
 40
2.198469038322969
 40
2.198469038322969
 40
2.288229530336606
 40
2.288229530336606
 40
2.288229530336606
 40
2.288229530336606
 10
663.3118845420844
 20
526.6160471998359
 30
0.0
 10
662.4322848105627
 20
526.0254843828756
 30
0.0
 10
661.3256515580599
 20
525.5487095881489
 30
0.0
 10
658.9161073953521
 20
524.9928176933552
 30
0.0
 10
657.613288216693
 20
524.9104990557271
 30
0.0
 10
655.1771857548937
 20
525.041583502827
 30
0.0
 10
653.8780441931301
 20
525.2650864484283
 30
0.0
 10
651.4874070173436
 20
525.9582725635324
 30
0.0
 10
650.395806577926
 20
526.4254418061877
 30
0.0
 10
648.6643129612718
 20
527.4225426655198
 30
0.0
 10
647.906315231012
 20
528.0204861709944
 30
0.0
 10
646.8794955296045
 20
529.2952825862358
 30
0.0
 10
646.6105350469002
 20
529.9747895512805
 30
0.0
 10
646.5766203066316
 20
530.7885005879667
 30
0.0
 10
646.5842293285934
 20
530.95214331238
 30
0.0
 10
646.6063426542775
 20
531.1186007654847
 30
0.0
  0
SPLINE
  5
A29
330
70
100
AcDbEntity
  8
Visible (ISO)
100
AcDbSpline
210
0.0
220
0.0
230
1.0
 70
     8
 71
     3
 72
    12
 73
     8
 74
     0
 42
0.000000001
 43
0.0000000001
 40
5.141012097868569
 40
5.141012097868569
 40
5.141012097868569
 40
5.141012097868569
 40
5.235304759907
 40
5.235304759907
 40
5.626336815085582
 40
5.626336815085582
 40
6.017368870264164
 40
6.017368870264164
 40
6.017368870264164
 40
6.017368870264164
 10
666.3325046210018
 20
532.6745032297948
 30
0.0
 10
666.3633569995495
 20
532.440345528259
 30
0.0
 10
666.3788455552817
 20
532.2065247668684
 30
0.0
 10
666.3805554761291
 20
531.0181033040142
 30
0.0
 10
666.1223229858371
 20
529.9799500587487
 30
0.0
 10
665.0602302745993
 20
528.0939861008111
 30
0.0
 10
664.2551896945434
 20
527.249381804345
 30
0.0
 10
663.3118845420844
 20
526.6160471998359
 30
0.0
  0
LINE
  5
A2A
330
70
100
AcDbEntity
  8
Visible (ISO)
100
AcDbLine
 10
664.0491442303019
 20
550.3982842505893
 30
0.0
 11
666.3339603275662
 21
532.6747473148203
 31
0.0
  0
LINE
  5
A2B
330
70
100
AcDbEntity
  8
Visible (ISO)
100
AcDbLine
 10
649.0903073994974
 20
550.3982842505893
 30
0.0
 11
646.6048713363819
 21
531.1185190568553
 31
0.0
  0
ELLIPSE
  5
A2C
330
70
100
AcDbEntity
  8
Visible (ISO)
100
AcDbEllipse
 10
676.4217486967151
 20
511.6401833324777
 30
0.0
 11
-20.46032067495149
 21
35.5299208819574
 31
0.0
210
0.0
220
0.0
230
0.9999999999999998
 40
0.578093115915639
 41
3.141592653589793
 42
5.934129972528626
  0
ELLIPSE
  5
A2D
330
70
100
AcDbEntity
  8
Visible (ISO)
100
AcDbEllipse
 10
669.3683585543811
 20
507.5784060873949
 30
0.0
 11
-20.46032067495439
 21
35.52992088196246
 31
0.0
210
0.0
220
0.0
230
1.0
 40
0.578093115915639
 41
0.0409535214796986
 42
0.0850363216700307
  0
ELLIPSE
  5
A2E
330
70
100
AcDbEntity
  8
Visible (ISO)
100
AcDbEllipse
 10
669.3683585543782
 20
507.5784060873997
 30
0.0
 11
20.46032067494937
 21
-35.52992088195864
 31
0.0
210
0.0
220
0.0
230
0.9999999999999998
 40
0.578093115915639
 41
6.198148985509972
 42
8.793555287149551
  0
ELLIPSE
  5
A2F
330
70
100
AcDbEntity
  8
Visible (ISO)
100
AcDbEllipse
 10
696.5742919605345
 20
523.2452611755575
 30
0.0
 11
-34.68273870510068
 21
60.22754881209855
 31
0.0
210
0.0
220
0.0
230
1.0
 40
0.578093115915639
 41
2.354260781769609
 42
7.07051717899977
  0
ELLIPSE
  5
A30
330
70
100
AcDbEntity
  8
Visible (ISO)
100
AcDbEllipse
 10
725.9369010493103
 20
540.1540631907817
 30
0.0
 11
-34.68273870510067
 21
60.22754881209853
 31
0.0
210
0.0
220
0.0
230
1.0
 40
0.578093115915639
 41
3.141592653589794
 42
6.283185307179588
  0
ELLIPSE
  5
A31
330
70
100
AcDbEntity
  8
Visible (ISO)
100
AcDbEllipse
 10
759.0294984088457
 20
559.2108225962598
 30
0.0
 11
-31.21446483459076
 21
54.20479393088894
 31
0.0
210
0.0
220
0.0
230
1.0
 40
0.5780931159156392
 41
5.954633168013014
 42
6.177778991623466
  0
ELLIPSE
  5
A32
330
70
100
AcDbEntity
  8
Visible (ISO)
100
AcDbEllipse
 10
759.0294984088457
 20
559.2108225962601
 30
0.0
 11
31.21446483458736
 21
-54.20479393089053
 31
0.0
210
0.0
220
0.0
230
0.9999999999999998
 40
0.5780931159156394
 41
0.1054063155565119
 42
2.422786747305677
  0
ELLIPSE
  5
A33
330
70
100
AcDbEntity
  8
Visible (ISO)
100
AcDbEllipse
 10
661.3073412488504
 20
502.9363749501678
 30
0.0
 11
-15.71951466490012
 21
27.29737823857798
 31
0.0
210
0.0
220
0.0
230
1.0
 40
0.5780931159156394
 41
0.5361427682198299
 42
2.60544988537071
  0
ELLIPSE
  5
A34
330
70
100
AcDbEntity
  8
Visible (ISO)
100
AcDbEllipse
 10
661.3073412488504
 20
502.9363749501678
 30
0.0
 11
-16.52566620493264
 21
28.69728300504105
 31
0.0
210
0.0
220
0.0
230
0.9999999999999998
 40
0.5780931159156392
 41
0.5643626365138737
 42
2.577230017076628
  0
ELLIPSE
  5
A35
330
70
100
AcDbEntity
  8
Visible (ISO)
100
AcDbEllipse
 10
655.9333297118317
 20
499.8416875253466
 30
0.0
 11
15.71951466490175
 21
-27.29737823857704
 31
0.0
210
0.0
220
0.0
230
1.0
 40
0.5780931159156396
 41
3.489093599540289
 42
5.935684361229087
  0
ELLIPSE
  5
A36
330
70
100
AcDbEntity
  8
Visible (ISO)
100
AcDbEllipse
 10
645.1853066377946
 20
493.652312675704
 30
0.0
 11
15.71951466490013
 21
-27.29737823857798
 31
0.0
210
0.0
220
0.0
230
1.0
 40
0.578093115915639
 41
0.0
 42
6.283185307179586
  0
ELLIPSE
  5
A37
330
70
100
AcDbEntity
  8
Visible (ISO)
100
AcDbEllipse
 10
645.1853066377946
 20
493.652312675704
 30
0.0
 11
18.41428860745444
 21
-31.97692879376278
 31
0.0
210
0.0
220
0.0
230
0.9999999999999998
 40
0.578093115915639
 41
0.0
 42
6.283185307179586
  0
LINE
  5
A38
330
70
100
AcDbEntity
  8
Visible (ISO)
100
AcDbLine
 10
689.8286792293297
 20
472.0484852054424
 30
0.0
 11
696.8820693716666
 21
476.1102624505203
 31
0.0
  0
LINE
  5
A39
330
70
100
AcDbEntity
  8
Visible (ISO)
100
AcDbLine
 10
647.4303706680744
 20
542.1251093643451
 30
0.0
 11
647.4303706680768
 21
551.5453632841459
 31
0.0
  0
LINE
  5
A3A
330
70
100
AcDbEntity
  8
Visible (ISO)
100
AcDbLine
 10
688.2365973516722
 20
471.2639518784597
 30
0.0
 11
696.3842324052459
 21
466.5356089396175
 31
0.0
  0
LINE
  5
A3B
330
70
100
AcDbEntity
  8
Visible (ISO)
100
AcDbLine
 10
661.891553255434
 20
583.4728099876561
 30
0.0
 11
691.2541623442097
 21
600.3816120028802
 31
0.0
  0
LINE
  5
A3C
330
70
100
AcDbEntity
  8
Visible (ISO)
100
AcDbLine
 10
731.2570306656352
 20
463.017712363459
 30
0.0
 11
760.6196397544111
 21
479.9265143786832
 31
0.0
  0
LINE
  5
A3D
330
70
100
AcDbEntity
  8
Visible (ISO)
100
AcDbLine
 10
793.3675578565899
 20
507.2053937367707
 30
0.0
 11
764.0903004356928
 21
482.3702533469045
 31
0.0
  0
LINE
  5
A3E
330
70
100
AcDbEntity
  8
Visible (ISO)
100
AcDbLine
 10
731.2851152474829
 20
615.0132970977705
 30
0.0
 11
695.1098086477961
 21
602.1568126369044
 31
0.0
  0
LINE
  5
A3F
330
70
100
AcDbEntity
  8
Visible (ISO)
100
AcDbLine
 10
625.2674991914086
 20
524.6095599069106
 30
0.0
 11
647.2374613917271
 21
541.9753474554072
 31
0.0
  0
LINE
  5
A40
330
70
100
AcDbEntity
  8
Visible (ISO)
100
AcDbLine
 10
661.9629996652081
 20
460.8867938138999
 30
0.0
 11
688.0102396959487
 21
471.1722740187286
 31
0.0
  0
ENDSEC
  0
SECTION
  2
OBJECTS
  0
DICTIONARY
  5
C
330
0
100
AcDbDictionary
281
     1
  3
ACAD_CIP_PREVIOUS_PRODUCT_INFO
350
A41
  3
ACAD_COLOR
350
63
  3
ACAD_DETAILVIEWSTYLE
350
6A
  3
ACAD_GROUP
350
D
  3
ACAD_LAYOUT
350
62
  3
ACAD_MATERIAL
350
10
  3
ACAD_MLEADERSTYLE
350
66
  3
ACAD_MLINESTYLE
350
5F
  3
ACAD_PLOTSETTINGS
350
61
  3
ACAD_PLOTSTYLENAME
350
E
  3
ACAD_SCALELIST
350
42
  3
ACAD_SECTIONVIEWSTYLE
350
68
  3
ACAD_TABLESTYLE
350
64
  3
ACAD_VISUALSTYLE
350
29
  3
ACDB_RECOMPOSE_DATA
350
A5A
  3
AcDbVariableDictionary
350
A42
  0
DICTIONARY
  5
A4A
330
16F
100
AcDbDictionary
280
     1
281
     1
  3
ACAD_MLATT
360
A4C
  3
ACAD_XREC_ROUNDTRIP
360
A4B
  0
DICTIONARY
  5
A4F
330
172
100
AcDbDictionary
280
     1
281
     1
  3
ACAD_MLATT
360
A51
  3
ACAD_XREC_ROUNDTRIP
360
A50
  0
DICTIONARY
  5
A4E
330
A4D
100
AcDbDictionary
280
     1
281
     1
  0
DICTIONARY
  5
A52
330
175
100
AcDbDictionary
280
     1
281
     1
  3
ACAD_MLATT
360
A54
  3
ACAD_XREC_ROUNDTRIP
360
A53
  0
DICTIONARY
  5
A57
330
176
100
AcDbDictionary
280
     1
281
     1
  3
ACAD_MLATT
360
A59
  3
ACAD_XREC_ROUNDTRIP
360
A58
  0
DICTIONARY
  5
A56
330
A55
100
AcDbDictionary
280
     1
281
     1
  0
XRECORD
  5
A41
102
{ACAD_REACTORS
330
C
102
}
330
C
100
AcDbXrecord
280
     1
300
INVPROSA
300
2015
300
INVPROSA_F_S
  0
DICTIONARY
  5
63
102
{ACAD_REACTORS
330
C
102
}
330
C
100
AcDbDictionary
281
     1
  0
DICTIONARY
  5
6A
102
{ACAD_REACTORS
330
C
102
}
330
C
100
AcDbDictionary
281
     1
  3
Imperial24
350
6B
  0
DICTIONARY
  5
D
102
{ACAD_REACTORS
330
C
102
}
330
C
100
AcDbDictionary
281
     1
  0
DICTIONARY
  5
62
102
{ACAD_REACTORS
330
C
102
}
330
C
100
AcDbDictionary
281
     1
  3
Layout1
350
6F
  3
Layout2
350
77
  3
Model
350
73
  0
DICTIONARY
  5
10
102
{ACAD_REACTORS
330
C
102
}
330
C
100
AcDbDictionary
281
     1
  3
ByBlock
350
19
  3
ByLayer
350
11
  3
Global
350
21
  0
DICTIONARY
  5
66
102
{ACAD_REACTORS
330
C
102
}
330
C
100
AcDbDictionary
281
     1
  3
Standard
350
67
  0
DICTIONARY
  5
5F
102
{ACAD_REACTORS
330
C
102
}
330
C
100
AcDbDictionary
281
     1
  3
Standard
350
60
  0
DICTIONARY
  5
61
102
{ACAD_REACTORS
330
C
102
}
330
C
100
AcDbDictionary
281
     1
  0
ACDBDICTIONARYWDFLT
  5
E
102
{ACAD_REACTORS
330
C
102
}
330
C
100
AcDbDictionary
281
     1
  3
Normal
350
F
100
AcDbDictionaryWithDefault
340
F
  0
DICTIONARY
  5
42
102
{ACAD_REACTORS
330
C
102
}
330
C
100
AcDbDictionary
281
     1
  3
A0
350
43
  3
A1
350
44
  3
A2
350
45
  3
A3
350
46
  3
A4
350
47
  3
A5
350
48
  3
A6
350
49
  3
A7
350
4A
  3
A8
350
4B
  3
A9
350
4C
  3
B0
350
4D
  3
B1
350
4E
  3
B2
350
4F
  3
B3
350
50
  3
B4
350
51
  3
B5
350
52
  3
B6
350
53
  0
DICTIONARY
  5
68
102
{ACAD_REACTORS
330
C
102
}
330
C
100
AcDbDictionary
281
     1
  3
Imperial24
350
69
  0
DICTIONARY
  5
64
102
{ACAD_REACTORS
330
C
102
}
330
C
100
AcDbDictionary
281
     1
  3
Standard
350
65
  0
DICTIONARY
  5
29
102
{ACAD_REACTORS
330
C
102
}
330
C
100
AcDbDictionary
281
     1
  3
2dWireframe
350
2F
  3
Basic
350
2E
  3
Brighten
350
35
  3
ColorChange
350
39
  3
Conceptual
350
32
  3
Dim
350
34
  3
EdgeColorOff
350
41
  3
Facepattern
350
38
  3
Flat
350
2A
  3
FlatWithEdges
350
2B
  3
Gouraud
350
2C
  3
GouraudWithEdges
350
2D
  3
Hidden
350
31
  3
JitterOff
350
3F
  3
Linepattern
350
37
  3
OverhangOff
350
40
  3
Realistic
350
33
  3
Shaded
350
3E
  3
Shaded with edges
350
3D
  3
Shades of Gray
350
3A
  3
Sketchy
350
3B
  3
Thicken
350
36
  3
Wireframe
350
30
  3
X-Ray
350
3C
  0
XRECORD
  5
A5A
102
{ACAD_REACTORS
330
C
102
}
330
C
100
AcDbXrecord
280
     1
 90
        1
330
65
330
16F
330
172
330
175
330
176
  0
DICTIONARY
  5
A42
102
{ACAD_REACTORS
330
C
102
}
330
C
100
AcDbDictionary
281
     1
  3
CANNOSCALE
350
A47
  3
CMLEADERSTYLE
350
A44
  3
CTABLESTYLE
350
A43
  3
CVIEWDETAILSTYLE
350
A45
  3
CVIEWSECTIONSTYLE
350
A46
  0
XRECORD
  5
A4C
102
{ACAD_REACTORS
330
A4A
102
}
330
A4A
100
AcDbXrecord
280
     1
 70
     4
 70
     0
 70
     0
 40
1.0
  2
PART_NUMBER
  1
Embedded Object
 10
34.22301799019188
 20
75.68699284482417
 30
0.0
 40
2.5
 41
181.6575261045072
 46
0.0
 71
     1
 72
     5
  1
491104110063
  7
Note Text (ISO)
 73
     1
 44
1.0
  0
XRECORD
  5
A4B
102
{ACAD_REACTORS
330
A4A
102
}
330
A4A
100
AcDbXrecord
280
     1
102
ACAD_MATT_HEIGHT
140
2.5
  0
XRECORD
  5
A51
102
{ACAD_REACTORS
330
A4F
102
}
330
A4F
100
AcDbXrecord
280
     1
 70
     4
 70
     0
 70
     1
340
A4D
 40
1.0
  2
DESCRIPTION
  1
Embedded Object
 10
34.09040614630361
 20
65.94981469493413
 30
0.0
 40
2.5
 41
50.87075514884978
 46
0.0
 71
     1
 72
     5
  1
PLASSON REDUCING COUPLER 110-63
  7
Note Text (ISO)
 73
     1
 44
1.0
  0
XRECORD
  5
A50
102
{ACAD_REACTORS
330
A4F
102
}
330
A4F
100
AcDbXrecord
280
     1
102
ACAD_MATT_HEIGHT
140
2.5
  0
XRECORD
  5
A54
102
{ACAD_REACTORS
330
A52
102
}
330
A52
100
AcDbXrecord
280
     1
 70
     2
 70
     0
 70
     0
 40
1.0
  2
PART_NUMBER
  1
Embedded Object
 10
855.2230179901917
 20
95.68699284482418
 30
0.0
 40
2.5
 41
181.6575261045072
 46
0.0
 71
     1
 72
     5
  1
491104110063
  7
Note Text (ISO)
 73
     1
 44
1.0
  0
XRECORD
  5
A53
102
{ACAD_REACTORS
330
A52
102
}
330
A52
100
AcDbXrecord
280
     1
102
ACAD_MATT_HEIGHT
140
2.5
  0
XRECORD
  5
A59
102
{ACAD_REACTORS
330
A57
102
}
330
A57
100
AcDbXrecord
280
     1
 70
     2
 70
     0
 70
     1
340
A55
 40
1.0
  2
DESCRIPTION
  1
Embedded Object
 10
855.0904061463034
 20
85.94981469493413
 30
0.0
 40
2.5
 41
50.87075514884978
 46
0.0
 71
     1
 72
     5
  1
PLASSON REDUCING COUPLER 110-63
  7
Note Text (ISO)
 73
     1
 44
1.0
  0
XRECORD
  5
A58
102
{ACAD_REACTORS
330
A57
102
}
330
A57
100
AcDbXrecord
280
     1
102
ACAD_MATT_HEIGHT
140
2.5
  0
ACDBDETAILVIEWSTYLE
  5
6B
102
{ACAD_XDICTIONARY
360
A8F
102
}
102
{ACAD_REACTORS
330
6A
102
}
330
6A
100
AcDbModelDocViewStyle
 70
     0
  3
Imperial24
290
     0
100
AcDbDetailViewStyle
 70
     0
 71
     0
 90
        3
 71
     1
340
55
 62
   256
 40
0.24
340
0
 62
   256
 40
0.24
300

 40
0.36
280
     3
 71
     2
340
5D
 90
       25
 62
   256
 71
     3
340
55
 62
   256
 40
0.24
 90
        1
 40
0.75
 90
        1
300
%<\AcVar ViewType \f "%tc1">% %<\AcVar ViewDetailId>%\PSCALE %<\AcVar ViewScale \f "%sn">%
 71
     4
340
5D
 90
       25
 62
   256
340
5D
 90
       25
 62
   256
280
     0
  0
LAYOUT
  5
6F
102
{ACAD_REACTORS
330
62
102
}
330
62
100
AcDbPlotSettings
  1

  2

  4

  6

 40
0.0
 41
0.0
 42
0.0
 43
0.0
 44
0.0
 45
0.0
 46
0.0
 47
0.0
 48
0.0
 49
0.0
140
0.0
141
0.0
142
1.0
143
1.0
 70
   688
 72
     0
 73
     0
 74
     5
  7

 75
    16
147
1.0
 76
     0
 77
     2
 78
   300
148
0.0
149
0.0
100
AcDbLayout
  1
Layout1
 70
     1
 71
     1
 10
0.0
 20
0.0
 11
12.0
 21
9.0
 12
0.0
 22
0.0
 32
0.0
 14
0.0
 24
0.0
 34
0.0
 15
0.0
 25
0.0
 35
0.0
146
0.0
 13
0.0
 23
0.0
 33
0.0
 16
1.0
 26
0.0
 36
0.0
 17
0.0
 27
1.0
 37
0.0
 76
     0
330
6C
  0
LAYOUT
  5
77
102
{ACAD_REACTORS
330
62
102
}
330
62
100
AcDbPlotSettings
  1

  2

  4

  6

 40
0.0
 41
0.0
 42
0.0
 43
0.0
 44
0.0
 45
0.0
 46
0.0
 47
0.0
 48
0.0
 49
0.0
140
0.0
141
0.0
142
1.0
143
1.0
 70
   688
 72
     0
 73
     0
 74
     5
  7

 75
    16
147
1.0
 76
     0
 77
     2
 78
   300
148
0.0
149
0.0
100
AcDbLayout
  1
Layout2
 70
     1
 71
     2
 10
0.0
 20
0.0
 11
12.0
 21
9.0
 12
0.0
 22
0.0
 32
0.0
 14
0.0
 24
0.0
 34
0.0
 15
0.0
 25
0.0
 35
0.0
146
0.0
 13
0.0
 23
0.0
 33
0.0
 16
1.0
 26
0.0
 36
0.0
 17
0.0
 27
1.0
 37
0.0
 76
     0
330
74
  0
LAYOUT
  5
73
102
{ACAD_REACTORS
330
62
102
}
330
62
100
AcDbPlotSettings
  1

  2

  4

  6

 40
0.0
 41
0.0
 42
0.0
 43
0.0
 44
0.0
 45
0.0
 46
0.0
 47
0.0
 48
0.0
 49
0.0
140
0.0
141
0.0
142
1.0
143
1.0
 70
  1712
 72
     0
 73
     0
 74
     0
  7

 75
     0
147
1.0
 76
     0
 77
     2
 78
   300
148
0.0
149
0.0
100
AcDbLayout
  1
Model
 70
     1
 71
     0
 10
0.0
 20
0.0
 11
12.0
 21
9.0
 12
0.0
 22
0.0
 32
0.0
 14
0.0
 24
0.0
 34
0.0
 15
0.0
 25
0.0
 35
0.0
146
0.0
 13
0.0
 23
0.0
 33
0.0
 16
1.0
 26
0.0
 36
0.0
 17
0.0
 27
1.0
 37
0.0
 76
     0
330
70
  0
MATERIAL
  5
19
102
{ACAD_XDICTIONARY
360
1A
102
}
102
{ACAD_REACTORS
330
10
102
}
330
10
100
AcDbMaterial
  1
ByBlock
 72
     0
 43
0.0208333333333333
 43
0.0
 43
0.0
 43
0.0
 43
0.0
 43
0.0208333333333333
 43
0.0
 43
0.0
 43
0.0
 43
0.0
 43
1.0
 43
0.0
 43
0.0
 43
0.0
 43
0.0
 43
1.0
 77
     0
 47
0.0208333333333333
 47
0.0
 47
0.0
 47
0.0
 47
0.0
 47
0.0208333333333333
 47
0.0
 47
0.0
 47
0.0
 47
0.0
 47
1.0
 47
0.0
 47
0.0
 47
0.0
 47
0.0
 47
1.0
171
     0
 49
0.0208333333333333
 49
0.0
 49
0.0
 49
0.0
 49
0.0
 49
0.0208333333333333
 49
0.0
 49
0.0
 49
0.0
 49
0.0
 49
1.0
 49
0.0
 49
0.0
 49
0.0
 49
0.0
 49
1.0
175
     0
142
0.0208333333333333
142
0.0
142
0.0
142
0.0
142
0.0
142
0.0208333333333333
142
0.0
142
0.0
142
0.0
142
0.0
142
1.0
142
0.0
142
0.0
142
0.0
142
0.0
142
1.0
179
     0
144
0.0208333333333333
144
0.0
144
0.0
144
0.0
144
0.0
144
0.0208333333333333
144
0.0
144
0.0
144
0.0
144
0.0
144
1.0
144
0.0
144
0.0
144
0.0
144
0.0
144
1.0
147
0.0208333333333333
147
0.0
147
0.0
147
0.0
147
0.0
147
0.0208333333333333
147
0.0
147
0.0
147
0.0
147
0.0
147
1.0
147
0.0
147
0.0
147
0.0
147
0.0
147
1.0
  0
MATERIAL
  5
11
102
{ACAD_XDICTIONARY
360
12
102
}
102
{ACAD_REACTORS
330
10
102
}
330
10
100
AcDbMaterial
  1
ByLayer
 72
     0
 43
0.0208333333333333
 43
0.0
 43
0.0
 43
0.0
 43
0.0
 43
0.0208333333333333
 43
0.0
 43
0.0
 43
0.0
 43
0.0
 43
1.0
 43
0.0
 43
0.0
 43
0.0
 43
0.0
 43
1.0
 77
     0
 47
0.0208333333333333
 47
0.0
 47
0.0
 47
0.0
 47
0.0
 47
0.0208333333333333
 47
0.0
 47
0.0
 47
0.0
 47
0.0
 47
1.0
 47
0.0
 47
0.0
 47
0.0
 47
0.0
 47
1.0
171
     0
 49
0.0208333333333333
 49
0.0
 49
0.0
 49
0.0
 49
0.0
 49
0.0208333333333333
 49
0.0
 49
0.0
 49
0.0
 49
0.0
 49
1.0
 49
0.0
 49
0.0
 49
0.0
 49
0.0
 49
1.0
175
     0
142
0.0208333333333333
142
0.0
142
0.0
142
0.0
142
0.0
142
0.0208333333333333
142
0.0
142
0.0
142
0.0
142
0.0
142
1.0
142
0.0
142
0.0
142
0.0
142
0.0
142
1.0
179
     0
144
0.0208333333333333
144
0.0
144
0.0
144
0.0
144
0.0
144
0.0208333333333333
144
0.0
144
0.0
144
0.0
144
0.0
144
1.0
144
0.0
144
0.0
144
0.0
144
0.0
144
1.0
147
0.0208333333333333
147
0.0
147
0.0
147
0.0
147
0.0
147
0.0208333333333333
147
0.0
147
0.0
147
0.0
147
0.0
147
1.0
147
0.0
147
0.0
147
0.0
147
0.0
147
1.0
  0
MATERIAL
  5
21
102
{ACAD_XDICTIONARY
360
22
102
}
102
{ACAD_REACTORS
330
10
102
}
330
10
100
AcDbMaterial
  1
Global
 72
     0
 43
0.0208333333333333
 43
0.0
 43
0.0
 43
0.0
 43
0.0
 43
0.0208333333333333
 43
0.0
 43
0.0
 43
0.0
 43
0.0
 43
1.0
 43
0.0
 43
0.0
 43
0.0
 43
0.0
 43
1.0
 77
     0
 47
0.0208333333333333
 47
0.0
 47
0.0
 47
0.0
 47
0.0
 47
0.0208333333333333
 47
0.0
 47
0.0
 47
0.0
 47
0.0
 47
1.0
 47
0.0
 47
0.0
 47
0.0
 47
0.0
 47
1.0
171
     0
 49
0.0208333333333333
 49
0.0
 49
0.0
 49
0.0
 49
0.0
 49
0.0208333333333333
 49
0.0
 49
0.0
 49
0.0
 49
0.0
 49
1.0
 49
0.0
 49
0.0
 49
0.0
 49
0.0
 49
1.0
175
     0
142
0.0208333333333333
142
0.0
142
0.0
142
0.0
142
0.0
142
0.0208333333333333
142
0.0
142
0.0
142
0.0
142
0.0
142
1.0
142
0.0
142
0.0
142
0.0
142
0.0
142
1.0
179
     0
144
0.0208333333333333
144
0.0
144
0.0
144
0.0
144
0.0
144
0.0208333333333333
144
0.0
144
0.0
144
0.0
144
0.0
144
1.0
144
0.0
144
0.0
144
0.0
144
0.0
144
1.0
147
0.0208333333333333
147
0.0
147
0.0
147
0.0
147
0.0
147
0.0208333333333333
147
0.0
147
0.0
147
0.0
147
0.0
147
1.0
147
0.0
147
0.0
147
0.0
147
0.0
147
1.0
  0
MLEADERSTYLE
  5
67
102
{ACAD_XDICTIONARY
360
A8B
102
}
102
{ACAD_REACTORS
330
66
102
}
330
66
100
AcDbMLeaderStyle
179
     2
170
     2
171
     1
172
     0
 90
        2
 40
0.0
 41
0.0
173
     1
 91
-1056964608
340
5B
 92
       -2
290
     1
 42
0.09
291
     1
 43
0.36
  3
Standard
 44
0.18
300

342
55
174
     1
178
     6
175
     1
176
     0
 93
-1056964608
 45
0.18
292
     0
297
     0
 46
0.18
 94
-1056964608
 47
1.0
 49
1.0
140
1.0
293
     1
141
0.0
294
     1
177
     0
142
1.0
295
     0
296
     0
143
0.125
271
     0
272
     9
273
     9
  0
MLINESTYLE
  5
60
102
{ACAD_REACTORS
330
5F
102
}
330
5F
100
AcDbMlineStyle
  2
STANDARD
 70
     0
  3

 62
   256
 51
90.0
 52
90.0
 71
     2
 49
0.5
 62
   256
  6
BYLAYER
 49
-0.5
 62
   256
  6
BYLAYER
  0
ACDBPLACEHOLDER
  5
F
102
{ACAD_REACTORS
330
E
102
}
330
E
  0
SCALE
  5
43
102
{ACAD_REACTORS
330
42
102
}
330
42
100
AcDbScale
 70
     0
300
1:1
140
1.0
141
1.0
290
     1
  0
SCALE
  5
44
102
{ACAD_REACTORS
330
42
102
}
330
42
100
AcDbScale
 70
     0
300
1/128" = 1'-0"
140
0.0078125
141
12.0
290
     0
  0
SCALE
  5
45
102
{ACAD_REACTORS
330
42
102
}
330
42
100
AcDbScale
 70
     0
300
1/64" = 1'-0"
140
0.015625
141
12.0
290
     0
  0
SCALE
  5
46
102
{ACAD_REACTORS
330
42
102
}
330
42
100
AcDbScale
 70
     0
300
1/32" = 1'-0"
140
0.03125
141
12.0
290
     0
  0
SCALE
  5
47
102
{ACAD_REACTORS
330
42
102
}
330
42
100
AcDbScale
 70
     0
300
1/16" = 1'-0"
140
0.0625
141
12.0
290
     0
  0
SCALE
  5
48
102
{ACAD_REACTORS
330
42
102
}
330
42
100
AcDbScale
 70
     0
300
3/32" = 1'-0"
140
0.09375
141
12.0
290
     0
  0
SCALE
  5
49
102
{ACAD_REACTORS
330
42
102
}
330
42
100
AcDbScale
 70
     0
300
1/8" = 1'-0"
140
0.125
141
12.0
290
     0
  0
SCALE
  5
4A
102
{ACAD_REACTORS
330
42
102
}
330
42
100
AcDbScale
 70
     0
300
3/16" = 1'-0"
140
0.1875
141
12.0
290
     0
  0
SCALE
  5
4B
102
{ACAD_REACTORS
330
42
102
}
330
42
100
AcDbScale
 70
     0
300
1/4" = 1'-0"
140
0.25
141
12.0
290
     0
  0
SCALE
  5
4C
102
{ACAD_REACTORS
330
42
102
}
330
42
100
AcDbScale
 70
     0
300
3/8" = 1'-0"
140
0.375
141
12.0
290
     0
  0
SCALE
  5
4D
102
{ACAD_REACTORS
330
42
102
}
330
42
100
AcDbScale
 70
     0
300
1/2" = 1'-0"
140
0.5
141
12.0
290
     0
  0
SCALE
  5
4E
102
{ACAD_REACTORS
330
42
102
}
330
42
100
AcDbScale
 70
     0
300
3/4" = 1'-0"
140
0.75
141
12.0
290
     0
  0
SCALE
  5
4F
102
{ACAD_REACTORS
330
42
102
}
330
42
100
AcDbScale
 70
     0
300
1" = 1'-0"
140
1.0
141
12.0
290
     0
  0
SCALE
  5
50
102
{ACAD_REACTORS
330
42
102
}
330
42
100
AcDbScale
 70
     0
300
1-1/2" = 1'-0"
140
1.5
141
12.0
290
     0
  0
SCALE
  5
51
102
{ACAD_REACTORS
330
42
102
}
330
42
100
AcDbScale
 70
     0
300
3" = 1'-0"
140
3.0
141
12.0
290
     0
  0
SCALE
  5
52
102
{ACAD_REACTORS
330
42
102
}
330
42
100
AcDbScale
 70
     0
300
6" = 1'-0"
140
6.0
141
12.0
290
     0
  0
SCALE
  5
53
102
{ACAD_REACTORS
330
42
102
}
330
42
100
AcDbScale
 70
     0
300
1'-0" = 1'-0"
140
12.0
141
12.0
290
     0
  0
ACDBSECTIONVIEWSTYLE
  5
69
102
{ACAD_XDICTIONARY
360
A8D
102
}
102
{ACAD_REACTORS
330
68
102
}
330
68
100
AcDbModelDocViewStyle
 70
     0
  3
Imperial24
290
     0
100
AcDbSectionViewStyle
 70
     0
 71
     0
 90
       78
 71
     1
340
55
 62
   256
 40
0.24
340
0
340
0
 62
   256
 40
0.24
300
I, O, Q, S, X, Z
 40
0.48
 90
        3
 40
0.18
 90
        1
 71
     2
340
5D
 90
       25
 62
   256
340
5D
 90
       50
 62
   256
 40
0.24
 40
0.0
 40
0.24
 71
     3
340
55
 62
   256
 40
0.24
 90
        1
 40
0.75
 90
        1
300
%<\AcVar ViewType \f "%tc1">% %<\AcVar ViewSectionStartId>%-%<\AcVar ViewSectionEndId>%\PSCALE %<\AcVar ViewScale \f "%sn">%
 71
     4
 62
   256
 62
   257
300
ANSI31
 40
1.0
 90
        0
290
     0
290
     0
 90
        6
 40
0.0
 40
1.570796326794896
 40
0.2617993877991494
 40
1.308996938995747
 40
-0.2617993877991494
 40
1.832595714594046
  0
TABLESTYLE
  5
65
102
{ACAD_XDICTIONARY
360
A48
102
}
102
{ACAD_REACTORS
330
64
102
}
330
64
100
AcDbTableStyle
280
     0
  3
Standard
 70
     0
 71
     0
 40
0.06
 41
0.06
280
     0
281
     0
  7
Standard
140
0.18
170
     2
 62
     0
 63
     7
283
     0
 90
      512
 91
        0
  1

274
    -2
284
     1
 64
     0
275
    -2
285
     1
 65
     0
276
    -2
286
     1
 66
     0
277
    -2
287
     1
 67
     0
278
    -2
288
     1
 68
     0
279
    -2
289
     1
 69
     0
  7
Standard
140
0.25
170
     5
 62
     0
 63
     7
283
     0
 90
      512
 91
        0
  1

274
    -2
284
     1
 64
     0
275
    -2
285
     1
 65
     0
276
    -2
286
     1
 66
     0
277
    -2
287
     1
 67
     0
278
    -2
288
     1
 68
     0
279
    -2
289
     1
 69
     0
  7
Standard
140
0.18
170
     5
 62
     0
 63
     7
283
     0
 90
      512
 91
        0
  1

274
    -2
284
     1
 64
     0
275
    -2
285
     1
 65
     0
276
    -2
286
     1
 66
     0
277
    -2
287
     1
 67
     0
278
    -2
288
     1
 68
     0
279
    -2
289
     1
 69
     0
  0
VISUALSTYLE
  5
2F
102
{ACAD_XDICTIONARY
360
A65
102
}
102
{ACAD_REACTORS
330
29
102
}
330
29
100
AcDbVisualStyle
  2
2dWireframe
 70
     4
177
     2
291
     0
 71
     0
176
     1
 72
     2
176
     1
 73
     0
176
     1
 90
        0
176
     1
 40
0.6
176
     1
 41
30.0
176
     1
 63
     7
421
 16777215
176
     1
 74
     1
176
     1
 91
        4
176
     1
 64
     7
176
     1
 65
   257
176
     1
 75
     1
176
     1
175
     1
176
     1
 42
1.0
176
     1
 92
        0
176
     1
 66
   257
176
     1
 43
1.0
176
     1
 76
     1
176
     1
 77
     6
176
     1
 78
     2
176
     1
 67
     7
176
     1
 79
     5
176
     1
170
     0
176
     1
171
     0
176
     1
290
     0
176
     1
 93
        1
176
     1
 44
0.0
176
     1
173
     0
176
     1
1001
ACAD
1000
AcDbSavedByObjectVersion
1070
     0
  0
VISUALSTYLE
  5
2E
102
{ACAD_XDICTIONARY
360
A63
102
}
102
{ACAD_REACTORS
330
29
102
}
330
29
100
AcDbVisualStyle
  2
Basic
 70
     7
177
     2
291
     1
 71
     1
176
     1
 72
     0
176
     1
 73
     1
176
     1
 90
        0
176
     1
 40
0.6
176
     1
 41
30.0
176
     1
 63
     7
421
 16777215
176
     1
 74
     0
176
     1
 91
        4
176
     1
 64
     7
176
     1
 65
   257
176
     1
 75
     1
176
     1
175
     1
176
     1
 42
1.0
176
     1
 92
        8
176
     1
 66
     7
176
     1
 43
1.0
176
     1
 76
     1
176
     1
 77
     6
176
     1
 78
     2
176
     1
 67
     7
176
     1
 79
     5
176
     1
170
     0
176
     1
171
     0
176
     1
290
     0
176
     1
 93
        1
176
     1
 44
0.0
176
     1
173
     0
176
     1
1001
ACAD
1000
AcDbSavedByObjectVersion
1070
     0
  0
VISUALSTYLE
  5
35
102
{ACAD_XDICTIONARY
360
A71
102
}
102
{ACAD_REACTORS
330
29
102
}
330
29
100
AcDbVisualStyle
  2
Brighten
 70
    12
177
     2
291
     1
 71
     2
176
     1
 72
     2
176
     1
 73
     0
176
     1
 90
        0
176
     1
 40
0.6
176
     1
 41
30.0
176
     1
 63
     7
421
 16777215
176
     1
 74
     1
176
     1
 91
        4
176
     1
 64
     7
176
     1
 65
   257
176
     1
 75
     1
176
     1
175
     1
176
     1
 42
1.0
176
     1
 92
        8
176
     1
 66
     7
176
     1
 43
1.0
176
     1
 76
     1
176
     1
 77
     6
176
     1
 78
     2
176
     1
 67
     7
176
     1
 79
     5
176
     1
170
     0
176
     1
171
     0
176
     1
290
     0
176
     1
 93
        1
176
     1
 44
50.0
176
     1
173
     0
176
     1
1001
ACAD
1000
AcDbSavedByObjectVersion
1070
     0
  0
VISUALSTYLE
  5
39
102
{ACAD_XDICTIONARY
360
A79
102
}
102
{ACAD_REACTORS
330
29
102
}
330
29
100
AcDbVisualStyle
  2
ColorChange
 70
    16
177
     2
291
     1
 71
     2
176
     1
 72
     2
176
     1
 73
     3
176
     1
 90
        0
176
     1
 40
0.6
176
     1
 41
30.0
176
     1
 63
     8
421
  8421504
176
     1
 74
     1
176
     1
 91
        4
176
     1
 64
     7
176
     1
 65
   257
176
     1
 75
     1
176
     1
175
     1
176
     1
 42
1.0
176
     1
 92
        8
176
     1
 66
     8
424
  8421504
176
     1
 43
1.0
176
     1
 76
     1
176
     1
 77
     6
176
     1
 78
     2
176
     1
 67
     7
176
     1
 79
     5
176
     1
170
     0
176
     1
171
     0
176
     1
290
     0
176
     1
 93
        1
176
     1
 44
0.0
176
     1
173
     0
176
     1
1001
ACAD
1000
AcDbSavedByObjectVersion
1070
     0
  0
VISUALSTYLE
  5
32
102
{ACAD_XDICTIONARY
360
A6B
102
}
102
{ACAD_REACTORS
330
29
102
}
330
29
100
AcDbVisualStyle
  2
Conceptual
 70
     9
177
     2
291
     0
 71
     3
176
     1
 72
     2
176
     1
 73
     0
176
     1
 90
        0
176
     1
 40
0.6
176
     1
 41
30.0
176
     1
 63
     7
421
 16777215
176
     1
 74
     2
176
     1
 91
        2
176
     1
 64
     7
176
     1
 65
   257
176
     1
 75
     1
176
     1
175
     1
176
     1
 42
179.0
176
     1
 92
        8
176
     1
 66
     7
176
     1
 43
1.0
176
     1
 76
     1
176
     1
 77
     6
176
     1
 78
     2
176
     1
 67
     7
176
     1
 79
     3
176
     1
170
     0
176
     1
171
     0
176
     1
290
     0
176
     1
 93
        1
176
     1
 44
0.0
176
     1
173
     0
176
     1
1001
ACAD
1000
AcDbSavedByObjectVersion
1070
     0
  0
VISUALSTYLE
  5
34
102
{ACAD_XDICTIONARY
360
A6F
102
}
102
{ACAD_REACTORS
330
29
102
}
330
29
100
AcDbVisualStyle
  2
Dim
 70
    11
177
     2
291
     1
 71
     2
176
     1
 72
     2
176
     1
 73
     0
176
     1
 90
        0
176
     1
 40
0.6
176
     1
 41
30.0
176
     1
 63
     7
421
 16777215
176
     1
 74
     1
176
     1
 91
        4
176
     1
 64
     7
176
     1
 65
   257
176
     1
 75
     1
176
     1
175
     1
176
     1
 42
1.0
176
     1
 92
        8
176
     1
 66
     7
176
     1
 43
1.0
176
     1
 76
     1
176
     1
 77
     6
176
     1
 78
     2
176
     1
 67
     7
176
     1
 79
     5
176
     1
170
     0
176
     1
171
     0
176
     1
290
     0
176
     1
 93
        1
176
     1
 44
-50.0
176
     1
173
     0
176
     1
1001
ACAD
1000
AcDbSavedByObjectVersion
1070
     0
  0
VISUALSTYLE
  5
41
102
{ACAD_XDICTIONARY
360
A89
102
}
102
{ACAD_REACTORS
330
29
102
}
330
29
100
AcDbVisualStyle
  2
EdgeColorOff
 70
    22
177
     2
291
     1
 71
     2
176
     0
 72
     2
176
     0
 73
     0
176
     0
 90
        0
176
     0
 40
0.6
176
     0
 41
30.0
176
     0
 63
     7
421
 16777215
176
     0
 74
     1
176
     0
 91
        4
176
     0
 64
     7
176
     0
 65
   257
176
     0
 75
     1
176
     0
175
     1
176
     0
 42
1.0
176
     0
 92
        8
176
     2
 66
     7
176
     0
 43
1.0
176
     0
 76
     1
176
     0
 77
     6
176
     0
 78
     2
176
     0
 67
     7
176
     0
 79
     5
176
     0
170
     0
176
     0
171
     0
176
     0
290
     0
176
     0
 93
        1
176
     0
 44
0.0
176
     0
173
     0
176
     0
1001
ACAD
1000
AcDbSavedByObjectVersion
1070
     0
  0
VISUALSTYLE
  5
38
102
{ACAD_XDICTIONARY
360
A77
102
}
102
{ACAD_REACTORS
330
29
102
}
330
29
100
AcDbVisualStyle
  2
Facepattern
 70
    15
177
     2
291
     1
 71
     2
176
     1
 72
     2
176
     1
 73
     0
176
     1
 90
        0
176
     1
 40
0.6
176
     1
 41
30.0
176
     1
 63
     7
421
 16777215
176
     1
 74
     1
176
     1
 91
        4
176
     1
 64
     7
176
     1
 65
   257
176
     1
 75
     1
176
     1
175
     1
176
     1
 42
1.0
176
     1
 92
        8
176
     1
 66
     7
176
     1
 43
1.0
176
     1
 76
     1
176
     1
 77
     6
176
     1
 78
     2
176
     1
 67
     7
176
     1
 79
     5
176
     1
170
     0
176
     1
171
     0
176
     1
290
     0
176
     1
 93
        1
176
     1
 44
0.0
176
     1
173
     0
176
     1
1001
ACAD
1000
AcDbSavedByObjectVersion
1070
     0
  0
VISUALSTYLE
  5
2A
102
{ACAD_XDICTIONARY
360
A5B
102
}
102
{ACAD_REACTORS
330
29
102
}
330
29
100
AcDbVisualStyle
  2
Flat
 70
     0
177
     2
291
     1
 71
     2
176
     1
 72
     1
176
     1
 73
     1
176
     1
 90
        2
176
     1
 40
0.6
176
     1
 41
30.0
176
     1
 63
     7
421
 16777215
176
     1
 74
     0
176
     1
 91
        0
176
     1
 64
     7
176
     1
 65
   257
176
     1
 75
     1
176
     1
175
     1
176
     1
 42
1.0
176
     1
 92
        8
176
     1
 66
     7
176
     1
 43
1.0
176
     1
 76
     1
176
     1
 77
     6
176
     1
 78
     2
176
     1
 67
     7
176
     1
 79
     5
176
     1
170
     0
176
     1
171
     0
176
     1
290
     0
176
     1
 93
       13
176
     1
 44
0.0
176
     1
173
     0
176
     1
1001
ACAD
1000
AcDbSavedByObjectVersion
1070
     0
  0
VISUALSTYLE
  5
2B
102
{ACAD_XDICTIONARY
360
A5D
102
}
102
{ACAD_REACTORS
330
29
102
}
330
29
100
AcDbVisualStyle
  2
FlatWithEdges
 70
     1
177
     2
291
     1
 71
     2
176
     1
 72
     1
176
     1
 73
     1
176
     1
 90
        2
176
     1
 40
0.6
176
     1
 41
30.0
176
     1
 63
     7
421
 16777215
176
     1
 74
     1
176
     1
 91
        0
176
     1
 64
     7
176
     1
 65
   257
176
     1
 75
     1
176
     1
175
     1
176
     1
 42
1.0
176
     1
 92
        0
176
     1
 66
   257
176
     1
 43
1.0
176
     1
 76
     1
176
     1
 77
     6
176
     1
 78
     2
176
     1
 67
     7
176
     1
 79
     5
176
     1
170
     0
176
     1
171
     0
176
     1
290
     0
176
     1
 93
       13
176
     1
 44
0.0
176
     1
173
     0
176
     1
1001
ACAD
1000
AcDbSavedByObjectVersion
1070
     0
  0
VISUALSTYLE
  5
2C
102
{ACAD_XDICTIONARY
360
A5F
102
}
102
{ACAD_REACTORS
330
29
102
}
330
29
100
AcDbVisualStyle
  2
Gouraud
 70
     2
177
     2
291
     1
 71
     2
176
     1
 72
     2
176
     1
 73
     1
176
     1
 90
        2
176
     1
 40
0.6
176
     1
 41
30.0
176
     1
 63
     7
421
 16777215
176
     1
 74
     0
176
     1
 91
        0
176
     1
 64
     7
176
     1
 65
   257
176
     1
 75
     1
176
     1
175
     1
176
     1
 42
1.0
176
     1
 92
        0
176
     1
 66
     7
176
     1
 43
1.0
176
     1
 76
     1
176
     1
 77
     6
176
     1
 78
     2
176
     1
 67
     7
176
     1
 79
     5
176
     1
170
     0
176
     1
171
     0
176
     1
290
     0
176
     1
 93
       13
176
     1
 44
0.0
176
     1
173
     0
176
     1
1001
ACAD
1000
AcDbSavedByObjectVersion
1070
     0
  0
VISUALSTYLE
  5
2D
102
{ACAD_XDICTIONARY
360
A61
102
}
102
{ACAD_REACTORS
330
29
102
}
330
29
100
AcDbVisualStyle
  2
GouraudWithEdges
 70
     3
177
     2
291
     1
 71
     2
176
     1
 72
     2
176
     1
 73
     1
176
     1
 90
        2
176
     1
 40
0.6
176
     1
 41
30.0
176
     1
 63
     7
421
 16777215
176
     1
 74
     1
176
     1
 91
        0
176
     1
 64
     7
176
     1
 65
   257
176
     1
 75
     1
176
     1
175
     1
176
     1
 42
1.0
176
     1
 92
        0
176
     1
 66
   257
176
     1
 43
1.0
176
     1
 76
     1
176
     1
 77
     6
176
     1
 78
     2
176
     1
 67
     7
176
     1
 79
     5
176
     1
170
     0
176
     1
171
     0
176
     1
290
     0
176
     1
 93
       13
176
     1
 44
0.0
176
     1
173
     0
176
     1
1001
ACAD
1000
AcDbSavedByObjectVersion
1070
     0
  0
VISUALSTYLE
  5
31
102
{ACAD_XDICTIONARY
360
A69
102
}
102
{ACAD_REACTORS
330
29
102
}
330
29
100
AcDbVisualStyle
  2
Hidden
 70
     6
177
     2
291
     0
 71
     1
176
     1
 72
     2
176
     1
 73
     2
176
     1
 90
        0
176
     1
 40
0.6
176
     1
 41
30.0
176
     1
 63
     7
421
 16777215
176
     1
 74
     2
176
     1
 91
        2
176
     1
 64
     7
176
     1
 65
   257
176
     1
 75
     2
176
     1
175
     1
176
     1
 42
40.0
176
     1
 92
        0
176
     1
 66
   257
176
     1
 43
1.0
176
     1
 76
     1
176
     1
 77
     6
176
     1
 78
     2
176
     1
 67
     7
176
     1
 79
     3
176
     1
170
     0
176
     1
171
     0
176
     1
290
     0
176
     1
 93
        1
176
     1
 44
0.0
176
     1
173
     0
176
     1
1001
ACAD
1000
AcDbSavedByObjectVersion
1070
     0
  0
VISUALSTYLE
  5
3F
102
{ACAD_XDICTIONARY
360
A85
102
}
102
{ACAD_REACTORS
330
29
102
}
330
29
100
AcDbVisualStyle
  2
JitterOff
 70
    20
177
     2
291
     1
 71
     2
176
     0
 72
     2
176
     0
 73
     0
176
     0
 90
        0
176
     0
 40
0.6
176
     0
 41
30.0
176
     0
 63
     7
421
 16777215
176
     0
 74
     1
176
     0
 91
        4
176
     0
 64
     7
176
     0
 65
   257
176
     0
 75
     1
176
     0
175
     1
176
     0
 42
1.0
176
     0
 92
       10
176
     2
 66
     7
176
     0
 43
1.0
176
     0
 76
     1
176
     0
 77
     6
176
     0
 78
     2
176
     0
 67
     7
176
     0
 79
     5
176
     0
170
     0
176
     0
171
     0
176
     0
290
     0
176
     0
 93
        1
176
     0
 44
0.0
176
     0
173
     0
176
     0
1001
ACAD
1000
AcDbSavedByObjectVersion
1070
     0
  0
VISUALSTYLE
  5
37
102
{ACAD_XDICTIONARY
360
A75
102
}
102
{ACAD_REACTORS
330
29
102
}
330
29
100
AcDbVisualStyle
  2
Linepattern
 70
    14
177
     2
291
     1
 71
     2
176
     1
 72
     2
176
     1
 73
     0
176
     1
 90
        0
176
     1
 40
0.6
176
     1
 41
30.0
176
     1
 63
     7
421
 16777215
176
     1
 74
     1
176
     1
 91
        4
176
     1
 64
     7
176
     1
 65
   257
176
     1
 75
     7
176
     1
175
     7
176
     1
 42
1.0
176
     1
 92
        8
176
     1
 66
     7
176
     1
 43
1.0
176
     1
 76
     1
176
     1
 77
     6
176
     1
 78
     2
176
     1
 67
     7
176
     1
 79
     5
176
     1
170
     0
176
     1
171
     0
176
     1
290
     0
176
     1
 93
        1
176
     1
 44
0.0
176
     1
173
     0
176
     1
1001
ACAD
1000
AcDbSavedByObjectVersion
1070
     0
  0
VISUALSTYLE
  5
40
102
{ACAD_XDICTIONARY
360
A87
102
}
102
{ACAD_REACTORS
330
29
102
}
330
29
100
AcDbVisualStyle
  2
OverhangOff
 70
    21
177
     2
291
     1
 71
     2
176
     0
 72
     2
176
     0
 73
     0
176
     0
 90
        0
176
     0
 40
0.6
176
     0
 41
30.0
176
     0
 63
     7
421
 16777215
176
     0
 74
     1
176
     0
 91
        4
176
     0
 64
     7
176
     0
 65
   257
176
     0
 75
     1
176
     0
175
     1
176
     0
 42
1.0
176
     0
 92
        9
176
     2
 66
     7
176
     0
 43
1.0
176
     0
 76
     1
176
     0
 77
     6
176
     0
 78
     2
176
     0
 67
     7
176
     0
 79
     5
176
     0
170
     0
176
     0
171
     0
176
     0
290
     0
176
     0
 93
        1
176
     0
 44
0.0
176
     0
173
     0
176
     0
1001
ACAD
1000
AcDbSavedByObjectVersion
1070
     0
  0
VISUALSTYLE
  5
33
102
{ACAD_XDICTIONARY
360
A6D
102
}
102
{ACAD_REACTORS
330
29
102
}
330
29
100
AcDbVisualStyle
  2
Realistic
 70
     8
177
     2
291
     0
 71
     2
176
     1
 72
     3
176
     1
 73
     0
176
     1
 90
        2
176
     1
 40
0.6
176
     1
 41
30.0
176
     1
 63
     7
421
 16777215
176
     1
 74
     0
176
     1
 91
        0
176
     1
 64
     7
176
     1
 65
   257
176
     1
 75
     1
176
     1
175
     1
176
     1
 42
1.0
176
     1
 92
        8
176
     1
 66
   257
176
     1
 43
1.0
176
     1
 76
     1
176
     1
 77
     6
176
     1
 78
     2
176
     1
 67
     7
176
     1
 79
     3
176
     1
170
     0
176
     1
171
     0
176
     1
290
     0
176
     1
 93
       13
176
     1
 44
0.0
176
     1
173
     0
176
     1
1001
ACAD
1000
AcDbSavedByObjectVersion
1070
     0
  0
VISUALSTYLE
  5
3E
102
{ACAD_XDICTIONARY
360
A83
102
}
102
{ACAD_REACTORS
330
29
102
}
330
29
100
AcDbVisualStyle
  2
Shaded
 70
    27
177
     2
291
     0
 71
     2
176
     1
 72
     2
176
     1
 73
     1
176
     1
 90
        2
176
     1
 40
0.6
176
     1
 41
30.0
176
     1
 63
     7
421
 16777215
176
     1
 74
     0
176
     1
 91
        4
176
     1
 64
     7
176
     1
 65
   257
176
     1
 75
     1
176
     1
175
     1
176
     1
 42
1.0
176
     1
 92
        8
176
     1
 66
   257
176
     1
 43
1.0
176
     1
 76
     1
176
     1
 77
     6
176
     1
 78
     2
176
     1
 67
     8
425
  7895160
176
     1
 79
     3
176
     1
170
     0
176
     1
171
     0
176
     1
290
     0
176
     1
 93
        5
176
     1
 44
0.0
176
     1
173
     0
176
     1
1001
ACAD
1000
AcDbSavedByObjectVersion
1070
     0
  0
VISUALSTYLE
  5
3D
102
{ACAD_XDICTIONARY
360
A81
102
}
102
{ACAD_REACTORS
330
29
102
}
330
29
100
AcDbVisualStyle
  2
Shaded with edges
 70
    26
177
     2
291
     0
 71
     2
176
     1
 72
     2
176
     1
 73
     1
176
     1
 90
        2
176
     1
 40
0.6
176
     1
 41
30.0
176
     1
 63
     7
421
 16777215
176
     1
 74
     1
176
     1
 91
       10
176
     1
 64
     7
176
     1
 65
   257
176
     1
 75
     2
176
     1
175
     1
176
     1
 42
1.0
176
     1
 92
        8
176
     1
 66
   257
176
     1
 43
1.0
176
     1
 76
     1
176
     1
 77
     6
176
     1
 78
     2
176
     1
 67
     7
176
     1
 79
     3
176
     1
170
     0
176
     1
171
     0
176
     1
290
     0
176
     1
 93
        5
176
     1
 44
0.0
176
     1
173
     0
176
     1
1001
ACAD
1000
AcDbSavedByObjectVersion
1070
     0
  0
VISUALSTYLE
  5
3A
102
{ACAD_XDICTIONARY
360
A7B
102
}
102
{ACAD_REACTORS
330
29
102
}
330
29
100
AcDbVisualStyle
  2
Shades of Gray
 70
    23
177
     2
291
     0
 71
     2
176
     1
 72
     2
176
     1
 73
     3
176
     1
 90
        0
176
     1
 40
0.6
176
     1
 41
30.0
176
     1
 63
     7
421
 16777215
176
     1
 74
     2
176
     1
 91
        2
176
     1
 64
     7
176
     1
 65
     7
176
     1
 75
     1
176
     1
175
     1
176
     1
 42
40.0
176
     1
 92
        8
176
     1
 66
     7
176
     1
 43
1.0
176
     1
 76
     1
176
     1
 77
     6
176
     1
 78
     2
176
     1
 67
     7
176
     1
 79
     3
176
     1
170
     0
176
     1
171
     0
176
     1
290
     0
176
     1
 93
        1
176
     1
 44
0.0
176
     1
173
     0
176
     1
1001
ACAD
1000
AcDbSavedByObjectVersion
1070
     0
  0
VISUALSTYLE
  5
3B
102
{ACAD_XDICTIONARY
360
A7D
102
}
102
{ACAD_REACTORS
330
29
102
}
330
29
100
AcDbVisualStyle
  2
Sketchy
 70
    24
177
     2
291
     0
 71
     1
176
     1
 72
     2
176
     1
 73
     2
176
     1
 90
        0
176
     1
 40
0.6
176
     1
 41
30.0
176
     1
 63
     7
421
 16777215
176
     1
 74
     2
176
     1
 91
        2
176
     1
 64
     7
176
     1
 65
     7
176
     1
 75
     1
176
     1
175
     1
176
     1
 42
40.0
176
     1
 92
       11
176
     1
 66
     7
176
     1
 43
1.0
176
     1
 76
     1
176
     1
 77
     6
176
     1
 78
     2
176
     1
 67
     7
176
     1
 79
     6
176
     1
170
     0
176
     1
171
     0
176
     1
290
     0
176
     1
 93
        1
176
     1
 44
0.0
176
     1
173
     0
176
     1
1001
ACAD
1000
AcDbSavedByObjectVersion
1070
     0
  0
VISUALSTYLE
  5
36
102
{ACAD_XDICTIONARY
360
A73
102
}
102
{ACAD_REACTORS
330
29
102
}
330
29
100
AcDbVisualStyle
  2
Thicken
 70
    13
177
     2
291
     1
 71
     2
176
     1
 72
     2
176
     1
 73
     0
176
     1
 90
        0
176
     1
 40
0.6
176
     1
 41
30.0
176
     1
 63
     7
421
 16777215
176
     1
 74
     1
176
     1
 91
        4
176
     1
 64
     7
176
     1
 65
   257
176
     1
 75
     1
176
     1
175
     1
176
     1
 42
1.0
176
     1
 92
       12
176
     1
 66
     7
176
     1
 43
1.0
176
     1
 76
     1
176
     1
 77
     6
176
     1
 78
     2
176
     1
 67
     7
176
     1
 79
     5
176
     1
170
     0
176
     1
171
     0
176
     1
290
     0
176
     1
 93
        1
176
     1
 44
0.0
176
     1
173
     0
176
     1
1001
ACAD
1000
AcDbSavedByObjectVersion
1070
     0
  0
VISUALSTYLE
  5
30
102
{ACAD_XDICTIONARY
360
A67
102
}
102
{ACAD_REACTORS
330
29
102
}
330
29
100
AcDbVisualStyle
  2
Wireframe
 70
     5
177
     2
291
     0
 71
     0
176
     1
 72
     2
176
     1
 73
     0
176
     1
 90
        0
176
     1
 40
0.6
176
     1
 41
30.0
176
     1
 63
     7
421
 16777215
176
     1
 74
     1
176
     1
 91
        4
176
     1
 64
     7
176
     1
 65
   257
176
     1
 75
     1
176
     1
175
     1
176
     1
 42
1.0
176
     1
 92
        0
176
     1
 66
   257
176
     1
 43
1.0
176
     1
 76
     1
176
     1
 77
     6
176
     1
 78
     2
176
     1
 67
     7
176
     1
 79
     3
176
     1
170
     0
176
     1
171
     0
176
     1
290
     0
176
     1
 93
        1
176
     1
 44
0.0
176
     1
173
     0
176
     1
1001
ACAD
1000
AcDbSavedByObjectVersion
1070
     0
  0
VISUALSTYLE
  5
3C
102
{ACAD_XDICTIONARY
360
A7F
102
}
102
{ACAD_REACTORS
330
29
102
}
330
29
100
AcDbVisualStyle
  2
X-Ray
 70
    25
177
     2
291
     0
 71
     2
176
     1
 72
     2
176
     1
 73
     1
176
     1
 90
        1
176
     1
 40
0.5
176
     1
 41
30.0
176
     1
 63
     7
421
 16777215
176
     1
 74
     1
176
     1
 91
        0
176
     1
 64
     7
176
     1
 65
   257
176
     1
 75
     1
176
     1
175
     1
176
     1
 42
1.0
176
     1
 92
        8
176
     1
 66
     7
176
     1
 43
1.0
176
     1
 76
     1
176
     1
 77
     6
176
     1
 78
     2
176
     1
 67
     7
176
     1
 79
     3
176
     1
170
     0
176
     1
171
     0
176
     1
290
     0
176
     1
 93
       13
176
     1
 44
0.0
176
     1
173
     0
176
     1
1001
ACAD
1000
AcDbSavedByObjectVersion
1070
     0
  0
DICTIONARYVAR
  5
A47
102
{ACAD_REACTORS
330
A42
102
}
330
A42
100
DictionaryVariables
280
     0
  1
1:1
  0
DICTIONARYVAR
  5
A44
102
{ACAD_REACTORS
330
A42
102
}
330
A42
100
DictionaryVariables
280
     0
  1
STANDARD
  0
DICTIONARYVAR
  5
A43
102
{ACAD_REACTORS
330
A42
102
}
330
A42
100
DictionaryVariables
280
     0
  1
STANDARD
  0
DICTIONARYVAR
  5
A45
102
{ACAD_REACTORS
330
A42
102
}
330
A42
100
DictionaryVariables
280
     0
  1
Imperial24
  0
DICTIONARYVAR
  5
A46
102
{ACAD_REACTORS
330
A42
102
}
330
A42
100
DictionaryVariables
280
     0
  1
Imperial24
  0
DICTIONARY
  5
A8F
330
6B
100
AcDbDictionary
280
     1
281
     1
  3
ACAD_XREC_ROUNDTRIP
360
A90
  0
DICTIONARY
  5
1A
330
19
100
AcDbDictionary
280
     1
281
     1
  3
BUMPTILE
360
1C
  3
DIFFUSETILE
360
1B
  3
OPACITYTILE
360
1F
  3
REFLECTIONTILE
360
1E
  3
REFRACTIONTILE
360
20
  3
SPECULARTILE
360
1D
  0
DICTIONARY
  5
12
330
11
100
AcDbDictionary
280
     1
281
     1
  3
BUMPTILE
360
14
  3
DIFFUSETILE
360
13
  3
FBXASSET
360
EA
  3
OPACITYTILE
360
17
  3
REFLECTIONTILE
360
16
  3
REFRACTIONTILE
360
18
  3
SPECULARTILE
360
15
  0
DICTIONARY
  5
22
330
21
100
AcDbDictionary
280
     1
281
     1
  3
BUMPTILE
360
24
  3
DIFFUSETILE
360
23
  3
OPACITYTILE
360
27
  3
REFLECTIONTILE
360
26
  3
REFRACTIONTILE
360
28
  3
SPECULARTILE
360
25
  0
DICTIONARY
  5
A8B
330
67
100
AcDbDictionary
280
     1
281
     1
  3
ACAD_XREC_ROUNDTRIP
360
A8C
  0
DICTIONARY
  5
A8D
330
69
100
AcDbDictionary
280
     1
281
     1
  3
ACAD_XREC_ROUNDTRIP
360
A8E
  0
DICTIONARY
  5
A48
330
65
100
AcDbDictionary
280
     1
281
     1
  3
ACAD_ROUNDTRIP_2008_TABLESTYLE_CELLSTYLEMAP
360
A49
  0
DICTIONARY
  5
A65
330
2F
100
AcDbDictionary
280
     1
281
     1
  3
ACAD_XREC_ROUNDTRIP
360
A66
  0
DICTIONARY
  5
A63
330
2E
100
AcDbDictionary
280
     1
281
     1
  3
ACAD_XREC_ROUNDTRIP
360
A64
  0
DICTIONARY
  5
A71
330
35
100
AcDbDictionary
280
     1
281
     1
  3
ACAD_XREC_ROUNDTRIP
360
A72
  0
DICTIONARY
  5
A79
330
39
100
AcDbDictionary
280
     1
281
     1
  3
ACAD_XREC_ROUNDTRIP
360
A7A
  0
DICTIONARY
  5
A6B
330
32
100
AcDbDictionary
280
     1
281
     1
  3
ACAD_XREC_ROUNDTRIP
360
A6C
  0
DICTIONARY
  5
A6F
330
34
100
AcDbDictionary
280
     1
281
     1
  3
ACAD_XREC_ROUNDTRIP
360
A70
  0
DICTIONARY
  5
A89
330
41
100
AcDbDictionary
280
     1
281
     1
  3
ACAD_XREC_ROUNDTRIP
360
A8A
  0
DICTIONARY
  5
A77
330
38
100
AcDbDictionary
280
     1
281
     1
  3
ACAD_XREC_ROUNDTRIP
360
A78
  0
DICTIONARY
  5
A5B
330
2A
100
AcDbDictionary
280
     1
281
     1
  3
ACAD_XREC_ROUNDTRIP
360
A5C
  0
DICTIONARY
  5
A5D
330
2B
100
AcDbDictionary
280
     1
281
     1
  3
ACAD_XREC_ROUNDTRIP
360
A5E
  0
DICTIONARY
  5
A5F
330
2C
100
AcDbDictionary
280
     1
281
     1
  3
ACAD_XREC_ROUNDTRIP
360
A60
  0
DICTIONARY
  5
A61
330
2D
100
AcDbDictionary
280
     1
281
     1
  3
ACAD_XREC_ROUNDTRIP
360
A62
  0
DICTIONARY
  5
A69
330
31
100
AcDbDictionary
280
     1
281
     1
  3
ACAD_XREC_ROUNDTRIP
360
A6A
  0
DICTIONARY
  5
A85
330
3F
100
AcDbDictionary
280
     1
281
     1
  3
ACAD_XREC_ROUNDTRIP
360
A86
  0
DICTIONARY
  5
A75
330
37
100
AcDbDictionary
280
     1
281
     1
  3
ACAD_XREC_ROUNDTRIP
360
A76
  0
DICTIONARY
  5
A87
330
40
100
AcDbDictionary
280
     1
281
     1
  3
ACAD_XREC_ROUNDTRIP
360
A88
  0
DICTIONARY
  5
A6D
330
33
100
AcDbDictionary
280
     1
281
     1
  3
ACAD_XREC_ROUNDTRIP
360
A6E
  0
DICTIONARY
  5
A83
330
3E
100
AcDbDictionary
280
     1
281
     1
  3
ACAD_XREC_ROUNDTRIP
360
A84
  0
DICTIONARY
  5
A81
330
3D
100
AcDbDictionary
280
     1
281
     1
  3
ACAD_XREC_ROUNDTRIP
360
A82
  0
DICTIONARY
  5
A7B
330
3A
100
AcDbDictionary
280
     1
281
     1
  3
ACAD_XREC_ROUNDTRIP
360
A7C
  0
DICTIONARY
  5
A7D
330
3B
100
AcDbDictionary
280
     1
281
     1
  3
ACAD_XREC_ROUNDTRIP
360
A7E
  0
DICTIONARY
  5
A73
330
36
100
AcDbDictionary
280
     1
281
     1
  3
ACAD_XREC_ROUNDTRIP
360
A74
  0
DICTIONARY
  5
A67
330
30
100
AcDbDictionary
280
     1
281
     1
  3
ACAD_XREC_ROUNDTRIP
360
A68
  0
DICTIONARY
  5
A7F
330
3C
100
AcDbDictionary
280
     1
281
     1
  3
ACAD_XREC_ROUNDTRIP
360
A80
  0
XRECORD
  5
A90
102
{ACAD_REACTORS
330
A8F
102
}
330
A8F
100
AcDbXrecord
280
     1
102
DISPLAYNAME
  1
Imperial24
102
FLAGS
 90
        0
  0
XRECORD
  5
1C
102
{ACAD_REACTORS
330
1A
102
}
330
1A
100
AcDbXrecord
280
     1
270
     1
271
     1
  0
XRECORD
  5
1B
102
{ACAD_REACTORS
330
1A
102
}
330
1A
100
AcDbXrecord
280
     1
270
     1
271
     1
  0
XRECORD
  5
1F
102
{ACAD_REACTORS
330
1A
102
}
330
1A
100
AcDbXrecord
280
     1
270
     1
271
     1
  0
XRECORD
  5
1E
102
{ACAD_REACTORS
330
1A
102
}
330
1A
100
AcDbXrecord
280
     1
270
     1
271
     1
  0
XRECORD
  5
20
102
{ACAD_REACTORS
330
1A
102
}
330
1A
100
AcDbXrecord
280
     1
270
     1
271
     1
  0
XRECORD
  5
1D
102
{ACAD_REACTORS
330
1A
102
}
330
1A
100
AcDbXrecord
280
     1
270
     1
271
     1
  0
XRECORD
  5
14
102
{ACAD_REACTORS
330
12
102
}
330
12
100
AcDbXrecord
280
     1
270
     1
271
     1
  0
XRECORD
  5
13
102
{ACAD_REACTORS
330
12
102
}
330
12
100
AcDbXrecord
280
     1
270
     1
271
     1
  0
XRECORD
  5
EA
102
{ACAD_REACTORS
330
12
102
}
330
12
100
AcDbXrecord
280
     1
 70
     1
 90
1959938040
 71
     1
  1
69857AB8-F286-4C10-95EB-A08A1B2C9D85
311
504B0304140006080800CF031D4B1E494B0FDB000000200100004F00000033383230303642312D454444382D344434312D414439462D3733304338463538384633342F4173736574446174612F446566696E6974696F6E4974657261746F7250726F706572746965732E62696E454E4B4EC330103574012C90E0065CC0D8F9
311
768284501C376C600307404318DA484E5AC589A03B96DC1AC66A1023BD9937FFF72D84F8998DA938627CB13FE7784F3D0D6DF3DC6CA84371C215B37FC03D0D81CECD63A621B5F48E931BC3DA63EB1B720E7BDA4EFEF27FF4AAC391EFA1BB0E4B678CBF820F17D6876F41C0C741D32753816FBB9B3BF49EC65B9540AC756E22
311
B9B216646AD34896B6A8E532D115D419409DA4EA89FC761A1AF22A2F205B9606641D432ED32AD2B2C85646961ACAC8C455612153E366EA5E7B6C9DD26A96F0B2EBD7178B8510A7247E01504B0304140006080800CF031D4BF09D40F1EC000000300200004500000033383230303642312D454444382D344434312D41443946
311
2D3733304338463538384633342F4173736574446174612F496E7374616E636550726F706572746965732E62696EEB606060F80F0540260323103700495E20ED9E9A975A94991C9C9C919A9BA8021430B3B430357774B2D07533B230D335713634D0B5347575D27534B07034743272B674B130654768046931363471713532
311
B5D435353131D635313332D475727372D13534373670367376B67474B5042A03DBCBA019D37FE8ABC6157B20CD04146B0062181F4C03F940F0C11EA29A8141C08141002C0426541C106CAC2CA046088033B02A030AC2157C6006F21A8018AAF50194E6010A610250382264E08660284CD9E98021862280A91564B406929A0F
311
F62C401E28B6F88038B83CB1243943D7A928312F25350524432B0000504B0304140006080800CF031D4B88E57597CD3F0000904100006B00000033383230303642312D454444382D344434312D414439462D3733304338463538384633342F5265736F75726365732F36393835374142382D463238362D344331302D393545
311
422D4130384131423243394438352F7468756D626E61696C2F302F67656E657269635F706E67355B773CD4FF1FBF73E71C0E67EF7576C9DEF3EC995D46C6A1EC5046649CBDF79E192942562825CE965D8A868C2842C8DE9FDFD1F7E7F138F7078FCF6B3F5FCFD7EBFDFEC41B196891913091804020321D6D7513FC77D8C507
311
0EC3FFEE51B21F068154CC75D455CC028A3EA68992803810109FDDE5D5CEC5521B28A1B422BF80741695D5B529DA1C2D058AD2388BDA9F476F7C2CADC939304173DBF48A452BF8A700C0C70C3D121C1AA15A5270C22E2B9E28763651F7DA0D12CE11077B2ECD0D560B5E3DE2368B1E65C5E1C87384A4CC5F2D9FB8BE39E9B7
311
7C753783A37998F5CEF1B4FEE553463245C9712270880DF339E0B882A6BA713D865F6F384C842D440934EF264F4A304F8DE4EEFA1E2BF5E2D91F5ADD9613D6E31DDB33ED31DB1D7916CAF091286EA3D31B9CFECB78BB0060245B943C4C040119FF780A74DD308BA9D028678674EB5504ECF284EE814DAED07440BAF649BE4B
311
55DA2890F4D73E2D489A59EE54FDB0A85B59F2F52C4858A02705C4815A792B0C4A996A2023ECB195073E115E3E3647F64243A8338F2000BCB58DA5692C7E7C3D413F963FEDF3CF00FBB0F831A9D51360FECA43819F527B89FA260EB63C5DA676830AA3626A3693B23F1A17A0DFFCE3EE164E31B5365EDF0C89EF64D8E38AB0
311
BA9A1117D7C3A0EC44F44F4023095E80BA610DE336D0F99593A88BFC5306E72DF98F7FD132ED95878DF2964EA7E43071359FD83B2BDF9C6B5BDF768F0F3C0FC351199526F53D9460A34511F75D1B63E488178569472C91A94497807A3FD4A390C6558F26D416365C3656DE6E769DA9D8FC73774E1709812842DD8EF96AED19
311
60F79D21B395CDDFE6F92CB4EB962A4668C76990E2EF29798C8941D67DA50F4A5F947872460F1F6FDB794E8A29FD7AC0C0D6E0714339CE258FB17AE8535221E3464A10F29A0BE5EEECEFC5675926A89F49EB14E5711894F6586DB5754EB4D5DA9C6437EBA57DB97A24F8B8A8DB295FFD73266CF57E82694DF5166DDF93573A
311
FE9C9C5EB05F8FEF8E89E0A8917B0B3724DB7BEBB53252581EFC3E38166BA131A3A5B42FE2AD00A769BBFA4458D2DE7822F8C4F63D0B8E21B285AE13325F3410A435C648C9D91FDEB109E73CEDA7BC796961AF79175E1A3CE4C5E8B0D009B0C9E29EFD98BC8E97554E3D8D838424E270F7685226E5AC268E021EDE3522D583
311
E8F20C0BDE2959EF5BBFEEDAB32FE9A3ED0E39F211A86AA9DEBFC68182EDED132AB8BB794442D2D7EA9F4D8BFF52BC4D55BB165124EE90A42D101E67BBBB292FFB4F66DE5BF2300E44546757DA7CEF8932BFC9F92A0707953491A55C5A5ACEDABD9FA1AEA01BAC3DC5A24E22E7C47213493996EFBC369D086ED9397C9BA6C7
311
F9855C7BD5E15BFC8C53DB3D2A4C5901A57ACD2FBDF4D1676E95338B2C2BCE65FDA4C64F5FEFDC7D9CA5AA1FCF11E193F2FDABF0F4916BF13FB916A224380E6462A9815F2300DC49CC4DF8D055CEF76462F4B7A7ACA7365C2707891370BC1D0AA6203C44CCAB47084FEC057F27FFCD57F89B8B9852459798A675C66BD7CE57
311
2CAF71FF7E6D7ECF7BF62CAB7B3F1107DCD04DC55A3F9961700286141C94A4F771FEB2BCDA2DDEE0CB0BAE402FF1DB0100F8E475DFFFC074DDB4498AB7D186A7654DDB1CB680D703D47CEB4E72F8CB13D86A4AA68116E26387B93FD6738779B34FEDB8E517EDF2BAF28D9BE93A1D3A164320E07D42E514725C29515FF36175
311
4213EDE06B079A2E99EB1CA82A02019EADEEB87B9AF005BD04BBCECB14AACD6B24EFBE482194A97DD32400685FF1FEF1544D1B14EFB1E7F08E6D2CD2AF52DE757F35F5E62332EE88EA26417AD5C3E0E319D68F25414E6D672BD4522B278C57D18F0113921C71D96527E091F00CEB15AE23D24667369BD3CEFA10C7549D9308
311
90BA4366F4EBC55F01F746109F98ABCDD5A3EE06619C6AD78AB33E48E4C9BD21BF7478B385EC05C4F8987E2C1BFA0A60EBEDAA0AE0B015C2720ECE180FB6F2DEFBEB822D96338C9B63822183BBF52FB664A7AE57003AABCE512BF77E7E31BDA2E739AC4C131657DDFE5225E900FB56CC01CDE808FA4A9C9DA16AC679656BB6
311
4796283D89812B8F91136AE18EE5EBBAF47A73BE3C153EB5D4CD491B4BFB4FE690A4CF9ABA08C0D8AA64220C438C96EA6CA80B58FE5761E697B3A292EB9FBDA502FA863E49FE694ADDFFF9D62C520BDD1A22014147A0903A05B9B729F54272EF83931FEEC057BFF8C8055C279EAC5C0011804828734024F6CFA319C9CC6867
311
C727184465CD9BB7ED386AFFD96B294A85E3802FAE47244602D8273615952B98C4F23F7EAE4463D9D638EEE374A20959E0FE519C4CFB0FBFE5DD80C2AA3F9DB961D1BDE57E67C9BB47B77FDD74EE3094F5DBBE3EBC1FBDB7393F5116263009E2EFE1AF9A221B2AE234C902BF70E9F280ED23E73908361565964333A3F01D0B
311
006AF32FB21AA1316744B489D5A198E85299241735BE559675130955C902A8ED761FC0DBE337A9F91919AF5CE32AF902ADF9AB2615E00E8A94586BA1A90839B61832FF1BFB76D2EFADE6DB1BA04CCAD3DA649E7E2A0219F592E22F2AD54847EEA8E42271011E9074F8F3DD9FBA6CDF88FFC9FC7E811AD1CA8F4557CE4AFC7B
311
BEDCF0114A48689F20A584520C74DA8127124B767E2FB91A6B186246727BE63C9445BAE02088D58B8EFDC0F1072407CD9B89A13F6303B4A928F593AD489B58E6869325790ADC406036C591729FE14021F94B7796BB11848D463536A092A26F077F94639F7CEEE2A724C66EC885F4A24F8B8A0AC321F8FD149BA529460FAA34
311
E4663C02D41FDF80BCA222D42F0ABFF8490F4FA74C673807C2051D8E467B47B616072860069A9A303ABA9B319D58404461401B0A0F9BE5E1E151C14BC33B32ABE03DDE91708DFAEB15E7C0D593C86BB7D7EC17BE56E57975F077BFD5525F3A1A361D584A75E08CF29FC7B44B2B3085014F3A5A14517377C3F6B8F37E59514C
311
3B12F8AACDEDDA4DFC49BE5710101534CD6FB6DE15B50F11A09472AABA727F0C49D9CB906B158030065F48EB3625E010CEC1D511D0053474B11E6A4F01C0D6EF1BED3A944FDEC70E0DDCDC756C86545910E0DAE3BE3AA9A404574C2995CD5CAF9549226BC94B4F4F0F5F9086F418F6B32346464610D8BC7391D3C3A3CCF04C
311
FC1FB2A3A3170E369511868F14EEA4E5E438CC73DB1F3248AA94B6B2FF33B222FF3D1E7BF146CAD229770158063BCE4F5391964DF62F7E52A7BE0EEA829C9E13C4C147D6F93FE59E111DAB5E4594D6F3CD1AD375EE039930EFE5AF2BB2D41C83C7DABD8C659BAFBE8FAB392CA634F3D15C1D945DB4588D2B0824A4EC928AAC
311
565557CA2F0DAA588CA5BE30B3A8004F7BF005E96CBF891D7F18112A3619FDF530DC8AA64954258E1811789B5189B49B4EB53F5F89F7D37523894F3EB57B373763C91E502F52CC99EB7BDDF933FC324C4FFC2561DFFA7339FAFDD0A4BFBE6D3A8FF9ED1FC49898139864602458968913181918F719CCF5A68B2EE9C1FF050E
311
34E63107003B8120FA982C21B30A874E4F5E4B38D5A8290C4B8D9BE48A0BE31EA995BDC37AC6DE90BA17D259DEF53605D55922FEB1855D915B659FBEB350EE0DFB2F9F766E1C84CC8964B75D08667445EAB966015F63A18A9E0A325C1B3DC628C0D3CB60F767FA93CC65F25458BD23C3B312716E5F40E5858AC06EBA9AB14F
311
95DB99147B832069201541D09A0D856E12C629CF32683760EE855537D1901988D5EBC156676C7DD51D7207CF3267AF1D76C2AD867315E44618015313A98B19941C696FED3461CAA9B5415F918556D7802EDACEFD6B2E45853A9735DFC9DBF7E440F9319F8B6805A973BCCDC76C069A9144E51F187EDCC12FC31B5DEAAF0A76
311
137199B106EC84ADA6B6EE697D4E6A96E007417F4E880E8B1E89B4BCE9D81EF611E2ED8F0C1A6C25F620FAFAAB656A7C42D464880E8AFAB0E0FC8EA38CA9A8AEEAEE3E4648BA4680270A89743CDD3E6C6CBF34B7B640EFA285ABC7EA0A1E28F3CC963D114A80123EE66D0AF7D5380EB41909B605AB4765B709B80859045815
311
7E69BA1378FEC4B48CAF6A730E3BE3C5EF2DD1A5EAF94B1DDE50CEB55DDFD7EE9A16747FA4B223359FB1FCC69E1194892BABB93A1D5C4E807AC0EA2E30180811E77A2291F6E7F7FAA5E0F60215BC6024E48DE436C511F0628B8CA189982D4D83CCA17D305A7E923C37941CFDFDCD93ACAF735EF5F0E61BBD3E6C41A59B2427
311
90D3A3BAC7064DCD89AA2E37214EC839820949D5CAA31E240D2948E48F690298974A96BA9A8432BC90F5071D6537C9666EA4564796B7AFFFA548077BEEA75F63083435074BA182F3699557397F71548383FDA8CA34D99B981E72835ECDA5DDDC151315173D05A21F651AAF8524E88209E2E7A737ED1045800CE3390050BCFB
311
8BE588DF111617874C62575039CA588EEFDEFEFE319B739DE2EDC147092A262611E159650E787917885EF08F1F51B8F2D8A71D60B58B190FEF9541A1BE94BC19FEA50784DA1419FE4B0FB51B8D36B5FF8E1286FD8AF42B91E59A5F1CC4D60174E764045FD8C57B18209B217F89A62252BD20BE0E63E12B8E8F029FE19E0E8D
311
0870F58721A557082250D5424F7909369376E41666C0EE77CD87CB283F661D5FB6D0DA023CB67320A20DC7BE661E9E1BFE5463085C557DA1FF9BE835733766C3D139F2CF9E2208873AD0EB4814DE9E6BF2CAF81614D4D43906ED1C05A3265CABBFE192770FC2F64F940CB6B17B5F166F133C9AEEAD2641807C3E69515171DD
311
74C4A85311513D6EC9530B3B601B6BA3EBFF3B5C3D2F7D69765141E345F75433953D013ADDF8F6AA7DC3F4A7563FE5C7D367937E2900D7EAD0F9FC9A4A1A9B5BDF1FEF08532660C01C5D6DE22199AA774383E306DAB87E301ABB7D213887F9869D4942D0D71E94B27EDF216A318BD488D45DF84529EF575AF3C3938C0AAA02
311
15B01994153E2054A0B894DA5C784980633AAD48576957CF4AEAEAFADC7C587368551C73DBE1E57C58AC713303A8BFC258BD04B51724459FF9E24C03A81E0E0679CEB9B348C0DC998FEB9C6D6EFA77D247CC8F92D3848599ED89A23218D0636465AD1CEEB7DC140D7426F83491C4E8E8281C2FB35240918FFECE880CA2A42D
311
70E8B20B34DF5221C7DB0CF90ECCB9C745B37A47E9B716FF7A97B7A252C1F3814DC7B1E1A7F72B8751D524EF7CAE45B0C73B3BE7D08ED39781B380DDFC9AA4A4749C9493DB5BAD07A6EA6C092FBD0E85DB004DF06B8C9D3089C5320187E4CE1846158C7EA7DDAE8AD9AFFF21AA3A1026BB06A259845E8232DEE62811A4DA9C
311
EAB3A4887320B76E2AE5615EAB7BDF738CBDD01F1E64064BC13D9EC53576751CA8CACD58B3CEB0E6CA585BD089B2A59B9FC101403387AADBDBE70586B93D64BF3AD4453EF9C3B6A93817E8346991798601344F79A83C51F3D50F7BF2683A3605F51A72449489E0EE6169C749C60B1035651103AEE24D24E51A759C840DD3FC
311
6504DA6FE107510E447B43461C79D22970B75DE5E1BD3007D1AFC619A4A4A69B5626AF5E9B8374E20677F77E2F8E73DF868E8BEC7EBA7B6A75EEF7205E1AB9486CB642741D6E03FF13FCCEDB1C4AC129886268B01CDF4B124AF797CF784F3C6DEC97A17D4B558070A0F1C04DA4FF9BDBF34159AEFE958479824B3F58EBD1E1
311
9088A2AFDE501B6F2052368A3FD0E650A179EFAB1561E1D27527077136E652676C3670F42DCB3352F48F6BC86D2C3B0051727E41A0A4DC6CE2BE9D47F5CAA2935A3C0539AF080665997194ABECD723B08129CC5B6B21D2E7D54CD4D12610E7E9FB8306771A89576C7A982002775ED44F3F744CF21EEBB27A631671D921938A
311
AEE3EB0D19CD1E083727F607823E817BF599DCED5394E37EEBC2E88782E638920CA641EF74D4CDFCDEF06F4278ECB18E31E7E9876F2D783C8BF429C75395F57E98C2B495A3DA077EB3AC3C158608B6B57FE3EA48484D9A480096FCEE0DE880950E7E5A5714131C5C41AAA29FD19AE81AC145FA1B9E85C7169A5AB837B21349
311
3DF7E9AA4B5FBF9CDEB36EBD21EF1181B7CF7366AB2A951D01E37AF4EB835D1BE8C117CFBE7625D2EBCDB0B20C5A4B45CED0BCDE3EE8DA9DA78C2E21DEAAFFD1197E463C33CC6A80FB785669B856EFF7A8CCCA2841B5A5369173320B1170C368B2748D81062EA0296E5E2D95D7667A4A46D98A6FF475C76AAB0A8C8D45E226
311
FAFC9FE0133EA9F60111F99CA81ACE03A1D14C89E8B0D69079C91464FA1D99E651D0EAF606F345C42A8A1AA9BA391031582B96D5B4176A77AADB01F12FD298A75DEEBB2C82F0B8650E880722F8DDD90C56A7A058E5FDEF1AC93545BA27367C76F5D8F9690CB6F8DAE141EDD7971F0FB548A2AE435F224D6E5954CA155512F7
311
332029D5A1230854B79F258EC5FFDB09F5F6343A8EB193229B7F7E79B3E48F8E183860B38C8269D1B53738FF1E0BACF6AADA6D4869E9DE708E79B5DADCC09B1BC76F649731CFAF59A83FD8BAE4C749D66FA87A3810D4D62FFE826FA400C0F325D2BC0F3CA35F5847B82A2ACC7961745C823E4D863D54460AF792CE6F79B5C7
311
A33B25C3AEA6CDE15A919B6367D781E9D44F61BF828672594A3E1D9EDD6DF179A81F27EAC05B936575D73E05C209DDD2115CFB705DF9BBF3C911589B3640735E9E618FC9C36A7326C82B2205E244C55D56FDB9D5DC93CE958D4BF8174D2B3DA54CB3C09F2C2A6DFF73D23B2197355761AD421EC581284A7EF8DE2CE3497C0C
311
804D49B41DFD6A7360844E5BEFFB495CFCDB97A4595911CDBA623274CE852B5E278AF0BEB1770E9D37CD977B2766A7DED0E94B840E1E95E8C77DE5CB6354AF7871427C28ADBEEF7BA0A28E19DE9ACD75F379FE373EAE6DDDAE3834692F9C2B03B4FCA8FCA9ABE8EEEBEBB725B88A7C90941E850682CA04061A7DF0CE82ED49
311
BFAFFD42C309818FAE14755CAAE78B0F73243ECCCAD7DF58FCB9CDFAE7A4D3E6671A613639130D056C8383C8F4FCF4808C331E544DD26E4755D09EA05253B3049A1E32587CC25D72E073E2CD96D04A71BBCB0038FEC3F53D254199C3CDC67CD66640269431860225392B2CB3ECD0B4498AAE78BA1994246AE1EE78F2EDFB79
311
F6C6CB6B5E279C4D373FBC21CB2698C9ACBBEB6A4BB6B39E16AB0E421CCBFC7654D81ED86022F9BB522146F9F4772E2D0E4FA70120C95A85A417BF5078B232F4754363EB1750B2AC2148EB46B1EA72AD9B4D23ADCBC589D70106C3EC2ABEEED84DFE28E718C6C83502C28E9FDD3B09DA0A6F6F7B72B706A31C9E2A331EE70D
311
A56A083D2177BFD63C55B11D8D949FAFCF90B23A1E24B9B5018B9A17E99F2890EC302F330FE7936E2C23F0D237EC8916F5166AB84B62A21BB0B950146962D754F92CC2C8877BED8FC7B7B25726DD19545392570B3A2C66B58F027BEF412E552D12A588C4A3CC5C3193FCB3485EFFF700D0B9EEC077754A33DC1FB9E25AF814
311
628F91DDFECB667D3F7690803F38D13F8AE39353523BB08FC6760144AFA2CE28236F65EDBB3D5F59A57D612B99E3D7E5F8A851666BF9B5A6658EFC96EEB37A378ABB0EB3FDDF1303AF32C41BD1C8560745D7BD81066B0D6313359CF488563D3BA3F8E2185D1FAA3EBA1397C9D0E3DD232180A4DCADB6AF25DB3AC3CC26589C
311
8239E66E81547BC7E2F328F9884764CA37EB5DBE390DFC03A5246B456A7C3684C4377D0EEF9A350680FA9A077E8B2957B489E09AB1AD41316944C2254B5984830F691C93CAA767EECF976FA5647538830B5E63236A6F0365C1E0F3E327F24FE35EDDBD7360B0F7374837409F7A6311BECC12B7026D4FA1AE204FA3F5FE904B
311
1F420C7A9044AE58E403E7C4848E7DA25DC9EDAC79DD756FAA26B9EA83ACE8A214A2612A22AFA19DAE7DBAC5F8CDE1292A485F98DAC731A29FE01A3966E96BCB9FB5A4C8830E1B9AF0C54B87FBE221A097036E5D28D1F869F810C06A9BB0AC0612F69AEBAF893C6E7AD59460208BAB3A6B09CA4F6BDDAB8CF0D1F84B724874
311
98395A70DCD754796E271099A567A55CF242BBED64696378BB6CF25EF0FCDB589F3A82F1116D010A9AB9FA4358809EE0C973A2B4229BAA876A70B03AB49CBA7FBE71DB1832FFD32F9BF2C8E98075CACAFB36921235D0F552B6A67E94E094097A5D7DF681B40623DA535ADA7A9AD8E9A62407D7C9A5AE51D62A17A83A23728D
311
E86BB56115804D3F2675F2C6B87541A0FC497BF0CA86420F558C9859EBE9FAD62747E323E3AADC03FDCDDFE7407B09DA90B44E3185723C5381EAEF589765E2F7A099BA46695BAD60CEF3491B8A171F5F56444F7CE9455312C3498C74173AEA0214EC029833B34B650CBB5A5508D5091665309642791708ECF27CF11DB3D797
311
D6CFE474453BD4BFADB768094B2147814D81C7CBAF8228DCAF5564B5891F5EF6A860EB2E323CB82AB868D8EA048880D63B0DE5341F1B3D53297B928A11E15F25E5148990F710747C3509ED14909C552EBE3973246FCE55D00564D8310BC3EBC5085D08D806799B77D6C57FDF5E55837F9E934F09C03C729271B64F12D0A9F9
311
E938107CAF7BF1EC8CF1BB9B42363D33070F4CACB425E605DDB0A34A12BB936DE286B9887A4E2E558F0886498BFF49C311D96C277CF6A9FC0D75AD0ECC5226D7E0E3572012E56D7FDE4410CEC7A6D0F997F225A2055B8B92E3956E875AE4993CB3D4C9063AF98FD45E1BAB165640A43439A2C9181A7C355B297C0A0CCFFAE1
311
9B6FA3C2BA238A885FBC98B8F6DAF4B94B97304878DF4D8BFF6A4AEDF79E90ED4E68F00CD7299F4E0D83E35601AF0CBEF18C1E870E74758FA91F5131075004DB3CFCF09AE1DABC11957FD9808C92E8A678CE9DBE40DDA0E0D1D505AAFBCBA208232BFB6FB3704E8985E61ADE53DE74152F5C7DE74B1DEDCD37DC3E8FB30D7E
311
BA8B9EFFC3606BF90B8D438279CB7709FC7C00D327F41817EEA71CD9E49FE9C8C9A81C70915D9F0F15958EC5AA4C3BBFAF46986B90F188BDB24B89DE3C6F29EC3E6F66D84856EE96A35E657CA41B41EFD8DBFA16AD6E91439EA92B40B21C053249F51AE50EB0B24C770FFAF40DF12C8436366819C48E36547D4E7B72FE2BBF
311
10828583057814A668BDF183F6B2E58DFB151103E56303E63D00F39C27C4661605DB644D19175D02E3F0241E8FC3458D17AAAADB117CE9EEA690D0DB01E634878C04C2C9310B69FCAB831151E3AD293BEF6E46B0ABCECB50F5939B39C613D41E81FAE8D34CAE3C4566B761D37185FE864AC32FCB71AEF39DAA5BAB88609BB9
311
80CD2F07A8F941653B529567726E2B2A58D079DD57E1E5E31426CF184A04D7B03B985F276D47406AF276FE32E3328BA866EB1FD39BEF57863A317634AA5FE467409B3873F5069EF0D71AF00AD189D17BA1974ECDB2D623E9E14086386A6AAB5807825C37B015BFE892AFD154920EC437EB945D958E18622E1E0FE2FA06557C
311
E4BB9BBD05A2D40E774DA2B65473791E314B7D6C886820B2FCFE4AA272B3B8B15E7344A145E8AF919B5454D89D36D413E87211186BF6F645E5EC94DCCE8E1C799022E4EC9BC86D7A0F2AFB1FC4B2CE48F84B3F49ECE65BAD24CADCC07EFF39AB06BE9E6B27A059938EA7208838455383DDBCFCD967DDE4650EF92A14FF933C
311
975DB20BD7FEEBC4487576485963D757D16340D9599FEB362F775F38CA4185A86F74B629C81B133644A3B18FD056E997E0734F9BE26D11C0AAFC669E2AC9FC41D281F8B2E1C35AE27BCE05F3DA295488096688719D974DF1B5D182DB7792288697F8763CFB43562C1CDEE11C4AABD5C22B6E33F6F389CFC3477C5919DC0D53
311
3F8A7A1846B7ADB60ABDC26C43D0CFC8910B7C15EE22675BD02702ED39DB77A87A192CA7A543E6205B979B9F5A6B512A3CA799E198B2D5797C0AF8D1D872CA455D4D431A7879D4DD76110B5FF7F4176B54477A9EB5E4A5D11214FDA585F0382751D8E2582BA5D2075053298FEB8F1537304E32CB22C2E2B693DC0A760B1DFC
311
A751BDC445AFDCBB12820ED85F6D5298933C7EF1211E9E057684056CDA3FEF3BB6052355E162DF27C59E965A8DDB7F9437EB72CDDA3A090DE65A5B2F50326247B7EC67B73ACC7047FC9B353D6EE990F772207C6EC52B39DC2F3C0754821DAB559F7C1809C7D0DD5B0499D0442E0A6E391B3D5DB46D11E731E6794EC77523FB
311
DAA242ED67F9FA1FB684255671F63C9BCFE6E7E896D51001A6113EF2298BA494E0B0980D1FA5B9D60796554C02256B1E0345FB7C6186B6A19D2DCA270416262845FA4F42DB5D9B0A0B6F07FCA2E56C242522E001E0CEB734AF310FC8BFB57E38E03AACE93B3326A2197891E68452B26A6307FDABFEE0223D3C03C3C73D2D5B
311
C054C8311F12004CAE488E5C29287F8156A2CAA4AD0D7BE6B97264E4139F437CE73ADF52E5134C52B819777C18B323A5924E4F67AFD13B1CDC3A61793A79FAF5C0CEB718E441071E797C6DCCB9EFCF7E4A1E9F3DF3C2F9C9E8294E9586868788C972857FB0556D7A26941A7EEB9B580AD78EC40B85DC906B4120A563CA3B87
311
797ED612D3B035962BB75F6515A393F4CB057F564CDF54F2E5A024514E6A1F901DB80C7E70B1FC05E356A7E72FABF4775B3E3FB8F70A2A8E7B6A94542BB304157978CCC999E707A29CC795E67A59CC546A5D47B368954CA7B6E75EC9E1F6FC73CE3B4F71F8CB1A6B15923D61EAAEB14626AAA9D04A26EB9C66CD1BE86CA31A
311
5D8703DE04CD1EBCE4F5CCB62F93909AD11E55799A781A956ED27D3E738F4538CB04ADABC7DAEF20BC35BA6A90BCC1DC61BA05F20D8832FFB9BC9B15E2DB838A0AFBB7E0C82A562127E0446894F427794C3037186F622BF24DE1B00AA10A23BFA47B2A180D6DA5AD6F7326FEB8C100C2D7142EB2A0B2A9D1008A09BA343D70
311
E054AB69E2A7EDB783CBD92537FAF4A44D1296AC2792729104B3276C276C951D0CF3CF3F1E6B017720A7B8505A5FF9589365979678C36F1BAF759EAF57C60F1FF5FE9DCF5F8E764FF25A2D06CF25117A8FED51884C13B2B750DB0E4F5E3D64124FCF11F0AD8F1CC3B3DA4B38ED22BF1CB2585EE6BFEBBA63FBFD44F9537B9B
311
37BDD6B358720F98A8125AED4349CCFEB0E135F19E208A04CA7E2B10711185D72E381F448036EF57C9F874E54A971CA37A639E986AC0226DC5AA00D5B14FEA9192234B3DE617814FC221C92F33F1D392F297731B567FD98FD91D989379AF567A65B8ADF177591DB90FBEA99BF4ED11B16E50A0AB1DBF1156D034BBE04D69D0
311
8F939D8E92BF525A1DDAFF80ECBC95D8F45D3FDD289FD23F7D8B452F8EBB34EC082DEEE68E18EDDF072060FAD2AB1504DD4879BF67099FC58F6E9DEFBF645D16334A3E9A127C6F1AF6132CF287E433B43A0EE93812B4AA0B194E03EE3FF91EF9C6ED0074A2F6EB18A96A7C9890B1FCDA1F2095E944DB911ED54C60DF16FB74
311
C8CE9BDC7C54C4F14078CF73C2FFF1F1BBCCD7CF64F71407EA1683DBC410D226627F66E509060D5C0AFD611DE681D509DB8DD12FB1265B03C6F5C55FF4C30BD94187FF692B4F152982502F193098A789526A038AB529A52BC0DC4FB6285CBAC10A8B8DB75DCD9BDABBB221E27D1F8DA9F5EE5926A1C8AA9BA9BC09239C6A7F
311
12914EA3B59EFF7AAEC3FFCCE56F1C5C2980AD072793527565E774F4631DB178CEEC691B1F367BEA0CF2907E1D6B854D527065979DDEF002D8B2ACEA7CE21AE297737EDE1D45B31233B73FEA35BCFDD0B09721FDBAF6432681F2FD10C3E9EFB246FD6E854B344ACC9D8A0EEF876A7314B49B6A499FC650B099D650DBFEC763
311
8ADFD245E2B7839DA5AC5F7D5623FC0ECEEC8653FC9B2BDD1AD4D00A566FBA7186DD3C9CD26512551637498CADB950FEC71ADB9A5524285DE328B8EC7EC75D2345AEC6A27C42AF6D9B92155315C80DBFCABBB7DA0FAE425C4FB896B15C9BFAC4FE67DF5A23D30C93DA4D8F36FB15D100050DA6062E22AEC5F4DAC4F6FEEF97
311
AE05DE63C6D38F9E068A20BC5E3B6BCD75320C5090924E7F93640A7735B1A43451C2D91EE62C6238B797349E59890AF3A520DF4A87095F3ABEC2E61F0593416CE46CDCBE0E00E2523FCCD04408588B5B6C9DB6459C786CE378770B54F51DA3A5E1DF2A3349BEAAC234A6CF8993B598B3B25B4B113E353A4D750FA753474943
311
0F3EBF2512E7EA3FD43C6AB9A1F765A58463B306721A15D224FAFE8C6F5E3432D57EE697DA0DD5A9D4866A8BCCAAA9DFF1F06047851408FEC060471D0E3EB86BFAF46E4B5E60311DC3E3CEA147C75CF971BE74689507154FF2D2E92F15CDB2B9182B11459FD8ACAC5A85F174BC94A7F4EE4C4F5CAFA7C02E37BF0BC77B7DCD
311
0C047BC316F562A01A441AFA7931CC84A28CB9F4AA367EB515778F29BFE61195FA671F4352E5E46E3A64773F1F76EE5EB36D7BCE9BCEAD837A4D77F8DB8C92AEEF6711920D7C7D0F76B0FD0EB7AB83724CD35BCA7D36DDDF5FBB7FF6F04A91F3E2BB3B8F1A43CD659639507FF6331C5F697BCC782AE57D757A27D97F1AB9E0
311
AEDB43F92F1B2AACDF5FEC8ADBAF9F814E2027003BA2F9E144B1938A7A04050AE5D953B82C45619165C813A10E76DD6906B3C16438064D14CDA713AEC420034613E1AC7241904A49FBF87409AFB1FCB9B72FE7933A87D8FBEDACECE4EDCF6A4FE9FB94D5DEB74FAB7CFEAE17EE965DF980DCCA2D04134994F9A2E94D2265DA
311
4FE6AA7B7AC15FACAC2B5ABBCD7DFF542C5314FDAB2E1B9D8B65220B8E2B638BE008E8DCA22678C820C5053664D15E89F2D735B51A84955E81A443545E9FF787BE0FA700A76D136C27DA179A7C6E8939E01BE756E19CB292798063D8B97F44E8A27BCF3A614FEB8BE974A718E86F7EC99B53CA35FA24F61F2B07266684623A
311
3D4CF073E511F3A10A8FDAFAF0078C577F4DF9D339FE7862E5FA47CF4344209E5BF76D783B1B48E152AD281B15FCB934DCDA49CEC5706B1EE8B460F435324A5CAD154725E21AB8044B75A557A79F6C807B9340AA3D92503E866F4274412926C8C504E4D5EF8C0E68DD0B028781A6B4054F11CF18941F101C57CCC796773ABC
311
8DED9CD91FE5788806C05E548895354AEAC96546D55B0E94A59F148D061F42AA398D822CDECA4CDE79E13469BDCC44FDC990F366BA5978C15F97ED80CBFD73B0CD9B8B83A4F6845BDFBFAF034019473FB9A63BD55D3A4A7284757071574029A4D016DCCBE95DD679EF3C4880BF169422F8C89B68A988D2B13793CAED4F74DE
311
7486C72DC94DF46B8E93D8E02EFCB1FF9B3BA10C8AE7F653DF94F4AF466CDDCEF5776687F7C4C14B63E4EED1719DC2EC482D7DBCC7AE518CDE3D5FF86D39000EC3673C0044E1D308BF05F74D1B5F033A7D1BE7F74BC55BBE3E4A20F920946CA0271EB17BD2B80E5660ACB8A29A79F5E4BBA49D4D945B6EEF4A7EFEAA65E555
311
5BBB57A7E15D2F83C69F30BBB978D2B39F1F26FC097424D39BB33CA3D87ABF64E307938B685BAD44F71556A30B7E712CA4FE600613C3E554B69ADE949A7CFE214DF1FFF05CB82151EC6FC31950239F94CF7AD39DC473F6EA356E5EC2C4EFA04383CEFE985A127484366FBEE3C0EC4FEA363E4F6632AE781392FD45D67B63FB
311
8DF70E82734F431FD3443172A0E30A83D60982D55FA6A2CF86DBA8382502ACC6CDEF3B907982EED1160E14863FA242F9757347E1544275CCDCF71ECD5F8621CBEA326B8BA884AD7F825781923E66971F04010D574C541D8427A438A37EEF8AF88240EED7362C953F5A81DE2D56109CDE2524EA0F5D2F87308C0C47BD97AD60
311
5878AB8589E17CA83930CB5E0DCCD75853D68B1AB136594926DE426C367428E9334AFAFF90ECE221BB5DC9E5BB53D2CDEF954EAA9CD814F0E5725F1965DD458E5F8487683AD86B9D0076BE3EE91EB1CECC5331A67A3F79D8B27587C12EC2A6A70474749F27B4C0BBAFB94B34189E88DC18964BE4121B9137FD516C7755356E
311
50D6714E31ACD222621EBBCD1CFF81D87479056A9DA0E0B8EA19D24CF937DA89F78E8650CCBDC110AAB6C4E46DCBFD0446BA9E2060E81F314AC2031E88135E5476AC0160EF5C0DD2EEF1B8B5CB2D198BE9A554A9093B5F7D7E4B5407DDFCA1D9C152FD97F55BFFFDFE802954DFEC8995B983E28AC92F1971E28F531DC407A1
311
280EB125F64A72E617EFB27DFBCEDCDA2D6F2BDADA36873EE46B9BE1782998C63DA7182BC383FB6FD15DA472B175D7E8B4FC88F38D6E07FEAA3FA3CBB8F6B449ECF14D2175E5C5CCA3A42ABF24CA6C9395AF74535F4DDB38CB84F56614B0FD32D7E19CA5CF988DB4449C40E23DF2B16772594554579094450F56F253CD25EA
311
7F77366FB1CFE79696C428BB64D5A41E986189427E5E4D7E2DAE3D5BB4972B3DC44EAABDDDD63A2264ECFA5C786EB0EE1FDC5BE34FA0F08376869FD1E61EA06CAE15191135445EE8F0394161C3266A596AA035572BB0C8876180D8B9C77D307DF9DCDF7365ABDA6F3A2366436457A4DFC1F259666569A9E4A79C817BDD5610
311
E5200FCE894A358EC72858D50EF67545DA81C6FACE3D457BAF70367E1E6BDD9A952FB4F56247F58F523B97E640246051A72F79BE42FFA0B3187F63097F91C48B868586F714B0EBD5A00A8412C1236E1298F60C72BE6C96B82B404CADAA304AE9F303176B14BA53FBC2D5E86377E35542019E24D97B96A49B2C0E5006E77959
311
54DEAF5DA58958839043C6C70BD3B1B33B6DC5C31316D8A6923F142E26F6711A2258AF977DDF1F970ECC4F1F2B434B96D81BEB6E89BF3BBB3C7C8CC80505070723D6D7D7D3C8CA27CA164A26024FED94B12A86031867241DA53D929636DA600F050BC40CE48B8BA03D69224720DEE2ED2127390BDF5E6EA64527BBD4C4C63F
311
A76BB801FEEC0E61218EC98A8A86CD8313781617877E66692839B9468CF4DB8E50A73986E558E309C0D6F676F921BE02F1185454DC75B111572FF9D27D85EA14C05AD7271225B391C4275659CA4A43759D0BA44639BE4C30A84DB7F67A41399FB95CBF923B1B1672ABC807C1590557FB18D811983FA97F5E609516D62281D3
311
8B1281F68FC75528C35E4CD7DF0F7DBB5E5DD69C414EBEA2F4A5B241B996BA77AE6C772E367408C633EA3E438B68563EA8BE7667F3A4C4FDEEA52ABD78A2820F443B7914A15F180018D231E64519C56A12F6CA7C8DAE18F06F6B769DBF92329EF6A5D18FBCE600F36BD8E8198DE5CDAA96181F3A756EBA5501CEE58F497EA4
311
F418A2B82565B9BCC611713C0B708CCA1F398B78C5F7D03B3437CC18F13061F55C7BEDADD5ACB1DB0E36D3CE47FF6EA1A563A57E9649EA5D14D1A50EAA457463381C073777EF1600607BAF6428A7DDC079D47A204EF1E1F1F0589FB054D45E02CE623B3823C317C601E589E22B1E88B448524B86A82828E32345EC18AE1721
311
4B42F8C41C6D428016D9BA31DDCB47572561E5A402E5BA4FCE55F78AF7268524AA04130F3A20BA5D1E9F9948EA48FC8F5314FDB35E21898198060034ACE5E3E2BBCA34092518F275190AF65F45867FF0900AA4B81F25427414C372BF51DC29AA855C5428EE1EEDD6B849AD60F6E73475C2D2523F8A2772C840A478DED18A8C
311
5C91B085F255DC4F54EA7AA8947354FD17ECF8FB3B4A0DE7B483CAF3A1165EE05BBA413E5C1FEF3DE1D6B8F2F3F3251C17D9FCAB48A9AAF63AC773A0E413BBC46A9ADF84A566FC920E4D8C52C9769EE3301CADEEEDD92B312E02E2A7E35B7F1E7D203FE5A7D75578B06E99D0E46FFADB8FDA17ED8880390DA29094202D6F64
311
5F76F6F96409CDA05495A96E84B04A00D1A6C6C81D7F3DE9376E828CCF144EE50E364ACCE7237EA0BFB5607ED1AC3CFE73794E5B61739D14DF1743441B1AC98F00ECEDE9E7301FA29755FBEFA68C91EF2B314CF510537EF1ABFC9A762496280B546F5EDAAF8A5B387D469FC9A878A92828C88608453ACEC6094DCA54111E7A
311
D5B2663DFE2DD151B7F123B9F4FEF8EE36AB125FD7AD52A59B1B765B3E3F73E3F73DEA93875004D2AFFE3CDE9493B87A9904DD052028949041A91DC0E1BA47BA714343FD5B25E0A6A09503AFC17C790058A836A324FE31D7893512E28230332F153181C1E018E1124EBE1BA262AA428A518237D1EA7275E48C5C561BD19ED6
311
912EDD8367DA0F31E40EEAE9683DA9257525AEA7B632B97119E17145A90231768A4F3B9120FF32E8319B015E3CBE26F1A754177D8185345817C096B0CE443A955D13AC15E1FB5DEEA0239EC32A3C92241A237B0B02FFCB4F93CF2B02570C8D192E2F2A68CEEB42F12E6F8CEEFF46C251E22B4341C56FB08CCE550E7A9D6F4D
311
6564B9EA52A83D5BF2C6E03FA19D2775E15A8A7ACF30A13C259EE7F5EF2AC3BA354F1500E1A07FC63FB4686E2F12EC69719F9ECF5FE3F35598DF2CE944008CE78F0911BA5BE5D0A34E0098FF038669C26030BA9B300303039852A8F6F496341737CA7E0D2E3AAA36DE0A70AA7D9CA0D54D9AD84B18A44C9E625475E1C97B93
311
BEBB38DCE7D227E67A2D00F531436136355F243D1FC0D712C5765754FA22FCFFAE97919161F46D6E61ACB37D83777B385889770B50765B127768443A5C4D3A4E35A3151111F146B7CA116F918A049F1C272F2CD7976C69A0068773451659A97E0F4A08FE604C3FF6CE7385DB19F4D3ABC8A0D80DA8A42096AC377DB49382B3
311
6E270B6FA7570188B4B7D1DDDDA82ACA487CCA5D38BD3BD039ADBAFA4ACFF27809239B722081E2EB9F145320553D183F28471C388BC8814E5045676767AB58A8E72D1CED2CA731379515D2E533E4CF0B39DFC625F97AC4836831A4DE330E87A8126FA17EBE583D614E71E22A8DBF2825599743E0640037303E8E1B1E8EA4E1
311
ABFA4F62907B5E4E0E5DCFDAB417C36C6848A2B8D15F1E505434C0707E16B1CFC2A1C36A42BBF55734F8F4301DDC2A5110CEE8C0747F69519265012A2174BF4E955ECD4FDE095A3ABC70536B7AD0B9D7892F81287D667C108703C9B66A221E9A0929D030008F77FF6F5D2108EF5706FC87A3069B976F7C9FC3239D13D283CD
311
EA83597461079FEEE049B0F392889898B7D87D31F8D60ED7B56B91823A8E4EDDB36C6172ECEE42BD42B12CD67994FA0F0DFAE9389356F4CD4425A4B8AA55CBF7ECD585C6A2C2316791E43D5C06841ADBB226A87FD61515FFBB0167B74E56BD7F3E90A57A97FEDCBDF483A0D6699A8C0849CAEB4947FAA90D8E332D9DEBD9F4
311
738C37DA0CAF9CF3DAA68BCB67C420459C7A64498D6E848E5CADE92BB6901F607AA331104A67F7CD650EE169B1DAE94D2C31C2F993632259B6957E246EFE4C5481107B07118607700040E5812A2A2A38DA0076875258C753F60E0F2662C748EDD5F3F3686B8FC3BD6FE631ECCAA1E8B1C1E565AD117E54893E79F4672E32F9
311
E46B2A183DFDCF3EECB4D4D077DBEA0DA254D256045109670050129E9B9B1A9E4A11344D61497A992778095151510C4BB7EF2009B63AA4360635312E4CF668B7E0D3D85A8688E2BD83B569439892ADB63461930D428E0DE42E4AC57CE48DA5CC1449530D8BD3D6A0F08DF20C8E8F570F2CFFFCEA286E30969B4654D498A58D
311
9DA782E19FE3F002181838925592C4A1EF0B332D88B61A92C644547BED490D3A42CFFAB70E36D961F694F6307F72FF15A1C79D5B1B5CEFD353D9E2B52566DEC8F8F09CB3E8359C0F68EBBB7898243E34E12A015B2685AB303C04D3A9E00671FF3DFF0A184E4A2ABEB2B666AF5B3A209C73D8EF29DCDB069C9F391EEE9DD0F7
311
4C7BCDE16F8F02E3B8816122BBEB50665775B600549D8BB33A54A6BF940C028118BC6878C79958D6784F9DEAA6E26748386FFAF8D0D0101E2847B6563F5D8DC1D78F787BE00E2C941AE12148D4A81599FE8F68D4DA5CDED75530ADE138240300EE13B0FC13A1687FED6774662C05A2B7DFB186732F0D7A93545D8B0A6390AE
311
5054D9CB582DA846D7A061B3358B45E2B52DDE63E114397EDB7E09233A579155D795BE76102CF277F4DF8B188C4F2879BEAE3C08347124BF9ED23B128259FE107D31E34A652F090B30B39E0D9AF917B76A2806135621A8A60681F16AF216514BBD02711585B5B1AE823F4B2D0369EA5B6BCB863072727FFC871CA6C9AB79A8
311
14D989057E9470A3D238BC87CBB4A0EA49AFE2B86F22E499793CAA9047080450166BDC357524561E258C77CB697F1ABB32562CF87C3B7AA12F911EF19FB3E5C02222E887D08202A60A17151F5E053A86B437771088B4FEE14D652C43E8D939995D34545E12E2FF93D4E366EAD25F10CB7DED141563C3D0C447AF06078A9113
311
5FD4B9611583CB4BF3BD167F2399CEAB0E0100F8FFC305F00F1711717173138B4B48C83022295DE657EFEDD97F238ECA80F528AFB4F8D67AD4E2594B9A3AA86D7487EFC313BA95745C186F0CDD84CC12DC9CB0424B42203D351FD9C0A3AF10CC7F388E0329279087386421F194F4A29464C1DEF7EF8BE515E4A199DCD5B909
311
342598D8FE6A231F71336248D5CEC5454455C7BE383B3BC7B260FED27F703FDC39A170F3827239102F59D4DEE7FEF82EAA1A5E4BA94DCC4CC44E7E2EDE20F24244E4454369D2E87C3F823F193FD4FD27E1C23984B01898D15ABC20711A8A558054951A6AE280096BA36CBA439603B7B0B4C45F248C14B2383B4B5CD8ECECE4
311
FF859AD4A6CA2326D020EF090F4041D28DB66E5256B56232CC52829DE8060BAE6BBF37D4B7469B822454FE93210A3E8D15E69FFCF01123222611C51C4FD0A041A0CFA2471CF6BE38D2B20FA4C3525B5B8B586759475CF80ADFE67A284AC24651E52B8E683D24C2622642F27E7C3C22783BCF63648BC398BD6CD0D9C97E7E7E
311
3EACB6126DB7A6C1FD9F1031302EE67ED96F22B77C7CA0239BB324207559B105E4693EB26EC46182A92C9C0DBD24F29B31C5C5AC1F84300E0E17CEEAC15F5736FA4A98971E2F1423BFCD68D4BBD5F86E74B40A369F39507C88FCDB35D2DD8DEBEA4AF999E23CF2816D204200DF6E611781B9884C1AC8888B4DE39732047295
311
9434323A5A36B22A8E1F721A270DF3BD65E4A31C11FF048AFB0D8B7B6881423793963A23CFCE935FC189ED36FAE35C46DA3574C979E4394BE52084F3081837BE033396D2EBD80F1F691B273F660D2B32FA27A33B1DE4ADA5F0FA4651511102DFA410DDA86E065272CA314D5249DF91B06BB92807B28EFD54F08F7B52525278
311
2CD276DD02E6B0319B13DF87B1F6361AD6B28FC0D711CF445429B9E5A433CD493051C49A9E03DDB1B147D880253514A5DED88009018620EE229101C041950E2D8AA8E1F5F5438E0C0C0C60EEDEE9E3E0C051948C69F84BB7B2A48A1F3C8EB9E6864687F4F4F6F6E2FA87608ADAF9C5E117B7C1A737E710769DA1D15ECE6A84
311
502AA855398712D5FB51BE92E4EF824969CE18278798AC303C2C7980DD2500ADF8FB1E6D6C2FAAFF9987178923334A244758BAA01A9A1B70FA5097D01E1CC2A58DAD0EC94CE6430AA9B0C10D75E3C6BAC670EFBADEE1607739CE0FC18A2587E3EC3058562014C64219C69BC269082D5C2F4A659278D585755912176D78A1B6
311
41719C2A394CED495A1AC5D583FD2F5EDD93308EA7EAE8A6DD396598BDBD3D4CFED62D18A5BDFDE0DD5C80D1A89BA62697B131AE7CE9A6594138582F1B37D68F1749AC7CB67A70695D48A4A056AC1FBD4E82358CEAE38F54B95A9016F9000F9879C0D9D131768635CA798895F27D6F1614F11F2838A83611AA51C9A3DDB539
311
D42979C29F10465655C17BEC3E2760B80DCBF609198C7B171A531905F3EC218D696025975E986C6B4C666666787271F202805577DD5A3EF0CAFAF91B62DC4B2DB4217A7606282F31D8DDBC290593BAA93EA6353AFA9939B877978481E15CFC9F2755CDC00C538F63A4BA3E80AE009B73CA0185687D339A507D165B74290D6E
311
E46D5C58148F020C3668ABE9EF2F7549170DC80DB41FFC1D678FF19AEB10C7133832B104B80F691B3138F97A92D26E551F1F110400D45AC71A9B9AC41A1A1B1DAEED0B0810638EFFB511D46B121C6FEA0F38CD00E03CFFEB9713FE1F9C263E4DDEC160D0497FA9A132BA608584057FB15380825DE6C7FC3C667EE947D488A0
311
9898D8E939C4953BF4EC9836344D2CC6B2971B2A21A572B06096F4982D2CC7232D46E8EA69DC83722E267754D777F97F96D5DA74E1E75178084D0E70F12AD33E5F71EF2AFA599B2BEBF60A5BE475F444F240CBFE8143C334E7ED9150FEEFEF7EB020C4DBED388DD1D6A167A76F3CBF119B578AE8CFA7736ACAFA4440A1C471
311
85638A0D2F3EB5BDDEFDA958FB13CE4AA4923D5BF840392D45544329525749734866684BF7F8D9D54D892E19BCA9F829A0F8BFCBEEA6CFDFC61D74EA1A645ED7A1FF241739F15694BD835B66FEC5677E40FE69BD3F91AE402F036537218A401CB0828604AD189E575015C6F3F6BBC8AC79CF6C70653847254B31551EFCBEB5
311
978B9DB85D58D0FA41A9DFE9C624834AA04949D24B5AE6D299E072D152D12097920F14AA92C31C3B97E28B6C2E6E9C23D63043ECBBC0A60FDF5BD0C33C127EA8A3308B8B6AFFEB28B4455BF6E7AF4FC6222728357EB8E46E85053E6A8843AB23295BF838ABDA94658FEF3F832F147046B4ACD6F7D48E8FCC9618582961C898
311
D1C7A253C91BFECBDA6BA18A1FCF70755DCCEE2222F41B76D23CA98D0CB3D95F0CF66D57FFF65E2A90F5DF40FC3187621E981BD0BC1D992787212688976B94A8F0C6EF646624B570B78E068826F87CE27041A95C9A4871FF65CC17FCB1639629AD6A9517000D63AC231F3D741CB8430777E7ECF80CE7A3F73C0F162F7E56AA
311
71F4DA80A33CD6ACEE78E2C11FAC03DAFCE929B106F8F6B3ED2DC71FF994BD9CEF4E9A94896EF1B6E2B7B4978168BCF0847A3D2A4F1B0500B926E634B174548E9FBAD27153FB5FC36799B1E6C7C38A94E1F9E996796D7B485E635D5287A2AE76FBD11A341DB3F8F810385BB7296391973DC6C37C452A9305AEBBE0CDB6C566
311
DB59FE60C8E94B1FD090354BF51439FFD1B48D725228FFA88C84F686F547107A7A235665A4593B7C34D748C1AC8D56DD5DA861EEFBADDECBBD65117E65851F90351AEB65F0EFCFF4BCFEF24CB7A5879699FAC437A7AF9099186CF006BB923A59E37D7A36A29FD8D2CBB914A5E9D0A8FD212FBF796AE9A67958FF1D5D8B85F7
311
8F96219D4714EB919929241B6C018AAE0C02069F8D919961EC5DDFBFB7573E3AC8E08BFB7C8534BE6DE045B3CD63DBD71F7638BA2309CAE398EA3A7D8F98BBBC7AEB367EFA5CFA27A9F8F2F52FE878058E6209C026453F8E7E8A237DFC389E9590F6059B397CFD65183BBF936E86896612A5B5FEE49DAC8455D026218AFEBE
311
C12B3523A45B57B82C9C97E02ACFA1184DB18E48CF615DBF39C3CC6F0B4AE6BBEEA2E39D944E290302FA3DE33FA7E40296E2EF7BF1CD855BBECFAD0FD622BEE9746FC4FDFDE545AE6E3BC234CADF83A0FB76DFB145BF3828AE3436368AC24989454F8FF70A177672C711CAA1A76107218CF948CA01F873520E7A2B118EBB16
311
1ABAD432932029628B6761590C98AB590C8C8C79798CE9F715BA696E839E9131A4BB68BE923F1747FBFF165331FFDD4D05997ACD168F12CA75348DAC04C7F509FE83898A8B421181AF492861CE81E4A2DD0A30850CFA95E05F097FF70F9E777310D584A75BA7018922E271DAB1D785671157685B7D383D3E074DDB4F1E44EF
311
04B07BAAC75A062077C54B9752C738C9D804D402E02851F3F89605AF189738C18C021D2139EAF72513824E10DDD3047BACC8521ED7E98B257D1166903B1B08FA6F918FD7E162913FEC7D0EF4787E29C35FBA8C6E2C9C20E9AB30AE42CA2A01A090E7D010C1B5BF9CEE2A304BF3A987FB40D836979B79E18D70F257DA61E808
311
472DD85B82761825779D6B90CAEB0F23360C6F80A7D7D77545E95B3DFF0CF96A827F9B5BCECD2C9698718417EF80FEEDEE938AFF55859D0D540B7FE09435583A6F04874A0C7E8CF234DF4879722000167F5872CEC6BF3EF7E5A8CC8121E6A359227C8A29C95212F9F735BC72A887D56B8F309FC525BFB4FD767AAEC4AEFF24
311
9CFBBD2DE1AB9969A6155C7D8DABC307E47324C1F916C7BCFF40ABA5644E9FFB9238D19ADADA49D9610F01ABBA57E4DFCBDCCBB2B93C8953206C91DE01B0E2651A6D6C31721915B31F7B7CBCE55466F6D70402788FA91D73BE4ADCBA99A35F17D6B83383704917D6833F0FA3CD45C926ADB8BC17999A4A0AFBCE2541F7B8CF
311
4C2F5FBA611B3E626D64407CB32C122DFF4EF8674D6EDBB86C8F7C6A16D50FA685E2CCA34F8F7D1D8265BB0042E9D7F1F666F7BE5FAA5184DF58E12122A42EF02F461B3F369AC746F96528AD208512AB56844CF75B97F352DF7995024FB02855385854F3798670D01CAC771AC3E1889EC25F61A20C1F8CAB46898817F9C47E
311
2CDA1F286BF2F358298709FE567C91133E2638C8B53975E753EA8BFD3578B5F7186B7BF084EBA3F77BAC3132A5779902EC22AF2D2E79F42D324E083386DAEE9810D1B44A5DAA54513C7A71E52A4AB9257D975B621308FE4D2141CC3DCFE946C154A3C1DFCCA7629EC69ACFA831634ADDA93C0388D2A9A2DDAFCF957C6995BC
311
E7FBB6DC4EBAE79E63EB08E9A25F52F67076F7093CA545CA3053B5BF576DEAD4E0017143C5F759F32B2D6F145B52B67B48909B7C7FCA6586EE385A2189C16932CB6DDFD9152AE317C430492A578ED27B72D85D40C7C93C097939E1B50F4D67F05334FE9DC362C30B7FF561B95259138ECFD9274C8D695C31B14D4EAA9F3D7F
311
A8DDF652F8C5DEFA23284C799B7D94416DEE81E05A866302DC70192A5368EA65E1CED8BF107A1E2D3119A71E85DC1A7B0C1E93274CE04DD0F2ABC8AC7C987FDB002B6F81757B43502EF7A0D92E416494FAEEA4C9C090CD9557AA4D532F4996A272B94355C5A0E4974EEA9627476F30809B94D8D8D860062E02204643BEC7D0
311
438AF800FC7E2B26955D595421E83C69E1A07E0E3122285835F014AD538188CF9737CE76D464A353FA55A001AB2526B84E985083693BC76FE211CA1D000679C889E3C009832C87E1AC2EDD05C302557422DF0800E316FCAC86978A371F025A6C7DAA9F333E7BD160403A1A06EA75AA9888FF01504B0304140006080800CF03
311
1D4B28BB58AF800100009E0500003D00000033383230303642312D454444382D344434312D414439462D3733304338463538384633342F536368656D61732F436F6D6D6F6E536368656D612E786D6CBD544D4FC23018BEFB2B96DE15493C78601010A34B880709DEDFB52FD0D8B54BD70DF6EFED3AC0B12E6442E2716BFB3C
311
EFF3D18E26FB440405EA8C2B1992E1C323095052C5B8DC842437EBFB673219DF8DA659866649B798C078B48AE6410122242F2A4994AC7F93815DF85C049C8564CA0A901499DD886B2EB9B1E02448F358701A9235880C49A0119892A20C89D1B9FD768815CAD268CB5E0355B40B1E47F3E37A2020464BED06AA57CE8FCC20C3
311
C3446D46761A2632A8C1283D07031EFF2AE7CCB1BFEEE916E406DFAC8E36FFD99A9D60A6944090EEDC3B670C7DC13DE86B6B2C5C240D6E503BB85ACD579D513F1B9F9A69DC9CC22AFA80C426D40AF0B21EA168559156B6276F0F726A6BFF04DCD513A87A62CAD41FB24FCB2858B3952E3D852084DA25B9303C15687973CC8E
311
8AAE11DF2836C38C6A9E765E8C1BA1BFB1DC29CDFE518C8B5A7655A4ED7E77291ABEB80DBD82EC866ADE1B8D05AF9E35CF09D7A061F38A986D9EC412B8F0F65E5D81534D9B231D1E5A8FE577A241F3A5FD01504B0304140006080800CF031D4B2CCEBD668A040000E01200003E00000033383230303642312D454444382D34
311
4434312D414439462D3733304338463538384633342F536368656D61732F47656E65726963536368656D612E786D6CD5586D6FDB380CFE7EBF42F0F7A649B70E1B90744856B4970F450FCD7A5F05459613EDE4174872DADCAF3F522F8ED3B88D2F1D06AC4050DBA2493EE4438AF2F8EB73AEC8466823CB62928C06C3848882
311
97A92C5693A4B6D9D9E7E4EBD51FE3A931C22EF85AE4EC6AFC38BF261BA626C9AD288496DC3F4FCEAFC63366845F7A10452AF41DB320C0D44EC26EAB20918735565582695670811A6A49643A49A6E9069FA4604A64B29016DC4B48552F95E4932463CA888468C1D2B250DB4962750DF7CE273069CE8363F1FF4EDB00E0A219
311
99574AE4A2B00C353B93F3BD4777B8A61ED8F604ABFEDD79CE56A2B7BDFBDBC50996E0ADDE16FED26223C5D30956C29BDF4A55EA686E5E58B112DA45CE67F76F4FA27EFA3FB672FD7372FC388FAECDCA5209E693CAD167BADCD272F943701B3812F8A3D852008B1D2E32DB927B2F833C6EA95879925356D254582695095A3C
311
E982924720BE5774A3CB9CDCDB350427D2DF20DA1B5532EBE2D5D6288D75D4F7E4FD9890A0EF8E3D93EBB8F8BA4758158EF6FB90A6F9520281C93DE7AAC6D24607DA296BB96018123F821A7D6A5C5884050C475DA4865442732C8B95684A50165CBB3A32F25F783A4A480ED59AD7F924B968AEA50131F46303223E6A397B0E
311
52976030DC1DCA81D7E7C1EDEEA42C19FF27635C505E2BD5198A599020DF50A2330FCB3AAF28CB0124108429553EF1B228802E2265D8F7CC2401042B155BCC7070F1E5C55F13B4A9577362CCCE46C32174E010C3C378C44841A4BDA00FE3A12006CE11EE6AEC59894D3526DDE1CD59D503ECC324017F8061B7F162162FA62E
311
DD81AE3308617770796DCBDAD2B2625C5AE8A63DE20B2C8AA5E95E76E5730823955956E33E705425A2187C185D36489A1B44D3DCEC2172F6BA2105C3546287A7194B2331768EBBE64F6E70A9930ABE0ADEA89E9E2C38523B810287AD67A54A039C1606EAFE68F8304610BB9093DBDDABC0B2AE4E290DCDA15376D7E39F72B5
311
56F0B32EAB5D3D498B4C41ABADEC3A1434C422D87E8025A84BDCB2B1417ED750FAE4DA8976863974C577C7F902D3F156AD354DEA3540DE6BEAE2BEA52F7A2EB4CA43802ECE5BF2CE2EDC9347179FFB023CE412E60BE16DA0BE29B374988A553F561DC04615DD35F7D2C8979F60E5955CE93DF29DED8AFA1EE6642D53418086
311
C03C47C377910F75F7E8F5EF665F70B60FFB22AEDF897D119E8423C773E819A3C1E55E550599EE6EDCA34D0C86FD72057DF2CD46F16A470682471C164E4346D5306BF12D7D12D82CFF673D41636C347443FEB51B50D72EA171A8E4A58623A4A16E0FA2B8B10A0D23268D87C33896EE8FB73305A74BF224EDBADFA0BD674AB3
311
54D63DB7BD5D83426761C077DE767728235446A552754EB93B755891C3C4CC6CADE37CF0E912A7BB38DBA010F9DE1282EDF470CA69A9CDA482E334C4A6EA4107987980B17E72F31730EBF88BBD39E7C629F56797A3C0009C2C5AE7951D9A05A02773440F02EEB4DE396A3B6A570C72CCFBCD823B0B8ED3F1D5CEDDFED772FA
311
70236C83FB7D86C385D570B87107535572A60A96035F8F7C6A7192F13007246BBE0521855E6AC46F3E27689CEE7D186A6FD679D98CDCAD13333E04EBE7ED6F55FF01504B0304140006080800CF031D4B6180134D5F0100006B0300004500000033383230303642312D454444382D344434312D414439462D37333043384635
311
38384633342F536368656D61732F52656E6465724D6174657269616C536368656D612E786D6CA5934D6FC2300C86EFFB1551EEE343DBA41D1A103009551ADAD40EAE28A4A68D9426284961FCFBE5A340113B2071746D3F765EBF4DC6BFB5407BD0862B49F0B037C0082453059725C18DDD3EBFE3F1E829991803366715D474
311
942CD30FB4A782E00C64017A412D684E454CE3FE28995203B162A6EA5AC94B66997D225E109CD63B0135484BAD1B3C07E9080CA35DB3119C11BCA5C200461A68A1A438126C75E3E230D40FF81FB3F03C91D1E3A3A0AF79FE28E25BC39EC3E17E4C2A2D94A0833A51AF55BCCA7D88572FCBAC529C4140B020FC3AAFA886621D
311
CED7EAD7664CC86024E806DC297DA1BB393E4156543457A4537DB8817349A70F8ACBF09B3EEE2CB2F33E91B65D60786E4E3B39B77E3FEEEF5650424525DA657FB8B46BE6BF064646F0A0F7327C0BC1BC1B4CBBC1C419FA3CCB23500007872A2580CAAE5461865565294E4EDB4617B62FF579DF9A5B2F54E834076A597573A0
311
20912FED777F9B3F504B0304140006080800CF031D4BFB5D0C8151000000570000004700000033383230303642312D454444382D344434312D414439462D3733304338463538384633342F4173736574446174612F41737365745461626C654F66436F6E74656E74732E62696E5361606030B3B430357774B2D07533B230D3
311
35713634D0B5347575D27534B07034743272B674B1301502AACB4D2C492DCA4CCC492C28484D2C4ACC4B4E050A82012F90744FCD03CA26072767A4E6260200504B0304140006080800CF031D4BF865834058000000680000004500000033383230303642312D454444382D344434312D414439462D37333043384635383846
311
33342F4173736574446174612F53747265616D56657273696F6E5461626C652E696E66558CBD0A80300C06F73E4B117FB66E451741D041DC5BF98480A492E4FDD18EAEC7DD4555D89EF28DF51A0B1BD8340C4DE7DD848B988C0ACF0649566493F2408C508DDEBB99D5129FF8F1AF8CF5B9503E20FAE5A16B5AF702504B0304
311
140006080800CF031D4BE398382136010000A20400003600000033383230303642312D454444382D344434312D414439462D3733304338463538384633342F4173736574446174612F636E782E786D6CCD94314FC3301085FF4A648931B653060A725C21583A8144C5C076752EC5AA6347F605C1BFC76E33808A983A54F274
311
FAEEFCFCE4776AF539B8EA0363B2C1B7ACE19255E84DE8ACDFB56CA2BE5EB26AA5550C817E60ACF23060CB4A9969B58B611AE752873D4CAE549DF5FBB9789F12D206B60E9FFA87E0093D2556190729B52C99771C80C344A1C3B4E71D10F086474C618A06F324B203CE934C4420EC985EC8E6A696CB7A71BB91F2EEBA9C3725
311
0AA9D5360437F3365F16C378B590E6782FD35289026835453B53E5354CFFA5926FAD5722935A258AD995B983BEC6DC01E3E8AC01CAE6896008A9CE10C2A0C411D64A14177E79F188BDF5B6B4ACB334A0109FB3408C64F1023DF94FEDF9BD59FB44E00D5EB223A71ACFEFC3CBE117BD1E6379C8CDE5A5E55423B7BE3F4356C4
311
619DE4E894EDA2BF01504B0304140006080800CF031D4BC22DB275E5000000600100006700000033383230303642312D454444382D344434312D414439462D3733304338463538384633342F5265736F75726365732F36393835374142382D463238362D344331302D393545422D4130384131423243394438352F7468756D
311
626E61696C2F302F636E782E786D6C4D90416EC4200C45AF1221759940D245A795C35CA2ABD95494785234042330D5F4F68596C548966C7D3F59FE1FCEF7C30FDF98B2A3B08A795262C0606973615F45E1EB7812C3594322E2074C0CC11CB88A260B0D7BA212BBB4E1D514DF54EFC2AD8B3B064CCE7EC4B08BC17A93F32AB2
311
FDC2C34CA6306D986FD366D84CF39430534916EB017607F60336A161DC845ED4FC32AAD3B8BCBE2BF5F6DCEA02B2911A3E897CE75D604C149F1665A98EA1FEA34036404349AE53CD84D00FCF81AC4B0D9953F5DF21FE891532317A670DD7982459461E2B84E600F90F6B90CD6F6D7F61D4DEB2D1BF504B0304140006080800
311
CF031D4BA233C2345D000000800000006500000033383230303642312D454444382D344434312D414439462D3733304338463538384633342F5265736F75726365732F36393835374142382D463238362D344331302D393545422D4130384131423243394438352F7468756D626E61696C2F636E782E786D6C4D8B490E8020
311
1004BF42E6EE76F3C0F216234B883063108CCF170C074F95AE5473F5C4C06E932E4F28601967600677D21E9D8092EDB002539227A2FCCB80E1168D80A6417297A89C5D6963B7129A0D1E8F2EE73AA7B62BBEB8B27DE50B504B0304140006080800CF031D4BBE89762363000000880000005B00000033383230303642312D45
311
4444382D344434312D414439462D3733304338463538384633342F5265736F75726365732F36393835374142382D463238362D344331302D393545422D4130384131423243394438352F636E782E786D6C4DCC3B0E80201004D0AB90EDFD75167CCE820A4A845D83603CBE602CAC26799919AEEEE0D965E2E908050C6D0FCC
311
E04C8BC355404EB6198129C92351FAD580A10E464065907C8D948F8F166375F655BDC3FDC3B4E530A176BE7057BDC43B2A593FE403504B0304140006080800CF031D4B46FAF6347E000000A30000003600000033383230303642312D454444382D344434312D414439462D3733304338463538384633342F5265736F757263
311
65732F636E782E786D6C4D8CD10AC22018465F45FE7B4B472E05E7D055EF319A1B92D3B0193D7E1ABBE8EA83C3778EEC3FAB476F9B5E2E860EE88100B2E11E2717960EF236630EA85732C5B8FDDD008571B51D540C4A2E29E6E78E263B8FD957EA5D78ECB0159C9DB5E1F8D6F0169F064AB060578335E19A9A661017CE8A71
311
AC4A995FAF6CCDAB2F504B0304140006080800CF031D4BA71F912B09010000550300003400000033383230303642312D454444382D344434312D414439462D3733304338463538384633342F536368656D61732F636E782E786D6CCD93BD4E042114855F65426239C08C85AB61D8C2C2CA46ADEC10EEAE64813BE1C7E8DB0B
311
2BC56E62A7C5261470F2E5E69C0388EDA777C307C464312C64A29C0C10341A1BF60B2979376EC8B0952222E6138C0C41795848938914FB8865ED92819D2AAEA9CE864317EFD17B0CCFFA1DBC2283762AA585A4E391AA92D1403A50A3B2A2138D90B0440D7542B61EFA041D41653044CE7CBA19F9669C6F5F38BFBB6EEB55B0
311
464AF186E83A6F438688EBD5CC35D66DA886B8600D90A244DBA99682C85377B4F6215825A44839D6163A99BFD64AAA757556AB5CCB6247F0879182B5B067911F2040B4FA52339FD9FBB7D04F100CC4C77A53D12A77A9D97F73F9B70AD8F107D467D03E84FC06504B0304140006080800CF031D4BE3603EBE7A000000C20000
311
002C00000033383230303642312D454444382D344434312D414439462D3733304338463538384633342F636E782E786D6C6DCD410EC2201085E1AB90D9DBEACE05D09878023D01A1D34A8419C380F1F82DA68B9AB8FDFEC93C3D7C52546FCC12980C9CBA232824CF63A0D9402DD3E10C6AB03A3397DD192872090D3406ABE7
311
CCF5B5D18893ABB1690CF4DCF02282E5EA8A5BB96FFE536F285CB347F95BEFFE81C9ED5AFF9D5B1FB575BB00504B0304140006080800CF031D4BBDA64A997E000000A300000007000000636E782E786D6C4D8CD10AC22018465F45FE7B4BD3CA401D95F91EA3B921390D9BD1E3A7B18BAE3E387CE7C8EE3307F476F9E55354
311
403704908BF734F8382928CB8805A04ECB9CD2F2770314FBD9296818B49C722ACF150D6EEC4B6834F8F85821133B420E178A6FC608CC0DA7F86C4E161F19B90ABB17C2325E8D6D53EAFC7A755B5E7F01504B0304140006080800CF031D4BCA1DF9C9A900000073010000130000005B436F6E74656E745F54797065735D2E78
311
6D6CA590410EC2300C04BF12E5DEBA70400835E500FC800F84E0B411AD13252E2ABF27A55740421CEDDDD9B55CEFA7A117778CC979527255565220197F75D42A39B22DB652EC9BFAFC089844F65252B2630E3B80643A1C742A7D40CA8AF571D09CC7D842D0E6A65B8475556DC07862242E78CE904D7D44ABC79EC569CAEBA5
311
37E3521C16DF5CA5A40EA17746733E0B6615DE7217475F386F18B9481C510F1F021CD9FF027EA0E1F5C4E609504B0304140006080800CF031D4B3DEE336E64000000790000001B0000006175746F6465736B2D64657369676E2D7061636B6167652E786D6C35CBC10E83200C00D05F21DCA56CA76D41FC96062B120735B69A
311
7DBE268BB7777961F8D5AF396893C2ADB70FE7ADA196782C2DF776D7A97B5933C430F15651E5469C55D70F80A4992A3ADC954792C525AE70A1E4D6AD9816CC044FEFDF01FE3FDE907802504B0304140006080800CF031D4BD518B938F8000000960100003700000033383230303642312D454444382D344434312D41443946
311
2D3733304338463538384633342F4173736574446174612F636F72652E786D6C8550CB6E833010FC15B4770336098FC83882D23FE8A937CB38D44AB0911F553FBF76A0527BAA6469ADD999D9DDA1D7AFF5917D4AEB94D13DE0BC844C6A6166A5971E82BFA116B22BA3D618FF8B0699E6ABEC21C1C0E8624DD80E4818EDA54E
311
A836B33C40EE9CF4908947FCF4E0C4875C79CE838F0C77CF372EEE7C9139CE771EA321A8F990AA39BAA99B9216D84B3590A6ABCFA839B7133AE1F6157578C2681A096EEAF144EA61A4451233EAD5FA335D58C9BD9C81911237A86C11E9DECAF252A5F74E8BC464D4791B6F3E86A6EB800D69EB897B4E8BBDFBC7356CF3FFAE
311
41695F91C375573860382EF96C305AA494627946186B4A947D03504B0304140006080800CF031D4B06F09AECF30000008E0100006800000033383230303642312D454444382D344434312D414439462D3733304338463538384633342F5265736F75726365732F36393835374142382D463238362D344331302D393545422D
311
4130384131423243394438352F7468756D626E61696C2F302F636F72652E786D6C8550CB6EC32010FC156BEFD88013DB8930515CF70F7AEA0D61E2A2C460F1A8FAF985D895DA53A5957635CCCCB2C32E5FCBA3F854CE6B6B7A202586421969276DE61E62B8A10E8A0B67CEDAF08B0685118BEA21C3C0D9EC6C5C77485A1394
311
C9A8B193DA41E1BD0A50C8471A7AF0F2432DA214312486BF97AB907731AB92941B8FB318F5B44BF594DCF44D2B07FCA5BED2F6D41C517BEC467420DD2B3A9191A071A0A46D86036DAE03ABB298B3A0979FEDD22911D4049C62D222DC217A7AC3F85CE77A67556672E6834B37EF4BF375C031AB36F48F5B5CA7FFDDA236A1A6
311
BBDBA6F0C049FADCF381B32AA793DA33BAD47392FC1B504B0304140006080800CF031D4BB5D6883AF9000000960100006600000033383230303642312D454444382D344434312D414439462D3733304338463538384633342F5265736F75726365732F36393835374142382D463238362D344331302D393545422D41303841
311
31423243394438352F7468756D626E61696C2F636F72652E786D6C8550CB6E833010FC15B47703360990C8380AA57FD0536FAE718815B0911F553FBF76A0527BAA6469ADD999D9DDA197AF65CE3EA575CAE80E705E4226B530A3D25307C1DF500BD985516B8CFF45834CF3457690606074B226AC3B248CF65227549B51EE20
311
774E7AC8C41C3F1D3871970BCF79F091E11EF9CAC5834F32C7F9C663340435EE523546377553D2027BA9AEA439D547D41CDB011D70FB8A4E78C068E8096EEAFE40EA6B4F8B2466D4ABE567BAB0927B390223256E50D922727A2BCB7395DE3B2D129351E76DBC791F9AAE03E6EF61F9D05CCDB4D8BA7F5CC33AFEEF1A94F615
311
D95D37850386E392CF06A3454A29966784B1A644D937504B0304140006080800CF031D4BFE6508CD0D010000B10100005C00000033383230303642312D454444382D344434312D414439462D3733304338463538384633342F5265736F75726365732F36393835374142382D463238362D344331302D393545422D41303841
311
31423243394438352F636F72652E786D6C8550CB6EC32010FC156BEFD840FCC01526B2E3F40B7AEA0DD9244589C13250F5F30B892BB5A74A2BED6A98D961871FBF967BF6A936A7ADE980E4183265263B6B73ED20F80B62901D05DFACF5BF689019B9A80E120C825F371BD61D9AACF1CA24D4D859EDA0744E79C8A67B1C3A70
311
D3875A642E838F0C77CB5739DDE455E5247FF2040F41CFBB54CF719BBE68B581381D7ADAB475859A8A8DA824EC8C5A3212340E9434F550D2BA1F7891C4827BBDFCB84F9B925ECD2028260DC20CD1F60DE39743AA775E24A6E0CE6FF1E6DD345D07A26E59D5F40343AF94D5A83C118CDAEA3CA01EB39E0CF4D48EACE2C553F8
311
C730ACF3FF86411B7FA0BBE153E14090F8FFC783E0450A30B647BAB1A7B0C537504B0304140006080800CF031D4B4144DE65F9000000960100003700000033383230303642312D454444382D344434312D414439462D3733304338463538384633342F5265736F75726365732F636F72652E786D6C8550CB6E833010FC15B4
311
7703860448651C85D21FA87AEACD321B6A25D8C88FAA9F5F3B50A93D55B2B4D6ECCCECEEB0F3D772CF3ED13A65740F342F21432DCDA4F4DC43F057D24176E6CC1AE37FD120D362C11E120C9CCDD6847587A4D11E7542B59970078573E82193F7F8E9C1C90F5C442E828F0C77CB57216F62C69CE61B8FB310D4B44BD514DDD4
311
55A105FE5C5FAAF6D41C497BEC4672A0DD0B39D1919271A868DB0C87AAB90CAC4862CEBC5A7EA64B8BC2E304BC2A694BCA8E54A7B7B27CAAD37B67456272E6BC8D37EF43D375C05FD19960253A566CDD3FAE619DFE770D4AFBBADA5D3785034EE3928F0667454A29964784B1A644F937504B0304140006080800CF031D4B68
311
E73E96F7000000940100003500000033383230303642312D454444382D344434312D414439462D3733304338463538384633342F536368656D61732F636F72652E786D6C8550CB6E833010FC15B4770336098FCA380AA55FD09E7AB38C43AD041BF951F5F36B0395DA53254B6BCDCECCEE0EBD7C2D8FEC535AA78CEE01E725
311
64520B33293DF710FC0DB5905D18B5C6F85F34C8345F640F090646676BC27A40C2682F7542B599E40172E7A4874C3CE2A707273EE4C2731E7C64B87BBE7271E7B3CC71BEF3180D414D87544DD14DDD94B4C09EAB2B69BAFA8C9A733BA2136E5F5087478CC681E0A61E4EA4BE0EB4486246BD5A7EA60B2BB997133052E20695
311
2D22DD5B593E55E9BDD322311975DEC69B8FA1E93A60AFDB9E8E167BEF8F6758A7FF3D83D2BE2287E7AE70C0705C716B305AA48C62D9028C35E5C9BE01504B0304140006080800CF031D4B47DFDF3200010000D70100002D00000033383230303642312D454444382D344434312D414439462D373330433846353838463334
311
2F636F72652E786D6C9591DD4EC42010855FA5997B5AFAB32E6B281BB5EE1378E51D96D94A760B0D3FC6C7176C8D7AA70909E4F09D8133C38FEFF3B57843E7B5353DD4258502CD689536530F319C0983E228B8B336FCC0A03072C61EB20C824FCEC66593466B029AAC1AAB7013A5F718A018AFE9D0831F5F7196A58C2111FE
311
522E72BCC809CBBA5C39C1839EBFACA3431950816868BD279491E6F044E96D9BD733AF322978D426B4CDF618CE2FA80ABB841409C48E57EB6DA2A2561BA355FAA33E6B74205AD6507A735F93C76160A41BBA9ADC0D8713D9B7F4819D768C9DDA2E154966C17D70A9335B91DC83BFDA57E3AF647151FF4CB63A3C88FA3B5495
311
DB2C78F53983B4E791880F504B0304140006080800CF031D4B369BD87307010000B201000008000000636F72652E786D6C8D50D16E842010FC15B2EF28E89D7A0D72396BFFA04F7DA3C259720A46F0D2FE7DE1A449FBD68464C9CCECCEECB2F3E73CA1BB5A9DB6A6059A1140CA0C566A33B6B0F92B6E009D395BADF5BF6480
311
8C98550B1106CEC6D56E4B82066BBC32113556AA040AE79407344CE1D3821B3ED42C32B1F9A070B76C11C34D8C2AA3D9AEE3CCEBF9A7755895F04A022F08AD316970717A25E4A98CEF8DE551C9D9B66999ACB40CEEFAAAD50AFCB9BC14F5A93AE2FAD8F4F8409B177CA23DC57D57D0BAEA0E4575E9581E9B39737E0D3BA721
311
21A7474EDCA32FCB778AB3776BA72408A124B266FA024E581E893FA1B745FE23B436BE2CD2C0BDC301A721D08308C6F182A13CCE1B6ABC36FF06504B01021400140006080800CF031D4B1E494B0FDB000000200100004F000000000000000000000000000000000033383230303642312D454444382D344434312D41443946
311
2D3733304338463538384633342F4173736574446174612F446566696E6974696F6E4974657261746F7250726F706572746965732E62696E504B01021400140006080800CF031D4BF09D40F1EC0000003002000045000000000000000000000000004801000033383230303642312D454444382D344434312D414439462D37
311
33304338463538384633342F4173736574446174612F496E7374616E636550726F706572746965732E62696E504B01021400140006080800CF031D4B88E57597CD3F0000904100006B000000000000000000000000009702000033383230303642312D454444382D344434312D414439462D3733304338463538384633342F
311
5265736F75726365732F36393835374142382D463238362D344331302D393545422D4130384131423243394438352F7468756D626E61696C2F302F67656E657269635F706E67504B01021400140006080800CF031D4B28BB58AF800100009E0500003D00000000000000000000000000ED42000033383230303642312D4544
311
44382D344434312D414439462D3733304338463538384633342F536368656D61732F436F6D6D6F6E536368656D612E786D6C504B01021400140006080800CF031D4B2CCEBD668A040000E01200003E00000000000000000000000000C844000033383230303642312D454444382D344434312D414439462D37333043384635
311
38384633342F536368656D61732F47656E65726963536368656D612E786D6C504B01021400140006080800CF031D4B6180134D5F0100006B0300004500000000000000000000000000AE49000033383230303642312D454444382D344434312D414439462D3733304338463538384633342F536368656D61732F52656E6465
311
724D6174657269616C536368656D612E786D6C504B01021400140006080800CF031D4BFB5D0C8151000000570000004700000000000000000000000000704B000033383230303642312D454444382D344434312D414439462D3733304338463538384633342F4173736574446174612F41737365745461626C654F66436F6E
311
74656E74732E62696E504B01021400140006080800CF031D4BF865834058000000680000004500000000000000000000000000264C000033383230303642312D454444382D344434312D414439462D3733304338463538384633342F4173736574446174612F53747265616D56657273696F6E5461626C652E696E66504B01
311
021400140006080800CF031D4BE398382136010000A20400003600000000000000000000000000E14C000033383230303642312D454444382D344434312D414439462D3733304338463538384633342F4173736574446174612F636E782E786D6C504B01021400140006080800CF031D4BC22DB275E5000000600100006700
311
0000000000000000000000006B4E000033383230303642312D454444382D344434312D414439462D3733304338463538384633342F5265736F75726365732F36393835374142382D463238362D344331302D393545422D4130384131423243394438352F7468756D626E61696C2F302F636E782E786D6C504B010214001400
311
06080800CF031D4BA233C2345D000000800000006500000000000000000000000000D54F000033383230303642312D454444382D344434312D414439462D3733304338463538384633342F5265736F75726365732F36393835374142382D463238362D344331302D393545422D4130384131423243394438352F7468756D62
311
6E61696C2F636E782E786D6C504B01021400140006080800CF031D4BBE89762363000000880000005B00000000000000000000000000B550000033383230303642312D454444382D344434312D414439462D3733304338463538384633342F5265736F75726365732F36393835374142382D463238362D344331302D393545
311
422D4130384131423243394438352F636E782E786D6C504B01021400140006080800CF031D4B46FAF6347E000000A300000036000000000000000000000000009151000033383230303642312D454444382D344434312D414439462D3733304338463538384633342F5265736F75726365732F636E782E786D6C504B010214
311
00140006080800CF031D4BA71F912B090100005503000034000000000000000000000000006352000033383230303642312D454444382D344434312D414439462D3733304338463538384633342F536368656D61732F636E782E786D6C504B01021400140006080800CF031D4BE3603EBE7A000000C20000002C0000000000
311
0000000000000000BE53000033383230303642312D454444382D344434312D414439462D3733304338463538384633342F636E782E786D6C504B01021400140006080800CF031D4BBDA64A997E000000A3000000070000000000000000000000000082540000636E782E786D6C504B01021400140006080800CF031D4BCA1D
311
F9C9A9000000730100001300000000000000000000000000255500005B436F6E74656E745F54797065735D2E786D6C504B01021400140006080800CF031D4B3DEE336E64000000790000001B00000000000000000000000000FF5500006175746F6465736B2D64657369676E2D7061636B6167652E786D6C504B0102140014
311
0006080800CF031D4BD518B938F80000009601000037000000000000000000000000009C56000033383230303642312D454444382D344434312D414439462D3733304338463538384633342F4173736574446174612F636F72652E786D6C504B01021400140006080800CF031D4B06F09AECF30000008E0100006800000000
311
000000000000000000E957000033383230303642312D454444382D344434312D414439462D3733304338463538384633342F5265736F75726365732F36393835374142382D463238362D344331302D393545422D4130384131423243394438352F7468756D626E61696C2F302F636F72652E786D6C504B0102140014000608
311
0800CF031D4BB5D6883AF90000009601000066000000000000000000000000006259000033383230303642312D454444382D344434312D414439462D3733304338463538384633342F5265736F75726365732F36393835374142382D463238362D344331302D393545422D4130384131423243394438352F7468756D626E61
311
696C2F636F72652E786D6C504B01021400140006080800CF031D4BFE6508CD0D010000B10100005C00000000000000000000000000DF5A000033383230303642312D454444382D344434312D414439462D3733304338463538384633342F5265736F75726365732F36393835374142382D463238362D344331302D39354542
311
2D4130384131423243394438352F636F72652E786D6C504B01021400140006080800CF031D4B4144DE65F9000000960100003700000000000000000000000000665C000033383230303642312D454444382D344434312D414439462D3733304338463538384633342F5265736F75726365732F636F72652E786D6C504B0102
311
1400140006080800CF031D4B68E73E96F7000000940100003500000000000000000000000000B45D000033383230303642312D454444382D344434312D414439462D3733304338463538384633342F536368656D61732F636F72652E786D6C504B01021400140006080800CF031D4B47DFDF3200010000D70100002D000000
311
00000000000000000000FE5E000033383230303642312D454444382D344434312D414439462D3733304338463538384633342F636F72652E786D6C504B01021400140006080800CF031D4B369BD87307010000B2010000080000000000000000000000000049600000636F72652E786D6C504B0506000000001A001A00210B
311
0000766100000000
310
504B0304140006080800CF031D4B000000000000000000000000370000006662782F31314543423039312D343537422D343336422D393142312D4233364641303738414134302F617474726962757465732E62696E504B0304140006080800CF031D4B000000000000000000000000350000006662782F3131454342303931
310
2D343537422D343336422D393142312D4233364641303738414134302F76657274696365732E62696E504B0304140006080800CF031D4BF270F1330600000004000000360000006662782F31314543423039312D343537422D343336422D393142312D4233364641303738414134302F747269616E676C65732E62696E6366
310
60600000504B0304140006080800CF031D4B88E57597CD3F000090410000420000006662782F31314543423039312D343537422D343336422D393142312D4233364641303738414134302F7265736F75726365732F322F305F67656E657269632E706E67355B773CD4FF1FBF73E71C0E67EF7576C9DEF3EC995D46C6A1EC50
310
46649CBDF79E192942562825CE965D8A868C2842C8DE9FDFD1F7E7F138F7078FCF6B3F5FCFD7EBFDFEC41B196891913091804020321D6D7513FC77D8C5070EC3FFEE51B21F068154CC75D455CC028A3EA68992803810109FDDE5D5CEC5521B28A1B422BF80741695D5B529DA1C2D058AD2388BDA9F476F7C2CADC939304173
310
DBF48A452BF8A700C0C70C3D121C1AA15A5270C22E2B9E28763651F7DA0D12CE11077B2ECD0D560B5E3DE2368B1E65C5E1C87384A4CC5F2D9FB8BE39E9B77C753783A37998F5CEF1B4FEE553463245C9712270880DF339E0B882A6BA713D865F6F384C842D440934EF264F4A304F8DE4EEFA1E2BF5E2D91F5ADD9613D6E31D
310
DB33ED31DB1D7916CAF091286EA3D31B9CFECB78BB0060245B943C4C040119FF780A74DD308BA9D028678674EB5504ECF284EE814DAED07440BAF649BE4B55DA2890F4D73E2D489A59EE54FDB0A85B59F2F52C4858A02705C4815A792B0C4A996A2023ECB195073E115E3E3647F64243A8338F2000BCB58DA5692C7E7C3D41
310
3F963FEDF3CF00FBB0F831A9D51360FECA43819F527B89FA260EB63C5DA676830AA3626A3693B23F1A17A0DFFCE3EE164E31B5365EDF0C89EF64D8E38AB0BA9A1117D7C3A0EC44F44F4023095E80BA610DE336D0F99593A88BFC5306E72DF98F7FD132ED95878DF2964EA7E43071359FD83B2BDF9C6B5BDF768F0F3C0FC351
310
199526F53D9460A34511F75D1B63E488178569472C91A94497807A3FD4A390C6558F26D416365C3656DE6E769DA9D8FC73774E1709812842DD8EF96AED1960F79D21B395CDDFE6F92CB4EB962A4668C76990E2EF29798C8941D67DA50F4A5F947872460F1F6FDB794E8A29FD7AC0C0D6E0714339CE258FB17AE8535221E346
310
4A10F29A0BE5EEECEFC5675926A89F49EB14E5711894F6586DB5754EB4D5DA9C6437EBA57DB97A24F8B8A8DB295FFD73266CF57E82694DF5166DDF93573AFE9C9C5EB05F8FEF8E89E0A8917B0B3724DB7BEBB53252581EFC3E38166BA131A3A5B42FE2AD00A769BBFA4458D2DE7822F8C4F63D0B8E21B285AE13325F3410A4
310
35C648C9D91FDEB109E73CEDA7BC796961AF79175E1A3CE4C5E8B0D009B0C9E29EFD98BC8E97554E3D8D838424E270F7685226E5AC268E021EDE3522D583E8F20C0BDE2959EF5BBFEEDAB32FE9A3ED0E39F211A86AA9DEBFC68182EDED132AB8BB794442D2D7EA9F4D8BFF52BC4D55BB165124EE90A42D101E67BBBB292FFB
310
4F66DE5BF2300E44546757DA7CEF8932BFC9F92A0707953491A55C5A5ACEDABD9FA1AEA01BAC3DC5A24E22E7C47213493996EFBC369D086ED9397C9BA6C7F9855C7BD5E15BFC8C53DB3D2A4C5901A57ACD2FBDF4D1676E95338B2C2BCE65FDA4C64F5FEFDC7D9CA5AA1FCF11E193F2FDABF0F4916BF13FB916A224380E6462
310
A9815F2300DC49CC4DF8D055CEF76462F4B7A7ACA7365C2707891370BC1D0AA6203C44CCAB47084FEC057F27FFCD57F89B8B9852459798A675C66BD7CE572CAF71FF7E6D7ECF7BF62CAB7B3F1107DCD04DC55A3F9961700286141C94A4F771FEB2BCDA2DDEE0CB0BAE402FF1DB0100F8E475DFFFC074DDB4498AB7D186A765
310
4DDB1CB680D703D47CEB4E72F8CB13D86A4AA68116E26387B93FD6738779B34FEDB8E517EDF2BAF28D9BE93A1D3A164320E07D42E514725C29515FF361754213EDE06B079A2E99EB1CA82A02019EADEEB87B9AF005BD04BBCECB14AACD6B24EFBE482194A97DD32400685FF1FEF1544D1B14EFB1E7F08E6D2CD2AF52DE757F
310
35F5E62332EE88EA26417AD5C3E0E319D68F25414E6D672BD4522B278C57D18F0113921C71D96527E091F00CEB15AE23D24667369BD3CEFA10C7549D930890BA4366F4EBC55F01F746109F98ABCDD5A3EE06619C6AD78AB33E48E4C9BD21BF7478B385EC05C4F8987E2C1BFA0A60EBEDAA0AE0B015C2720ECE180FB6F2DEFB
310
EB822D96338C9B63822183BBF52FB664A7AE57003AABCE512BF77E7E31BDA2E739AC4C131657DDFE5225E900FB56CC01CDE808FA4A9C9DA16AC679656BB64796283D89812B8F91136AE18EE5EBBAF47A73BE3C153EB5D4CD491B4BFB4FE690A4CF9ABA08C0D8AA64220C438C96EA6CA80B58FE5761E697B3A292EB9FBDA502
310
FA863E49FE694ADDFFF9D62C520BDD1A22014147A0903A05B9B729F54272EF83931FEEC057BFF8C8055C279EAC5C0011804828734024F6CFA319C9CC6867C727184465CD9BB7ED386AFFD96B294A85E3802FAE47244602D8273615952B98C4F23F7EAE4463D9D638EEE374A20959E0FE519C4CFB0FBFE5DD80C2AA3F9DB961
310
D1BDE57E67C9BB47B77FDD74EE3094F5DBBE3EBC1FBDB7393F5116263009E2EFE1AF9A221B2AE234C902BF70E9F280ED23E73908361565964333A3F01D0B006AF32FB21AA1316744B489D5A198E85299241735BE559675130955C902A8ED761FC0DBE337A9F91919AF5CE32AF902ADF9AB2615E00E8A94586BA1A90839B618
310
32FF1BFB76D2EFADE6DB1BA04CCAD3DA649E7E2A0219F592E22F2AD54847EEA8E42271011E9074F8F3DD9FBA6CDF88FFC9FC7E811AD1CA8F4557CE4AFC7BBEDCF0114A48689F20A584520C74DA8127124B767E2FB91A6B186246727BE63C9445BAE02088D58B8EFDC0F1072407CD9B89A13F6303B4A928F593AD489B58E686
310
9325790ADC406036C591729FE14021F94B7796BB11848D463536A092A26F077F94639F7CEEE2A724C66EC885F4A24F8B8A0AC321F8FD149BA529460FAA34E4663C02D41FDF80BCA222D42F0ABFF8490F4FA74C673807C2051D8E467B47B616072860069A9A303ABA9B319D58404461401B0A0F9BE5E1E151C14BC33B32ABE0
310
3DDE91708DFAEB15E7C0D593C86BB7D7EC17BE56E57975F077BFD5525F3A1A361D584A75E08CF29FC7B44B2B3085014F3A5A14517377C3F6B8F37E59514C3B12F8AACDEDDA4DFC49BE5710101534CD6FB6DE15B50F11A09472AABA727F0C49D9CB906B158030065F48EB3625E010CEC1D511D0053474B11E6A4F01C0D6EF1B
310
ED3A944FDEC70E0DDCDC756C86545910E0DAE3BE3AA9A404574C2995CD5CAF9549226BC94B4F4F0F5F9086F418F6B32346464610D8BC7391D3C3A3CCF04CFC1FB2A3A3170E369511868F14EEA4E5E438CC73DB1F3248AA94B6B2FF33B222FF3D1E7BF146CAD229770158063BCE4F5391964DF62F7E52A7BE0EEA829C9E13C4
310
C147D6F93FE59E111DAB5E4594D6F3CD1AD375EE039930EFE5AF2BB2D41C83C7DABD8C659BAFBE8FAB392CA634F3D15C1D945DB4588D2B0824A4EC928AAC565557CA2F0DAA588CA5BE30B3A8004F7BF005E96CBF891D7F18112A3619FDF530DC8AA64954258E1811789B5189B49B4EB53F5F89F7D37523894F3EB57B373763
310
C91E502F52CC99EB7BDDF933FC324C4FFC2561DFFA7339FAFDD0A4BFBE6D3A8FF9ED1FC49898139864602458968913181918F719CCF5A68B2EE9C1FF050E34E63107003B8120FA982C21B30A874E4F5E4B38D5A8290C4B8D9BE48A0BE31EA995BDC37AC6DE90BA17D259DEF53605D55922FEB1855D915B659FBEB350EE0DFB
310
2F9F766E1C84CC8964B75D08667445EAB966015F63A18A9E0A325C1B3DC628C0D3CB60F767FA93CC65F25458BD23C3B312716E5F40E5858AC06EBA9AB14F95DB99147B832069201541D09A0D856E12C629CF32683760EE855537D1901988D5EBC156676C7DD51D7207CF3267AF1D76C2AD867315E44618015313A98B19941C
310
696FED3461CAA9B5415F918556D7802EDACEFD6B2E45853A9735DFC9DBF7E440F9319F8B6805A973BCCDC76C069A9144E51F187EDCC12FC31B5DEAAF0A76137199B106EC84ADA6B6EE697D4E6A96E007417F4E880E8B1E89B4BCE9D81EF611E2ED8F0C1A6C25F620FAFAAB656A7C42D464880E8AFAB0E0FC8EA38CA9A8AEEA
310
EE3E4648BA4680270A89743CDD3E6C6CBF34B7B640EFA285ABC7EA0A1E28F3CC963D114A80123EE66D0AF7D5380EB41909B605AB4765B709B808590458157E69BA1378FEC4B48CAF6A730E3BE3C5EF2DD1A5EAF94B1DDE50CEB55DDFD7EE9A16747FA4B223359FB1FCC69E1194892BABB93A1D5C4E807AC0EA2E30180811E7
310
7A2291F6E7F7FAA5E0F60215BC6024E48DE436C511F0628B8CA189982D4D83CCA17D305A7E923C37941CFDFDCD93ACAF735EF5F0E61BBD3E6C41A59B242790D3A3BAC7064DCD89AA2E37214EC839820949D5CAA31E240D2948E48F690298974A96BA9A8432BC90F5071D6537C9666EA4564796B7AFFFA548077BEEA75F6308
310
3435074BA182F3699557397F71548383FDA8CA34D99B981E72835ECDA5DDDC151315173D05A21F651AAF8524E88209E2E7A737ED1045800CE3390050BCFB8BE588DF111617874C62575039CA588EEFDEFEFE319B739DE2EDC147092A262611E159650E787917885EF08F1F51B8F2D8A71D60B58B190FEF9541A1BE94BC19FE
310
A50784DA1419FE4B0FB51B8D36B5FF8E1286FD8AF42B91E59A5F1CC4D60174E764045FD8C57B18209B217F89A62252BD20BE0E63E12B8E8F029FE19E0E8D0870F58721A557082250D5424F7909369376E41666C0EE77CD87CB283F661D5FB6D0DA023CB67320A20DC7BE661E9E1BFE5463085C557DA1FF9BE835733766C3D1
310
39F2CF9E2208873AD0EB4814DE9E6BF2CAF81614D4D43906ED1C05A3265CABBFE192770FC2F64F940CB6B17B5F166F133C9AEEAD2641807C3E69515171DD74C4A85311513D6EC9530B3B601B6BA3EBFF3B5C3D2F7D69765141E345F75433953D013ADDF8F6AA7DC3F4A7563FE5C7D367937E2900D7EAD0F9FC9A4A1A9B5BDF
310
1FEF08532660C01C5D6DE22199AA774383E306DAB87E301ABB7D213887F9869D4942D0D71E94B27EDF216A318BD488D45DF84529EF575AF3C3938C0AAA0215B01994153E2054A0B894DA5C784980633AAD48576957CF4AEAEAFADC7C587368551C73DBE1E57C58AC713303A8BFC258BD04B51724459FF9E24C03A81E0E0679
310
CEB9B348C0DC998FEB9C6D6EFA77D247CC8F92D3848599ED89A23218D0636465AD1CEEB7DC140D7426F83491C4E8E8281C2FB35240918FFECE880CA2A42D70E8B20B34DF5221C7DB0CF90ECCB9C745B37A47E9B716FF7A97B7A252C1F3814DC7B1E1A7F72B8751D524EF7CAE45B0C73B3BE7D08ED39781B380DDFC9AA4A474
310
9C9493DB5BAD07A6EA6C092FBD0E85DB004DF06B8C9D3089C5320187E4CE1846158C7EA7DDAE8AD9AFFF21AA3A1026BB06A259845E8232DEE62811A4DA9CEAB3A4887320B76E2AE5615EAB7BDF738CBDD01F1E64064BC13D9EC53576751CA8CACD58B3CEB0E6CA585BD089B2A59B9FC101403387AADBDBE70586B93D64BF3A
310
D4453EF9C3B6A93817E8346991798601344F79A83C51F3D50F7BF2683A3605F51A72449489E0EE6169C749C60B1035651103AEE24D24E51A759C840DD3FC6504DA6FE107510E447B43461C79D22970B75DE5E1BD3007D1AFC619A4A4A69B5626AF5E9B8374E20677F77E2F8E73DF868E8BEC7EBA7B6A75EEF7205E1AB9486C
310
B642741D6E03FF13FCCEDB1C4AC129886268B01CDF4B124AF797CF784F3C6DEC97A17D4B558070A0F1C04DA4FF9BDBF34159AEFE958479824B3F58EBD1E19088A2AFDE501B6F2052368A3FD0E650A179EFAB1561E1D27527077136E652676C3670F42DCB3352F48F6BC86D2C3B0051727E41A0A4DC6CE2BE9D47F5CAA2935A
310
3C0539AF080665997194ABECD723B08129CC5B6B21D2E7D54CD4D12610E7E9FB8306771A89576C7A982002775ED44F3F744CF21EEBB27A631671D921938AAEE3EB0D19CD1E083727F607823E817BF599DCED5394E37EEBC2E88782E638920CA641EF74D4CDFCDEF06F4278ECB18E31E7E9876F2D783C8BF429C75395F57E98
310
C2B495A3DA077EB3AC3C158608B6B57FE3EA48484D9A480096FCEE0DE880950E7E5A5714131C5C41AAA29FD19AE81AC145FA1B9E85C7169A5AB837B213493DF7E9AA4B5FBF9CDEB36EBD21EF1181B7CF7366AB2A951D01E37AF4EB835D1BE8C117CFBE7625D2EBCDB0B20C5A4B45CED0BCDE3EE8DA9DA78C2E21DEAAFFD119
310
7E463C33CC6A80FB785669B856EFF7A8CCCA2841B5A5369173320B1170C368B2748D81062EA0296E5E2D95D7667A4A46D98A6FF475C76AAB0A8C8D45E226FAFC9FE0133EA9F60111F99CA81ACE03A1D14C89E8B0D69079C91464FA1D99E651D0EAF606F345C42A8A1AA9BA391031582B96D5B4176A77AADB01F12FD298A75D
310
EEBB2C82F0B8650E880722F8DDD90C56A7A058E5FDEF1AC93545BA27367C76F5D8F9690CB6F8DAE141EDD7971F0FB548A2AE435F224D6E5954CA155512F7332029D5A1230854B79F258EC5FFDB09F5F6343A8EB193229B7F7E79B3E48F8E183860B38C8269D1B53738FF1E0BACF6AADA6D4869E9DE708E79B5DADCC09B1BC7
310
6F649731CFAF59A83FD8BAE4C749D66FA87A3810D4D62FFE826FA400C0F325D2BC0F3CA35F5847B82A2ACC7961745C823E4D863D54460AF792CE6F79B5C7A33B25C3AEA6CDE15A919B6367D781E9D44F61BF828672594A3E1D9EDD6DF179A81F27EAC05B936575D73E05C209DDD2115CFB705DF9BBF3C911589B3640735E9E
310
618FC9C36A7326C82B2205E244C55D56FDB9D5DC93CE958D4BF8174D2B3DA54CB3C09F2C2A6DFF73D23B2197355761AD421EC581284A7EF8DE2CE3497C0C804D49B41DFD6A7360844E5BEFFB495CFCDB97A4595911CDBA623274CE852B5E278AF0BEB1770E9D37CD977B2766A7DED0E94B840E1E95E8C77DE5CB6354AF7871
310
427C28ADBEEF7BA0A28E19DE9ACD75F379FE373EAE6DDDAE3834692F9C2B03B4FCA8FCA9ABE8EEEBEBB725B88A7C90941E850682CA04061A7DF0CE82ED49BFAFFD42C309818FAE14755CAAE78B0F73243ECCCAD7DF58FCB9CDFAE7A4D3E6671A613639130D056C8383C8F4FCF4808C331E544DD26E4755D09EA05253B3049A
310
1E32587CC25D72E073E2CD96D04A71BBCB0038FEC3F53D254199C3CDC67CD66640269431860225392B2CB3ECD0B4498AAE78BA1994246AE1EE78F2EDFB79F6C6CB6B5E279C4D373FBC21CB2698C9ACBBEB6A4BB6B39E16AB0E421CCBFC7654D81ED86022F9BB522146F9F4772E2D0E4FA70120C95A85A417BF5078B232F475
310
4363EB1750B2AC2148EB46B1EA72AD9B4D23ADCBC589D70106C3EC2ABEEED84DFE28E718C6C83502C28E9FDD3B09DA0A6F6F7B72B706A31C9E2A331EE70DA56A083D2177BFD63C55B11D8D949FAFCF90B23A1E24B9B5018B9A17E99F2890EC302F330FE7936E2C23F0D237EC8916F5166AB84B62A21BB0B950146962D754F9
310
2CC2C8877BED8FC7B7B25726DD19545392570B3A2C66B58F027BEF412E552D12A588C4A3CC5C3193FCB3485EFFF700D0B9EEC077754A33DC1FB9E25AF814628F91DDFECB667D3F7690803F38D13F8AE39353523BB08FC6760144AFA2CE28236F65EDBB3D5F59A57D612B99E3D7E5F8A851666BF9B5A6658EFC96EEB37A378A
310
BB0EB3FDDF1303AF32C41BD1C8560745D7BD81066B0D6313359CF488563D3BA3F8E2185D1FAA3EBA1397C9D0E3DD232180A4DCADB6AF25DB3AC3CC26589C8239E66E81547BC7E2F328F9884764CA37EB5DBE390DFC03A5246B456A7C3684C4377D0EEF9A350680FA9A077E8B2957B489E09AB1AD41316944C2254B5984830F
310
691C93CAA767EECF976FA5647538830B5E63236A6F0365C1E0F3E327F24FE35EDDBD7360B0F7374837409F7A6311BECC12B7026D4FA1AE204FA3F5FE904B1F420C7A9044AE58E403E7C4848E7DA25DC9EDAC79DD756FAA26B9EA83ACE8A214A2612A22AFA19DAE7DBAC5F8CDE1292A485F98DAC731A29FE01A3966E96BCB9F
310
B5A4C8830E1B9AF0C54B87FBE221A097036E5D28D1F869F810C06A9BB0AC0612F69AEBAF893C6E7AD59460208BAB3A6B09CA4F6BDDAB8CF0D1F84B72487498395A70DCD754796E271099A567A55CF242BBED64696378BB6CF25EF0FCDB589F3A82F1116D010A9AB9FA4358809EE0C973A2B4229BAA876A70B03AB49CBA7FBE
310
71DB1832FFD32F9BF2C8E98075CACAFB36921235D0F552B6A67E94E094097A5D7DF681B40623DA535ADA7A9AD8E9A62407D7C9A5AE51D62A17A83A23728DE86BB56115804D3F2675F2C6B87541A0FC497BF0CA86420F558C9859EBE9FAD62747E323E3AADC03FDCDDFE7407B09DA90B44E3185723C5381EAEF589765E2F7A0
310
99BA46695BAD60CEF3491B8A171F5F56444F7CE9455312C3498C74173AEA0214EC029833B34B650CBB5A5508D5091665309642791708ECF27CF11DB3D797D6CFE474453BD4BFADB768094B2147814D81C7CBAF8228DCAF5564B5891F5EF6A860EB2E323CB82AB868D8EA048880D63B0DE5341F1B3D53297B928A11E15F25E5
310
148990F710747C3509ED14909C552EBE3973246FCE55D00564D8310BC3EBC5085D08D806799B77D6C57FDF5E55837F9E934F09C03C729271B64F12D0A9F9E938107CAF7BF1EC8CF1BB9B42363D33070F4CACB425E605DDB0A34A12BB936DE286B9887A4E2E558F0886498BFF49C311D96C277CF6A9FC0D75AD0ECC5226D7E0
310
E3572012E56D7FDE4410CEC7A6D0F997F225A2055B8B92E3956E875AE4993CB3D4C9063AF98FD45E1BAB165640A43439A2C9181A7C355B297C0A0CCFFAE19B6FA3C2BA238A885FBC98B8F6DAF4B94B97304878DF4D8BFF6A4AEDF79E90ED4E68F00CD7299F4E0D83E35601AF0CBEF18C1E870E74758FA91F5131075004DB3C
310
FCF09AE1DABC11957FD9808C92E8A678CE9DBE40DDA0E0D1D505AAFBCBA208232BFB6FB3704E8985E61ADE53DE74152F5C7DE74B1DEDCD37DC3E8FB30D7EBA8B9EFFC3606BF90B8D438279CB7709FC7C00D327F41817EEA71CD9E49FE9C8C9A81C70915D9F0F15958EC5AA4C3BBFAF46986B90F188BDB24B89DE3C6F29EC3E
310
6F66D84856EE96A35E657CA41B41EFD8DBFA16AD6E91439EA92B40B21C053249F51AE50EB0B24C770FFAF40DF12C8436366819C48E36547D4E7B72FE2BBF10828583057814A668BDF183F6B2E58DFB151103E56303E63D00F39C27C4661605DB644D19175D02E3F0241E8FC3458D17AAAADB117CE9EEA690D0DB01E634878C
310
04C2C9310B69FCAB831151E3AD293BEF6E46B0ABCECB50F5939B39C613D41E81FAE8D34CAE3C4566B761D37185FE864AC32FCB71AEF39DAA5BAB88609BB980CD2F07A8F941653B529567726E2B2A58D079DD57E1E5E31426CF184A04D7B03B985F276D47406AF276FE32E3328BA866EB1FD39BEF57863A317634AA5FE46740
310
9B3873F5069EF0D71AF00AD189D17BA1974ECDB2D623E9E14086386A6AAB5807825C37B015BFE892AFD154920EC437EB945D958E18622E1E0FE2FA06557CE4BB9BBD05A2D40E774DA2B65473791E314B7D6C886820B2FCFE4AA272B3B8B15E7344A145E8AF919B5454D89D36D413E87211186BF6F645E5EC94DCCE8E1C7990
310
22E4EC9BC86D7A0F2AFB1FC4B2CE48F84B3F49ECE65BAD24CADCC07EFF39AB06BE9E6B27A059938EA7208838455383DDBCFCD967DDE4650EF92A14FF933C975DB20BD7FEEBC4487576485963D757D16340D9599FEB362F775F38CA4185A86F74B629C81B133644A3B18FD056E997E0734F9BE26D11C0AAFC669E2AC9FC41D2
310
81F8B2E1C35AE27BCE05F3DA295488096688719D974DF1B5D182DB7792288697F8763CFB43562C1CDEE11C4AABD5C22B6E33F6F389CFC3477C5919DC0D533F8A7A1846B7ADB60ABDC26C43D0CFC8910B7C15EE22675BD02702ED39DB77A87A192CA7A543E6205B979B9F5A6B512A3CA799E198B2D5797C0AF8D1D872CA455D
310
4D431A7879D4DD76110B5FF7F4176B54477A9EB5E4A5D11214FDA585F0382751D8E2582BA5D2075053298FEB8F1537304E32CB22C2E2B693DC0A760B1DFCA751BDC445AFDCBB12820ED85F6D5298933C7EF1211E9E057684056CDA3FEF3BB6052355E162DF27C59E965A8DDB7F9437EB72CDDA3A090DE65A5B2F50326247B7
310
EC67B73ACC7047FC9B353D6EE990F772207C6EC52B39DC2F3C0754821DAB559F7C1809C7D0DD5B0499D0442E0A6E391B3D5DB46D11E731E6794EC77523FBDAA242ED67F9FA1FB684255671F63C9BCFE6E7E896D51001A6113EF2298BA494E0B0980D1FA5B9D60796554C02256B1E0345FB7C6186B6A19D2DCA270416262845
310
FA4F42DB5D9B0A0B6F07FCA2E56C242522E001E0CEB734AF310FC8BFB57E38E03AACE93B3326A2197891E68452B26A6307FDABFEE0223D3C03C3C73D2D5BC054C8311F12004CAE488E5C29287F8156A2CAA4AD0D7BE6B97264E4139F437CE73ADF52E5134C52B819777C18B323A5924E4F67AFD13B1CDC3A61793A79FAF5C0
310
CEB718E441071E797C6DCCB9EFCF7E4A1E9F3DF3C2F9C9E8294E9586868788C972857FB0556D7A26941A7EEB9B580AD78EC40B85DC906B4120A563CA3B87797ED612D3B035962BB75F6515A393F4CB057F564CDF54F2E5A024514E6A1F901DB80C7E70B1FC05E356A7E72FABF4775B3E3FB8F70A2A8E7B6A94542BB3041579
310
78CCC999E707A29CC795E67A59CC546A5D47B368954CA7B6E75EC9E1F6FC73CE3B4F71F8CB1A6B15923D61EAAEB14626AAA9D04A26EB9C66CD1BE86CA31A5D8703DE04CD1EBCE4F5CCB62F93909AD11E55799A781A956ED27D3E738F4538CB04ADABC7DAEF20BC35BA6A90BCC1DC61BA05F20D8832FFB9BC9B15E2DB838A0A
310
FBB7E0C82A562127E0446894F427794C3037186F622BF24DE1B00AA10A23BFA47B2A180D6DA5AD6F7326FEB8C100C2D7142EB2A0B2A9D1008A09BA343D70E054AB69E2A7EDB783CBD92537FAF4A44D1296AC2792729104B3276C276C951D0CF3CF3F1E6B017720A7B8505A5FF9589365979678C36F1BAF759EAF57C60F1FF5
310
FE9DCF5F8E764FF25A2D06CF25117A8FED51884C13B2B750DB0E4F5E3D64124FCF11F0AD8F1CC3B3DA4B38ED22BF1CB2585EE6BFEBBA63FBFD44F9537B9B37BDD6B358720F98A8125AED4349CCFEB0E135F19E208A04CA7E2B10711185D72E381F448036EF57C9F874E54A971CA37A639E986AC0226DC5AA00D5B14FEA9192
310
234B3DE617814FC221C92F33F1D392F297731B567FD98FD91D989379AF567A65B8ADF177591DB90FBEA99BF4ED11B16E50A0AB1DBF1156D034BBE04D69D08F939D8E92BF525A1DDAFF80ECBC95D8F45D3FDD289FD23F7D8B452F8EBB34EC082DEEE68E18EDDF072060FAD2AB1504DD4879BF67099FC58F6E9DEFBF645D1633
310
4A3E9A127C6F1AF6132CF287E433B43A0EE93812B4AA0B194E03EE3FF91EF9C6ED0074A2F6EB18A96A7C9890B1FCDA1F2095E944DB911ED54C60DF16FB74C8CE9BDC7C54C4F14078CF73C2FFF1F1BBCCD7CF64F71407EA1683DBC410D226627F66E509060D5C0AFD611DE681D509DB8DD12FB1265B03C6F5C55FF4C30BD941
310
87FF692B4F152982502F193098A789526A038AB529A52BC0DC4FB6285CBAC10A8B8DB75DCD9BDABBB221E27D1F8DA9F5EE5926A1C8AA9BA9BC09239C6A7F12914EA3B59EFF7AAEC3FFCCE56F1C5C2980AD072793527565E774F4631DB178CEEC691B1F367BEA0CF2907E1D6B854D527065979DDEF002D8B2ACEA7CE21AE297
310
737EDE1D45B31233B73FEA35BCFDD0B09721FDBAF6432681F2FD10C3E9EFB246FD6E854B344ACC9D8A0EEF876A7314B49B6A499FC650B099D650DBFEC7638ADFD245E2B7839DA5AC5F7D5623FC0ECEEC8653FC9B2BDD1AD4D00A566FBA7186DD3C9CD26512551637498CADB950FEC71ADB9A5524285DE328B8EC7EC75D2345
310
AEC6A27C42AF6D9B92155315C80DBFCABBB7DA0FAE425C4FB896B15C9BFAC4FE67DF5A23D30C93DA4D8F36FB15D100050DA6062E22AEC5F4DAC4F6FEEF97AE05DE63C6D38F9E068A20BC5E3B6BCD75320C5090924E7F93640A7735B1A43451C2D91EE62C6238B797349E59890AF3A520DF4A87095F3ABEC2E61F0593416CE4
310
6CDCBE0E00E2523FCCD04408588B5B6C9DB6459C786CE378770B54F51DA3A5E1DF2A3349BEAAC234A6CF8993B598B3B25B4B113E353A4D750FA7534749430F3EBF2512E7EA3FD43C6AB9A1F765A58463B306721A15D224FAFE8C6F5E3432D57EE697DA0DD5A9D4866A8BCCAAA9DFF1F06047851408FEC060471D0E3EB86BFA
310
F46E4B5E60311DC3E3CEA147C75CF971BE74689507154FF2D2E92F15CDB2B9182B11459FD8ACAC5A85F174BC94A7F4EE4C4F5CAFA7C02E37BF0BC77B7DCD0C047BC316F562A01A441AFA7931CC84A28CB9F4AA367EB515778F29BFE61195FA671F4352E5E46E3A64773F1F76EE5EB36D7BCE9BCEAD837A4D77F8DB8C92AEEF
310
6711920D7C7D0F76B0FD0EB7AB83724CD35BCA7D36DDDF5FBB7FF6F04A91F3E2BB3B8F1A43CD659639507FF6331C5F697BCC782AE57D757A27D97F1AB9E0AEDB43F92F1B2AACDF5FEC8ADBAF9F814E2027003BA2F9E144B1938A7A04050AE5D953B82C45619165C813A10E76DD6906B3C16438064D14CDA713AEC420034613
310
E1AC7241904A49FBF87409AFB1FCB9B72FE7933A87D8FBEDACECE4EDCF6A4FE9FB94D5DEB74FAB7CFEAE17EE965DF980DCCA2D04134994F9A2E94D2265DA4FE6AA7B7AC15FACAC2B5ABBCD7DFF542C5314FDAB2E1B9D8B65220B8E2B638BE008E8DCA22678C820C5053664D15E89F2D735B51A84955E81A443545E9FF787BE
310
0FA700A76D136C27DA179A7C6E8939E01BE756E19CB292798063D8B97F44E8A27BCF3A614FEB8BE974A718E86F7EC99B53CA35FA24F61F2B07266684623A3D4CF073E511F3A10A8FDAFAF0078C577F4DF9D339FE7862E5FA47CF4344209E5BF76D783B1B48E152AD281B15FCB934DCDA49CEC5706B1EE8B460F435324A5CAD
310
154725E21AB8044B75A557A79F6C807B9340AA3D92503E866F4274412926C8C504E4D5EF8C0E68DD0B028781A6B4054F11CF18941F101C57CCC796773ABC8DED9CD91FE5788806C05E548895354AEAC96546D55B0E94A59F148D061F42AA398D822CDECA4CDE79E13469BDCC44FDC990F366BA5978C15F97ED80CBFD73B0CD
310
9B8B83A4F6845BDFBFAF034019473FB9A63BD55D3A4A7284757071574029A4D016DCCBE95DD679EF3C4880BF169422F8C89B68A988D2B13793CAED4F74DE7486C72DC94DF46B8E93D8E02EFCB1FF9B3BA10C8AE7F653DF94F4AF466CDDCEF5776687F7C4C14B63E4EED1719DC2EC482D7DBCC7AE518CDE3D5FF86D39000EC3
310
673C0044E1D308BF05F74D1B5F033A7D1BE7F74BC55BBE3E4A20F920946CA0271EB17BD2B80E5660ACB8A29A79F5E4BBA49D4D945B6EEF4A7EFEAA65E5555BBB57A7E15D2F83C69F30BBB978D2B39F1F26FC097424D39BB33CA3D87ABF64E307938B685BAD44F71556A30B7E712CA4FE600613C3E554B69ADE949A7CFE214D
310
F1FFF05CB82151EC6FC31950239F94CF7AD39DC473F6EA356E5EC2C4EFA04383CEFE985A127484366FBEE3C0EC4FEA363E4F6632AE781392FD45D67B63FB8DF70E82734F431FD3443172A0E30A83D60982D55FA6A2CF86DBA8382502ACC6CDEF3B907982EED1160E14863FA242F9757347E1544275CCDCF71ECD5F8621CBEA
310
326B8BA884AD7F825781923E66971F04010D574C541D8427A438A37EEF8AF88240EED7362C953F5A81DE2D56109CDE2524EA0F5D2F87308C0C47BD97AD605878AB8589E17CA83930CB5E0DCCD75853D68B1AB136594926DE426C367428E9334AFAFF90ECE221BB5DC9E5BB53D2CDEF954EAA9CD814F0E5725F1965DD458E5F
310
8487683AD86B9D0076BE3EE91EB1CECC5331A67A3F79D8B27587C12EC2A6A70474749F27B4C0BBAFB94B34189E88DC18964BE4121B9137FD516C7755356E50D6714E31ACD222621EBBCD1CFF81D87479056A9DA0E0B8EA19D24CF937DA89F78E8650CCBDC110AAB6C4E46DCBFD0446BA9E2060E81F314AC2031E88135E5476
310
AC0160EF5C0DD2EEF1B8B5CB2D198BE9A554A9093B5F7D7E4B5407DDFCA1D9C152FD97F55BFFFDFE802954DFEC8995B983E28AC92F1971E28F531DC407A1280EB125F64A72E617EFB27DFBCEDCDA2D6F2BDADA36873EE46B9BE1782998C63DA7182BC383FB6FD15DA472B175D7E8B4FC88F38D6E07FEAA3FA3CBB8F6B449EC
310
F14D2175E5C5CCA3A42ABF24CA6C9395AF74535F4DDB38CB84F56614B0FD32D7E19CA5CF988DB4449C40E23DF2B16772594554579094450F56F253CD25EA7F77366FB1CFE79696C428BB64D5A41E986189427E5E4D7E2DAE3D5BB4972B3DC44EAABDDDD63A2264ECFA5C786EB0EE1FDC5BE34FA0F08376869FD1E61EA06CAE
310
15191135445EE8F0394161C3266A596AA035572BB0C8876180D8B9C77D307DF9DCDF7365ABDA6F3A2366436457A4DFC1F259666569A9E4A79C817BDD5610E5200FCE894A358EC72858D50EF67545DA81C6FACE3D457BAF70367E1E6BDD9A952FB4F56247F58F523B97E640246051A72F79BE42FFA0B3187F63097F91C48B86
310
8586F714B0EBD5A00A8412C1236E1298F60C72BE6C96B82B404CADAA304AE9F303176B14BA53FBC2D5E86377E35542019E24D97B96A49B2C0E5006E7795954DEAF5DA58958839043C6C70BD3B1B33B6DC5C31316D8A6923F142E26F6711A2258AF977DDF1F970ECC4F1F2B434B96D81BEB6E89BF3BBB3C7C8CC80505070723
310
D6D7D7D3C8CA27CA164A26024FED94B12A86031867241DA53D929636DA600F050BC40CE48B8BA03D69224720DEE2ED2127390BDF5E6EA64527BBD4C4C63FA76BB801FEEC0E61218EC98A8A86CD8313781617877E66692839B9468CF4DB8E50A73986E558E309C0D6F676F921BE02F1185454DC75B111572FF9D27D85EA14C0
310
5AD7271225B391C4275659CA4A43759D0BA44639BE4C30A84DB7F67A41399FB95CBF923B1B1672ABC807C1590557FB18D811983FA97F5E609516D62281D38B1281F68FC75528C35E4CD7DF0F7DBB5E5DD69C414EBEA2F4A5B241B996BA77AE6C772E367408C633EA3E438B68563EA8BE7667F3A4C4FDEEA52ABD78A2820F44
310
3B7914A15F180018D231E64519C56A12F6CA7C8DAE18F06F6B769DBF92329EF6A5D18FBCE600F36BD8E8198DE5CDAA96181F3A756EBA5501CEE58F497EA4F418A2B82565B9BCC611713C0B708CCA1F398B78C5F7D03B3437CC18F13061F55C7BEDADD5ACB1DB0E36D3CE47FF6EA1A563A57E9649EA5D14D1A50EAA45746338
310
1C073777EF1600607BAF6428A7DDC079D47A204EF1E1F1F0589FB054D45E02CE623B3823C317C601E589E22B1E88B448524B86A82828E32345EC18AE17214B42F8C41C6D428016D9BA31DDCB47572561E5A402E5BA4FCE55F78AF7268524AA04130F3A20BA5D1E9F9948EA48FC8F5314FDB35E21898198060034ACE5E3E2BB
310
CA34092518F275190AF65F45867FF0900AA4B81F25427414C372BF51DC29AA855C5428EE1EEDD6B849AD60F6E73475C2D2523F8A2772C840A478DED18A8C5C91B085F255DC4F54EA7AA8947354FD17ECF8FB3B4A0DE7B483CAF3A1165EE05BBA413E5C1FEF3DE1D6B8F2F3F3251C17D9FCAB48A9AAF63AC773A0E413BBC46A
310
9ADF84A566FC920E4D8C52C9769EE3301CADEEEDD92B312E02E2A7E35B7F1E7D203FE5A7D75578B06E99D0E46FFADB8FDA17ED8880390DA29094202D6F645F76F6F96409CDA05495A96E84B04A00D1A6C6C81D7F3DE9376E828CCF144EE50E364ACCE7237EA0BFB5607ED1AC3CFE73794E5B61739D14DF1743441B1AC98F00
310
ECEDE9E7301FA29755FBEFA68C91EF2B314CF510537EF1ABFC9A762496280B546F5EDAAF8A5B387D469FC9A878A92828C88608453ACEC6094DCA54111E7AD5B2663DFE2DD151B7F123B9F4FEF8EE36AB125FD7AD52A59B1B765B3E3F73E3F73DEA93875004D2AFFE3CDE9493B87A9904DD052028949041A91DC0E1BA47BA71
310
4343FD5B25E0A6A09503AFC17C790058A836A324FE31D7893512E28230332F153181C1E018E1124EBE1BA262AA428A518237D1EA7275E48C5C561BD19ED6912EDD8367DA0F31E40EEAE9683DA9257525AEA7B632B97119E17145A90231768A4F3B9120FF32E8319B015E3CBE26F1A754177D8185345817C096B0CE443A955D
310
13AC15E1FB5DEEA0239EC32A3C92241A237B0B02FFCB4F93CF2B02570C8D192E2F2A68CEEB42F12E6F8CEEFF46C251E22B4341C56FB08CCE550E7A9D6F4D6564B9EA52A83D5BF2C6E03FA19D2775E15A8A7ACF30A13C259EE7F5EF2AC3BA354F1500E1A07FC63FB4686E2F12EC69719F9ECF5FE3F35598DF2CE944008CE78F
310
0911BA5BE5D0A34E0098FF038669C26030BA9B300303039852A8F6F496341737CA7E0D2E3AAA36DE0A70AA7D9CA0D54D9AD84B18A44C9E625475E1C97B93BEBB38DCE7D227E67A2D00F531436136355F243D1FC0D712C5765754FA22FCFFAE97919161F46D6E61ACB37D83777B385889770B50765B127768443A5C4D3A4E35
310
A3151111F146B7CA116F918A049F1C272F2CD7976C69A0068773451659A97E0F4A08FE604C3FF6CE7385DB19F4D3ABC8A0D80DA8A42096AC377DB49382B36E270B6FA7570188B4B7D1DDDDA82ACA487CCA5D38BD3BD039ADBAFA4ACFF27809239B722081E2EB9F145320553D183F28471C388BC8814E5045676767AB58A8E7
310
2D1CED2CA731379515D2E533E4CF0B39DFC625F97AC4836831A4DE330E87A8126FA17EBE583D614E71E22A8DBF2825599743E0640037303E8E1B1E8EA4E1ABFA4F62907B5E4E0E5DCFDAB417C36C6848A2B8D15F1E505434C0707E16B1CFC2A1C36A42BBF55734F8F4301DDC2A5110CEE8C0747F69519265012A2174BF4E95
310
5ECD4FDE095A3ABC70536B7AD0B9D7892F81287D667C108703C9B66A221E9A0929D030008F77FF6F5D2108EF5706FC87A3069B976F7C9FC3239D13D283CDEA83597461079FEEE049B0F392889898B7D87D31F8D60ED7B56B91823A8E4EDDB36C6172ECEE42BD42B12CD67994FA0F0DFAE9389356F4CD4425A4B8AA55CBF7EC
310
D585C6A2C2316791E43D5C06841ADBB226A87FD61515FFBB0167B74E56BD7F3E90A57A97FEDCBDF483A0D6699A8C0849CAEB4947FAA90D8E332D9DEBD9F4738C37DA0CAF9CF3DAA68BCB67C420459C7A64498D6E848E5CADE92BB6901F607AA331104A67F7CD650EE169B1DAE94D2C31C2F993632259B6957E246EFE4C5481
310
107B07118607700040E5812A2A2A38DA0076875258C753F60E0F2662C748EDD5F3F3686B8FC3BD6FE631ECCAA1E8B1C1E565AD117E54893E79F4672E32F9E46B2A183DFDCF3EECB4D4D077DBEA0DA254D256045109670050129E9B9B1A9E4A11344D61497A992778095151510C4BB7EF2009B63AA4360635312E4CF668B7E0
310
D3D85A8688E2BD83B569439892ADB63461930D428E0DE42E4AC57CE48DA5CC1449530D8BD3D6A0F08DF20C8E8F570F2CFFFCEA286E30969B4654D498A58D9DA782E19FE3F002181838925592C4A1EF0B332D88B61A92C644547BED490D3A42CFFAB70E36D961F694F6307F72FF15A1C79D5B1B5CEFD353D9E2B52566DEC8F8
310
F09CB3E8359C0F68EBBB7898243E34E12A015B2685AB303C04D3A9E00671FF3DFF0A184E4A2ABEB2B666AF5B3A209C73D8EF29DCDB069C9F391EEE9DD0F74C7BCDE16F8F02E3B8816122BBEB50665775B600549D8BB33A54A6BF940C028118BC6878C79958D6784F9DEAA6E26748386FFAF8D0D0101E2847B6563F5D8DC1D7
310
8F787BE00E2C941AE12148D4A81599FE8F68D4DA5CDED75530ADE138240300EE13B0FC13A1687FED6774662C05A2B7DFB186732F0D7A93545D8B0A6390AE5054D9CB582DA846D7A061B3358B45E2B52DDE63E114397EDB7E09233A579155D795BE76102CF277F4DF8B188C4F2879BEAE3C08347124BF9ED23B128259FE107D
310
31E34A652F090B30B39E0D9AF917B76A2806135621A8A60681F16AF216514BBD02711585B5B1AE823F4B2D0369EA5B6BCB863072727FFC871CA6C9AB79A814D989057E9470A3D238BC87CBB4A0EA49AFE2B86F22E499793CAA9047080450166BDC357524561E258C77CB697F1ABB32562CF87C3B7AA12F911EF19FB3E5C022
310
22E887D08202A60A17151F5E053A86B437771088B4FEE14D652C43E8D939995D34545E12E2FF93D4E366EAD25F10CB7DED141563C3D0C447AF06078A91135FD4B9611583CB4BF3BD167F2399CEAB0E0100F8FFC305F00F1711717173138B4B48C83022295DE657EFEDD97F238ECA80F528AFB4F8D67AD4E2594B9A3AA86D74
310
87EFC313BA95745C186F0CDD84CC12DC9CB0424B42203D351FD9C0A3AF10CC7F388E0329279087386421F194F4A29464C1DEF7EF8BE515E4A199DCD5B909342598D8FE6A231F71336248D5CEC5454455C7BE383B3BC7B260FED27F703FDC39A170F3827239102F59D4DEE7FEF82EAA1A5E4BA94DCC4CC44E7E2EDE20F24244
310
E4454369D2E87C3F823F193FD4FD27E1C23984B01898D15ABC20711A8A558054951A6AE280096BA36CBA439603B7B0B4C45F248C14B2383B4B5CD8ECECE4FF859AD4A6CA2326D020EF090F4041D28DB66E5256B56232CC52829DE8060BAE6BBF37D4B7469B822454FE93210A3E8D15E69FFCF01123222611C51C4FD0A041A0
310
CFA2471CF6BE38D2B20FA4C3525B5B8B586759475CF80ADFE67A284AC24651E52B8E683D24C2622642F27E7C3C22783BCF63648BC398BD6CD0D9C97E7E7E3EACB6126DB7A6C1FD9F1031302EE67ED96F22B77C7CA0239BB324207559B105E4693EB26EC46182A92C9C0DBD24F29B31C5C5AC1F84300E0E17CEEAC15F5736FA
310
4A98971E2F1423BFCD68D4BBD5F86E74B40A369F39507C88FCDB35D2DD8DEBEA4AF999E23CF2816D204200DF6E611781B9884C1AC8888B4DE397320472959434323A5A36B22A8E1F721A270DF3BD65E4A31C11FF048AFB0D8B7B6881423793963A23CFCE935FC189ED36FAE35C46DA3574C979E4394BE52084F3081837BE03
310
3396D2EBD80F1F691B273F660D2B32FA27A33B1DE4ADA5F0FA4651511102DFA410DDA86E065272CA314D5249DF91B06BB92807B28EFD54F08F7B525252782CD276DD02E6B0319B13DF87B1F6361AD6B28FC0D711CF445429B9E5A433CD493051C49A9E03DDB1B147D880253514A5DED88009018620EE229101C041950E2D8A
310
A8E1F5F5438E0C0C0C60EEDEE9E3E0C051948C69F84BB7B2A48A1F3C8EB9E6864687F4F4F6F6E2FA87608ADAF9C5E117B7C1A737E710769DA1D15ECE6A84502AA855398712D5FB51BE92E4EF824969CE18278798AC303C2C7980DD2500ADF8FB1E6D6C2FAAFF9987178923334A244758BAA01A9A1B70FA5097D01E1CC2A58D
310
AD0EC94CE6430AA9B0C10D75E3C6BAC670EFBADEE1607739CE0FC18A2587E3EC3058562014C64219C69BC269082D5C2F4A659278D585755912176D78A1B641719C2A394CED495A1AC5D583FD2F5EDD93308EA7EAE8A6DD396598BDBD3D4CFED62D18A5BDFDE0DD5C80D1A89BA62697B131AE7CE9A6594138582F1B37D68F17
310
49AC7CB67A70695D48A4A056AC1FBD4E82358CEAE38F54B95A9016F9000F9879C0D9D131768635CA798895F27D6F1614F11F2838A83611AA51C9A3DDB539D42979C29F10465655C17BEC3E2760B80DCBF609198C7B171A531905F3EC218D696025975E986C6B4C666666787271F202805577DD5A3EF0CAFAF91B62DC4B2DB4
310
217A7606282F31D8DDBC290593BAA93EA6353AFA9939B877978481E15CFC9F2755CDC00C538F63A4BA3E80AE009B73CA0185687D339A507D165B74290D6EE46D5C58148F020C3668ABE9EF2F7549170DC80DB41FFC1D678FF19AEB10C7133832B104B80F691B3138F97A92D26E551F1F110400D45AC71A9B9AC41A1A1B1DAE
310
ED0B0810638EFFB511D46B121C6FEA0F38CD00E03CFFEB9713FE1F9C263E4DDEC160D0497FA9A132BA608584057FB15380825DE6C7FC3C667EE947D488A09898D8E939C4953BF4EC9836344D2CC6B2971B2A21A572B06096F4982D2CC7232D46E8EA69DC83722E267754D777F97F96D5DA74E1E75178084D0E70F12AD33E5F
310
71EF2AFA599B2BEBF60A5BE475F444F240CBFE8143C334E7ED9150FEEFEF7EB020C4DBED388DD1D6A167A76F3CBF119B578AE8CFA7736ACAFA4440A1C47185638A0D2F3EB5BDDEFDA958FB13CE4AA4923D5BF840392D45544329525749734866684BF7F8D9D54D892E19BCA9F829A0F8BFCBEEA6CFDFC61D74EA1A645ED7A1
310
FF241739F15694BD835B66FEC5677E40FE69BD3F91AE402F036537218A401CB0828604AD189E575015C6F3F6BBC8AC79CF6C70653847254B31551EFCBEB5978B9DB85D58D0FA41A9DFE9C624834AA04949D24B5AE6D299E072D152D12097920F14AA92C31C3B97E28B6C2E6E9C23D63043ECBBC0A60FDF5BD0C33C127EA8A3
310
308B8B6AFFEB28B4455BF6E7AF4FC6222728357EB8E46E85053E6A8843AB23295BF838ABDA94658FEF3F832F147046B4ACD6F7D48E8FCC9618582961C898D1C7A253C91BFECBDA6BA18A1FCF70755DCCEE2222F41B76D23CA98D0CB3D95F0CF66D57FFF65E2A90F5DF40FC3187621E981BD0BC1D992787212688976B94A8F0
310
C6EF646624B570B78E068826F87CE27041A95C9A4871FF65CC17FCB1639629AD6A9517000D63AC231F3D741CB8430777E7ECF80CE7A3F73C0F162F7E56AA71F4DA80A33CD6ACEE78E2C11FAC03DAFCE929B106F8F6B3ED2DC71FF994BD9CEF4E9A94896EF1B6E2B7B4978168BCF0847A3D2A4F1B0500B926E634B174548E9F
310
BAD27153FB5FC36799B1E6C7C38A94E1F9E996796D7B485E635D5287A2AE76FBD11A341DB3F8F810385BB7296391973DC6C37C452A9305AEBBE0CDB6C566DB59FE60C8E94B1FD090354BF51439FFD1B48D725228FFA88C84F686F547107A7A235665A4593B7C34D748C1AC8D56DD5DA861EEFBADDECBBD65117E65851F9035
310
1AEB65F0EFCFF4BCFEF24CB7A5879699FAC437A7AF9099186CF006BB923A59E37D7A36A29FD8D2CBB914A5E9D0A8FD212FBF796AE9A67958FF1D5D8B85F78F96219D4714EB919929241B6C018AAE0C02069F8D919961EC5DDFBFB7573E3AC8E08BFB7C8534BE6DE045B3CD63DBD71F7638BA2309CAE398EA3A7D8F98BBBC7A
310
EB367EFA5CFA27A9F8F2F52FE878058E6209C026453F8E7E8A237DFC389E9590F6059B397CFD65183BBF936E86896612A5B5FEE49DAC8455D026218AFEBEC12B3523A45B57B82C9C97E02ACFA1184DB18E48CF615DBF39C3CC6F0B4AE6BBEEA2E39D944E290302FA3DE33FA7E40296E2EF7BF1CD855BBECFAD0FD622BEE974
310
6FC4FDFDE545AE6E3BC234CADF83A0FB76DFB145BF3828AE3436368AC24989454F8FF70A177672C711CAA1A76107218CF948CA01F873520E7A2B118EBB161ABAD432932029628B6761590C98AB590C8C8C79798CE9F715BA696E839E9131A4BB68BE923F1747FBFF165331FFDD4D05997ACD168F12CA75348DAC04C7F509FE
310
83898A8B421181AF492861CE81E4A2DD0A30850CFA95E05F097FF70F9E777310D584A75BA7018922E271DAB1D785671157685B7D383D3E074DDB4F1E44EF04B07BAAC75A062077C54B9752C738C9D804D402E02851F3F89605AF189738C18C021D2139EAF72513824E10DDD3047BACC8521ED7E98B257D1166903B1B08FA6F
310
918FD7E162913FEC7D0EF4787E29C35FBA8C6E2C9C20E9AB30AE42CA2A01A090E7D010C1B5BF9CEE2A304BF3A987FB40D836979B79E18D70F257DA61E808472DD85B82761825779D6B90CAEB0F23360C6F80A7D7D77545E95B3DFF0CF96A827F9B5BCECD2C9698718417EF80FEEDEE938AFF55859D0D540B7FE09435583A6F
310
04874A0C7E8CF234DF4879722000167F5872CEC6BF3EF7E5A8CC8121E6A359227C8A29C95212F9F735BC72A887D56B8F309FC525BFB4FD767AAEC4AEFF249CFBBD2DE1AB9969A6155C7D8DABC307E47324C1F916C7BCFF40ABA5644E9FFB9238D19ADADA49D9610F01ABBA57E4DFCBDCCBB2B93C8953206C91DE01B0E2651A
310
6D6C31721915B31F7B7CBCE55466F6D70402788FA91D73BE4ADCBA99A35F17D6B83383704917D6833F0FA3CD45C926ADB8BC17999A4A0AFBCE2541F7B8CF4C2F5FBA611B3E626D64407CB32C122DFF4EF8674D6EDBB86C8F7C6A16D50FA685E2CCA34F8F7D1D8265BB0042E9D7F1F666F7BE5FAA5184DF58E12122A42EF02F
310
461B3F369AC746F96528AD208512AB56844CF75B97F352DF7995024FB02855385854F3798670D01CAC771AC3E1889EC25F61A20C1F8CAB46898817F9C47E2CDA1F286BF2F358298709FE567C91133E2638C8B53975E753EA8BFD3578B5F7186B7BF084EBA3F77BAC3132A5779902EC22AF2D2E79F42D324E083386DAEE9810
310
D1B44A5DAA54513C7A71E52A4AB9257D975B621308FE4D2141CC3DCFE946C154A3C1DFCCA7629EC69ACFA831634ADDA93C0388D2A9A2DDAFCF957C6995BCE7FBB6DC4EBAE79E63EB08E9A25F52F67076F7093CA545CA3053B5BF576DEAD4E0017143C5F759F32B2D6F145B52B67B48909B7C7FCA6586EE385A2189C16932CB
310
6DDFD9152AE317C430492A578ED27B72D85D40C7C93C097939E1B50F4D67F05334FE9DC362C30B7FF561B95259138ECFD9274C8D695C31B14D4EAA9F3D7FA8DDF652F8C5DEFA23284C799B7D94416DEE81E05A866302DC70192A5368EA65E1CED8BF107A1E2D3119A71E85DC1A7B0C1E93274CE04DD0F2ABC8AC7C987FDB00
310
2B6F81757B43502EF7A0D92E416494FAEEA4C9C090CD9557AA4D532F4996A272B94355C5A0E4974EEA9627476F30809B94D8D8D860062E02204643BEC7D0438AF800FC7E2B26955D595421E83C69E1A07E0E3122285835F014AD538188CF9737CE76D464A353FA55A001AB2526B84E985083693BC76FE211CA1D000679C889
310
E3C009832C87E1AC2EDD05C302557422DF0800E316FCAC86978A371F025A6C7DAA9F333E7BD160403A1A06EA75AA9888FF01504B0304140006080800CF031D4B51464CB48900000043010000360000006662782F31314543423039312D343537422D343336422D393142312D4233364641303738414134302F646972656374
310
6F72792E786D6C9D8F310EC2300C45AF127987122606C71DD918B841D4B851A43646695A717C52A85029031293A5A76FBF6FACEF7DA7264E43906840EF0FA03836E242F406C6DCEE4EA06AC22492573150D1F66C60C640E8938CB705396EEDD86DE9B5042FE27813D640EA63BB001C722AF6E55CB61E4863F58284D5D3F53D
310
D715CE1C3985E63FD7F1B7EBDD617E9F1E504B0304140006080800CF031D4B1DA4309B42070000211C0000340000006662782F31314543423039312D343537422D343336422D393142312D4233364641303738414134302F6F626A656374732E786D6CDD59596FDB3810FE2B84F665F74197AFD885E2C2475318DDB4458D2E
310
F64DA065DAE146172829B1F7D7EF90226551916DA50750AC03D80A450D67BEB947DEDB4314A227C2329AC4B7866B39062271906C69BCBF358A7C678E0DF4768A3C9624796D9F81621C915B832F1B536FCF9222954B5BB2C345D85CBD9BFF8DB280C4C4404188B3ECD6C8820712610B1779B225D9A3B5C539B6F6BB83E55AE5
310
469DEC9EE1F4A171548A1989736015D663A0223970F57F41247BEAD97C83B6ADDF6D5BEFC2365B08AE334AE32CC771F082ABC671BD335C358EEBBB83E5BBDE70620E0783BE3918F55C737E375F9AEE4DDF598C168BC9ECDDC440536F932461A58094C45BD0E2D198BA9ECDEF54E24B14DAF80E9238268144B36DC39648BA94
310
644D4C34605D215A4D21A5ACB5857E47E1CF6CEB048AC69286B6124EFDD6AD37D9FC0320645DAC9465845B799633D0B5C4BEF407C7B3CB554D2F344311CE09A3384421DD30CC4041B0B5549046867B0B27853866428B8A5E9D5730ECEBBED4C6E5AE0843EEBFC654789A0FFE48F24C7046FF25ECC47DFD34E009A42D689C8F
310
A5B0F931051213CF168BE5BD7E4FDE2C8144BB10EFC15A404CBEA9DF6BE0B5E0B160B534A61FEE3687358F0FED87A72C4909CBB9E50967967EA73458332D30BE0EA094B8EABA3BA1F205A0FF08C857BC200F34C7E861701828D9198EB35DC222D00E7290E9C09783F8E58B2BCFAE1E9E22A4C5CA739882DBFE204C3531B4B3
310
6B904EBD2730FA84F5A570EB008760D3F734E67E0E8682C2049620DEEF360763BA82600A8BF0140E417AF8F36C7E89E0A7A403F1A6A1A1B6F0DB4151CA619A7E76D2D57BB01946834A559A8CE7F01DFE107C67CBF58775C1763820F7D2B1976447639A43326D6748035D73F9AFAB8FC223E7C73FF1B1EE83DAAE00CED9273C
310
70B4E8652DF582846280159E874BD588957B0AEE1E8638264991C9F5B640152461C2FCCDD12F7DB8F5ACBF94119487490B680D6690DD0346530E8A3195EAAA22A175C2290313C34C9AE0BE54ABBF29A2D4C75152C43CD6BEB4C5261F1068B8290255414D59B6725B45764B77BB2283E8D54A72A101291D5A112E4D7C0081AC
310
8D5F46760C43164D629F4212066F693D413BA002EF32CF1909773E0DC322F277348444E247383D43BFA304F5D4F5488ECF09DBB612D42D4B39A5B2210EB8045681A4D25519F4A54E1979A2BCCE14094DA5036D872C448DE9E04CBEE0A9A20550658CC2CC4793F1F066361F9B77BDF1C81C2C5CC79C0CDFCDCD99339EB9F3DE
310
62B21C83FF4B2B11089CC2553DE1812A799DA3F95FFE50449B18D3106E700A789BBE792BD2E7AD0DB1D176DD778BB93371CDC1F0666E0EFAA3B93971E750B3F5477733E7663C9B0D1C9B912C29584032BB673BBE32C934DE9FE3AA0AA63C6D81FCF02D2185BAE67AB653FA6A0AF3FF0DA2EF9B494153E2AF1A44ABD8D55211
310
760DA2FCD16608C5C123CF517E00655FABFB348268938FB638F7CAB8EC587D477C5C77D27326BDF1645419FBC5402DCEF9EE38D72641008D6791FB498A039AB727D4062E1DE3F4AB728BD5778708D0A9BEAB432EE71979884F23BC27FE0EF336A125305E93A03587EDC324CB684C32D1E6BD28FF1A341DEB144DA52A5B8C90
310
667E4472FC2DF627FA86864D436C0E7D6848733E12B85A1554062D5B90731479FB0B895BC87FF4331CA561D9EA5EC3C0ED296B564D4E9BC571A6F9114F606F3ECE7D674BC4E4E21AF58A7D551FB46AAD497DF2CDE4CFC0A3EA9A9F088F3AA27BE9640DDD09FF8C21A88C866EFF4629E21A56EAA89C37726101AD6770F49F09
310
DD3F742A34BBE9A456B29545754E22E863715EB04EFE3A1A3A2F0E9271A1E110B5935E591C8A064EB570809EE8E0CE95B7B563A00EA5310CBA3A09F2428A561316BA10433D3EBB7A855F5F54769DEA77C7CB9F5E31D79D2F8242AF0B0E502D97E5AC8C3E5A4DDD5A756BF550F68CF30002E95AFC9A73F0882DD99E1A338D5C
310
5B89AEEAD36BD5F38A07D40846B698C7D97B7E117EC1A06A689F335B166D76B9BEE289CD82E9F4890F8D699DD6A7F7EB061558E9FCF4678E11796E5090AB0BDE0D5F20F575756AFA1B14A4445F57171EFF253A0AA5C05A6701E3E02C09294CE5C916ED4902D91BC60E1DBA0D16914C64E55397A25E097478FAA91CAAE67813
310
AA1E2778C030990E652F56043015858C796BC875F41BCC41F928524CA7AC4768C3640C3350C1E8AD01169B53E8B6AC0DCCB3C4F450506FCC2BC1B171BCE7F9BE7CAAFAFFF4D88BEEABDAD305172999E64C50D8A6E24501547DE58DA9F7EDA22B7610CEE17253E49530A78593341204F546A0140EC67E8F12DE03141497E572
310
2DB1476B483B8DE62FDA4149D5CC31DB8BF97ACD2667CBCF361F8DAF3EA1342CF65C9D97BA5F8D92C9BBEEB028A7501E18861433C5BC865CBCB13FB304DE3145E88E8211A0DF0FE3D11FF62289A2242E97EC997C5385D60FF0DE696BAB991FB4F18E3BB4C51440CEF5FD0DCE8885B7D9232C806A19E5C3D11262CD00AA685A
310
3300A511AE0B784CDBBF5A22591BD52624F5B0CBE111437D048EC45FE670B7A96FA84D20C117802B71F374A1163C9BC1147CFA1F504B0304140006080800CF031D4B0F9A1827DF000000550100003C0000006662782F31314543423039312D343537422D343336422D393142312D4233364641303738414134302F7265736F
310
75726365732F322F636E782E786D6C4D90CD6A042110845F45841C479DC9219BE0B82F91532E8BD15E23ABF6E04F48DE3EBA3110105AAA3E9AEA92E7AF18C827E4E231ED746582124806AD4F6EA7AD5E97132567253362FD87519274849D0E992AE932B6634A16AEBA85A1069F6E5314170709B2379723394A4CD0A5ECB498
310
0F889AE956D142B931ABAB662BCB50B065037D45F511E60A934157B0546D627D5AC469D99E5F8578791CEF4DF2412AF98E1826EF53858CC7C3260CF66FEA8984E40350B2653FA9714637FEE2B11E4FF26E2B596AEE1D4CAC7E1F1DF3513BE077E4D755928F23FBB837D0E72844FD00504B0304140006080800CF031D4BFF15
310
A4A45D000000800000003A0000006662782F31314543423039312D343537422D343336422D393142312D4233364641303738414134302F7265736F75726365732F636E782E786D6C4D8B3B0E80201005AF42B6F75B59F0390B113044D83508C6E30BC6C26AF226F3B8BA6360974DA7271430F523308B2B198F9B80925DB700
310
539227A2FCCB80A18E5640D320F996A81C9F32D6E9129A0D1EF74FCE750E6D57BC7165FBCA07504B0304140006080800CF031D4BC29CD7B94001000056050000300000006662782F31314543423039312D343537422D343336422D393142312D4233364641303738414134302F636E782E786D6CCD94C14E032110865F6543
310
E27159B61EAC86A589079FC083F1C6B2D315CBC2060663DF5EA8B4D598460F4D6CC2810C1FC9FF0F3FC357EF93A9DEC007ED6C475ACA480556B941DBB12311D7F592542BC1BD73F8052395951374249789E0A377712EA501D6329A5C35DA6E4A51227ADD4784402A6564081D09EA05264965443740D8D041A2A42DF5105CF4
310
0AD27DD41394FBCA8344188858B0F6A666CB7A71FBC8D8DD755ECFBCC9A4E0BD73A6F0DA2278375F2D9872696B931CC69B0C081EBD2E54F640C4511BEDB5E54D3A173C24BD762C1C6EE7CCCDB3D14A626A54E31402D6090239F1E61316BCC98EBFF97EB87F3A6A48BB417B50E8FCF6DFDAD09E6AC3411A4D89F85B1776E06F
310
E65DFF9A2CFFDFBB9F345C849DCDEE3EB92145F76712529EA41DCD257E8083B4F3E73F0D16D4EA124DEF959DC973B31B81E9E1F344141F504B0304140006080800CF031D4B2200C2067F000000A30000000B0000006662782F636E782E786D6C4D8CCB0AC32014057F45EEDED64B6C1EA08658DAFF088D0952A3C1C6D2CFAF
310
962CBA3A309C19D17F5647DE26BE6CF012F0C48018FF0893F58B84B4CFB405D22B1143D8FF6E40FCB81A090583124B0C693BD064E631B9429DF5CF0322DEAE9A7548F9A5D19457B5A61D6AA4BAAAEF036BDA61E02C1BE7A2E4F9F5F296BCFA02504B0304140006080800CF031D4BA6D797065F000000820000000700000063
310
6E782E786D6C4DCB3B0E80201045D1AD90E9FD7516806B51190811670C8A61F982B1B0BAC9C97B72CA7B1037C6D3332918DA1E04D2CAC69353902EDB8C20262D23F3F59B81A079470595414B17391D1F19B4730A5583A7ED43BBE4025D9592775E5ADFFA01504B0304140006080800CF031D4BECFD112DA800000026010000
310
130000005B436F6E74656E745F54797065735D2E786D6C7D4F4B0EC22010BD0A61DF525D18634ABB506FE00510A79458060253536F2FD89D5197F3FED3F68B9BD80362B21E25DFD40D6780DADF2C1AC9671AAA3D677DD75E9E0112CB5A4C928F44E12044D22338956A1F003333F8E814E5331A1194BE2B0362DB343BA13D12
310
2055543278D79E6050F344ECBC6478EDCD76CE8EABAE5449AE4298AC56946789C28AAFBEABC53F3EAF09A84A1441B91F0101CD4780756578C173A578FFDDBD00504B0304140006080800CF031D4B3DEE336E64000000790000001B0000006175746F6465736B2D64657369676E2D7061636B6167652E786D6C35CBC10E8320
310
0C00D05F21DCA56CA76D41FC96062B120735B69A7DBE268BB7777961F8D5AF396893C2ADB70FE7ADA196782C2DF776D7A97B5933C430F15651E5469C55D70F80A4992A3ADC954792C525AE70A1E4D6AD9816CC044FEFDF01FE3FDE907802504B0304140006080800CF031D4BECA2D6DDF40000008E0100003D000000666278
310
2F31314543423039312D343537422D343336422D393142312D4233364641303738414134302F7265736F75726365732F322F636F72652E786D6C8550CB6EC32010FC156BEFD8F8513BAE3051D2D85FD0536F08888B1283C523EAE71762576A4F9556DAD53033CB0E397E2DF7EC21AD53460F50E61832A9B9114ACF03047F45
310
07C88E945863FC2F1A649A2D7280040325B33561DD216EB4973AA1DA08B983CC39E921E3F7380CE0F8A75C58CE828F0C77CB57C66F6C9679996F3C4A425062972A11DDD455490B746AEBA6C25387DAB76642CDA53FA1BE6B5ED074EA9AF3388E2DBE4CA448624ABC5A7EB6732B9997026885CB0EE103AAFA778C5FEB541FA4
310
484C4A9CB7F1E67D69BA2ED249B1A17FDCC22AFE770B4AFBBADADD3685035AC6CF3D1F2829523AB13DA38B3D2549BF01504B0304140006080800CF031D4B96DC840CF9000000960100003B0000006662782F31314543423039312D343537422D343336422D393142312D4233364641303738414134302F7265736F75726365
310
732F636F72652E786D6C8550CB6E833010FC15B47783791492CA384A1BF8829E7AB3CC865A0936F2A3EAE7D70E546A4F952CAD353B33BB3BECF4B5DCB34FB44E19DD439953C8504B33293DF710FC951C203B71668DF1BF689069B1600F0906CE666BC2BA43D2688F3AA1DA4CB883C239F490C97BFCF4E0E4072E2217C14786
310
BBE5AB903731635EE61B8FB310D4B44BD514DDD455A1053EB67553D1B123ED6B3392E6723C9363D73C91F1DC352FC330B4F432B2228939F36AF9992E2D0A8F13F08A961DA107521DDF287DAED37B67456272E6BC8D37EF43D375C02D3A13AC44C78AADFBC735ACD3FFAE41695F57BBEBA670C0CBB8E4A3C15991528AE51161
310
AC2951FE0D504B0304140006080800CF031D4BC1B020A0F0000000B1010000310000006662782F31314543423039312D343537422D343336422D393142312D4233364641303738414134302F636F72652E786D6C8D50DB6E842014FC15C33B0A6A576D908D36ED17F4A96F04CE5AB22B182E4D3FBFB0DAA47DDB84E4906186
310
9933ECFCBDDE8A2F705E5B33225A125480915669B38C28860BEE5171E6CC591BFED05061C40A23CA30E26C71366E0724AD0960326AAC820314DE434085BCA5CB88BCFC8455942286C4F0D77213F22A162869B9F3380B7AFD954A07228042BC26B4C3A4C7F5F04EC87393CF07AB3293B318B53AACB44AEEFAA2C1214EE9EBCB
310
4C068ADBA76EC66D739AF140678AE7E6F43691AE9FA696B02A8B39F3C1A59D8F4FF2768FCA77E1BFCC71530F64D62634F561B82B7CF24C79EE0F9C55B9C034EEEDA699CBE63F504B0304140006080800CF031D4B29E79FBC53010000DD0200000C0000006662782F636F72652E786D6C8D525D6F832014FD2B867714ADABED
310
8234DD5A7FC19EF646111DA9824130FDF9033FE27C58B768849C7BCFB9F79C884F8FB60906AE7BA1640EE21081804BA64A21EB1C5853C103084E046BA5CC8F361048DAF21C7818105C6B65BB19624A1A2E3D2A55C96790F63D3720608DBBE4A0675FBCA521B5C675F4F7B0A3EC4E6B1EC6E1D447B0B5A29CA9A2746AA2125C
310
0352EC7769828A0CEEDFD302A697E3191EB3F40516E72C7DBB5EAF7B742970E4C9041BD12ED399E6D4F0129004C5194407981C3F107ADDF9F71347BE93E0DE68E7791EEADD0152DD1E389AF08D9EEDCABFF5AC906697CC7A13A3072476EB8D0582239F8F3BC6F0B619BAC12E3F436FCD62E1EEA08133A374EA2AA5B26B69A0
310
8DE54E1A05E383A3A9EA944781DF7492273ACF355C5054D66E356ADCF5668D9FBEDDA9E31A0EE61148A55BDAACCB4D2BAEDF75D0C6D24267AA51FA3FECC5EA1266E47F4CF20D504B0304140006080800CF031D4B8394A1F908010000B201000008000000636F72652E786D6C8D50CB6EC32010FC15B4776CFCA81D4798286D
310
EC2FE8A9376A888B628305386AFFBE10BB527BAB84B46866766776E9E9739ED05D5AA78C6E214B0820A90723941E5B58FD151F009D18B5C6F85F32409ACFB2850803A3A335EBB24383D15EEA886A23E40E72E7A407344CE1D3821B3EE4CC13BEFAA070B764E1C38D8F32C9924DC7A857F34FEB6025F75200CB49566372C079
310
F34AC8B188EF8DA651C9E8BA2AB15B2911DCD555490BACAF8A32277D8DAB97B2C7E5A539E3A62E9F707FAECBE7AEEB2A72E9691A9B1975DE869DF72121A7478EDFA32F4D378AD17763A65D10420964F4F4058CD034127F42AF8BF84768A57D91EF03B70E072C0B811E44308E170CE571DE50E3B5D937504B01021400140006
310
080800CF031D4B0000000000000000000000003700000000000000000000000000000000006662782F31314543423039312D343537422D343336422D393142312D4233364641303738414134302F617474726962757465732E62696E504B01021400140006080800CF031D4B00000000000000000000000035000000000000
310
00000000000000550000006662782F31314543423039312D343537422D343336422D393142312D4233364641303738414134302F76657274696365732E62696E504B01021400140006080800CF031D4BF270F13306000000040000003600000000000000000000000000A80000006662782F31314543423039312D34353742
310
2D343336422D393142312D4233364641303738414134302F747269616E676C65732E62696E504B01021400140006080800CF031D4B88E57597CD3F0000904100004200000000000000000000000000020100006662782F31314543423039312D343537422D343336422D393142312D4233364641303738414134302F726573
310
6F75726365732F322F305F67656E657269632E706E67504B01021400140006080800CF031D4B51464CB4890000004301000036000000000000000000000000002F4100006662782F31314543423039312D343537422D343336422D393142312D4233364641303738414134302F6469726563746F72792E786D6C504B010214
310
00140006080800CF031D4B1DA4309B42070000211C000034000000000000000000000000000C4200006662782F31314543423039312D343537422D343336422D393142312D4233364641303738414134302F6F626A656374732E786D6C504B01021400140006080800CF031D4B0F9A1827DF000000550100003C0000000000
310
0000000000000000A04900006662782F31314543423039312D343537422D343336422D393142312D4233364641303738414134302F7265736F75726365732F322F636E782E786D6C504B01021400140006080800CF031D4BFF15A4A45D000000800000003A00000000000000000000000000D94A00006662782F3131454342
310
3039312D343537422D343336422D393142312D4233364641303738414134302F7265736F75726365732F636E782E786D6C504B01021400140006080800CF031D4BC29CD7B9400100005605000030000000000000000000000000008E4B00006662782F31314543423039312D343537422D343336422D393142312D42333646
310
41303738414134302F636E782E786D6C504B01021400140006080800CF031D4B2200C2067F000000A30000000B000000000000000000000000001C4D00006662782F636E782E786D6C504B01021400140006080800CF031D4BA6D797065F000000820000000700000000000000000000000000C44D0000636E782E786D6C50
310
4B01021400140006080800CF031D4BECFD112DA8000000260100001300000000000000000000000000484E00005B436F6E74656E745F54797065735D2E786D6C504B01021400140006080800CF031D4B3DEE336E64000000790000001B00000000000000000000000000214F00006175746F6465736B2D64657369676E2D70
310
61636B6167652E786D6C504B01021400140006080800CF031D4BECA2D6DDF40000008E0100003D00000000000000000000000000BE4F00006662782F31314543423039312D343537422D343336422D393142312D4233364641303738414134302F7265736F75726365732F322F636F72652E786D6C504B0102140014000608
310
0800CF031D4B96DC840CF9000000960100003B000000000000000000000000000D5100006662782F31314543423039312D343537422D343336422D393142312D4233364641303738414134302F7265736F75726365732F636F72652E786D6C504B01021400140006080800CF031D4BC1B020A0F0000000B101000031000000
310
000000000000000000005F5200006662782F31314543423039312D343537422D343336422D393142312D4233364641303738414134302F636F72652E786D6C504B01021400140006080800CF031D4B29E79FBC53010000DD0200000C000000000000000000000000009E5300006662782F636F72652E786D6C504B01021400
310
140006080800CF031D4B8394A1F908010000B201000008000000000000000000000000001B550000636F72652E786D6C504B050600000000120012002D060000495600000000
  0
XRECORD
  5
17
102
{ACAD_REACTORS
330
12
102
}
330
12
100
AcDbXrecord
280
     1
270
     1
271
     1
  0
XRECORD
  5
16
102
{ACAD_REACTORS
330
12
102
}
330
12
100
AcDbXrecord
280
     1
270
     1
271
     1
  0
XRECORD
  5
18
102
{ACAD_REACTORS
330
12
102
}
330
12
100
AcDbXrecord
280
     1
270
     1
271
     1
  0
XRECORD
  5
15
102
{ACAD_REACTORS
330
12
102
}
330
12
100
AcDbXrecord
280
     1
270
     1
271
     1
  0
XRECORD
  5
24
102
{ACAD_REACTORS
330
22
102
}
330
22
100
AcDbXrecord
280
     1
270
     1
271
     1
  0
XRECORD
  5
23
102
{ACAD_REACTORS
330
22
102
}
330
22
100
AcDbXrecord
280
     1
270
     1
271
     1
  0
XRECORD
  5
27
102
{ACAD_REACTORS
330
22
102
}
330
22
100
AcDbXrecord
280
     1
270
     1
271
     1
  0
XRECORD
  5
26
102
{ACAD_REACTORS
330
22
102
}
330
22
100
AcDbXrecord
280
     1
270
     1
271
     1
  0
XRECORD
  5
28
102
{ACAD_REACTORS
330
22
102
}
330
22
100
AcDbXrecord
280
     1
270
     1
271
     1
  0
XRECORD
  5
25
102
{ACAD_REACTORS
330
22
102
}
330
22
100
AcDbXrecord
280
     1
270
     1
271
     1
  0
XRECORD
  5
A8C
102
{ACAD_REACTORS
330
A8B
102
}
330
A8B
100
AcDbXrecord
280
     1
102
ACAD_ROUNDTRIP_2012_MLEADER_STYLE
298
     1
  0
XRECORD
  5
A8E
102
{ACAD_REACTORS
330
A8D
102
}
330
A8D
100
AcDbXrecord
280
     1
102
DISPLAYNAME
  1
Imperial24
102
FLAGS
 90
        0
  0
CELLSTYLEMAP
  5
A49
102
{ACAD_REACTORS
330
A48
102
}
330
A48
100
AcDbCellStyleMap
 90
        3
300
CELLSTYLE
  1
TABLEFORMAT_BEGIN
 90
        5
170
     1
 91
        0
 92
    32768
 62
   257
 93
        1
300
CONTENTFORMAT
  1
CONTENTFORMAT_BEGIN
 90
        0
 91
        0
 92
      512
 93
        0
300

 40
0.0
140
1.0
 94
        5
 62
     0
340
55
144
0.25
309
CONTENTFORMAT_END
171
     0
 94
        0
309
TABLEFORMAT_END
  1
CELLSTYLE_BEGIN
 90
        1
 91
        1
300
_TITLE
309
CELLSTYLE_END
300
CELLSTYLE
  1
TABLEFORMAT_BEGIN
 90
        5
170
     1
 91
        0
 92
        0
 62
   257
 93
        1
300
CONTENTFORMAT
  1
CONTENTFORMAT_BEGIN
 90
        0
 91
        0
 92
      512
 93
        0
300

 40
0.0
140
1.0
 94
        5
 62
     0
340
55
144
0.18
309
CONTENTFORMAT_END
171
     0
 94
        0
309
TABLEFORMAT_END
  1
CELLSTYLE_BEGIN
 90
        2
 91
        1
300
_HEADER
309
CELLSTYLE_END
300
CELLSTYLE
  1
TABLEFORMAT_BEGIN
 90
        5
170
     1
 91
        0
 92
        0
 62
   257
 93
        1
300
CONTENTFORMAT
  1
CONTENTFORMAT_BEGIN
 90
        0
 91
        0
 92
      512
 93
        0
300

 40
0.0
140
1.0
 94
        2
 62
     0
340
55
144
0.18
309
CONTENTFORMAT_END
171
     0
 94
        0
309
TABLEFORMAT_END
  1
CELLSTYLE_BEGIN
 90
        3
 91
        2
300
_DATA
309
CELLSTYLE_END
  0
XRECORD
  5
A66
102
{ACAD_REACTORS
330
A65
102
}
330
A65
100
AcDbXrecord
280
     1
102
RTVSPost2010Prop28
280
     1
102
RTVSPost2010PropOp28
 70
     1
102
RTVSPost2010Prop29
280
     1
102
RTVSPost2010PropOp29
 70
     1
102
RTVSPost2010Prop30
280
     0
102
RTVSPost2010PropOp30
 70
     1
102
RTVSPost2010Prop31
280
     0
102
RTVSPost2010PropOp31
 70
     1
102
RTVSPost2010Prop32
280
     0
102
RTVSPost2010PropOp32
 70
     1
102
RTVSPost2010Prop33
280
     0
102
RTVSPost2010PropOp33
 70
     1
102
RTVSPost2010Prop34
280
     0
102
RTVSPost2010PropOp34
 70
     1
102
RTVSPost2010Prop35
280
     0
102
RTVSPost2010PropOp35
 70
     1
102
RTVSPost2010Prop36
280
     0
102
RTVSPost2010PropOp36
 70
     1
102
RTVSPost2010Prop37
 90
       50
102
RTVSPost2010PropOp37
 70
     1
102
RTVSPost2010Prop38
140
0.0
102
RTVSPost2010PropOp38
 70
     1
102
RTVSPost2010Prop39
140
1.0
102
RTVSPost2010PropOp39
 70
     1
102
RTVSPost2010Prop40
 90
        0
102
RTVSPost2010PropOp40
 70
     1
102
RTVSPost2010Prop41ColorIndex
 90
       18
102
RTVSPost2010Prop41ColorRGB
 90
        0
102
RTVSPost2010PropOp41
 70
     1
102
RTVSPost2010Prop42
 90
       50
102
RTVSPost2010PropOp42
 70
     1
102
RTVSPost2010Prop43
 90
        3
102
RTVSPost2010PropOp43
 70
     1
102
RTVSPost2010Prop44ColorIndex
 90
        5
102
RTVSPost2010Prop44ColorRGB
 90
      255
102
RTVSPost2010PropOp44
 70
     1
102
RTVSPost2010Prop45
280
     0
102
RTVSPost2010PropOp45
 70
     1
102
RTVSPost2010Prop46
 90
       50
102
RTVSPost2010PropOp46
 70
     1
102
RTVSPost2010Prop47
 90
       50
102
RTVSPost2010PropOp47
 70
     1
102
RTVSPost2010Prop48
 90
       50
102
RTVSPost2010PropOp48
 70
     1
102
RTVSPost2010Prop49
280
     0
102
RTVSPost2010PropOp49
 70
     1
102
RTVSPost2010Prop50
 90
       50
102
RTVSPost2010PropOp50
 70
     1
102
RTVSPost2010Prop51ColorIndex
 90
      256
102
RTVSPost2010Prop51ColorRGB
 90
-16777216
102
RTVSPost2010PropOp51
 70
     0
102
RTVSPost2010Prop52
140
1.0
102
RTVSPost2010PropOp52
 70
     0
102
RTVSPost2010Prop53
 90
        2
102
RTVSPost2010PropOp53
 70
     1
102
RTVSPost2010Prop54
  1
strokes_ogs.tif
102
RTVSPost2010PropOp54
 70
     1
102
RTVSPost2010Prop55
280
     0
102
RTVSPost2010PropOp55
 70
     1
102
RTVSPost2010Prop56
140
1.0
102
RTVSPost2010PropOp56
 70
     1
102
RTVSPost2010Prop57
140
1.0
102
RTVSPost2010PropOp57
 70
     1
  0
XRECORD
  5
A64
102
{ACAD_REACTORS
330
A63
102
}
330
A63
100
AcDbXrecord
280
     1
102
RTVSPost2010Prop28
280
     0
102
RTVSPost2010PropOp28
 70
     1
102
RTVSPost2010Prop29
280
     1
102
RTVSPost2010PropOp29
 70
     1
102
RTVSPost2010Prop30
280
     1
102
RTVSPost2010PropOp30
 70
     1
102
RTVSPost2010Prop31
280
     0
102
RTVSPost2010PropOp31
 70
     1
102
RTVSPost2010Prop32
280
     0
102
RTVSPost2010PropOp32
 70
     1
102
RTVSPost2010Prop33
280
     0
102
RTVSPost2010PropOp33
 70
     1
102
RTVSPost2010Prop34
280
     0
102
RTVSPost2010PropOp34
 70
     1
102
RTVSPost2010Prop35
280
     0
102
RTVSPost2010PropOp35
 70
     1
102
RTVSPost2010Prop36
280
     0
102
RTVSPost2010PropOp36
 70
     1
102
RTVSPost2010Prop37
 90
       50
102
RTVSPost2010PropOp37
 70
     1
102
RTVSPost2010Prop38
140
0.0
102
RTVSPost2010PropOp38
 70
     1
102
RTVSPost2010Prop39
140
1.0
102
RTVSPost2010PropOp39
 70
     1
102
RTVSPost2010Prop40
 90
        0
102
RTVSPost2010PropOp40
 70
     1
102
RTVSPost2010Prop41ColorIndex
 90
       18
102
RTVSPost2010Prop41ColorRGB
 90
        0
102
RTVSPost2010PropOp41
 70
     1
102
RTVSPost2010Prop42
 90
       50
102
RTVSPost2010PropOp42
 70
     1
102
RTVSPost2010Prop43
 90
        3
102
RTVSPost2010PropOp43
 70
     1
102
RTVSPost2010Prop44ColorIndex
 90
        5
102
RTVSPost2010Prop44ColorRGB
 90
      255
102
RTVSPost2010PropOp44
 70
     1
102
RTVSPost2010Prop45
280
     0
102
RTVSPost2010PropOp45
 70
     1
102
RTVSPost2010Prop46
 90
       50
102
RTVSPost2010PropOp46
 70
     1
102
RTVSPost2010Prop47
 90
       50
102
RTVSPost2010PropOp47
 70
     1
102
RTVSPost2010Prop48
 90
       50
102
RTVSPost2010PropOp48
 70
     1
102
RTVSPost2010Prop49
280
     0
102
RTVSPost2010PropOp49
 70
     1
102
RTVSPost2010Prop50
 90
       50
102
RTVSPost2010PropOp50
 70
     1
102
RTVSPost2010Prop51ColorIndex
 90
      256
102
RTVSPost2010Prop51ColorRGB
 90
-16777216
102
RTVSPost2010PropOp51
 70
     0
102
RTVSPost2010Prop52
140
1.0
102
RTVSPost2010PropOp52
 70
     0
102
RTVSPost2010Prop53
 90
        2
102
RTVSPost2010PropOp53
 70
     1
102
RTVSPost2010Prop54
  1
strokes_ogs.tif
102
RTVSPost2010PropOp54
 70
     1
102
RTVSPost2010Prop55
280
     0
102
RTVSPost2010PropOp55
 70
     1
102
RTVSPost2010Prop56
140
1.0
102
RTVSPost2010PropOp56
 70
     1
102
RTVSPost2010Prop57
140
1.0
102
RTVSPost2010PropOp57
 70
     1
  0
XRECORD
  5
A72
102
{ACAD_REACTORS
330
A71
102
}
330
A71
100
AcDbXrecord
280
     1
102
RTVSPost2010Prop28
280
     0
102
RTVSPost2010PropOp28
 70
     1
102
RTVSPost2010Prop29
280
     1
102
RTVSPost2010PropOp29
 70
     1
102
RTVSPost2010Prop30
280
     1
102
RTVSPost2010PropOp30
 70
     1
102
RTVSPost2010Prop31
280
     0
102
RTVSPost2010PropOp31
 70
     1
102
RTVSPost2010Prop32
280
     0
102
RTVSPost2010PropOp32
 70
     1
102
RTVSPost2010Prop33
280
     0
102
RTVSPost2010PropOp33
 70
     1
102
RTVSPost2010Prop34
280
     0
102
RTVSPost2010PropOp34
 70
     1
102
RTVSPost2010Prop35
280
     0
102
RTVSPost2010PropOp35
 70
     1
102
RTVSPost2010Prop36
280
     0
102
RTVSPost2010PropOp36
 70
     1
102
RTVSPost2010Prop37
 90
       50
102
RTVSPost2010PropOp37
 70
     1
102
RTVSPost2010Prop38
140
0.0
102
RTVSPost2010PropOp38
 70
     1
102
RTVSPost2010Prop39
140
1.0
102
RTVSPost2010PropOp39
 70
     1
102
RTVSPost2010Prop40
 90
        0
102
RTVSPost2010PropOp40
 70
     1
102
RTVSPost2010Prop41ColorIndex
 90
       18
102
RTVSPost2010Prop41ColorRGB
 90
        0
102
RTVSPost2010PropOp41
 70
     1
102
RTVSPost2010Prop42
 90
       50
102
RTVSPost2010PropOp42
 70
     1
102
RTVSPost2010Prop43
 90
        3
102
RTVSPost2010PropOp43
 70
     1
102
RTVSPost2010Prop44ColorIndex
 90
        5
102
RTVSPost2010Prop44ColorRGB
 90
      255
102
RTVSPost2010PropOp44
 70
     1
102
RTVSPost2010Prop45
280
     0
102
RTVSPost2010PropOp45
 70
     1
102
RTVSPost2010Prop46
 90
       50
102
RTVSPost2010PropOp46
 70
     1
102
RTVSPost2010Prop47
 90
       50
102
RTVSPost2010PropOp47
 70
     1
102
RTVSPost2010Prop48
 90
       50
102
RTVSPost2010PropOp48
 70
     1
102
RTVSPost2010Prop49
280
     0
102
RTVSPost2010PropOp49
 70
     1
102
RTVSPost2010Prop50
 90
       50
102
RTVSPost2010PropOp50
 70
     1
102
RTVSPost2010Prop51ColorIndex
 90
      256
102
RTVSPost2010Prop51ColorRGB
 90
-16777216
102
RTVSPost2010PropOp51
 70
     0
102
RTVSPost2010Prop52
140
1.0
102
RTVSPost2010PropOp52
 70
     0
102
RTVSPost2010Prop53
 90
        2
102
RTVSPost2010PropOp53
 70
     1
102
RTVSPost2010Prop54
  1
strokes_ogs.tif
102
RTVSPost2010PropOp54
 70
     1
102
RTVSPost2010Prop55
280
     0
102
RTVSPost2010PropOp55
 70
     1
102
RTVSPost2010Prop56
140
1.0
102
RTVSPost2010PropOp56
 70
     1
102
RTVSPost2010Prop57
140
1.0
102
RTVSPost2010PropOp57
 70
     1
  0
XRECORD
  5
A7A
102
{ACAD_REACTORS
330
A79
102
}
330
A79
100
AcDbXrecord
280
     1
102
RTVSPost2010Prop28
280
     0
102
RTVSPost2010PropOp28
 70
     1
102
RTVSPost2010Prop29
280
     1
102
RTVSPost2010PropOp29
 70
     1
102
RTVSPost2010Prop30
280
     1
102
RTVSPost2010PropOp30
 70
     1
102
RTVSPost2010Prop31
280
     0
102
RTVSPost2010PropOp31
 70
     1
102
RTVSPost2010Prop32
280
     0
102
RTVSPost2010PropOp32
 70
     1
102
RTVSPost2010Prop33
280
     0
102
RTVSPost2010PropOp33
 70
     1
102
RTVSPost2010Prop34
280
     0
102
RTVSPost2010PropOp34
 70
     1
102
RTVSPost2010Prop35
280
     0
102
RTVSPost2010PropOp35
 70
     1
102
RTVSPost2010Prop36
280
     0
102
RTVSPost2010PropOp36
 70
     1
102
RTVSPost2010Prop37
 90
       50
102
RTVSPost2010PropOp37
 70
     1
102
RTVSPost2010Prop38
140
0.0
102
RTVSPost2010PropOp38
 70
     1
102
RTVSPost2010Prop39
140
1.0
102
RTVSPost2010PropOp39
 70
     1
102
RTVSPost2010Prop40
 90
        0
102
RTVSPost2010PropOp40
 70
     1
102
RTVSPost2010Prop41ColorIndex
 90
       18
102
RTVSPost2010Prop41ColorRGB
 90
        0
102
RTVSPost2010PropOp41
 70
     1
102
RTVSPost2010Prop42
 90
       50
102
RTVSPost2010PropOp42
 70
     1
102
RTVSPost2010Prop43
 90
        3
102
RTVSPost2010PropOp43
 70
     1
102
RTVSPost2010Prop44ColorIndex
 90
        5
102
RTVSPost2010Prop44ColorRGB
 90
      255
102
RTVSPost2010PropOp44
 70
     1
102
RTVSPost2010Prop45
280
     0
102
RTVSPost2010PropOp45
 70
     1
102
RTVSPost2010Prop46
 90
       50
102
RTVSPost2010PropOp46
 70
     1
102
RTVSPost2010Prop47
 90
       50
102
RTVSPost2010PropOp47
 70
     1
102
RTVSPost2010Prop48
 90
       50
102
RTVSPost2010PropOp48
 70
     1
102
RTVSPost2010Prop49
280
     0
102
RTVSPost2010PropOp49
 70
     1
102
RTVSPost2010Prop50
 90
       50
102
RTVSPost2010PropOp50
 70
     1
102
RTVSPost2010Prop51ColorIndex
 90
      256
102
RTVSPost2010Prop51ColorRGB
 90
-16777216
102
RTVSPost2010PropOp51
 70
     0
102
RTVSPost2010Prop52
140
1.0
102
RTVSPost2010PropOp52
 70
     0
102
RTVSPost2010Prop53
 90
        2
102
RTVSPost2010PropOp53
 70
     1
102
RTVSPost2010Prop54
  1
strokes_ogs.tif
102
RTVSPost2010PropOp54
 70
     1
102
RTVSPost2010Prop55
280
     0
102
RTVSPost2010PropOp55
 70
     1
102
RTVSPost2010Prop56
140
1.0
102
RTVSPost2010PropOp56
 70
     1
102
RTVSPost2010Prop57
140
1.0
102
RTVSPost2010PropOp57
 70
     1
  0
XRECORD
  5
A6C
102
{ACAD_REACTORS
330
A6B
102
}
330
A6B
100
AcDbXrecord
280
     1
102
RTVSPost2010Prop28
280
     0
102
RTVSPost2010PropOp28
 70
     1
102
RTVSPost2010Prop29
280
     1
102
RTVSPost2010PropOp29
 70
     1
102
RTVSPost2010Prop30
280
     1
102
RTVSPost2010PropOp30
 70
     1
102
RTVSPost2010Prop31
280
     0
102
RTVSPost2010PropOp31
 70
     1
102
RTVSPost2010Prop32
280
     0
102
RTVSPost2010PropOp32
 70
     1
102
RTVSPost2010Prop33
280
     0
102
RTVSPost2010PropOp33
 70
     1
102
RTVSPost2010Prop34
280
     0
102
RTVSPost2010PropOp34
 70
     1
102
RTVSPost2010Prop35
280
     0
102
RTVSPost2010PropOp35
 70
     1
102
RTVSPost2010Prop36
280
     0
102
RTVSPost2010PropOp36
 70
     1
102
RTVSPost2010Prop37
 90
       50
102
RTVSPost2010PropOp37
 70
     1
102
RTVSPost2010Prop38
140
0.0
102
RTVSPost2010PropOp38
 70
     1
102
RTVSPost2010Prop39
140
1.0
102
RTVSPost2010PropOp39
 70
     1
102
RTVSPost2010Prop40
 90
        0
102
RTVSPost2010PropOp40
 70
     1
102
RTVSPost2010Prop41ColorIndex
 90
       18
102
RTVSPost2010Prop41ColorRGB
 90
        0
102
RTVSPost2010PropOp41
 70
     1
102
RTVSPost2010Prop42
 90
       50
102
RTVSPost2010PropOp42
 70
     1
102
RTVSPost2010Prop43
 90
        3
102
RTVSPost2010PropOp43
 70
     1
102
RTVSPost2010Prop44ColorIndex
 90
        5
102
RTVSPost2010Prop44ColorRGB
 90
      255
102
RTVSPost2010PropOp44
 70
     1
102
RTVSPost2010Prop45
280
     0
102
RTVSPost2010PropOp45
 70
     1
102
RTVSPost2010Prop46
 90
       50
102
RTVSPost2010PropOp46
 70
     1
102
RTVSPost2010Prop47
 90
       50
102
RTVSPost2010PropOp47
 70
     1
102
RTVSPost2010Prop48
 90
       50
102
RTVSPost2010PropOp48
 70
     1
102
RTVSPost2010Prop49
280
     0
102
RTVSPost2010PropOp49
 70
     1
102
RTVSPost2010Prop50
 90
       50
102
RTVSPost2010PropOp50
 70
     1
102
RTVSPost2010Prop51ColorIndex
 90
      256
102
RTVSPost2010Prop51ColorRGB
 90
-16777216
102
RTVSPost2010PropOp51
 70
     0
102
RTVSPost2010Prop52
140
1.0
102
RTVSPost2010PropOp52
 70
     0
102
RTVSPost2010Prop53
 90
        2
102
RTVSPost2010PropOp53
 70
     1
102
RTVSPost2010Prop54
  1
strokes_ogs.tif
102
RTVSPost2010PropOp54
 70
     1
102
RTVSPost2010Prop55
280
     0
102
RTVSPost2010PropOp55
 70
     1
102
RTVSPost2010Prop56
140
1.0
102
RTVSPost2010PropOp56
 70
     1
102
RTVSPost2010Prop57
140
1.0
102
RTVSPost2010PropOp57
 70
     1
  0
XRECORD
  5
A70
102
{ACAD_REACTORS
330
A6F
102
}
330
A6F
100
AcDbXrecord
280
     1
102
RTVSPost2010Prop28
280
     0
102
RTVSPost2010PropOp28
 70
     1
102
RTVSPost2010Prop29
280
     1
102
RTVSPost2010PropOp29
 70
     1
102
RTVSPost2010Prop30
280
     1
102
RTVSPost2010PropOp30
 70
     1
102
RTVSPost2010Prop31
280
     0
102
RTVSPost2010PropOp31
 70
     1
102
RTVSPost2010Prop32
280
     0
102
RTVSPost2010PropOp32
 70
     1
102
RTVSPost2010Prop33
280
     0
102
RTVSPost2010PropOp33
 70
     1
102
RTVSPost2010Prop34
280
     0
102
RTVSPost2010PropOp34
 70
     1
102
RTVSPost2010Prop35
280
     0
102
RTVSPost2010PropOp35
 70
     1
102
RTVSPost2010Prop36
280
     0
102
RTVSPost2010PropOp36
 70
     1
102
RTVSPost2010Prop37
 90
       50
102
RTVSPost2010PropOp37
 70
     1
102
RTVSPost2010Prop38
140
0.0
102
RTVSPost2010PropOp38
 70
     1
102
RTVSPost2010Prop39
140
1.0
102
RTVSPost2010PropOp39
 70
     1
102
RTVSPost2010Prop40
 90
        0
102
RTVSPost2010PropOp40
 70
     1
102
RTVSPost2010Prop41ColorIndex
 90
       18
102
RTVSPost2010Prop41ColorRGB
 90
        0
102
RTVSPost2010PropOp41
 70
     1
102
RTVSPost2010Prop42
 90
       50
102
RTVSPost2010PropOp42
 70
     1
102
RTVSPost2010Prop43
 90
        3
102
RTVSPost2010PropOp43
 70
     1
102
RTVSPost2010Prop44ColorIndex
 90
        5
102
RTVSPost2010Prop44ColorRGB
 90
      255
102
RTVSPost2010PropOp44
 70
     1
102
RTVSPost2010Prop45
280
     0
102
RTVSPost2010PropOp45
 70
     1
102
RTVSPost2010Prop46
 90
       50
102
RTVSPost2010PropOp46
 70
     1
102
RTVSPost2010Prop47
 90
       50
102
RTVSPost2010PropOp47
 70
     1
102
RTVSPost2010Prop48
 90
       50
102
RTVSPost2010PropOp48
 70
     1
102
RTVSPost2010Prop49
280
     0
102
RTVSPost2010PropOp49
 70
     1
102
RTVSPost2010Prop50
 90
       50
102
RTVSPost2010PropOp50
 70
     1
102
RTVSPost2010Prop51ColorIndex
 90
      256
102
RTVSPost2010Prop51ColorRGB
 90
-16777216
102
RTVSPost2010PropOp51
 70
     0
102
RTVSPost2010Prop52
140
1.0
102
RTVSPost2010PropOp52
 70
     0
102
RTVSPost2010Prop53
 90
        2
102
RTVSPost2010PropOp53
 70
     1
102
RTVSPost2010Prop54
  1
strokes_ogs.tif
102
RTVSPost2010PropOp54
 70
     1
102
RTVSPost2010Prop55
280
     0
102
RTVSPost2010PropOp55
 70
     1
102
RTVSPost2010Prop56
140
1.0
102
RTVSPost2010PropOp56
 70
     1
102
RTVSPost2010Prop57
140
1.0
102
RTVSPost2010PropOp57
 70
     1
  0
XRECORD
  5
A8A
102
{ACAD_REACTORS
330
A89
102
}
330
A89
100
AcDbXrecord
280
     1
102
RTVSPost2010Prop28
280
     0
102
RTVSPost2010PropOp28
 70
     0
102
RTVSPost2010Prop29
280
     1
102
RTVSPost2010PropOp29
 70
     0
102
RTVSPost2010Prop30
280
     1
102
RTVSPost2010PropOp30
 70
     0
102
RTVSPost2010Prop31
280
     0
102
RTVSPost2010PropOp31
 70
     0
102
RTVSPost2010Prop32
280
     0
102
RTVSPost2010PropOp32
 70
     0
102
RTVSPost2010Prop33
280
     0
102
RTVSPost2010PropOp33
 70
     0
102
RTVSPost2010Prop34
280
     0
102
RTVSPost2010PropOp34
 70
     0
102
RTVSPost2010Prop35
280
     0
102
RTVSPost2010PropOp35
 70
     0
102
RTVSPost2010Prop36
280
     0
102
RTVSPost2010PropOp36
 70
     0
102
RTVSPost2010Prop37
 90
       50
102
RTVSPost2010PropOp37
 70
     0
102
RTVSPost2010Prop38
140
0.0
102
RTVSPost2010PropOp38
 70
     0
102
RTVSPost2010Prop39
140
1.0
102
RTVSPost2010PropOp39
 70
     0
102
RTVSPost2010Prop40
 90
        0
102
RTVSPost2010PropOp40
 70
     0
102
RTVSPost2010Prop41ColorIndex
 90
       18
102
RTVSPost2010Prop41ColorRGB
 90
        0
102
RTVSPost2010PropOp41
 70
     0
102
RTVSPost2010Prop42
 90
       50
102
RTVSPost2010PropOp42
 70
     0
102
RTVSPost2010Prop43
 90
        3
102
RTVSPost2010PropOp43
 70
     0
102
RTVSPost2010Prop44ColorIndex
 90
        5
102
RTVSPost2010Prop44ColorRGB
 90
      255
102
RTVSPost2010PropOp44
 70
     0
102
RTVSPost2010Prop45
280
     0
102
RTVSPost2010PropOp45
 70
     0
102
RTVSPost2010Prop46
 90
       50
102
RTVSPost2010PropOp46
 70
     0
102
RTVSPost2010Prop47
 90
       50
102
RTVSPost2010PropOp47
 70
     0
102
RTVSPost2010Prop48
 90
       50
102
RTVSPost2010PropOp48
 70
     0
102
RTVSPost2010Prop49
280
     0
102
RTVSPost2010PropOp49
 70
     0
102
RTVSPost2010Prop50
 90
       50
102
RTVSPost2010PropOp50
 70
     0
102
RTVSPost2010Prop51ColorIndex
 90
      256
102
RTVSPost2010Prop51ColorRGB
 90
-16777216
102
RTVSPost2010PropOp51
 70
     0
102
RTVSPost2010Prop52
140
1.0
102
RTVSPost2010PropOp52
 70
     0
102
RTVSPost2010Prop53
 90
        2
102
RTVSPost2010PropOp53
 70
     0
102
RTVSPost2010Prop54
  1
strokes_ogs.tif
102
RTVSPost2010PropOp54
 70
     0
102
RTVSPost2010Prop55
280
     0
102
RTVSPost2010PropOp55
 70
     0
102
RTVSPost2010Prop56
140
1.0
102
RTVSPost2010PropOp56
 70
     0
102
RTVSPost2010Prop57
140
1.0
102
RTVSPost2010PropOp57
 70
     0
  0
XRECORD
  5
A78
102
{ACAD_REACTORS
330
A77
102
}
330
A77
100
AcDbXrecord
280
     1
102
RTVSPost2010Prop28
280
     0
102
RTVSPost2010PropOp28
 70
     1
102
RTVSPost2010Prop29
280
     1
102
RTVSPost2010PropOp29
 70
     1
102
RTVSPost2010Prop30
280
     1
102
RTVSPost2010PropOp30
 70
     1
102
RTVSPost2010Prop31
280
     0
102
RTVSPost2010PropOp31
 70
     1
102
RTVSPost2010Prop32
280
     0
102
RTVSPost2010PropOp32
 70
     1
102
RTVSPost2010Prop33
280
     0
102
RTVSPost2010PropOp33
 70
     1
102
RTVSPost2010Prop34
280
     0
102
RTVSPost2010PropOp34
 70
     1
102
RTVSPost2010Prop35
280
     0
102
RTVSPost2010PropOp35
 70
     1
102
RTVSPost2010Prop36
280
     0
102
RTVSPost2010PropOp36
 70
     1
102
RTVSPost2010Prop37
 90
       50
102
RTVSPost2010PropOp37
 70
     1
102
RTVSPost2010Prop38
140
0.0
102
RTVSPost2010PropOp38
 70
     1
102
RTVSPost2010Prop39
140
1.0
102
RTVSPost2010PropOp39
 70
     1
102
RTVSPost2010Prop40
 90
        0
102
RTVSPost2010PropOp40
 70
     1
102
RTVSPost2010Prop41ColorIndex
 90
       18
102
RTVSPost2010Prop41ColorRGB
 90
        0
102
RTVSPost2010PropOp41
 70
     1
102
RTVSPost2010Prop42
 90
       50
102
RTVSPost2010PropOp42
 70
     1
102
RTVSPost2010Prop43
 90
        3
102
RTVSPost2010PropOp43
 70
     1
102
RTVSPost2010Prop44ColorIndex
 90
        5
102
RTVSPost2010Prop44ColorRGB
 90
      255
102
RTVSPost2010PropOp44
 70
     1
102
RTVSPost2010Prop45
280
     0
102
RTVSPost2010PropOp45
 70
     1
102
RTVSPost2010Prop46
 90
       50
102
RTVSPost2010PropOp46
 70
     1
102
RTVSPost2010Prop47
 90
       50
102
RTVSPost2010PropOp47
 70
     1
102
RTVSPost2010Prop48
 90
       50
102
RTVSPost2010PropOp48
 70
     1
102
RTVSPost2010Prop49
280
     0
102
RTVSPost2010PropOp49
 70
     1
102
RTVSPost2010Prop50
 90
       50
102
RTVSPost2010PropOp50
 70
     1
102
RTVSPost2010Prop51ColorIndex
 90
      256
102
RTVSPost2010Prop51ColorRGB
 90
-16777216
102
RTVSPost2010PropOp51
 70
     0
102
RTVSPost2010Prop52
140
1.0
102
RTVSPost2010PropOp52
 70
     0
102
RTVSPost2010Prop53
 90
        2
102
RTVSPost2010PropOp53
 70
     1
102
RTVSPost2010Prop54
  1
strokes_ogs.tif
102
RTVSPost2010PropOp54
 70
     1
102
RTVSPost2010Prop55
280
     0
102
RTVSPost2010PropOp55
 70
     1
102
RTVSPost2010Prop56
140
1.0
102
RTVSPost2010PropOp56
 70
     1
102
RTVSPost2010Prop57
140
1.0
102
RTVSPost2010PropOp57
 70
     1
  0
XRECORD
  5
A5C
102
{ACAD_REACTORS
330
A5B
102
}
330
A5B
100
AcDbXrecord
280
     1
102
RTVSPost2010Prop28
280
     0
102
RTVSPost2010PropOp28
 70
     1
102
RTVSPost2010Prop29
280
     1
102
RTVSPost2010PropOp29
 70
     1
102
RTVSPost2010Prop30
280
     1
102
RTVSPost2010PropOp30
 70
     1
102
RTVSPost2010Prop31
280
     0
102
RTVSPost2010PropOp31
 70
     1
102
RTVSPost2010Prop32
280
     0
102
RTVSPost2010PropOp32
 70
     1
102
RTVSPost2010Prop33
280
     0
102
RTVSPost2010PropOp33
 70
     1
102
RTVSPost2010Prop34
280
     0
102
RTVSPost2010PropOp34
 70
     1
102
RTVSPost2010Prop35
280
     0
102
RTVSPost2010PropOp35
 70
     1
102
RTVSPost2010Prop36
280
     0
102
RTVSPost2010PropOp36
 70
     1
102
RTVSPost2010Prop37
 90
       50
102
RTVSPost2010PropOp37
 70
     1
102
RTVSPost2010Prop38
140
0.0
102
RTVSPost2010PropOp38
 70
     1
102
RTVSPost2010Prop39
140
1.0
102
RTVSPost2010PropOp39
 70
     1
102
RTVSPost2010Prop40
 90
        0
102
RTVSPost2010PropOp40
 70
     1
102
RTVSPost2010Prop41ColorIndex
 90
       18
102
RTVSPost2010Prop41ColorRGB
 90
        0
102
RTVSPost2010PropOp41
 70
     1
102
RTVSPost2010Prop42
 90
       50
102
RTVSPost2010PropOp42
 70
     1
102
RTVSPost2010Prop43
 90
        3
102
RTVSPost2010PropOp43
 70
     1
102
RTVSPost2010Prop44ColorIndex
 90
        5
102
RTVSPost2010Prop44ColorRGB
 90
      255
102
RTVSPost2010PropOp44
 70
     1
102
RTVSPost2010Prop45
280
     0
102
RTVSPost2010PropOp45
 70
     1
102
RTVSPost2010Prop46
 90
       50
102
RTVSPost2010PropOp46
 70
     1
102
RTVSPost2010Prop47
 90
       50
102
RTVSPost2010PropOp47
 70
     1
102
RTVSPost2010Prop48
 90
       50
102
RTVSPost2010PropOp48
 70
     1
102
RTVSPost2010Prop49
280
     0
102
RTVSPost2010PropOp49
 70
     1
102
RTVSPost2010Prop50
 90
       50
102
RTVSPost2010PropOp50
 70
     1
102
RTVSPost2010Prop51ColorIndex
 90
      256
102
RTVSPost2010Prop51ColorRGB
 90
-16777216
102
RTVSPost2010PropOp51
 70
     0
102
RTVSPost2010Prop52
140
1.0
102
RTVSPost2010PropOp52
 70
     0
102
RTVSPost2010Prop53
 90
        2
102
RTVSPost2010PropOp53
 70
     1
102
RTVSPost2010Prop54
  1
strokes_ogs.tif
102
RTVSPost2010PropOp54
 70
     1
102
RTVSPost2010Prop55
280
     0
102
RTVSPost2010PropOp55
 70
     1
102
RTVSPost2010Prop56
140
1.0
102
RTVSPost2010PropOp56
 70
     1
102
RTVSPost2010Prop57
140
1.0
102
RTVSPost2010PropOp57
 70
     1
  0
XRECORD
  5
A5E
102
{ACAD_REACTORS
330
A5D
102
}
330
A5D
100
AcDbXrecord
280
     1
102
RTVSPost2010Prop28
280
     0
102
RTVSPost2010PropOp28
 70
     1
102
RTVSPost2010Prop29
280
     1
102
RTVSPost2010PropOp29
 70
     1
102
RTVSPost2010Prop30
280
     1
102
RTVSPost2010PropOp30
 70
     1
102
RTVSPost2010Prop31
280
     0
102
RTVSPost2010PropOp31
 70
     1
102
RTVSPost2010Prop32
280
     0
102
RTVSPost2010PropOp32
 70
     1
102
RTVSPost2010Prop33
280
     0
102
RTVSPost2010PropOp33
 70
     1
102
RTVSPost2010Prop34
280
     0
102
RTVSPost2010PropOp34
 70
     1
102
RTVSPost2010Prop35
280
     0
102
RTVSPost2010PropOp35
 70
     1
102
RTVSPost2010Prop36
280
     0
102
RTVSPost2010PropOp36
 70
     1
102
RTVSPost2010Prop37
 90
       50
102
RTVSPost2010PropOp37
 70
     1
102
RTVSPost2010Prop38
140
0.0
102
RTVSPost2010PropOp38
 70
     1
102
RTVSPost2010Prop39
140
1.0
102
RTVSPost2010PropOp39
 70
     1
102
RTVSPost2010Prop40
 90
        0
102
RTVSPost2010PropOp40
 70
     1
102
RTVSPost2010Prop41ColorIndex
 90
       18
102
RTVSPost2010Prop41ColorRGB
 90
        0
102
RTVSPost2010PropOp41
 70
     1
102
RTVSPost2010Prop42
 90
       50
102
RTVSPost2010PropOp42
 70
     1
102
RTVSPost2010Prop43
 90
        3
102
RTVSPost2010PropOp43
 70
     1
102
RTVSPost2010Prop44ColorIndex
 90
        5
102
RTVSPost2010Prop44ColorRGB
 90
      255
102
RTVSPost2010PropOp44
 70
     1
102
RTVSPost2010Prop45
280
     0
102
RTVSPost2010PropOp45
 70
     1
102
RTVSPost2010Prop46
 90
       50
102
RTVSPost2010PropOp46
 70
     1
102
RTVSPost2010Prop47
 90
       50
102
RTVSPost2010PropOp47
 70
     1
102
RTVSPost2010Prop48
 90
       50
102
RTVSPost2010PropOp48
 70
     1
102
RTVSPost2010Prop49
280
     0
102
RTVSPost2010PropOp49
 70
     1
102
RTVSPost2010Prop50
 90
       50
102
RTVSPost2010PropOp50
 70
     1
102
RTVSPost2010Prop51ColorIndex
 90
      256
102
RTVSPost2010Prop51ColorRGB
 90
-16777216
102
RTVSPost2010PropOp51
 70
     0
102
RTVSPost2010Prop52
140
1.0
102
RTVSPost2010PropOp52
 70
     0
102
RTVSPost2010Prop53
 90
        2
102
RTVSPost2010PropOp53
 70
     1
102
RTVSPost2010Prop54
  1
strokes_ogs.tif
102
RTVSPost2010PropOp54
 70
     1
102
RTVSPost2010Prop55
280
     0
102
RTVSPost2010PropOp55
 70
     1
102
RTVSPost2010Prop56
140
1.0
102
RTVSPost2010PropOp56
 70
     1
102
RTVSPost2010Prop57
140
1.0
102
RTVSPost2010PropOp57
 70
     1
  0
XRECORD
  5
A60
102
{ACAD_REACTORS
330
A5F
102
}
330
A5F
100
AcDbXrecord
280
     1
102
RTVSPost2010Prop28
280
     0
102
RTVSPost2010PropOp28
 70
     1
102
RTVSPost2010Prop29
280
     1
102
RTVSPost2010PropOp29
 70
     1
102
RTVSPost2010Prop30
280
     1
102
RTVSPost2010PropOp30
 70
     1
102
RTVSPost2010Prop31
280
     0
102
RTVSPost2010PropOp31
 70
     1
102
RTVSPost2010Prop32
280
     0
102
RTVSPost2010PropOp32
 70
     1
102
RTVSPost2010Prop33
280
     0
102
RTVSPost2010PropOp33
 70
     1
102
RTVSPost2010Prop34
280
     0
102
RTVSPost2010PropOp34
 70
     1
102
RTVSPost2010Prop35
280
     0
102
RTVSPost2010PropOp35
 70
     1
102
RTVSPost2010Prop36
280
     0
102
RTVSPost2010PropOp36
 70
     1
102
RTVSPost2010Prop37
 90
       50
102
RTVSPost2010PropOp37
 70
     1
102
RTVSPost2010Prop38
140
0.0
102
RTVSPost2010PropOp38
 70
     1
102
RTVSPost2010Prop39
140
1.0
102
RTVSPost2010PropOp39
 70
     1
102
RTVSPost2010Prop40
 90
        0
102
RTVSPost2010PropOp40
 70
     1
102
RTVSPost2010Prop41ColorIndex
 90
       18
102
RTVSPost2010Prop41ColorRGB
 90
        0
102
RTVSPost2010PropOp41
 70
     1
102
RTVSPost2010Prop42
 90
       50
102
RTVSPost2010PropOp42
 70
     1
102
RTVSPost2010Prop43
 90
        3
102
RTVSPost2010PropOp43
 70
     1
102
RTVSPost2010Prop44ColorIndex
 90
        5
102
RTVSPost2010Prop44ColorRGB
 90
      255
102
RTVSPost2010PropOp44
 70
     1
102
RTVSPost2010Prop45
280
     0
102
RTVSPost2010PropOp45
 70
     1
102
RTVSPost2010Prop46
 90
       50
102
RTVSPost2010PropOp46
 70
     1
102
RTVSPost2010Prop47
 90
       50
102
RTVSPost2010PropOp47
 70
     1
102
RTVSPost2010Prop48
 90
       50
102
RTVSPost2010PropOp48
 70
     1
102
RTVSPost2010Prop49
280
     0
102
RTVSPost2010PropOp49
 70
     1
102
RTVSPost2010Prop50
 90
       50
102
RTVSPost2010PropOp50
 70
     1
102
RTVSPost2010Prop51ColorIndex
 90
      256
102
RTVSPost2010Prop51ColorRGB
 90
-16777216
102
RTVSPost2010PropOp51
 70
     0
102
RTVSPost2010Prop52
140
1.0
102
RTVSPost2010PropOp52
 70
     0
102
RTVSPost2010Prop53
 90
        2
102
RTVSPost2010PropOp53
 70
     1
102
RTVSPost2010Prop54
  1
strokes_ogs.tif
102
RTVSPost2010PropOp54
 70
     1
102
RTVSPost2010Prop55
280
     0
102
RTVSPost2010PropOp55
 70
     1
102
RTVSPost2010Prop56
140
1.0
102
RTVSPost2010PropOp56
 70
     1
102
RTVSPost2010Prop57
140
1.0
102
RTVSPost2010PropOp57
 70
     1
  0
XRECORD
  5
A62
102
{ACAD_REACTORS
330
A61
102
}
330
A61
100
AcDbXrecord
280
     1
102
RTVSPost2010Prop28
280
     0
102
RTVSPost2010PropOp28
 70
     1
102
RTVSPost2010Prop29
280
     1
102
RTVSPost2010PropOp29
 70
     1
102
RTVSPost2010Prop30
280
     1
102
RTVSPost2010PropOp30
 70
     1
102
RTVSPost2010Prop31
280
     0
102
RTVSPost2010PropOp31
 70
     1
102
RTVSPost2010Prop32
280
     0
102
RTVSPost2010PropOp32
 70
     1
102
RTVSPost2010Prop33
280
     0
102
RTVSPost2010PropOp33
 70
     1
102
RTVSPost2010Prop34
280
     0
102
RTVSPost2010PropOp34
 70
     1
102
RTVSPost2010Prop35
280
     0
102
RTVSPost2010PropOp35
 70
     1
102
RTVSPost2010Prop36
280
     0
102
RTVSPost2010PropOp36
 70
     1
102
RTVSPost2010Prop37
 90
       50
102
RTVSPost2010PropOp37
 70
     1
102
RTVSPost2010Prop38
140
0.0
102
RTVSPost2010PropOp38
 70
     1
102
RTVSPost2010Prop39
140
1.0
102
RTVSPost2010PropOp39
 70
     1
102
RTVSPost2010Prop40
 90
        0
102
RTVSPost2010PropOp40
 70
     1
102
RTVSPost2010Prop41ColorIndex
 90
       18
102
RTVSPost2010Prop41ColorRGB
 90
        0
102
RTVSPost2010PropOp41
 70
     1
102
RTVSPost2010Prop42
 90
       50
102
RTVSPost2010PropOp42
 70
     1
102
RTVSPost2010Prop43
 90
        3
102
RTVSPost2010PropOp43
 70
     1
102
RTVSPost2010Prop44ColorIndex
 90
        5
102
RTVSPost2010Prop44ColorRGB
 90
      255
102
RTVSPost2010PropOp44
 70
     1
102
RTVSPost2010Prop45
280
     0
102
RTVSPost2010PropOp45
 70
     1
102
RTVSPost2010Prop46
 90
       50
102
RTVSPost2010PropOp46
 70
     1
102
RTVSPost2010Prop47
 90
       50
102
RTVSPost2010PropOp47
 70
     1
102
RTVSPost2010Prop48
 90
       50
102
RTVSPost2010PropOp48
 70
     1
102
RTVSPost2010Prop49
280
     0
102
RTVSPost2010PropOp49
 70
     1
102
RTVSPost2010Prop50
 90
       50
102
RTVSPost2010PropOp50
 70
     1
102
RTVSPost2010Prop51ColorIndex
 90
      256
102
RTVSPost2010Prop51ColorRGB
 90
-16777216
102
RTVSPost2010PropOp51
 70
     0
102
RTVSPost2010Prop52
140
1.0
102
RTVSPost2010PropOp52
 70
     0
102
RTVSPost2010Prop53
 90
        2
102
RTVSPost2010PropOp53
 70
     1
102
RTVSPost2010Prop54
  1
strokes_ogs.tif
102
RTVSPost2010PropOp54
 70
     1
102
RTVSPost2010Prop55
280
     0
102
RTVSPost2010PropOp55
 70
     1
102
RTVSPost2010Prop56
140
1.0
102
RTVSPost2010PropOp56
 70
     1
102
RTVSPost2010Prop57
140
1.0
102
RTVSPost2010PropOp57
 70
     1
  0
XRECORD
  5
A6A
102
{ACAD_REACTORS
330
A69
102
}
330
A69
100
AcDbXrecord
280
     1
102
RTVSPost2010Prop28
280
     0
102
RTVSPost2010PropOp28
 70
     1
102
RTVSPost2010Prop29
280
     1
102
RTVSPost2010PropOp29
 70
     1
102
RTVSPost2010Prop30
280
     1
102
RTVSPost2010PropOp30
 70
     1
102
RTVSPost2010Prop31
280
     0
102
RTVSPost2010PropOp31
 70
     1
102
RTVSPost2010Prop32
280
     0
102
RTVSPost2010PropOp32
 70
     1
102
RTVSPost2010Prop33
280
     0
102
RTVSPost2010PropOp33
 70
     1
102
RTVSPost2010Prop34
280
     0
102
RTVSPost2010PropOp34
 70
     1
102
RTVSPost2010Prop35
280
     0
102
RTVSPost2010PropOp35
 70
     1
102
RTVSPost2010Prop36
280
     0
102
RTVSPost2010PropOp36
 70
     1
102
RTVSPost2010Prop37
 90
       50
102
RTVSPost2010PropOp37
 70
     1
102
RTVSPost2010Prop38
140
0.0
102
RTVSPost2010PropOp38
 70
     1
102
RTVSPost2010Prop39
140
1.0
102
RTVSPost2010PropOp39
 70
     1
102
RTVSPost2010Prop40
 90
        0
102
RTVSPost2010PropOp40
 70
     1
102
RTVSPost2010Prop41ColorIndex
 90
       18
102
RTVSPost2010Prop41ColorRGB
 90
        0
102
RTVSPost2010PropOp41
 70
     1
102
RTVSPost2010Prop42
 90
       50
102
RTVSPost2010PropOp42
 70
     1
102
RTVSPost2010Prop43
 90
        3
102
RTVSPost2010PropOp43
 70
     1
102
RTVSPost2010Prop44ColorIndex
 90
        5
102
RTVSPost2010Prop44ColorRGB
 90
      255
102
RTVSPost2010PropOp44
 70
     1
102
RTVSPost2010Prop45
280
     0
102
RTVSPost2010PropOp45
 70
     1
102
RTVSPost2010Prop46
 90
       50
102
RTVSPost2010PropOp46
 70
     1
102
RTVSPost2010Prop47
 90
       50
102
RTVSPost2010PropOp47
 70
     1
102
RTVSPost2010Prop48
 90
       50
102
RTVSPost2010PropOp48
 70
     1
102
RTVSPost2010Prop49
280
     0
102
RTVSPost2010PropOp49
 70
     1
102
RTVSPost2010Prop50
 90
       50
102
RTVSPost2010PropOp50
 70
     1
102
RTVSPost2010Prop51ColorIndex
 90
      256
102
RTVSPost2010Prop51ColorRGB
 90
-16777216
102
RTVSPost2010PropOp51
 70
     0
102
RTVSPost2010Prop52
140
1.0
102
RTVSPost2010PropOp52
 70
     0
102
RTVSPost2010Prop53
 90
        2
102
RTVSPost2010PropOp53
 70
     1
102
RTVSPost2010Prop54
  1
strokes_ogs.tif
102
RTVSPost2010PropOp54
 70
     1
102
RTVSPost2010Prop55
280
     0
102
RTVSPost2010PropOp55
 70
     1
102
RTVSPost2010Prop56
140
1.0
102
RTVSPost2010PropOp56
 70
     1
102
RTVSPost2010Prop57
140
1.0
102
RTVSPost2010PropOp57
 70
     1
  0
XRECORD
  5
A86
102
{ACAD_REACTORS
330
A85
102
}
330
A85
100
AcDbXrecord
280
     1
102
RTVSPost2010Prop28
280
     0
102
RTVSPost2010PropOp28
 70
     0
102
RTVSPost2010Prop29
280
     1
102
RTVSPost2010PropOp29
 70
     0
102
RTVSPost2010Prop30
280
     1
102
RTVSPost2010PropOp30
 70
     0
102
RTVSPost2010Prop31
280
     0
102
RTVSPost2010PropOp31
 70
     0
102
RTVSPost2010Prop32
280
     0
102
RTVSPost2010PropOp32
 70
     0
102
RTVSPost2010Prop33
280
     0
102
RTVSPost2010PropOp33
 70
     0
102
RTVSPost2010Prop34
280
     0
102
RTVSPost2010PropOp34
 70
     0
102
RTVSPost2010Prop35
280
     0
102
RTVSPost2010PropOp35
 70
     0
102
RTVSPost2010Prop36
280
     0
102
RTVSPost2010PropOp36
 70
     0
102
RTVSPost2010Prop37
 90
       50
102
RTVSPost2010PropOp37
 70
     0
102
RTVSPost2010Prop38
140
0.0
102
RTVSPost2010PropOp38
 70
     0
102
RTVSPost2010Prop39
140
1.0
102
RTVSPost2010PropOp39
 70
     0
102
RTVSPost2010Prop40
 90
        0
102
RTVSPost2010PropOp40
 70
     0
102
RTVSPost2010Prop41ColorIndex
 90
       18
102
RTVSPost2010Prop41ColorRGB
 90
        0
102
RTVSPost2010PropOp41
 70
     0
102
RTVSPost2010Prop42
 90
       50
102
RTVSPost2010PropOp42
 70
     0
102
RTVSPost2010Prop43
 90
        3
102
RTVSPost2010PropOp43
 70
     0
102
RTVSPost2010Prop44ColorIndex
 90
        5
102
RTVSPost2010Prop44ColorRGB
 90
      255
102
RTVSPost2010PropOp44
 70
     0
102
RTVSPost2010Prop45
280
     0
102
RTVSPost2010PropOp45
 70
     0
102
RTVSPost2010Prop46
 90
       50
102
RTVSPost2010PropOp46
 70
     0
102
RTVSPost2010Prop47
 90
       50
102
RTVSPost2010PropOp47
 70
     0
102
RTVSPost2010Prop48
 90
       50
102
RTVSPost2010PropOp48
 70
     0
102
RTVSPost2010Prop49
280
     0
102
RTVSPost2010PropOp49
 70
     0
102
RTVSPost2010Prop50
 90
       50
102
RTVSPost2010PropOp50
 70
     0
102
RTVSPost2010Prop51ColorIndex
 90
      256
102
RTVSPost2010Prop51ColorRGB
 90
-16777216
102
RTVSPost2010PropOp51
 70
     0
102
RTVSPost2010Prop52
140
1.0
102
RTVSPost2010PropOp52
 70
     0
102
RTVSPost2010Prop53
 90
        2
102
RTVSPost2010PropOp53
 70
     0
102
RTVSPost2010Prop54
  1
strokes_ogs.tif
102
RTVSPost2010PropOp54
 70
     0
102
RTVSPost2010Prop55
280
     0
102
RTVSPost2010PropOp55
 70
     0
102
RTVSPost2010Prop56
140
1.0
102
RTVSPost2010PropOp56
 70
     0
102
RTVSPost2010Prop57
140
1.0
102
RTVSPost2010PropOp57
 70
     0
  0
XRECORD
  5
A76
102
{ACAD_REACTORS
330
A75
102
}
330
A75
100
AcDbXrecord
280
     1
102
RTVSPost2010Prop28
280
     0
102
RTVSPost2010PropOp28
 70
     1
102
RTVSPost2010Prop29
280
     1
102
RTVSPost2010PropOp29
 70
     1
102
RTVSPost2010Prop30
280
     1
102
RTVSPost2010PropOp30
 70
     1
102
RTVSPost2010Prop31
280
     0
102
RTVSPost2010PropOp31
 70
     1
102
RTVSPost2010Prop32
280
     0
102
RTVSPost2010PropOp32
 70
     1
102
RTVSPost2010Prop33
280
     0
102
RTVSPost2010PropOp33
 70
     1
102
RTVSPost2010Prop34
280
     0
102
RTVSPost2010PropOp34
 70
     1
102
RTVSPost2010Prop35
280
     0
102
RTVSPost2010PropOp35
 70
     1
102
RTVSPost2010Prop36
280
     0
102
RTVSPost2010PropOp36
 70
     1
102
RTVSPost2010Prop37
 90
       50
102
RTVSPost2010PropOp37
 70
     1
102
RTVSPost2010Prop38
140
0.0
102
RTVSPost2010PropOp38
 70
     1
102
RTVSPost2010Prop39
140
1.0
102
RTVSPost2010PropOp39
 70
     1
102
RTVSPost2010Prop40
 90
        0
102
RTVSPost2010PropOp40
 70
     1
102
RTVSPost2010Prop41ColorIndex
 90
       18
102
RTVSPost2010Prop41ColorRGB
 90
        0
102
RTVSPost2010PropOp41
 70
     1
102
RTVSPost2010Prop42
 90
       50
102
RTVSPost2010PropOp42
 70
     1
102
RTVSPost2010Prop43
 90
        3
102
RTVSPost2010PropOp43
 70
     1
102
RTVSPost2010Prop44ColorIndex
 90
        5
102
RTVSPost2010Prop44ColorRGB
 90
      255
102
RTVSPost2010PropOp44
 70
     1
102
RTVSPost2010Prop45
280
     0
102
RTVSPost2010PropOp45
 70
     1
102
RTVSPost2010Prop46
 90
       50
102
RTVSPost2010PropOp46
 70
     1
102
RTVSPost2010Prop47
 90
       50
102
RTVSPost2010PropOp47
 70
     1
102
RTVSPost2010Prop48
 90
       50
102
RTVSPost2010PropOp48
 70
     1
102
RTVSPost2010Prop49
280
     0
102
RTVSPost2010PropOp49
 70
     1
102
RTVSPost2010Prop50
 90
       50
102
RTVSPost2010PropOp50
 70
     1
102
RTVSPost2010Prop51ColorIndex
 90
      256
102
RTVSPost2010Prop51ColorRGB
 90
-16777216
102
RTVSPost2010PropOp51
 70
     0
102
RTVSPost2010Prop52
140
1.0
102
RTVSPost2010PropOp52
 70
     0
102
RTVSPost2010Prop53
 90
        2
102
RTVSPost2010PropOp53
 70
     1
102
RTVSPost2010Prop54
  1
strokes_ogs.tif
102
RTVSPost2010PropOp54
 70
     1
102
RTVSPost2010Prop55
280
     0
102
RTVSPost2010PropOp55
 70
     1
102
RTVSPost2010Prop56
140
1.0
102
RTVSPost2010PropOp56
 70
     1
102
RTVSPost2010Prop57
140
1.0
102
RTVSPost2010PropOp57
 70
     1
  0
XRECORD
  5
A88
102
{ACAD_REACTORS
330
A87
102
}
330
A87
100
AcDbXrecord
280
     1
102
RTVSPost2010Prop28
280
     0
102
RTVSPost2010PropOp28
 70
     0
102
RTVSPost2010Prop29
280
     1
102
RTVSPost2010PropOp29
 70
     0
102
RTVSPost2010Prop30
280
     1
102
RTVSPost2010PropOp30
 70
     0
102
RTVSPost2010Prop31
280
     0
102
RTVSPost2010PropOp31
 70
     0
102
RTVSPost2010Prop32
280
     0
102
RTVSPost2010PropOp32
 70
     0
102
RTVSPost2010Prop33
280
     0
102
RTVSPost2010PropOp33
 70
     0
102
RTVSPost2010Prop34
280
     0
102
RTVSPost2010PropOp34
 70
     0
102
RTVSPost2010Prop35
280
     0
102
RTVSPost2010PropOp35
 70
     0
102
RTVSPost2010Prop36
280
     0
102
RTVSPost2010PropOp36
 70
     0
102
RTVSPost2010Prop37
 90
       50
102
RTVSPost2010PropOp37
 70
     0
102
RTVSPost2010Prop38
140
0.0
102
RTVSPost2010PropOp38
 70
     0
102
RTVSPost2010Prop39
140
1.0
102
RTVSPost2010PropOp39
 70
     0
102
RTVSPost2010Prop40
 90
        0
102
RTVSPost2010PropOp40
 70
     0
102
RTVSPost2010Prop41ColorIndex
 90
       18
102
RTVSPost2010Prop41ColorRGB
 90
        0
102
RTVSPost2010PropOp41
 70
     0
102
RTVSPost2010Prop42
 90
       50
102
RTVSPost2010PropOp42
 70
     0
102
RTVSPost2010Prop43
 90
        3
102
RTVSPost2010PropOp43
 70
     0
102
RTVSPost2010Prop44ColorIndex
 90
        5
102
RTVSPost2010Prop44ColorRGB
 90
      255
102
RTVSPost2010PropOp44
 70
     0
102
RTVSPost2010Prop45
280
     0
102
RTVSPost2010PropOp45
 70
     0
102
RTVSPost2010Prop46
 90
       50
102
RTVSPost2010PropOp46
 70
     0
102
RTVSPost2010Prop47
 90
       50
102
RTVSPost2010PropOp47
 70
     0
102
RTVSPost2010Prop48
 90
       50
102
RTVSPost2010PropOp48
 70
     0
102
RTVSPost2010Prop49
280
     0
102
RTVSPost2010PropOp49
 70
     0
102
RTVSPost2010Prop50
 90
       50
102
RTVSPost2010PropOp50
 70
     0
102
RTVSPost2010Prop51ColorIndex
 90
      256
102
RTVSPost2010Prop51ColorRGB
 90
-16777216
102
RTVSPost2010PropOp51
 70
     0
102
RTVSPost2010Prop52
140
1.0
102
RTVSPost2010PropOp52
 70
     0
102
RTVSPost2010Prop53
 90
        2
102
RTVSPost2010PropOp53
 70
     0
102
RTVSPost2010Prop54
  1
strokes_ogs.tif
102
RTVSPost2010PropOp54
 70
     0
102
RTVSPost2010Prop55
280
     0
102
RTVSPost2010PropOp55
 70
     0
102
RTVSPost2010Prop56
140
1.0
102
RTVSPost2010PropOp56
 70
     0
102
RTVSPost2010Prop57
140
1.0
102
RTVSPost2010PropOp57
 70
     0
  0
XRECORD
  5
A6E
102
{ACAD_REACTORS
330
A6D
102
}
330
A6D
100
AcDbXrecord
280
     1
102
RTVSPost2010Prop28
280
     0
102
RTVSPost2010PropOp28
 70
     1
102
RTVSPost2010Prop29
280
     1
102
RTVSPost2010PropOp29
 70
     1
102
RTVSPost2010Prop30
280
     1
102
RTVSPost2010PropOp30
 70
     1
102
RTVSPost2010Prop31
280
     0
102
RTVSPost2010PropOp31
 70
     1
102
RTVSPost2010Prop32
280
     0
102
RTVSPost2010PropOp32
 70
     1
102
RTVSPost2010Prop33
280
     0
102
RTVSPost2010PropOp33
 70
     1
102
RTVSPost2010Prop34
280
     0
102
RTVSPost2010PropOp34
 70
     1
102
RTVSPost2010Prop35
280
     0
102
RTVSPost2010PropOp35
 70
     1
102
RTVSPost2010Prop36
280
     0
102
RTVSPost2010PropOp36
 70
     1
102
RTVSPost2010Prop37
 90
       50
102
RTVSPost2010PropOp37
 70
     1
102
RTVSPost2010Prop38
140
0.0
102
RTVSPost2010PropOp38
 70
     1
102
RTVSPost2010Prop39
140
1.0
102
RTVSPost2010PropOp39
 70
     1
102
RTVSPost2010Prop40
 90
        0
102
RTVSPost2010PropOp40
 70
     1
102
RTVSPost2010Prop41ColorIndex
 90
       18
102
RTVSPost2010Prop41ColorRGB
 90
        0
102
RTVSPost2010PropOp41
 70
     1
102
RTVSPost2010Prop42
 90
       50
102
RTVSPost2010PropOp42
 70
     1
102
RTVSPost2010Prop43
 90
        3
102
RTVSPost2010PropOp43
 70
     1
102
RTVSPost2010Prop44ColorIndex
 90
        5
102
RTVSPost2010Prop44ColorRGB
 90
      255
102
RTVSPost2010PropOp44
 70
     1
102
RTVSPost2010Prop45
280
     0
102
RTVSPost2010PropOp45
 70
     1
102
RTVSPost2010Prop46
 90
       50
102
RTVSPost2010PropOp46
 70
     1
102
RTVSPost2010Prop47
 90
       50
102
RTVSPost2010PropOp47
 70
     1
102
RTVSPost2010Prop48
 90
       50
102
RTVSPost2010PropOp48
 70
     1
102
RTVSPost2010Prop49
280
     0
102
RTVSPost2010PropOp49
 70
     1
102
RTVSPost2010Prop50
 90
       50
102
RTVSPost2010PropOp50
 70
     1
102
RTVSPost2010Prop51ColorIndex
 90
      256
102
RTVSPost2010Prop51ColorRGB
 90
-16777216
102
RTVSPost2010PropOp51
 70
     0
102
RTVSPost2010Prop52
140
1.0
102
RTVSPost2010PropOp52
 70
     0
102
RTVSPost2010Prop53
 90
        2
102
RTVSPost2010PropOp53
 70
     1
102
RTVSPost2010Prop54
  1
strokes_ogs.tif
102
RTVSPost2010PropOp54
 70
     1
102
RTVSPost2010Prop55
280
     0
102
RTVSPost2010PropOp55
 70
     1
102
RTVSPost2010Prop56
140
1.0
102
RTVSPost2010PropOp56
 70
     1
102
RTVSPost2010Prop57
140
1.0
102
RTVSPost2010PropOp57
 70
     1
  0
XRECORD
  5
A84
102
{ACAD_REACTORS
330
A83
102
}
330
A83
100
AcDbXrecord
280
     1
102
RTVSPost2010Prop28
280
     0
102
RTVSPost2010PropOp28
 70
     1
102
RTVSPost2010Prop29
280
     1
102
RTVSPost2010PropOp29
 70
     1
102
RTVSPost2010Prop30
280
     1
102
RTVSPost2010PropOp30
 70
     1
102
RTVSPost2010Prop31
280
     0
102
RTVSPost2010PropOp31
 70
     1
102
RTVSPost2010Prop32
280
     0
102
RTVSPost2010PropOp32
 70
     1
102
RTVSPost2010Prop33
280
     0
102
RTVSPost2010PropOp33
 70
     1
102
RTVSPost2010Prop34
280
     0
102
RTVSPost2010PropOp34
 70
     1
102
RTVSPost2010Prop35
280
     0
102
RTVSPost2010PropOp35
 70
     1
102
RTVSPost2010Prop36
280
     0
102
RTVSPost2010PropOp36
 70
     1
102
RTVSPost2010Prop37
 90
       50
102
RTVSPost2010PropOp37
 70
     1
102
RTVSPost2010Prop38
140
0.0
102
RTVSPost2010PropOp38
 70
     1
102
RTVSPost2010Prop39
140
1.0
102
RTVSPost2010PropOp39
 70
     1
102
RTVSPost2010Prop40
 90
        0
102
RTVSPost2010PropOp40
 70
     1
102
RTVSPost2010Prop41ColorIndex
 90
       18
102
RTVSPost2010Prop41ColorRGB
 90
        0
102
RTVSPost2010PropOp41
 70
     1
102
RTVSPost2010Prop42
 90
       50
102
RTVSPost2010PropOp42
 70
     1
102
RTVSPost2010Prop43
 90
        3
102
RTVSPost2010PropOp43
 70
     1
102
RTVSPost2010Prop44ColorIndex
 90
        5
102
RTVSPost2010Prop44ColorRGB
 90
      255
102
RTVSPost2010PropOp44
 70
     1
102
RTVSPost2010Prop45
280
     0
102
RTVSPost2010PropOp45
 70
     1
102
RTVSPost2010Prop46
 90
       50
102
RTVSPost2010PropOp46
 70
     1
102
RTVSPost2010Prop47
 90
       50
102
RTVSPost2010PropOp47
 70
     1
102
RTVSPost2010Prop48
 90
       50
102
RTVSPost2010PropOp48
 70
     1
102
RTVSPost2010Prop49
280
     0
102
RTVSPost2010PropOp49
 70
     1
102
RTVSPost2010Prop50
 90
       50
102
RTVSPost2010PropOp50
 70
     1
102
RTVSPost2010Prop51ColorIndex
 90
      256
102
RTVSPost2010Prop51ColorRGB
 90
-16777216
102
RTVSPost2010PropOp51
 70
     0
102
RTVSPost2010Prop52
140
1.0
102
RTVSPost2010PropOp52
 70
     0
102
RTVSPost2010Prop53
 90
        2
102
RTVSPost2010PropOp53
 70
     1
102
RTVSPost2010Prop54
  1
strokes_ogs.tif
102
RTVSPost2010PropOp54
 70
     1
102
RTVSPost2010Prop55
280
     0
102
RTVSPost2010PropOp55
 70
     1
102
RTVSPost2010Prop56
140
1.0
102
RTVSPost2010PropOp56
 70
     1
102
RTVSPost2010Prop57
140
1.0
102
RTVSPost2010PropOp57
 70
     1
  0
XRECORD
  5
A82
102
{ACAD_REACTORS
330
A81
102
}
330
A81
100
AcDbXrecord
280
     1
102
RTVSPost2010Prop28
280
     0
102
RTVSPost2010PropOp28
 70
     1
102
RTVSPost2010Prop29
280
     1
102
RTVSPost2010PropOp29
 70
     1
102
RTVSPost2010Prop30
280
     1
102
RTVSPost2010PropOp30
 70
     1
102
RTVSPost2010Prop31
280
     0
102
RTVSPost2010PropOp31
 70
     1
102
RTVSPost2010Prop32
280
     0
102
RTVSPost2010PropOp32
 70
     1
102
RTVSPost2010Prop33
280
     0
102
RTVSPost2010PropOp33
 70
     1
102
RTVSPost2010Prop34
280
     0
102
RTVSPost2010PropOp34
 70
     1
102
RTVSPost2010Prop35
280
     0
102
RTVSPost2010PropOp35
 70
     1
102
RTVSPost2010Prop36
280
     0
102
RTVSPost2010PropOp36
 70
     1
102
RTVSPost2010Prop37
 90
       50
102
RTVSPost2010PropOp37
 70
     1
102
RTVSPost2010Prop38
140
0.0
102
RTVSPost2010PropOp38
 70
     1
102
RTVSPost2010Prop39
140
1.0
102
RTVSPost2010PropOp39
 70
     1
102
RTVSPost2010Prop40
 90
        0
102
RTVSPost2010PropOp40
 70
     1
102
RTVSPost2010Prop41ColorIndex
 90
       18
102
RTVSPost2010Prop41ColorRGB
 90
        0
102
RTVSPost2010PropOp41
 70
     1
102
RTVSPost2010Prop42
 90
       50
102
RTVSPost2010PropOp42
 70
     1
102
RTVSPost2010Prop43
 90
        3
102
RTVSPost2010PropOp43
 70
     1
102
RTVSPost2010Prop44ColorIndex
 90
        5
102
RTVSPost2010Prop44ColorRGB
 90
      255
102
RTVSPost2010PropOp44
 70
     1
102
RTVSPost2010Prop45
280
     0
102
RTVSPost2010PropOp45
 70
     1
102
RTVSPost2010Prop46
 90
       50
102
RTVSPost2010PropOp46
 70
     1
102
RTVSPost2010Prop47
 90
       50
102
RTVSPost2010PropOp47
 70
     1
102
RTVSPost2010Prop48
 90
       50
102
RTVSPost2010PropOp48
 70
     1
102
RTVSPost2010Prop49
280
     0
102
RTVSPost2010PropOp49
 70
     1
102
RTVSPost2010Prop50
 90
       50
102
RTVSPost2010PropOp50
 70
     1
102
RTVSPost2010Prop51ColorIndex
 90
      256
102
RTVSPost2010Prop51ColorRGB
 90
-16777216
102
RTVSPost2010PropOp51
 70
     0
102
RTVSPost2010Prop52
140
1.0
102
RTVSPost2010PropOp52
 70
     0
102
RTVSPost2010Prop53
 90
        2
102
RTVSPost2010PropOp53
 70
     1
102
RTVSPost2010Prop54
  1
strokes_ogs.tif
102
RTVSPost2010PropOp54
 70
     1
102
RTVSPost2010Prop55
280
     0
102
RTVSPost2010PropOp55
 70
     1
102
RTVSPost2010Prop56
140
1.0
102
RTVSPost2010PropOp56
 70
     1
102
RTVSPost2010Prop57
140
1.0
102
RTVSPost2010PropOp57
 70
     1
  0
XRECORD
  5
A7C
102
{ACAD_REACTORS
330
A7B
102
}
330
A7B
100
AcDbXrecord
280
     1
102
RTVSPost2010Prop28
280
     0
102
RTVSPost2010PropOp28
 70
     1
102
RTVSPost2010Prop29
280
     1
102
RTVSPost2010PropOp29
 70
     1
102
RTVSPost2010Prop30
280
     1
102
RTVSPost2010PropOp30
 70
     1
102
RTVSPost2010Prop31
280
     0
102
RTVSPost2010PropOp31
 70
     1
102
RTVSPost2010Prop32
280
     0
102
RTVSPost2010PropOp32
 70
     1
102
RTVSPost2010Prop33
280
     0
102
RTVSPost2010PropOp33
 70
     1
102
RTVSPost2010Prop34
280
     0
102
RTVSPost2010PropOp34
 70
     1
102
RTVSPost2010Prop35
280
     0
102
RTVSPost2010PropOp35
 70
     1
102
RTVSPost2010Prop36
280
     0
102
RTVSPost2010PropOp36
 70
     1
102
RTVSPost2010Prop37
 90
       50
102
RTVSPost2010PropOp37
 70
     1
102
RTVSPost2010Prop38
140
0.0
102
RTVSPost2010PropOp38
 70
     1
102
RTVSPost2010Prop39
140
1.0
102
RTVSPost2010PropOp39
 70
     1
102
RTVSPost2010Prop40
 90
        0
102
RTVSPost2010PropOp40
 70
     1
102
RTVSPost2010Prop41ColorIndex
 90
       18
102
RTVSPost2010Prop41ColorRGB
 90
        0
102
RTVSPost2010PropOp41
 70
     1
102
RTVSPost2010Prop42
 90
       50
102
RTVSPost2010PropOp42
 70
     1
102
RTVSPost2010Prop43
 90
        3
102
RTVSPost2010PropOp43
 70
     1
102
RTVSPost2010Prop44ColorIndex
 90
        5
102
RTVSPost2010Prop44ColorRGB
 90
      255
102
RTVSPost2010PropOp44
 70
     1
102
RTVSPost2010Prop45
280
     0
102
RTVSPost2010PropOp45
 70
     1
102
RTVSPost2010Prop46
 90
       50
102
RTVSPost2010PropOp46
 70
     1
102
RTVSPost2010Prop47
 90
       50
102
RTVSPost2010PropOp47
 70
     1
102
RTVSPost2010Prop48
 90
       50
102
RTVSPost2010PropOp48
 70
     1
102
RTVSPost2010Prop49
280
     0
102
RTVSPost2010PropOp49
 70
     1
102
RTVSPost2010Prop50
 90
       50
102
RTVSPost2010PropOp50
 70
     1
102
RTVSPost2010Prop51ColorIndex
 90
      256
102
RTVSPost2010Prop51ColorRGB
 90
-16777216
102
RTVSPost2010PropOp51
 70
     0
102
RTVSPost2010Prop52
140
1.0
102
RTVSPost2010PropOp52
 70
     0
102
RTVSPost2010Prop53
 90
        2
102
RTVSPost2010PropOp53
 70
     1
102
RTVSPost2010Prop54
  1
strokes_ogs.tif
102
RTVSPost2010PropOp54
 70
     1
102
RTVSPost2010Prop55
280
     0
102
RTVSPost2010PropOp55
 70
     1
102
RTVSPost2010Prop56
140
1.0
102
RTVSPost2010PropOp56
 70
     1
102
RTVSPost2010Prop57
140
1.0
102
RTVSPost2010PropOp57
 70
     1
  0
XRECORD
  5
A7E
102
{ACAD_REACTORS
330
A7D
102
}
330
A7D
100
AcDbXrecord
280
     1
102
RTVSPost2010Prop28
280
     0
102
RTVSPost2010PropOp28
 70
     1
102
RTVSPost2010Prop29
280
     1
102
RTVSPost2010PropOp29
 70
     1
102
RTVSPost2010Prop30
280
     1
102
RTVSPost2010PropOp30
 70
     1
102
RTVSPost2010Prop31
280
     0
102
RTVSPost2010PropOp31
 70
     1
102
RTVSPost2010Prop32
280
     0
102
RTVSPost2010PropOp32
 70
     1
102
RTVSPost2010Prop33
280
     0
102
RTVSPost2010PropOp33
 70
     1
102
RTVSPost2010Prop34
280
     0
102
RTVSPost2010PropOp34
 70
     1
102
RTVSPost2010Prop35
280
     0
102
RTVSPost2010PropOp35
 70
     1
102
RTVSPost2010Prop36
280
     0
102
RTVSPost2010PropOp36
 70
     1
102
RTVSPost2010Prop37
 90
       50
102
RTVSPost2010PropOp37
 70
     1
102
RTVSPost2010Prop38
140
0.0
102
RTVSPost2010PropOp38
 70
     1
102
RTVSPost2010Prop39
140
1.0
102
RTVSPost2010PropOp39
 70
     1
102
RTVSPost2010Prop40
 90
        0
102
RTVSPost2010PropOp40
 70
     1
102
RTVSPost2010Prop41ColorIndex
 90
       18
102
RTVSPost2010Prop41ColorRGB
 90
        0
102
RTVSPost2010PropOp41
 70
     1
102
RTVSPost2010Prop42
 90
       50
102
RTVSPost2010PropOp42
 70
     1
102
RTVSPost2010Prop43
 90
        3
102
RTVSPost2010PropOp43
 70
     1
102
RTVSPost2010Prop44ColorIndex
 90
        5
102
RTVSPost2010Prop44ColorRGB
 90
      255
102
RTVSPost2010PropOp44
 70
     1
102
RTVSPost2010Prop45
280
     0
102
RTVSPost2010PropOp45
 70
     1
102
RTVSPost2010Prop46
 90
       50
102
RTVSPost2010PropOp46
 70
     1
102
RTVSPost2010Prop47
 90
       50
102
RTVSPost2010PropOp47
 70
     1
102
RTVSPost2010Prop48
 90
       50
102
RTVSPost2010PropOp48
 70
     1
102
RTVSPost2010Prop49
280
     0
102
RTVSPost2010PropOp49
 70
     1
102
RTVSPost2010Prop50
 90
       50
102
RTVSPost2010PropOp50
 70
     1
102
RTVSPost2010Prop51ColorIndex
 90
      256
102
RTVSPost2010Prop51ColorRGB
 90
-16777216
102
RTVSPost2010PropOp51
 70
     0
102
RTVSPost2010Prop52
140
1.0
102
RTVSPost2010PropOp52
 70
     0
102
RTVSPost2010Prop53
 90
        2
102
RTVSPost2010PropOp53
 70
     1
102
RTVSPost2010Prop54
  1
strokes_ogs.tif
102
RTVSPost2010PropOp54
 70
     1
102
RTVSPost2010Prop55
280
     0
102
RTVSPost2010PropOp55
 70
     1
102
RTVSPost2010Prop56
140
1.0
102
RTVSPost2010PropOp56
 70
     1
102
RTVSPost2010Prop57
140
1.0
102
RTVSPost2010PropOp57
 70
     1
  0
XRECORD
  5
A74
102
{ACAD_REACTORS
330
A73
102
}
330
A73
100
AcDbXrecord
280
     1
102
RTVSPost2010Prop28
280
     0
102
RTVSPost2010PropOp28
 70
     1
102
RTVSPost2010Prop29
280
     1
102
RTVSPost2010PropOp29
 70
     1
102
RTVSPost2010Prop30
280
     1
102
RTVSPost2010PropOp30
 70
     1
102
RTVSPost2010Prop31
280
     0
102
RTVSPost2010PropOp31
 70
     1
102
RTVSPost2010Prop32
280
     0
102
RTVSPost2010PropOp32
 70
     1
102
RTVSPost2010Prop33
280
     0
102
RTVSPost2010PropOp33
 70
     1
102
RTVSPost2010Prop34
280
     0
102
RTVSPost2010PropOp34
 70
     1
102
RTVSPost2010Prop35
280
     0
102
RTVSPost2010PropOp35
 70
     1
102
RTVSPost2010Prop36
280
     0
102
RTVSPost2010PropOp36
 70
     1
102
RTVSPost2010Prop37
 90
       50
102
RTVSPost2010PropOp37
 70
     1
102
RTVSPost2010Prop38
140
0.0
102
RTVSPost2010PropOp38
 70
     1
102
RTVSPost2010Prop39
140
1.0
102
RTVSPost2010PropOp39
 70
     1
102
RTVSPost2010Prop40
 90
        0
102
RTVSPost2010PropOp40
 70
     1
102
RTVSPost2010Prop41ColorIndex
 90
       18
102
RTVSPost2010Prop41ColorRGB
 90
        0
102
RTVSPost2010PropOp41
 70
     1
102
RTVSPost2010Prop42
 90
       50
102
RTVSPost2010PropOp42
 70
     1
102
RTVSPost2010Prop43
 90
        3
102
RTVSPost2010PropOp43
 70
     1
102
RTVSPost2010Prop44ColorIndex
 90
        5
102
RTVSPost2010Prop44ColorRGB
 90
      255
102
RTVSPost2010PropOp44
 70
     1
102
RTVSPost2010Prop45
280
     0
102
RTVSPost2010PropOp45
 70
     1
102
RTVSPost2010Prop46
 90
       50
102
RTVSPost2010PropOp46
 70
     1
102
RTVSPost2010Prop47
 90
       50
102
RTVSPost2010PropOp47
 70
     1
102
RTVSPost2010Prop48
 90
       50
102
RTVSPost2010PropOp48
 70
     1
102
RTVSPost2010Prop49
280
     0
102
RTVSPost2010PropOp49
 70
     1
102
RTVSPost2010Prop50
 90
       50
102
RTVSPost2010PropOp50
 70
     1
102
RTVSPost2010Prop51ColorIndex
 90
      256
102
RTVSPost2010Prop51ColorRGB
 90
-16777216
102
RTVSPost2010PropOp51
 70
     0
102
RTVSPost2010Prop52
140
1.0
102
RTVSPost2010PropOp52
 70
     0
102
RTVSPost2010Prop53
 90
        2
102
RTVSPost2010PropOp53
 70
     1
102
RTVSPost2010Prop54
  1
strokes_ogs.tif
102
RTVSPost2010PropOp54
 70
     1
102
RTVSPost2010Prop55
280
     0
102
RTVSPost2010PropOp55
 70
     1
102
RTVSPost2010Prop56
140
1.0
102
RTVSPost2010PropOp56
 70
     1
102
RTVSPost2010Prop57
140
1.0
102
RTVSPost2010PropOp57
 70
     1
  0
XRECORD
  5
A68
102
{ACAD_REACTORS
330
A67
102
}
330
A67
100
AcDbXrecord
280
     1
102
RTVSPost2010Prop28
280
     0
102
RTVSPost2010PropOp28
 70
     1
102
RTVSPost2010Prop29
280
     1
102
RTVSPost2010PropOp29
 70
     1
102
RTVSPost2010Prop30
280
     1
102
RTVSPost2010PropOp30
 70
     1
102
RTVSPost2010Prop31
280
     0
102
RTVSPost2010PropOp31
 70
     1
102
RTVSPost2010Prop32
280
     0
102
RTVSPost2010PropOp32
 70
     1
102
RTVSPost2010Prop33
280
     0
102
RTVSPost2010PropOp33
 70
     1
102
RTVSPost2010Prop34
280
     0
102
RTVSPost2010PropOp34
 70
     1
102
RTVSPost2010Prop35
280
     0
102
RTVSPost2010PropOp35
 70
     1
102
RTVSPost2010Prop36
280
     0
102
RTVSPost2010PropOp36
 70
     1
102
RTVSPost2010Prop37
 90
       50
102
RTVSPost2010PropOp37
 70
     1
102
RTVSPost2010Prop38
140
0.0
102
RTVSPost2010PropOp38
 70
     1
102
RTVSPost2010Prop39
140
1.0
102
RTVSPost2010PropOp39
 70
     1
102
RTVSPost2010Prop40
 90
        0
102
RTVSPost2010PropOp40
 70
     1
102
RTVSPost2010Prop41ColorIndex
 90
       18
102
RTVSPost2010Prop41ColorRGB
 90
        0
102
RTVSPost2010PropOp41
 70
     1
102
RTVSPost2010Prop42
 90
       50
102
RTVSPost2010PropOp42
 70
     1
102
RTVSPost2010Prop43
 90
        3
102
RTVSPost2010PropOp43
 70
     1
102
RTVSPost2010Prop44ColorIndex
 90
        5
102
RTVSPost2010Prop44ColorRGB
 90
      255
102
RTVSPost2010PropOp44
 70
     1
102
RTVSPost2010Prop45
280
     0
102
RTVSPost2010PropOp45
 70
     1
102
RTVSPost2010Prop46
 90
       50
102
RTVSPost2010PropOp46
 70
     1
102
RTVSPost2010Prop47
 90
       50
102
RTVSPost2010PropOp47
 70
     1
102
RTVSPost2010Prop48
 90
       50
102
RTVSPost2010PropOp48
 70
     1
102
RTVSPost2010Prop49
280
     0
102
RTVSPost2010PropOp49
 70
     1
102
RTVSPost2010Prop50
 90
       50
102
RTVSPost2010PropOp50
 70
     1
102
RTVSPost2010Prop51ColorIndex
 90
      256
102
RTVSPost2010Prop51ColorRGB
 90
-16777216
102
RTVSPost2010PropOp51
 70
     0
102
RTVSPost2010Prop52
140
1.0
102
RTVSPost2010PropOp52
 70
     0
102
RTVSPost2010Prop53
 90
        2
102
RTVSPost2010PropOp53
 70
     1
102
RTVSPost2010Prop54
  1
strokes_ogs.tif
102
RTVSPost2010PropOp54
 70
     1
102
RTVSPost2010Prop55
280
     0
102
RTVSPost2010PropOp55
 70
     1
102
RTVSPost2010Prop56
140
1.0
102
RTVSPost2010PropOp56
 70
     1
102
RTVSPost2010Prop57
140
1.0
102
RTVSPost2010PropOp57
 70
     1
  0
XRECORD
  5
A80
102
{ACAD_REACTORS
330
A7F
102
}
330
A7F
100
AcDbXrecord
280
     1
102
RTVSPost2010Prop28
280
     0
102
RTVSPost2010PropOp28
 70
     1
102
RTVSPost2010Prop29
280
     1
102
RTVSPost2010PropOp29
 70
     1
102
RTVSPost2010Prop30
280
     1
102
RTVSPost2010PropOp30
 70
     1
102
RTVSPost2010Prop31
280
     0
102
RTVSPost2010PropOp31
 70
     1
102
RTVSPost2010Prop32
280
     0
102
RTVSPost2010PropOp32
 70
     1
102
RTVSPost2010Prop33
280
     0
102
RTVSPost2010PropOp33
 70
     1
102
RTVSPost2010Prop34
280
     0
102
RTVSPost2010PropOp34
 70
     1
102
RTVSPost2010Prop35
280
     0
102
RTVSPost2010PropOp35
 70
     1
102
RTVSPost2010Prop36
280
     0
102
RTVSPost2010PropOp36
 70
     1
102
RTVSPost2010Prop37
 90
       50
102
RTVSPost2010PropOp37
 70
     1
102
RTVSPost2010Prop38
140
0.0
102
RTVSPost2010PropOp38
 70
     1
102
RTVSPost2010Prop39
140
1.0
102
RTVSPost2010PropOp39
 70
     1
102
RTVSPost2010Prop40
 90
        0
102
RTVSPost2010PropOp40
 70
     1
102
RTVSPost2010Prop41ColorIndex
 90
       18
102
RTVSPost2010Prop41ColorRGB
 90
        0
102
RTVSPost2010PropOp41
 70
     1
102
RTVSPost2010Prop42
 90
       50
102
RTVSPost2010PropOp42
 70
     1
102
RTVSPost2010Prop43
 90
        3
102
RTVSPost2010PropOp43
 70
     1
102
RTVSPost2010Prop44ColorIndex
 90
        5
102
RTVSPost2010Prop44ColorRGB
 90
      255
102
RTVSPost2010PropOp44
 70
     1
102
RTVSPost2010Prop45
280
     0
102
RTVSPost2010PropOp45
 70
     1
102
RTVSPost2010Prop46
 90
       50
102
RTVSPost2010PropOp46
 70
     1
102
RTVSPost2010Prop47
 90
       50
102
RTVSPost2010PropOp47
 70
     1
102
RTVSPost2010Prop48
 90
       50
102
RTVSPost2010PropOp48
 70
     1
102
RTVSPost2010Prop49
280
     0
102
RTVSPost2010PropOp49
 70
     1
102
RTVSPost2010Prop50
 90
       50
102
RTVSPost2010PropOp50
 70
     1
102
RTVSPost2010Prop51ColorIndex
 90
      256
102
RTVSPost2010Prop51ColorRGB
 90
-16777216
102
RTVSPost2010PropOp51
 70
     0
102
RTVSPost2010Prop52
140
1.0
102
RTVSPost2010PropOp52
 70
     0
102
RTVSPost2010Prop53
 90
        2
102
RTVSPost2010PropOp53
 70
     1
102
RTVSPost2010Prop54
  1
strokes_ogs.tif
102
RTVSPost2010PropOp54
 70
     1
102
RTVSPost2010Prop55
280
     0
102
RTVSPost2010PropOp55
 70
     1
102
RTVSPost2010Prop56
140
1.0
102
RTVSPost2010PropOp56
 70
     1
102
RTVSPost2010Prop57
140
1.0
102
RTVSPost2010PropOp57
 70
     1
  0
ENDSEC
  0
EOF
