  0
SECTION
  2
HEADER
  9
$ACADVER
  1
AC1024
  9
$ACADMAINTVER
 70
   181
  9
$DWGCODEPAGE
  3
ANSI_1252
  9
$AUTHOR
  1
KIM
  9
$CUSTOMPROPERTYTAG
  1
Manager
  9
$CUSTOMPROPERTY
  1

  9
$CUSTOMPROPERTYTAG
  1
Company
  9
$CUSTOMPROPERTY
  1

  9
$CUSTOMPROPERTYTAG
  1
Category
  9
$CUSTOMPROPERTY
  1

  9
$CUSTOMPROPERTYTAG
  1
Part Number
  9
$CUSTOMPROPERTY
  1
491104_
  9
$CUSTOMPROPERTYTAG
  1
Description
  9
$CUSTOMPROPERTY
  1

  9
$CUSTOMPROPERTYTAG
  1
Project
  9
$CUSTOMPROPERTY
  1

  9
$CUSTOMPROPERTYTAG
  1
Designer
  9
$CUSTOMPROPERTY
  1
KIM
  9
$CUSTOMPROPERTYTAG
  1
Engineer
  9
$CUSTOMPROPERTY
  1

  9
$CUSTOMPROPERTYTAG
  1
Authority
  9
$CUSTOMPROPERTY
  1

  9
$CUSTOMPROPERTYTAG
  1
Cost Center
  9
$CUSTOMPROPERTY
  1

  9
$CUSTOMPROPERTYTAG
  1
Cost
  9
$CUSTOMPROPERTY
  1

  9
$CUSTOMPROPERTYTAG
  1
Vendor
  9
$CUSTOMPROPERTY
  1

  9
$CUSTOMPROPERTYTAG
  1
User Status
  9
$CUSTOMPROPERTY
  1

  9
$CUSTOMPROPERTYTAG
  1
Design Status
  9
$CUSTOMPROPERTY
  1
WorkInProgress
  9
$CUSTOMPROPERTYTAG
  1
Checked by
  9
$CUSTOMPROPERTY
  1

  9
$CUSTOMPROPERTYTAG
  1
Engr Approved by
  9
$CUSTOMPROPERTY
  1

  9
$CUSTOMPROPERTYTAG
  1
Mfg Approved by
  9
$CUSTOMPROPERTY
  1

  9
$CUSTOMPROPERTYTAG
  1
Date Created
  9
$CUSTOMPROPERTY
  1
08/29/2017
  9
$CUSTOMPROPERTYTAG
  1
Stock Number
  9
$CUSTOMPROPERTY
  1

  9
$INSBASE
 10
0.0
 20
0.0
 30
0.0
  9
$EXTMIN
 10
0.0
 20
0.0
 30
0.0
  9
$EXTMAX
 10
840.9999999999998
 20
594.0
 30
0.0
  9
$LIMMIN
 10
0.0
 20
0.0
  9
$LIMMAX
 10
840.9999999999998
 20
594.0
  9
$ORTHOMODE
 70
     0
  9
$REGENMODE
 70
     1
  9
$FILLMODE
 70
     1
  9
$QTEXTMODE
 70
     0
  9
$MIRRTEXT
 70
     0
  9
$LTSCALE
 40
1.0
  9
$ATTMODE
 70
     1
  9
$TEXTSIZE
 40
0.2
  9
$TRACEWID
 40
0.05
  9
$TEXTSTYLE
  7
Standard
  9
$CLAYER
  8
0
  9
$CELTYPE
  6
ByLayer
  9
$CECOLOR
 62
   256
  9
$CELTSCALE
 40
1.0
  9
$DISPSILH
 70
     0
  9
$DIMSCALE
 40
1.0
  9
$DIMASZ
 40
1.799999999999999
  9
$DIMEXO
 40
0.0625
  9
$DIMDLI
 40
0.38
  9
$DIMRND
 40
0.0
  9
$DIMDLE
 40
0.0
  9
$DIMEXE
 40
0.18
  9
$DIMTP
 40
0.0
  9
$DIMTM
 40
0.0
  9
$DIMTXT
 40
0.25
  9
$DIMCEN
 40
0.09
  9
$DIMTSZ
 40
0.0
  9
$DIMTOL
 70
     0
  9
$DIMLIM
 70
     0
  9
$DIMTIH
 70
     1
  9
$DIMTOH
 70
     1
  9
$DIMSE1
 70
     0
  9
$DIMSE2
 70
     0
  9
$DIMTAD
 70
     0
  9
$DIMZIN
 70
     0
  9
$DIMBLK
  1

  9
$DIMASO
 70
     1
  9
$DIMSHO
 70
     1
  9
$DIMPOST
  1

  9
$DIMAPOST
  1

  9
$DIMALT
 70
     0
  9
$DIMALTD
 70
     2
  9
$DIMALTF
 40
25.4
  9
$DIMLFAC
 40
1.0
  9
$DIMTOFL
 70
     0
  9
$DIMTVP
 40
0.0
  9
$DIMTIX
 70
     0
  9
$DIMSOXD
 70
     0
  9
$DIMSAH
 70
     0
  9
$DIMBLK1
  1

  9
$DIMBLK2
  1

  9
$DIMSTYLE
  2
Standard
  9
$DIMCLRD
 70
     0
  9
$DIMCLRE
 70
     0
  9
$DIMCLRT
 70
     0
  9
$DIMTFAC
 40
1.0
  9
$DIMGAP
 40
0.09
  9
$DIMJUST
 70
     0
  9
$DIMSD1
 70
     0
  9
$DIMSD2
 70
     0
  9
$DIMTOLJ
 70
     1
  9
$DIMTZIN
 70
     0
  9
$DIMALTZ
 70
     0
  9
$DIMALTTZ
 70
     0
  9
$DIMUPT
 70
     0
  9
$DIMDEC
 70
     4
  9
$DIMTDEC
 70
     4
  9
$DIMALTU
 70
     2
  9
$DIMALTTD
 70
     2
  9
$DIMTXSTY
  7
Standard
  9
$DIMAUNIT
 70
     0
  9
$DIMADEC
 70
     0
  9
$DIMALTRND
 40
0.0
  9
$DIMAZIN
 70
     0
  9
$DIMDSEP
 70
    46
  9
$DIMATFIT
 70
     3
  9
$DIMFRAC
 70
     0
  9
$DIMLDRBLK
  1

  9
$DIMLUNIT
 70
     2
  9
$DIMLWD
 70
    -2
  9
$DIMLWE
 70
    -2
  9
$DIMTMOVE
 70
     0
  9
$DIMFXL
 40
1.0
  9
$DIMFXLON
 70
     0
  9
$DIMJOGANG
 40
0.7853981633974483
  9
$DIMTFILL
 70
     0
  9
$DIMTFILLCLR
 70
     0
  9
$DIMARCSYM
 70
     0
  9
$DIMLTYPE
  6

  9
$DIMLTEX1
  6

  9
$DIMLTEX2
  6

  9
$DIMTXTDIRECTION
 70
     0
  9
$LUNITS
 70
     2
  9
$LUPREC
 70
     4
  9
$SKETCHINC
 40
0.1
  9
$FILLETRAD
 40
0.0
  9
$AUNITS
 70
     0
  9
$AUPREC
 70
     0
  9
$MENU
  1
.
  9
$ELEVATION
 40
0.0
  9
$PELEVATION
 40
0.0
  9
$THICKNESS
 40
0.0
  9
$LIMCHECK
 70
     0
  9
$CHAMFERA
 40
0.0
  9
$CHAMFERB
 40
0.0
  9
$CHAMFERC
 40
0.0
  9
$CHAMFERD
 40
0.0
  9
$SKPOLY
 70
     0
  9
$TDCREATE
 40
2457995.021000313
  9
$TDUCREATE
 40
2457994.896000313
  9
$TDUPDATE
 40
2457995.021000313
  9
$TDUUPDATE
 40
2457994.896000313
  9
$TDINDWG
 40
0.0000059144
  9
$TDUSRTIMER
 40
0.0000059144
  9
$USRTIMER
 70
     1
  9
$ANGBASE
 50
0.0
  9
$ANGDIR
 70
     0
  9
$PDMODE
 70
     0
  9
$PDSIZE
 40
0.0
  9
$PLINEWID
 40
0.0
  9
$SPLFRAME
 70
     0
  9
$SPLINETYPE
 70
     6
  9
$SPLINESEGS
 70
     8
  9
$HANDSEED
  5
AD6
  9
$SURFTAB1
 70
     6
  9
$SURFTAB2
 70
     6
  9
$SURFTYPE
 70
     6
  9
$SURFU
 70
     6
  9
$SURFV
 70
     6
  9
$UCSBASE
  2

  9
$UCSNAME
  2

  9
$UCSORG
 10
0.0
 20
0.0
 30
0.0
  9
$UCSXDIR
 10
1.0
 20
0.0
 30
0.0
  9
$UCSYDIR
 10
0.0
 20
1.0
 30
0.0
  9
$UCSORTHOREF
  2

  9
$UCSORTHOVIEW
 70
     0
  9
$UCSORGTOP
 10
0.0
 20
0.0
 30
0.0
  9
$UCSORGBOTTOM
 10
0.0
 20
0.0
 30
0.0
  9
$UCSORGLEFT
 10
0.0
 20
0.0
 30
0.0
  9
$UCSORGRIGHT
 10
0.0
 20
0.0
 30
0.0
  9
$UCSORGFRONT
 10
0.0
 20
0.0
 30
0.0
  9
$UCSORGBACK
 10
0.0
 20
0.0
 30
0.0
  9
$PUCSBASE
  2

  9
$PUCSNAME
  2

  9
$PUCSORG
 10
0.0
 20
0.0
 30
0.0
  9
$PUCSXDIR
 10
1.0
 20
0.0
 30
0.0
  9
$PUCSYDIR
 10
0.0
 20
1.0
 30
0.0
  9
$PUCSORTHOREF
  2

  9
$PUCSORTHOVIEW
 70
     0
  9
$PUCSORGTOP
 10
0.0
 20
0.0
 30
0.0
  9
$PUCSORGBOTTOM
 10
0.0
 20
0.0
 30
0.0
  9
$PUCSORGLEFT
 10
0.0
 20
0.0
 30
0.0
  9
$PUCSORGRIGHT
 10
0.0
 20
0.0
 30
0.0
  9
$PUCSORGFRONT
 10
0.0
 20
0.0
 30
0.0
  9
$PUCSORGBACK
 10
0.0
 20
0.0
 30
0.0
  9
$USERI1
 70
     0
  9
$USERI2
 70
     0
  9
$USERI3
 70
     0
  9
$USERI4
 70
     0
  9
$USERI5
 70
     0
  9
$USERR1
 40
0.0
  9
$USERR2
 40
0.0
  9
$USERR3
 40
0.0
  9
$USERR4
 40
0.0
  9
$USERR5
 40
0.0
  9
$WORLDVIEW
 70
     1
  9
$SHADEDGE
 70
     3
  9
$SHADEDIF
 70
    70
  9
$TILEMODE
 70
     1
  9
$MAXACTVP
 70
    64
  9
$PINSBASE
 10
0.0
 20
0.0
 30
0.0
  9
$PLIMCHECK
 70
     0
  9
$PEXTMIN
 10
0.0
 20
0.0
 30
0.0
  9
$PEXTMAX
 10
840.9999999999998
 20
594.0
 30
0.0
  9
$PLIMMIN
 10
0.0
 20
0.0
  9
$PLIMMAX
 10
840.9999999999998
 20
594.0
  9
$UNITMODE
 70
     0
  9
$VISRETAIN
 70
     1
  9
$PLINEGEN
 70
     0
  9
$PSLTSCALE
 70
     1
  9
$TREEDEPTH
 70
  3020
  9
$CMLSTYLE
  2
Standard
  9
$CMLJUST
 70
     0
  9
$CMLSCALE
 40
1.0
  9
$PROXYGRAPHICS
 70
     1
  9
$MEASUREMENT
 70
     1
  9
$CELWEIGHT
370
    -1
  9
$ENDCAPS
280
     0
  9
$JOINSTYLE
280
     0
  9
$LWDISPLAY
290
     0
  9
$INSUNITS
 70
     4
  9
$HYPERLINKBASE
  1

  9
$STYLESHEET
  1

  9
$XEDIT
290
     1
  9
$CEPSNTYPE
380
     0
  9
$PSTYLEMODE
290
     1
  9
$FINGERPRINTGUID
  2
{130D0580-76D9-44FB-B4E5-813489EB2F69}
  9
$VERSIONGUID
  2
{6FD9C29D-0035-43C2-84AC-363890D612B3}
  9
$EXTNAMES
290
     1
  9
$PSVPSCALE
 40
0.0
  9
$OLESTARTUP
290
     0
  9
$SORTENTS
280
   127
  9
$INDEXCTL
280
     0
  9
$HIDETEXT
280
     1
  9
$XCLIPFRAME
280
     2
  9
$HALOGAP
280
     0
  9
$OBSCOLOR
 70
   257
  9
$OBSLTYPE
280
     0
  9
$INTERSECTIONDISPLAY
280
     0
  9
$INTERSECTIONCOLOR
 70
   257
  9
$DIMASSOC
280
     1
  9
$PROJECTNAME
  1

  9
$CAMERADISPLAY
290
     0
  9
$LENSLENGTH
 40
50.0
  9
$CAMERAHEIGHT
 40
0.0
  9
$STEPSPERSEC
 40
2.0
  9
$STEPSIZE
 40
6.0
  9
$3DDWFPREC
 40
2.0
  9
$PSOLWIDTH
 40
0.25
  9
$PSOLHEIGHT
 40
4.0
  9
$LOFTANG1
 40
1.570796326794896
  9
$LOFTANG2
 40
1.570796326794896
  9
$LOFTMAG1
 40
0.0
  9
$LOFTMAG2
 40
0.0
  9
$LOFTPARAM
 70
     7
  9
$LOFTNORMALS
280
     1
  9
$LATITUDE
 40
37.795
  9
$LONGITUDE
 40
-122.394
  9
$NORTHDIRECTION
 40
0.0
  9
$TIMEZONE
 70
 -8000
  9
$LIGHTGLYPHDISPLAY
280
     1
  9
$TILEMODELIGHTSYNCH
280
     1
  9
$CMATERIAL
347
11
  9
$SOLIDHIST
280
     0
  9
$SHOWHIST
280
     1
  9
$DWFFRAME
280
     2
  9
$DGNFRAME
280
     0
  9
$REALWORLDSCALE
290
     1
  9
$INTERFERECOLOR
 62
     1
  9
$INTERFEREOBJVS
345
33
  9
$INTERFEREVPVS
346
30
  9
$CSHADOW
280
     0
  9
$SHADOWPLANELOCATION
 40
0.0
  0
ENDSEC
  0
SECTION
  2
CLASSES
  0
CLASS
  1
ACDBDICTIONARYWDFLT
  2
AcDbDictionaryWithDefault
  3
ObjectDBX Classes
 90
        0
 91
        1
280
     0
281
     0
  0
CLASS
  1
MATERIAL
  2
AcDbMaterial
  3
ObjectDBX Classes
 90
     1153
 91
        3
280
     0
281
     0
  0
CLASS
  1
VISUALSTYLE
  2
AcDbVisualStyle
  3
ObjectDBX Classes
 90
     4095
 91
       24
280
     0
281
     0
  0
CLASS
  1
SCALE
  2
AcDbScale
  3
ObjectDBX Classes
 90
     1153
 91
       17
280
     0
281
     0
  0
CLASS
  1
TABLESTYLE
  2
AcDbTableStyle
  3
ObjectDBX Classes
 90
     4095
 91
        1
280
     0
281
     0
  0
CLASS
  1
MLEADERSTYLE
  2
AcDbMLeaderStyle
  3
ACDB_MLEADERSTYLE_CLASS
 90
     4095
 91
        1
280
     0
281
     0
  0
CLASS
  1
ACDBSECTIONVIEWSTYLE
  2
AcDbSectionViewStyle
  3
ObjectDBX Classes
 90
     1025
 91
        1
280
     0
281
     0
  0
CLASS
  1
ACDBDETAILVIEWSTYLE
  2
AcDbDetailViewStyle
  3
ObjectDBX Classes
 90
     1025
 91
        1
280
     0
281
     0
  0
CLASS
  1
DICTIONARYVAR
  2
AcDbDictionaryVar
  3
ObjectDBX Classes
 90
        0
 91
        5
280
     0
281
     0
  0
CLASS
  1
CELLSTYLEMAP
  2
AcDbCellStyleMap
  3
ObjectDBX Classes
 90
     1152
 91
        1
280
     0
281
     0
  0
ENDSEC
  0
SECTION
  2
TABLES
  0
TABLE
  2
VPORT
  5
8
330
0
100
AcDbSymbolTable
 70
     1
  0
VPORT
  5
57
330
8
100
AcDbSymbolTableRecord
100
AcDbViewportTableRecord
  2
*Active
 70
     0
 10
0.0
 20
0.0
 11
1.0
 21
1.0
 12
420.4999999999999
 22
297.0
 13
0.0
 23
0.0
 14
1.0
 24
1.0
 15
0.0
 25
0.0
 16
0.0
 26
0.0
 36
1.0
 17
0.0
 27
0.0
 37
0.0
 40
594.0
 41
1.415824915824915
 42
50.0
 43
0.0
 44
0.0
 50
0.0
 51
0.0
 71
     0
 72
   100
 73
     1
 74
     1
 75
     0
 76
     0
 77
     0
 78
     0
281
     0
 65
     1
110
0.0
120
0.0
130
0.0
111
1.0
121
0.0
131
0.0
112
0.0
122
1.0
132
0.0
 79
     0
146
0.0
 60
     3
 61
     5
292
     1
282
     1
141
0.0
142
0.0
 63
   250
421
  3355443
  0
ENDTAB
  0
TABLE
  2
LTYPE
  5
5
330
0
100
AcDbSymbolTable
 70
    59
  0
LTYPE
  5
5B
330
5
100
AcDbSymbolTableRecord
100
AcDbLinetypeTableRecord
  2
ByBlock
 70
     0
  3

 72
    65
 73
     0
 40
0.0
  0
LTYPE
  5
5C
330
5
100
AcDbSymbolTableRecord
100
AcDbLinetypeTableRecord
  2
ByLayer
 70
     0
  3

 72
    65
 73
     0
 40
0.0
  0
LTYPE
  5
5D
330
5
100
AcDbSymbolTableRecord
100
AcDbLinetypeTableRecord
  2
Continuous
 70
     0
  3
Solid line
 72
    65
 73
     0
 40
0.0
  0
LTYPE
  5
78
330
5
100
AcDbSymbolTableRecord
100
AcDbLinetypeTableRecord
  2
Section_View_Lines
 70
     0
  3
Section View Lines
 72
    65
 73
     4
 40
0.8406
 49
0.6614
 74
     0
 49
-0.0827
 74
     0
 49
0.0138
 74
     0
 49
-0.0827
 74
     0
  0
LTYPE
  5
79
330
5
100
AcDbSymbolTableRecord
100
AcDbLinetypeTableRecord
  2
CHAIN
 70
     0
  3
Chain ____ _ ____ _ ____ _ ____ _ ____ _ ____
 72
    65
 73
     4
 40
0.3543
 49
0.2362
 74
     0
 49
-0.0295
 74
     0
 49
0.0591
 74
     0
 49
-0.0295
 74
     0
  0
LTYPE
  5
7A
330
5
100
AcDbSymbolTableRecord
100
AcDbLinetypeTableRecord
  2
DASH_DOT
 70
     0
  3
Dash dot _._._._._._._._._._._._._._._.
 72
    65
 73
     4
 40
0.182
 49
0.1181
 74
     0
 49
-0.0295
 74
     0
 49
0.0049
 74
     0
 49
-0.0295
 74
     0
  0
LTYPE
  5
7B
330
5
100
AcDbSymbolTableRecord
100
AcDbLinetypeTableRecord
  2
DASH_DOUBLE_DOT
 70
     0
  3
Dash Double Dot __ __ . __ __ . __ __ . __ _
 72
    65
 73
     6
 40
0.2164
 49
0.1181
 74
     0
 49
-0.0295
 74
     0
 49
0.0049
 74
     0
 49
-0.0295
 74
     0
 49
0.0049
 74
     0
 49
-0.0295
 74
     0
  0
LTYPE
  5
7C
330
5
100
AcDbSymbolTableRecord
100
AcDbLinetypeTableRecord
  2
DASH_TRIPLE_DOT
 70
     0
  3
Dash Triple-Dot _ . . . _ . . . _ . . . _
 72
    65
 73
     8
 40
0.2508
 49
0.1181
 74
     0
 49
-0.0295
 74
     0
 49
0.0049
 74
     0
 49
-0.0295
 74
     0
 49
0.0049
 74
     0
 49
-0.0295
 74
     0
 49
0.0049
 74
     0
 49
-0.0295
 74
     0
  0
LTYPE
  5
7D
330
5
100
AcDbSymbolTableRecord
100
AcDbLinetypeTableRecord
  2
DASHED
 70
     0
  3
Dashed __ __ __ __ __ __ __ __ __ __ __ __ __ _
 72
    65
 73
     2
 40
0.2068
 49
0.1655
 74
     0
 49
-0.0413
 74
     0
  0
LTYPE
  5
7E
330
5
100
AcDbSymbolTableRecord
100
AcDbLinetypeTableRecord
  2
DASHED_SPACE
 70
     0
  3
Dashed Space __ __ __ __ __ __ __ __ __ __ __ _
 72
    65
 73
     2
 40
0.2067
 49
0.1654
 74
     0
 49
-0.0413
 74
     0
  0
LTYPE
  5
7F
330
5
100
AcDbSymbolTableRecord
100
AcDbLinetypeTableRecord
  2
DOTTED
 70
     0
  3
Dotted . . . . . . . . . . . . . . . . . . . . 
 72
    65
 73
     2
 40
0.0481
 49
0.0068
 74
     0
 49
-0.0413
 74
     0
  0
LTYPE
  5
80
330
5
100
AcDbSymbolTableRecord
100
AcDbLinetypeTableRecord
  2
DOUBLE_DASH_CHAIN
 70
     0
  3
Double Dash Chain ___ _ _ ___ _ _ ___ _ _ ___ _
 72
    65
 73
     6
 40
1.240299999999999
 49
0.6614
 74
     0
 49
-0.0827
 74
     0
 49
0.1654
 74
     0
 49
-0.0827
 74
     0
 49
0.1654
 74
     0
 49
-0.0827
 74
     0
  0
LTYPE
  5
81
330
5
100
AcDbSymbolTableRecord
100
AcDbLinetypeTableRecord
  2
DOUBLE_DASH_DOT
 70
     0
  3
Double Dash Dot __ __ . __ __ . __ __ . __ _
 72
    65
 73
     6
 40
0.3296
 49
0.1181
 74
     0
 49
-0.0295
 74
     0
 49
0.1181
 74
     0
 49
-0.0295
 74
     0
 49
0.0049
 74
     0
 49
-0.0295
 74
     0
  0
LTYPE
  5
82
330
5
100
AcDbSymbolTableRecord
100
AcDbLinetypeTableRecord
  2
DOUBLE_DASH_DOUBLE_DOT
 70
     0
  3
Double Dash Double Dot _ _ . . _ _ . . _ _
 72
    65
 73
     8
 40
0.364
 49
0.1181
 74
     0
 49
-0.0295
 74
     0
 49
0.1181
 74
     0
 49
-0.0295
 74
     0
 49
0.0049
 74
     0
 49
-0.0295
 74
     0
 49
0.0049
 74
     0
 49
-0.0295
 74
     0
  0
LTYPE
  5
83
330
5
100
AcDbSymbolTableRecord
100
AcDbLinetypeTableRecord
  2
DOUBLE_DASH_TRIPLE_DOT
 70
     0
  3
Double Dash Triple Dot __ __ . . . __ __ . . .
 72
    65
 73
    10
 40
0.3984
 49
0.1181
 74
     0
 49
-0.0295
 74
     0
 49
0.1181
 74
     0
 49
-0.0295
 74
     0
 49
0.0049
 74
     0
 49
-0.0295
 74
     0
 49
0.0049
 74
     0
 49
-0.0295
 74
     0
 49
0.0049
 74
     0
 49
-0.0295
 74
     0
  0
LTYPE
  5
84
330
5
100
AcDbSymbolTableRecord
100
AcDbLinetypeTableRecord
  2
LONG_DASH_DOTTED
 70
     0
  3
Long Dash Dotted ____ . ____ . ____ . ____ . _
 72
    65
 73
     4
 40
0.3001
 49
0.2362
 74
     0
 49
-0.0295
 74
     0
 49
0.0049
 74
     0
 49
-0.0295
 74
     0
  0
LTYPE
  5
85
330
5
100
AcDbSymbolTableRecord
100
AcDbLinetypeTableRecord
  2
LONG_DASH_DOUBLE_DOT
 70
     0
  3
Long Dash Double Dot ____ . . ____ . . ____ . .
 72
    65
 73
     6
 40
0.3345
 49
0.2362
 74
     0
 49
-0.0295
 74
     0
 49
0.0049
 74
     0
 49
-0.0295
 74
     0
 49
0.0049
 74
     0
 49
-0.0295
 74
     0
  0
LTYPE
  5
86
330
5
100
AcDbSymbolTableRecord
100
AcDbLinetypeTableRecord
  2
LONG_DASH_TRIPLE_DOT
 70
     0
  3
Long Dash Triple Dot ____ ... ____ ... ____
 72
    65
 73
     8
 40
0.3689
 49
0.2362
 74
     0
 49
-0.0295
 74
     0
 49
0.0049
 74
     0
 49
-0.0295
 74
     0
 49
0.0049
 74
     0
 49
-0.0295
 74
     0
 49
0.0049
 74
     0
 49
-0.0295
 74
     0
  0
LTYPE
  5
87
330
5
100
AcDbSymbolTableRecord
100
AcDbLinetypeTableRecord
  2
BORDER
 70
     0
  3
Border __ __ . __ __ . __ __ . __ __ . __ __ .
 72
    65
 73
     6
 40
44.45
 49
12.7
 74
     0
 49
-6.349999999999999
 74
     0
 49
12.7
 74
     0
 49
-6.349999999999999
 74
     0
 49
0.0
 74
     0
 49
-6.349999999999999
 74
     0
  0
LTYPE
  5
88
330
5
100
AcDbSymbolTableRecord
100
AcDbLinetypeTableRecord
  2
BORDER2
 70
     0
  3
Border (.5x) __.__.__.__.__.__.__.__.__.__.__.
 72
    65
 73
     6
 40
22.225
 49
6.349999999999999
 74
     0
 49
-3.174999999999999
 74
     0
 49
6.349999999999999
 74
     0
 49
-3.174999999999999
 74
     0
 49
0.0
 74
     0
 49
-3.174999999999999
 74
     0
  0
LTYPE
  5
89
330
5
100
AcDbSymbolTableRecord
100
AcDbLinetypeTableRecord
  2
BORDERX2
 70
     0
  3
Border (2x) ____  ____  .  ____  ____  .  ___
 72
    65
 73
     6
 40
88.9
 49
25.4
 74
     0
 49
-12.7
 74
     0
 49
25.4
 74
     0
 49
-12.7
 74
     0
 49
0.0
 74
     0
 49
-12.7
 74
     0
  0
LTYPE
  5
8A
330
5
100
AcDbSymbolTableRecord
100
AcDbLinetypeTableRecord
  2
CENTER
 70
     0
  3
Center ____ _ ____ _ ____ _ ____ _ ____ _ ____
 72
    65
 73
     4
 40
50.8
 49
31.75
 74
     0
 49
-6.349999999999999
 74
     0
 49
6.349999999999999
 74
     0
 49
-6.349999999999999
 74
     0
  0
LTYPE
  5
8B
330
5
100
AcDbSymbolTableRecord
100
AcDbLinetypeTableRecord
  2
CENTER2
 70
     0
  3
Center (.5x) ___ _ ___ _ ___ _ ___ _ ___ _ ___
 72
    65
 73
     4
 40
28.575
 49
19.05
 74
     0
 49
-3.174999999999999
 74
     0
 49
3.174999999999999
 74
     0
 49
-3.174999999999999
 74
     0
  0
LTYPE
  5
8C
330
5
100
AcDbSymbolTableRecord
100
AcDbLinetypeTableRecord
  2
CENTERX2
 70
     0
  3
Center (2x) ________  __  ________  __  _____
 72
    65
 73
     4
 40
101.6
 49
63.5
 74
     0
 49
-12.7
 74
     0
 49
12.7
 74
     0
 49
-12.7
 74
     0
  0
LTYPE
  5
8D
330
5
100
AcDbSymbolTableRecord
100
AcDbLinetypeTableRecord
  2
DASHDOT2
 70
     0
  3
Dash dot (.5x) _._._._._._._._._._._._._._._.
 72
    65
 73
     4
 40
12.7
 49
6.349999999999999
 74
     0
 49
-3.174999999999999
 74
     0
 49
0.0
 74
     0
 49
-3.174999999999999
 74
     0
  0
LTYPE
  5
8E
330
5
100
AcDbSymbolTableRecord
100
AcDbLinetypeTableRecord
  2
DASHDOTX2
 70
     0
  3
Dash dot (2x) ____  .  ____  .  ____  .  ___
 72
    65
 73
     4
 40
50.8
 49
25.4
 74
     0
 49
-12.7
 74
     0
 49
0.0
 74
     0
 49
-12.7
 74
     0
  0
LTYPE
  5
8F
330
5
100
AcDbSymbolTableRecord
100
AcDbLinetypeTableRecord
  2
DASHED2
 70
     0
  3
Dashed (.5x) _ _ _ _ _ _ _ _ _ _ _ _ _ _ _ _ _
 72
    65
 73
     2
 40
9.524999999999998
 49
6.349999999999999
 74
     0
 49
-3.174999999999999
 74
     0
  0
LTYPE
  5
90
330
5
100
AcDbSymbolTableRecord
100
AcDbLinetypeTableRecord
  2
DASHEDX2
 70
     0
  3
Dashed (2x) ____  ____  ____  ____  ____  ___
 72
    65
 73
     2
 40
38.1
 49
25.4
 74
     0
 49
-12.7
 74
     0
  0
LTYPE
  5
91
330
5
100
AcDbSymbolTableRecord
100
AcDbLinetypeTableRecord
  2
DIVIDE
 70
     0
  3
Divide ____ . . ____ . . ____ . . ____ . . ____
 72
    65
 73
     6
 40
31.75
 49
12.7
 74
     0
 49
-6.349999999999999
 74
     0
 49
0.0
 74
     0
 49
-6.349999999999999
 74
     0
 49
0.0
 74
     0
 49
-6.349999999999999
 74
     0
  0
LTYPE
  5
92
330
5
100
AcDbSymbolTableRecord
100
AcDbLinetypeTableRecord
  2
DIVIDE2
 70
     0
  3
Divide (.5x) __..__..__..__..__..__..__..__.._
 72
    65
 73
     6
 40
15.875
 49
6.349999999999999
 74
     0
 49
-3.174999999999999
 74
     0
 49
0.0
 74
     0
 49
-3.174999999999999
 74
     0
 49
0.0
 74
     0
 49
-3.174999999999999
 74
     0
  0
LTYPE
  5
93
330
5
100
AcDbSymbolTableRecord
100
AcDbLinetypeTableRecord
  2
DIVIDEX2
 70
     0
  3
Divide (2x) ________  .  .  ________  .  .  _
 72
    65
 73
     6
 40
63.49999999999999
 49
25.4
 74
     0
 49
-12.7
 74
     0
 49
0.0
 74
     0
 49
-12.7
 74
     0
 49
0.0
 74
     0
 49
-12.7
 74
     0
  0
LTYPE
  5
94
330
5
100
AcDbSymbolTableRecord
100
AcDbLinetypeTableRecord
  2
DOT
 70
     0
  3
Dot . . . . . . . . . . . . . . . . . . . . . .
 72
    65
 73
     2
 40
6.349999999999999
 49
0.0
 74
     0
 49
-6.349999999999999
 74
     0
  0
LTYPE
  5
95
330
5
100
AcDbSymbolTableRecord
100
AcDbLinetypeTableRecord
  2
DOT2
 70
     0
  3
Dot (.5x) .....................................
 72
    65
 73
     2
 40
3.174999999999999
 49
0.0
 74
     0
 49
-3.174999999999999
 74
     0
  0
LTYPE
  5
96
330
5
100
AcDbSymbolTableRecord
100
AcDbLinetypeTableRecord
  2
DOTX2
 70
     0
  3
Dot (2x) .  .  .  .  .  .  .  .  .  .  .  .  . 
 72
    65
 73
     2
 40
12.7
 49
0.0
 74
     0
 49
-12.7
 74
     0
  0
LTYPE
  5
97
330
5
100
AcDbSymbolTableRecord
100
AcDbLinetypeTableRecord
  2
HIDDEN
 70
     0
  3
Hidden __ __ __ __ __ __ __ __ __ __ __ __ __ _
 72
    65
 73
     2
 40
9.524999999999998
 49
6.349999999999999
 74
     0
 49
-3.174999999999999
 74
     0
  0
LTYPE
  5
98
330
5
100
AcDbSymbolTableRecord
100
AcDbLinetypeTableRecord
  2
HIDDEN2
 70
     0
  3
Hidden (.5x) _ _ _ _ _ _ _ _ _ _ _ _ _ _ _ _ _
 72
    65
 73
     2
 40
4.762499999999999
 49
3.174999999999999
 74
     0
 49
-1.587499999999999
 74
     0
  0
LTYPE
  5
99
330
5
100
AcDbSymbolTableRecord
100
AcDbLinetypeTableRecord
  2
HIDDENX2
 70
     0
  3
Hidden (2x) ____ ____ ____ ____ ____ ____ ____
 72
    65
 73
     2
 40
19.05
 49
12.7
 74
     0
 49
-6.349999999999999
 74
     0
  0
LTYPE
  5
9A
330
5
100
AcDbSymbolTableRecord
100
AcDbLinetypeTableRecord
  2
PHANTOM
 70
     0
  3
Phantom ______  __  __  ______  __  __  ______
 72
    65
 73
     6
 40
63.5
 49
31.75
 74
     0
 49
-6.349999999999999
 74
     0
 49
6.349999999999999
 74
     0
 49
-6.349999999999999
 74
     0
 49
6.349999999999999
 74
     0
 49
-6.349999999999999
 74
     0
  0
LTYPE
  5
9B
330
5
100
AcDbSymbolTableRecord
100
AcDbLinetypeTableRecord
  2
PHANTOM2
 70
     0
  3
Phantom (.5x) ___ _ _ ___ _ _ ___ _ _ ___ _ _
 72
    65
 73
     6
 40
31.75
 49
15.875
 74
     0
 49
-3.174999999999999
 74
     0
 49
3.174999999999999
 74
     0
 49
-3.174999999999999
 74
     0
 49
3.174999999999999
 74
     0
 49
-3.174999999999999
 74
     0
  0
LTYPE
  5
9C
330
5
100
AcDbSymbolTableRecord
100
AcDbLinetypeTableRecord
  2
PHANTOMX2
 70
     0
  3
Phantom (2x) ____________    ____    ____   _
 72
    65
 73
     6
 40
127.0
 49
63.5
 74
     0
 49
-12.7
 74
     0
 49
12.7
 74
     0
 49
-12.7
 74
     0
 49
12.7
 74
     0
 49
-12.7
 74
     0
  0
LTYPE
  5
9D
330
5
100
AcDbSymbolTableRecord
100
AcDbLinetypeTableRecord
  2
ACAD_ISO02W100
 70
     0
  3
ISO dash __ __ __ __ __ __ __ __ __ __ __ __ __
 72
    65
 73
     2
 40
15.0
 49
12.0
 74
     0
 49
-3.0
 74
     0
  0
LTYPE
  5
9E
330
5
100
AcDbSymbolTableRecord
100
AcDbLinetypeTableRecord
  2
ACAD_ISO03W100
 70
     0
  3
ISO dash space __    __    __    __    __    __
 72
    65
 73
     2
 40
30.0
 49
12.0
 74
     0
 49
-18.0
 74
     0
  0
LTYPE
  5
9F
330
5
100
AcDbSymbolTableRecord
100
AcDbLinetypeTableRecord
  2
ACAD_ISO04W100
 70
     0
  3
ISO long-dash dot ____ . ____ . ____ . ____ . _
 72
    65
 73
     4
 40
30.0
 49
24.0
 74
     0
 49
-3.0
 74
     0
 49
0.0
 74
     0
 49
-3.0
 74
     0
  0
LTYPE
  5
A0
330
5
100
AcDbSymbolTableRecord
100
AcDbLinetypeTableRecord
  2
ACAD_ISO05W100
 70
     0
  3
ISO long-dash double-dot ____ .. ____ .. ____ .
 72
    65
 73
     6
 40
33.0
 49
24.0
 74
     0
 49
-3.0
 74
     0
 49
0.0
 74
     0
 49
-3.0
 74
     0
 49
0.0
 74
     0
 49
-3.0
 74
     0
  0
LTYPE
  5
A1
330
5
100
AcDbSymbolTableRecord
100
AcDbLinetypeTableRecord
  2
ACAD_ISO06W100
 70
     0
  3
ISO long-dash triple-dot ____ ... ____ ... ____
 72
    65
 73
     8
 40
36.0
 49
24.0
 74
     0
 49
-3.0
 74
     0
 49
0.0
 74
     0
 49
-3.0
 74
     0
 49
0.0
 74
     0
 49
-3.0
 74
     0
 49
0.0
 74
     0
 49
-3.0
 74
     0
  0
LTYPE
  5
A2
330
5
100
AcDbSymbolTableRecord
100
AcDbLinetypeTableRecord
  2
ACAD_ISO07W100
 70
     0
  3
ISO dot . . . . . . . . . . . . . . . . . . . .
 72
    65
 73
     2
 40
3.0
 49
0.0
 74
     0
 49
-3.0
 74
     0
  0
LTYPE
  5
A3
330
5
100
AcDbSymbolTableRecord
100
AcDbLinetypeTableRecord
  2
ACAD_ISO08W100
 70
     0
  3
ISO long-dash short-dash ____ __ ____ __ ____ _
 72
    65
 73
     4
 40
36.0
 49
24.0
 74
     0
 49
-3.0
 74
     0
 49
6.0
 74
     0
 49
-3.0
 74
     0
  0
LTYPE
  5
A4
330
5
100
AcDbSymbolTableRecord
100
AcDbLinetypeTableRecord
  2
ACAD_ISO09W100
 70
     0
  3
ISO long-dash double-short-dash ____ __ __ ____
 72
    65
 73
     6
 40
45.0
 49
24.0
 74
     0
 49
-3.0
 74
     0
 49
6.0
 74
     0
 49
-3.0
 74
     0
 49
6.0
 74
     0
 49
-3.0
 74
     0
  0
LTYPE
  5
A5
330
5
100
AcDbSymbolTableRecord
100
AcDbLinetypeTableRecord
  2
ACAD_ISO10W100
 70
     0
  3
ISO dash dot __ . __ . __ . __ . __ . __ . __ .
 72
    65
 73
     4
 40
18.0
 49
12.0
 74
     0
 49
-3.0
 74
     0
 49
0.0
 74
     0
 49
-3.0
 74
     0
  0
LTYPE
  5
A6
330
5
100
AcDbSymbolTableRecord
100
AcDbLinetypeTableRecord
  2
ACAD_ISO11W100
 70
     0
  3
ISO double-dash dot __ __ . __ __ . __ __ . __ 
 72
    65
 73
     6
 40
33.0
 49
12.0
 74
     0
 49
-3.0
 74
     0
 49
12.0
 74
     0
 49
-3.0
 74
     0
 49
0.0
 74
     0
 49
-3.0
 74
     0
  0
LTYPE
  5
A7
330
5
100
AcDbSymbolTableRecord
100
AcDbLinetypeTableRecord
  2
ACAD_ISO12W100
 70
     0
  3
ISO dash double-dot __ . . __ . . __ . . __ . .
 72
    65
 73
     6
 40
21.0
 49
12.0
 74
     0
 49
-3.0
 74
     0
 49
0.0
 74
     0
 49
-3.0
 74
     0
 49
0.0
 74
     0
 49
-3.0
 74
     0
  0
LTYPE
  5
A8
330
5
100
AcDbSymbolTableRecord
100
AcDbLinetypeTableRecord
  2
ACAD_ISO13W100
 70
     0
  3
ISO double-dash double-dot __ __ . . __ __ . . 
 72
    65
 73
     8
 40
36.0
 49
12.0
 74
     0
 49
-3.0
 74
     0
 49
12.0
 74
     0
 49
-3.0
 74
     0
 49
0.0
 74
     0
 49
-3.0
 74
     0
 49
0.0
 74
     0
 49
-3.0
 74
     0
  0
LTYPE
  5
A9
330
5
100
AcDbSymbolTableRecord
100
AcDbLinetypeTableRecord
  2
ACAD_ISO14W100
 70
     0
  3
ISO dash triple-dot __ . . . __ . . . __ . . . 
 72
    65
 73
     8
 40
24.0
 49
12.0
 74
     0
 49
-3.0
 74
     0
 49
0.0
 74
     0
 49
-3.0
 74
     0
 49
0.0
 74
     0
 49
-3.0
 74
     0
 49
0.0
 74
     0
 49
-3.0
 74
     0
  0
LTYPE
  5
AA
330
5
100
AcDbSymbolTableRecord
100
AcDbLinetypeTableRecord
  2
ACAD_ISO15W100
 70
     0
  3
ISO double-dash triple-dot __ __ . . . __ __ . 
 72
    65
 73
    10
 40
39.0
 49
12.0
 74
     0
 49
-3.0
 74
     0
 49
12.0
 74
     0
 49
-3.0
 74
     0
 49
0.0
 74
     0
 49
-3.0
 74
     0
 49
0.0
 74
     0
 49
-3.0
 74
     0
 49
0.0
 74
     0
 49
-3.0
 74
     0
  0
LTYPE
  5
AD
330
5
100
AcDbSymbolTableRecord
100
AcDbLinetypeTableRecord
  2
FENCELINE1
 70
     0
  3
Fenceline circle ----0-----0----0-----0----0---
 72
    65
 73
     4
 40
36.83
 49
6.349999999999999
 74
     0
 49
-2.54
 74
     4
 75
   133
340
AC
 46
2.54
 50
0.0
 44
-2.54
 45
0.0
 49
-2.54
 74
     0
 49
25.4
 74
     0
  0
LTYPE
  5
AE
330
5
100
AcDbSymbolTableRecord
100
AcDbLinetypeTableRecord
  2
FENCELINE2
 70
     0
  3
Fenceline square ----[]-----[]----[]-----[]----
 72
    65
 73
     4
 40
36.83
 49
6.349999999999999
 74
     0
 49
-2.54
 74
     4
 75
   132
340
AC
 46
2.54
 50
0.0
 44
-2.54
 45
0.0
 49
-2.54
 74
     0
 49
25.4
 74
     0
  0
LTYPE
  5
AF
330
5
100
AcDbSymbolTableRecord
100
AcDbLinetypeTableRecord
  2
TRACKS
 70
     0
  3
Tracks -|-|-|-|-|-|-|-|-|-|-|-|-|-|-|-|-|-|-|-|
 72
    65
 73
     2
 40
7.62
 49
3.81
 74
     4
 75
   130
340
AC
 46
6.349999999999999
 50
0.0
 44
0.0
 45
0.0
 49
3.81
 74
     0
  0
LTYPE
  5
B0
330
5
100
AcDbSymbolTableRecord
100
AcDbLinetypeTableRecord
  2
BATTING
 70
     0
  3
Batting SSSSSSSSSSSSSSSSSSSSSSSSSSSSSSSSSSSSSSS
 72
    65
 73
     4
 40
10.16254
 49
0.00254
 74
     0
 49
-2.54
 74
     4
 75
   134
340
AC
 46
2.54
 50
0.0
 44
-2.54
 45
0.0
 49
-5.08
 74
     4
 75
   134
340
AC
 46
2.54
 50
180.0
 44
2.54
 45
0.0
 49
-2.54
 74
     0
  0
LTYPE
  5
B1
330
5
100
AcDbSymbolTableRecord
100
AcDbLinetypeTableRecord
  2
HOT_WATER_SUPPLY
 70
     0
  3
Hot water supply ---- HW ---- HW ---- HW ----
 72
    65
 73
     3
 40
22.86
 49
12.7
 74
     0
 49
-5.08
 74
     2
 75
     0
340
55
 46
2.54
 50
0.0
 44
-2.54
 45
-1.27
  9
HW
 49
-5.08
 74
     0
  0
LTYPE
  5
B2
330
5
100
AcDbSymbolTableRecord
100
AcDbLinetypeTableRecord
  2
GAS_LINE
 70
     0
  3
Gas line ----GAS----GAS----GAS----GAS----GAS---
 72
    65
 73
     3
 40
24.13
 49
12.7
 74
     0
 49
-5.08
 74
     2
 75
     0
340
55
 46
2.54
 50
0.0
 44
-2.54
 45
-1.27
  9
GAS
 49
-6.349999999999999
 74
     0
  0
LTYPE
  5
B3
330
5
100
AcDbSymbolTableRecord
100
AcDbLinetypeTableRecord
  2
ZIGZAG
 70
     0
  3
Zig zag /\/\/\/\/\/\/\/\/\/\/\/\/\/\/\/\/\/\/\/
 72
    65
 73
     4
 40
20.32254
 49
0.00254
 74
     0
 49
-5.08
 74
     4
 75
   131
340
AC
 46
5.08
 50
0.0
 44
-5.08
 45
0.0
 49
-10.16
 74
     4
 75
   131
340
AC
 46
5.08
 50
180.0
 44
5.08
 45
0.0
 49
-5.08
 74
     0
  0
ENDTAB
  0
TABLE
  2
LAYER
  5
2
330
0
100
AcDbSymbolTable
 70
    27
  0
LAYER
  5
54
330
2
100
AcDbSymbolTableRecord
100
AcDbLayerTableRecord
  2
0
 70
     0
 62
     7
  6
Continuous
370
    -3
390
F
347
21
  0
LAYER
  5
B7
330
2
100
AcDbSymbolTableRecord
100
AcDbLayerTableRecord
  2
Border (ISO)
 70
     0
 62
     7
  6
Continuous
370
    70
390
F
347
21
  0
LAYER
  5
BC
330
2
100
AcDbSymbolTableRecord
100
AcDbLayerTableRecord
  2
Dimension (ISO)
 70
     0
 62
     7
  6
Continuous
370
    25
390
F
347
21
  0
LAYER
  5
BD
330
2
100
AcDbSymbolTableRecord
100
AcDbLayerTableRecord
  2
Hatch (ISO)
 70
     0
 62
     7
  6
Continuous
370
    18
390
F
347
21
  0
LAYER
  5
C3
330
2
100
AcDbSymbolTableRecord
100
AcDbLayerTableRecord
  2
Section Line (ISO)
 70
     0
 62
     7
  6
CHAIN
370
    70
390
F
347
21
  0
LAYER
  5
C5
330
2
100
AcDbSymbolTableRecord
100
AcDbLayerTableRecord
  2
Symbol (ISO)
 70
     0
 62
     7
  6
Continuous
370
    25
390
F
347
21
  0
LAYER
  5
C6
330
2
100
AcDbSymbolTableRecord
100
AcDbLayerTableRecord
  2
Title (ISO)
 70
     0
 62
     7
  6
Continuous
370
    50
390
F
347
21
  0
LAYER
  5
C8
330
2
100
AcDbSymbolTableRecord
100
AcDbLayerTableRecord
  2
Visible (ISO)
 70
     0
 62
     7
  6
Continuous
370
    50
390
F
347
21
  0
LAYER
  5
280
330
2
100
AcDbSymbolTableRecord
100
AcDbLayerTableRecord
  2
Defpoints
 70
     0
 62
     7
  6
Continuous
290
     0
370
    -3
390
F
347
21
  0
ENDTAB
  0
TABLE
  2
STYLE
  5
3
330
0
100
AcDbSymbolTable
 70
     5
  0
STYLE
  5
55
330
3
100
AcDbSymbolTableRecord
100
AcDbTextStyleTableRecord
  2
Standard
 70
     0
 40
0.0
 41
1.0
 50
0.0
 71
     0
 42
0.2
  3
tahoma.ttf
  4

1001
ACAD
1000
Tahoma
1071
      256
  0
STYLE
  5
5A
330
3
100
AcDbSymbolTableRecord
100
AcDbTextStyleTableRecord
  2
Annotative
 70
     0
 40
0.0
 41
1.0
 50
0.0
 71
     0
 42
0.2
  3
txt
  4

1001
AcadAnnotative
1000
AnnotativeData
1002
{
1070
     1
1070
     1
1002
}
  0
STYLE
  5
AC
330
3
100
AcDbSymbolTableRecord
100
AcDbTextStyleTableRecord
  2

 70
     1
 40
0.0
 41
1.0
 50
0.0
 71
     0
 42
0.2
  3
ltypeshp.shx
  4

  0
STYLE
  5
CD
330
3
100
AcDbSymbolTableRecord
100
AcDbTextStyleTableRecord
  2
Label Text (ISO)
 70
     0
 40
0.0
 41
1.0
 50
0.0
 71
     0
 42
0.2
  3
tahoma.ttf
  4

1001
ACAD
1000
Tahoma
1071
      256
  0
STYLE
  5
CE
330
3
100
AcDbSymbolTableRecord
100
AcDbTextStyleTableRecord
  2
Note Text (ISO)
 70
     0
 40
0.0
 41
1.0
 50
0.0
 71
     0
 42
0.2
  3
tahoma.ttf
  4

1001
ACAD
1000
Tahoma
1071
      256
  0
ENDTAB
  0
TABLE
  2
VIEW
  5
6
330
0
100
AcDbSymbolTable
 70
     0
  0
ENDTAB
  0
TABLE
  2
UCS
  5
7
330
0
100
AcDbSymbolTable
 70
     0
  0
ENDTAB
  0
TABLE
  2
APPID
  5
9
330
0
100
AcDbSymbolTable
 70
     3
  0
APPID
  5
56
330
9
100
AcDbSymbolTableRecord
100
AcDbRegAppTableRecord
  2
ACAD
 70
     0
  0
APPID
  5
5E
330
9
100
AcDbSymbolTableRecord
100
AcDbRegAppTableRecord
  2
AcadAnnotative
 70
     0
  0
APPID
  5
171
330
9
100
AcDbSymbolTableRecord
100
AcDbRegAppTableRecord
  2
AcadAnnoPO
 70
     0
  0
ENDTAB
  0
TABLE
  2
DIMSTYLE
  5
A
330
0
100
AcDbSymbolTable
 70
    15
100
AcDbDimStyleTable
 71
     2
340
D7
340
58
  0
DIMSTYLE
105
58
330
A
100
AcDbSymbolTableRecord
100
AcDbDimStyleTableRecord
  2
Standard
 70
     0
340
55
  0
DIMSTYLE
105
59
330
A
100
AcDbSymbolTableRecord
100
AcDbDimStyleTableRecord
  2
Annotative
 70
     0
340
55
1001
AcadAnnotative
1000
AnnotativeData
1002
{
1070
     1
1070
     1
1002
}
  0
DIMSTYLE
105
CF
330
A
100
AcDbSymbolTableRecord
100
AcDbDimStyleTableRecord
  2
Default - Method 1b (ISO)
 70
     0
 41
2.5
 42
0.0
 43
5.999999999999999
 44
3.174999999999999
 45
0.00000001
 46
10.0
 73
     0
 77
     1
 78
     8
 79
     2
140
2.5
143
0.03937
146
1.399999976158142
147
0.762
171
     3
172
     1
176
   256
177
   256
178
   232
179
     2
271
     2
272
     2
274
     3
278
    44
284
     8
286
     8
340
CE
371
    -1
372
    -1
  0
DIMSTYLE
105
D0
330
A
100
AcDbSymbolTableRecord
100
AcDbDimStyleTableRecord
  2
Default - Method 1b (ISO)$7
 70
     0
 41
2.5
 42
0.0
 43
5.999999999999999
 44
3.174999999999999
 45
0.00000001
 46
10.0
 73
     0
 77
     1
 78
     8
 79
     2
140
2.5
143
0.03937
146
1.399999976158142
147
0.762
171
     3
172
     1
176
   256
177
   256
178
   232
179
     2
271
     2
272
     2
274
     3
278
    44
284
     8
286
     8
340
CE
371
    -1
372
    -1
  0
DIMSTYLE
105
D1
330
A
100
AcDbSymbolTableRecord
100
AcDbDimStyleTableRecord
  2
Default - Method 2a (ISO)
 70
     0
 41
2.5
 42
0.0
 43
5.999999999999999
 44
3.174999999999999
 45
0.00000001
 46
10.0
 77
     1
 78
     8
 79
     2
140
2.5
143
0.03937
146
1.399999976158142
147
0.762
171
     3
172
     1
176
   256
177
   256
178
   232
179
     2
271
     2
272
     2
274
     3
278
    44
284
     8
286
     8
340
CE
371
    -1
372
    -1
  0
DIMSTYLE
105
D2
330
A
100
AcDbSymbolTableRecord
100
AcDbDimStyleTableRecord
  2
Default - Method 2a (ISO)$7
 70
     0
 41
2.5
 42
0.0
 43
5.999999999999999
 44
3.174999999999999
 45
0.00000001
 46
10.0
 77
     1
 78
     8
 79
     2
140
2.5
143
0.03937
146
1.399999976158142
147
0.762
171
     3
172
     1
176
   256
177
   256
178
   232
179
     2
271
     2
272
     2
274
     3
278
    44
284
     8
286
     8
340
CE
371
    -1
372
    -1
  0
DIMSTYLE
105
D3
330
A
100
AcDbSymbolTableRecord
100
AcDbDimStyleTableRecord
  2
Default - Method 2b (ISO)
 70
     0
 41
2.5
 42
0.0
 43
5.999999999999999
 44
3.174999999999999
 45
0.00000001
 46
10.0
 77
     1
 78
     8
 79
     2
140
2.5
143
0.03937
147
0.762
171
     3
172
     1
176
   256
177
   256
178
   232
179
     2
271
     2
272
     1
274
     3
278
    44
284
     8
286
     8
340
CE
371
    -1
372
    -1
  0
DIMSTYLE
105
D4
330
A
100
AcDbSymbolTableRecord
100
AcDbDimStyleTableRecord
  2
Default - Method 2b (ISO)$7
 70
     0
 41
2.5
 42
0.0
 43
5.999999999999999
 44
3.174999999999999
 45
0.00000001
 46
10.0
 77
     1
 78
     8
 79
     2
140
2.5
143
0.03937
147
0.762
171
     3
172
     1
176
   256
177
   256
178
   232
179
     2
271
     2
272
     1
274
     3
278
    44
284
     8
286
     8
340
CE
371
    -1
372
    -1
  0
DIMSTYLE
105
D5
330
A
100
AcDbSymbolTableRecord
100
AcDbDimStyleTableRecord
  2
Default - mm [in] (ISO)
 70
     0
  4
 in
 41
2.5
 42
0.0
 43
5.999999999999999
 44
3.174999999999999
 45
0.00000001
 46
10.0
 73
     0
 74
     0
 77
     1
 78
     8
 79
     2
140
2.5
143
0.03937
146
1.399999976158142
147
0.762
170
     1
171
     3
172
     1
176
   256
177
   256
178
   232
179
     3
271
     3
272
     2
274
     3
275
     1
278
    44
284
     8
285
     8
286
     8
340
CE
371
    -1
372
    -1
  0
DIMSTYLE
105
D6
330
A
100
AcDbSymbolTableRecord
100
AcDbDimStyleTableRecord
  2
Default - mm [in] (ISO)$7
 70
     0
  4
 in
 41
2.5
 42
0.0
 43
5.999999999999999
 44
3.174999999999999
 45
0.00000001
 46
10.0
 73
     0
 74
     0
 77
     1
 78
     8
 79
     2
140
2.5
143
0.03937
146
1.399999976158142
147
0.762
170
     1
171
     3
172
     1
176
   256
177
   256
178
   232
179
     3
271
     3
272
     2
274
     3
275
     1
278
    44
284
     8
285
     8
286
     8
340
CE
371
    -1
372
    -1
  0
DIMSTYLE
105
D7
102
{ACAD_REACTORS
330
27F
330
363
330
43C
330
515
330
5EB
330
6CD
330
7AF
330
89E
330
98D
102
}
330
A
100
AcDbSymbolTableRecord
100
AcDbDimStyleTableRecord
  2
Default (ISO)
 70
     0
 41
2.5
 42
0.0
 43
5.999999999999999
 44
3.174999999999999
 45
0.00000001
 46
10.0
 73
     0
 74
     0
 77
     1
140
2.5
143
0.03937
146
1.402080059051513
147
0.762
171
     3
172
     1
176
   256
177
   256
178
   232
179
     2
271
     2
272
     2
274
     3
278
    44
340
CE
371
    -1
372
    -1
  0
DIMSTYLE
105
D8
330
A
100
AcDbSymbolTableRecord
100
AcDbDimStyleTableRecord
  2
Default (ISO)$7
 70
     0
 41
2.5
 42
0.0
 43
5.999999999999999
 44
3.174999999999999
 45
0.00000001
 46
10.0
 73
     0
 74
     0
 77
     1
140
2.5
143
0.03937
146
1.402080059051513
147
0.762
171
     3
172
     1
176
   256
177
   256
178
   232
179
     2
271
     2
272
     2
274
     3
278
    44
340
CE
371
    -1
372
    -1
  0
DIMSTYLE
105
D9
330
A
100
AcDbSymbolTableRecord
100
AcDbDimStyleTableRecord
  2
Alternate (ISO)
 70
     0
 41
2.5
340
55
342
DA
  0
DIMSTYLE
105
EC
330
A
100
AcDbSymbolTableRecord
100
AcDbDimStyleTableRecord
  2
Datum (ISO)
 70
     0
 41
2.5
340
55
342
DA
  0
DIMSTYLE
105
FB
330
A
100
AcDbSymbolTableRecord
100
AcDbDimStyleTableRecord
  2
Large (ISO)
 70
     0
 41
5.0
340
55
342
DA
  0
ENDTAB
  0
TABLE
  2
BLOCK_RECORD
  5
1
330
0
100
AcDbSymbolTable
 70
    16
  0
BLOCK_RECORD
  5
70
330
1
100
AcDbSymbolTableRecord
100
AcDbBlockTableRecord
  2
*Model_Space
340
73
 70
     0
280
     1
281
     0
  0
BLOCK_RECORD
  5
6C
330
1
100
AcDbSymbolTableRecord
100
AcDbBlockTableRecord
  2
*Paper_Space
340
6F
 70
     0
280
     1
281
     0
  0
BLOCK_RECORD
  5
74
330
1
100
AcDbSymbolTableRecord
100
AcDbBlockTableRecord
  2
*Paper_Space0
340
77
 70
     0
280
     1
281
     0
  0
BLOCK_RECORD
  5
DA
330
1
100
AcDbSymbolTableRecord
100
AcDbBlockTableRecord
  2
_Closed
340
0
 70
     0
280
     1
281
     0
  0
BLOCK_RECORD
  5
E1
330
1
100
AcDbSymbolTableRecord
100
AcDbBlockTableRecord
  2
DatumFilled45
340
0
 70
     0
280
     1
281
     0
  0
BLOCK_RECORD
  5
ED
330
1
100
AcDbSymbolTableRecord
100
AcDbBlockTableRecord
  2
Filled-1
340
0
 70
     0
280
     1
281
     0
  0
BLOCK_RECORD
  5
FC
330
1
100
AcDbSymbolTableRecord
100
AcDbBlockTableRecord
  2
Borders Default Border
340
0
102
{BLKREFS
331
16B
102
}
 70
     0
280
     1
281
     0
  0
BLOCK_RECORD
  5
16C
330
1
100
AcDbSymbolTableRecord
100
AcDbBlockTableRecord
  2
Title Blocks ISO
340
0
102
{BLKREFS
331
173
102
}
 70
     0
280
     1
281
     0
  0
BLOCK_RECORD
  5
1D4
330
1
100
AcDbSymbolTableRecord
100
AcDbBlockTableRecord
  2
2dTransSection0
340
0
102
{BLKREFS
331
1F4
102
}
 70
     0
280
     1
281
     0
  0
BLOCK_RECORD
  5
281
330
1
100
AcDbSymbolTableRecord
100
AcDbBlockTableRecord
  2
*D7
340
0
 70
     0
280
     1
281
     0
  0
BLOCK_RECORD
  5
364
330
1
100
AcDbSymbolTableRecord
100
AcDbBlockTableRecord
  2
*D8
340
0
 70
     0
280
     1
281
     0
  0
BLOCK_RECORD
  5
43D
330
1
100
AcDbSymbolTableRecord
100
AcDbBlockTableRecord
  2
*D9
340
0
 70
     0
280
     1
281
     0
  0
BLOCK_RECORD
  5
516
330
1
100
AcDbSymbolTableRecord
100
AcDbBlockTableRecord
  2
*D10
340
0
 70
     0
280
     1
281
     0
  0
BLOCK_RECORD
  5
5EC
330
1
100
AcDbSymbolTableRecord
100
AcDbBlockTableRecord
  2
*D11
340
0
 70
     0
280
     1
281
     0
  0
BLOCK_RECORD
  5
6CE
330
1
100
AcDbSymbolTableRecord
100
AcDbBlockTableRecord
  2
*D12
340
0
 70
     0
280
     1
281
     0
  0
BLOCK_RECORD
  5
7B0
330
1
100
AcDbSymbolTableRecord
100
AcDbBlockTableRecord
  2
*D13
340
0
 70
     0
280
     1
281
     0
  0
BLOCK_RECORD
  5
89F
330
1
100
AcDbSymbolTableRecord
100
AcDbBlockTableRecord
  2
*D14
340
0
 70
     0
280
     1
281
     0
  0
BLOCK_RECORD
  5
98E
330
1
100
AcDbSymbolTableRecord
100
AcDbBlockTableRecord
  2
*D15
340
0
 70
     0
280
     1
281
     0
  0
ENDTAB
  0
ENDSEC
  0
SECTION
  2
BLOCKS
  0
BLOCK
  5
71
330
70
100
AcDbEntity
  8
0
100
AcDbBlockBegin
  2
*Model_Space
 70
     0
 10
0.0
 20
0.0
 30
0.0
  3
*Model_Space
  1

  0
ENDBLK
  5
72
330
70
100
AcDbEntity
  8
0
100
AcDbBlockEnd
  0
BLOCK
  5
6D
330
6C
100
AcDbEntity
 67
     1
  8
0
100
AcDbBlockBegin
  2
*Paper_Space
 70
     0
 10
0.0
 20
0.0
 30
0.0
  3
*Paper_Space
  1

  0
ENDBLK
  5
6E
330
6C
100
AcDbEntity
 67
     1
  8
0
100
AcDbBlockEnd
  0
BLOCK
  5
75
330
74
100
AcDbEntity
 67
     1
  8
0
100
AcDbBlockBegin
  2
*Paper_Space0
 70
     0
 10
0.0
 20
0.0
 30
0.0
  3
*Paper_Space0
  1

  0
ENDBLK
  5
76
330
74
100
AcDbEntity
 67
     1
  8
0
100
AcDbBlockEnd
  0
BLOCK
  5
DF
330
DA
100
AcDbEntity
  8
0
100
AcDbBlockBegin
  2
_Closed
 70
     0
 10
0.0
 20
0.0
 30
0.0
  3
_Closed
  1

  0
LINE
  5
DB
330
DA
100
AcDbEntity
  8
0
  6
ByBlock
 62
     0
370
    -2
100
AcDbLine
 10
-1.0
 20
0.1666666666666666
 30
0.0
 11
0.0
 21
0.0
 31
0.0
  0
LINE
  5
DC
330
DA
100
AcDbEntity
  8
0
  6
ByBlock
 62
     0
370
    -2
100
AcDbLine
 10
0.0
 20
0.0
 30
0.0
 11
-1.0
 21
-0.1666666666666666
 31
0.0
  0
LINE
  5
DD
330
DA
100
AcDbEntity
  8
0
  6
ByBlock
 62
     0
370
    -2
100
AcDbLine
 10
-1.0
 20
0.1666666666666666
 30
0.0
 11
-1.0
 21
-0.1666666666666666
 31
0.0
  0
LINE
  5
DE
330
DA
100
AcDbEntity
  8
0
  6
ByBlock
 62
     0
370
    -2
100
AcDbLine
 10
0.0
 20
0.0
 30
0.0
 11
-1.0
 21
0.0
 31
0.0
  0
ENDBLK
  5
E0
330
DA
100
AcDbEntity
  8
0
100
AcDbBlockEnd
  0
BLOCK
  5
E2
330
E1
100
AcDbEntity
  8
0
100
AcDbBlockBegin
  2
DatumFilled45
 70
     0
 10
0.0
 20
0.0
 30
0.0
  3
DatumFilled45
  1

  0
POLYLINE
  5
E4
330
E1
100
AcDbEntity
  8
0
 62
     0
100
AcDb2dPolyline
 66
     1
 10
0.0
 20
0.0
 30
0.0
 70
   128
  0
VERTEX
  5
E5
330
E4
100
AcDbEntity
  8
0
 62
     0
100
AcDbVertex
100
AcDb2dVertex
 10
0.0
 20
1.0
 30
0.0
  0
VERTEX
  5
E6
330
E4
100
AcDbEntity
  8
0
 62
     0
100
AcDbVertex
100
AcDb2dVertex
 10
0.0
 20
-1.0
 30
0.0
  0
VERTEX
  5
E8
330
E4
100
AcDbEntity
  8
0
 62
     0
100
AcDbVertex
100
AcDb2dVertex
 10
-1.0
 20
0.0
 30
0.0
  0
VERTEX
  5
E9
330
E4
100
AcDbEntity
  8
0
 62
     0
100
AcDbVertex
100
AcDb2dVertex
 10
0.0
 20
1.0
 30
0.0
  0
SEQEND
  5
E7
330
E4
100
AcDbEntity
  8
0
 62
     0
  0
SOLID
  5
EB
330
E1
100
AcDbEntity
  8
0
 62
     0
100
AcDbTrace
 10
0.0
 20
1.0
 30
0.0
 11
0.0
 21
-1.0
 31
0.0
 12
-1.0
 22
0.0
 32
0.0
 13
0.0
 23
1.0
 33
0.0
  0
ENDBLK
  5
E3
330
E1
100
AcDbEntity
  8
0
100
AcDbBlockEnd
  0
BLOCK
  5
EE
330
ED
100
AcDbEntity
  8
0
100
AcDbBlockBegin
  2
Filled-1
 70
     0
 10
0.0
 20
0.0
 30
0.0
  3
Filled-1
  1

  0
LINE
  5
F0
330
ED
100
AcDbEntity
  8
0
 62
     0
100
AcDbLine
 10
-1.0
 20
0.0
 30
0.0
 11
0.0
 21
0.0
 31
0.0
  0
POLYLINE
  5
F1
330
ED
100
AcDbEntity
  8
0
 62
     0
100
AcDb2dPolyline
 66
     1
 10
0.0
 20
0.0
 30
0.0
 70
   128
  0
VERTEX
  5
F2
330
F1
100
AcDbEntity
  8
0
 62
     0
100
AcDbVertex
100
AcDb2dVertex
 10
-1.0
 20
-0.1
 30
0.0
  0
VERTEX
  5
F3
330
F1
100
AcDbEntity
  8
0
 62
     0
100
AcDbVertex
100
AcDb2dVertex
 10
0.0
 20
0.0
 30
0.0
  0
VERTEX
  5
F5
330
F1
100
AcDbEntity
  8
0
 62
     0
100
AcDbVertex
100
AcDb2dVertex
 10
-1.0
 20
0.1
 30
0.0
  0
VERTEX
  5
F6
330
F1
100
AcDbEntity
  8
0
 62
     0
100
AcDbVertex
100
AcDb2dVertex
 10
-1.0
 20
-0.1
 30
0.0
  0
SEQEND
  5
F4
330
F1
100
AcDbEntity
  8
0
 62
     0
  0
SOLID
  5
F7
330
ED
100
AcDbEntity
  8
0
 62
     0
100
AcDbTrace
 10
-1.0
 20
-0.1
 30
0.0
 11
0.0
 21
0.0
 31
0.0
 12
-1.0
 22
0.1
 32
0.0
 13
-1.0
 23
-0.1
 33
0.0
  0
LINE
  5
F8
330
ED
100
AcDbEntity
  8
0
 62
     0
100
AcDbLine
 10
-1.0
 20
-0.1
 30
0.0
 11
0.0
 21
0.0
 31
0.0
  0
LINE
  5
F9
330
ED
100
AcDbEntity
  8
0
 62
     0
100
AcDbLine
 10
0.0
 20
0.0
 30
0.0
 11
-1.0
 21
0.1
 31
0.0
  0
LINE
  5
FA
330
ED
100
AcDbEntity
  8
0
 62
     0
100
AcDbLine
 10
-1.0
 20
0.1
 30
0.0
 11
-1.0
 21
-0.1
 31
0.0
  0
ENDBLK
  5
EF
330
ED
100
AcDbEntity
  8
0
100
AcDbBlockEnd
  0
BLOCK
  5
FD
330
FC
100
AcDbEntity
  8
0
100
AcDbBlockBegin
  2
Borders Default Border
 70
     0
 10
0.0
 20
0.0
 30
0.0
  3
Borders Default Border
  1

  0
POLYLINE
  5
FF
330
FC
100
AcDbEntity
  8
Border (ISO)
100
AcDb2dPolyline
 66
     1
 10
0.0
 20
0.0
 30
0.0
 70
   128
  0
VERTEX
  5
100
330
FF
100
AcDbEntity
  8
Border (ISO)
100
AcDbVertex
100
AcDb2dVertex
 10
20.0
 20
20.0
 30
0.0
  0
VERTEX
  5
101
330
FF
100
AcDbEntity
  8
Border (ISO)
100
AcDbVertex
100
AcDb2dVertex
 10
20.0
 20
574.000015258789
 30
0.0
  0
VERTEX
  5
103
330
FF
100
AcDbEntity
  8
Border (ISO)
100
AcDbVertex
100
AcDb2dVertex
 10
820.999984741211
 20
574.000015258789
 30
0.0
  0
VERTEX
  5
104
330
FF
100
AcDbEntity
  8
Border (ISO)
100
AcDbVertex
100
AcDb2dVertex
 10
820.999984741211
 20
20.0
 30
0.0
  0
VERTEX
  5
105
330
FF
100
AcDbEntity
  8
Border (ISO)
100
AcDbVertex
100
AcDb2dVertex
 10
20.0
 20
20.0
 30
0.0
  0
SEQEND
  5
102
330
FF
100
AcDbEntity
  8
Border (ISO)
  0
POLYLINE
  5
106
330
FC
100
AcDbEntity
  8
Border (ISO)
100
AcDb2dPolyline
 66
     1
 10
0.0
 20
0.0
 30
0.0
 70
   128
  0
VERTEX
  5
107
330
106
100
AcDbEntity
  8
Border (ISO)
100
AcDbVertex
100
AcDb2dVertex
 10
420.4999923706054
 20
0.0
 30
0.0
  0
VERTEX
  5
108
330
106
100
AcDbEntity
  8
Border (ISO)
100
AcDbVertex
100
AcDb2dVertex
 10
420.4999923706054
 20
20.0
 30
0.0
  0
VERTEX
  5
10A
330
106
100
AcDbEntity
  8
Border (ISO)
100
AcDbVertex
100
AcDb2dVertex
 10
414.7264862060547
 20
10.0
 30
0.0
  0
VERTEX
  5
10B
330
106
100
AcDbEntity
  8
Border (ISO)
100
AcDbVertex
100
AcDb2dVertex
 10
426.2734985351562
 20
10.0
 30
0.0
  0
VERTEX
  5
10C
330
106
100
AcDbEntity
  8
Border (ISO)
100
AcDbVertex
100
AcDb2dVertex
 10
420.4999923706054
 20
20.0
 30
0.0
  0
SEQEND
  5
109
330
106
100
AcDbEntity
  8
Border (ISO)
  0
POLYLINE
  5
10D
330
FC
100
AcDbEntity
  8
Border (ISO)
100
AcDb2dPolyline
 66
     1
 10
0.0
 20
0.0
 30
0.0
 70
   128
  0
VERTEX
  5
10E
330
10D
100
AcDbEntity
  8
Border (ISO)
100
AcDbVertex
100
AcDb2dVertex
 10
420.4999923706054
 20
594.0000152587891
 30
0.0
  0
VERTEX
  5
10F
330
10D
100
AcDbEntity
  8
Border (ISO)
100
AcDbVertex
100
AcDb2dVertex
 10
420.4999923706054
 20
574.000015258789
 30
0.0
  0
VERTEX
  5
111
330
10D
100
AcDbEntity
  8
Border (ISO)
100
AcDbVertex
100
AcDb2dVertex
 10
414.7264862060547
 20
584.000015258789
 30
0.0
  0
VERTEX
  5
112
330
10D
100
AcDbEntity
  8
Border (ISO)
100
AcDbVertex
100
AcDb2dVertex
 10
426.2734985351562
 20
584.000015258789
 30
0.0
  0
VERTEX
  5
113
330
10D
100
AcDbEntity
  8
Border (ISO)
100
AcDbVertex
100
AcDb2dVertex
 10
420.4999923706054
 20
574.000015258789
 30
0.0
  0
SEQEND
  5
110
330
10D
100
AcDbEntity
  8
Border (ISO)
  0
POLYLINE
  5
114
330
FC
100
AcDbEntity
  8
Border (ISO)
100
AcDb2dPolyline
 66
     1
 10
0.0
 20
0.0
 30
0.0
 70
   128
  0
VERTEX
  5
115
330
114
100
AcDbEntity
  8
Border (ISO)
100
AcDbVertex
100
AcDb2dVertex
 10
0.0
 20
297.0000076293946
 30
0.0
  0
VERTEX
  5
116
330
114
100
AcDbEntity
  8
Border (ISO)
100
AcDbVertex
100
AcDb2dVertex
 10
20.0
 20
297.0000076293946
 30
0.0
  0
VERTEX
  5
118
330
114
100
AcDbEntity
  8
Border (ISO)
100
AcDbVertex
100
AcDb2dVertex
 10
10.0
 20
302.773494720459
 30
0.0
  0
VERTEX
  5
119
330
114
100
AcDbEntity
  8
Border (ISO)
100
AcDbVertex
100
AcDb2dVertex
 10
10.0
 20
291.2265014648438
 30
0.0
  0
VERTEX
  5
11A
330
114
100
AcDbEntity
  8
Border (ISO)
100
AcDbVertex
100
AcDb2dVertex
 10
20.0
 20
297.0000076293946
 30
0.0
  0
SEQEND
  5
117
330
114
100
AcDbEntity
  8
Border (ISO)
  0
POLYLINE
  5
11B
330
FC
100
AcDbEntity
  8
Border (ISO)
100
AcDb2dPolyline
 66
     1
 10
0.0
 20
0.0
 30
0.0
 70
   128
  0
VERTEX
  5
11C
330
11B
100
AcDbEntity
  8
Border (ISO)
100
AcDbVertex
100
AcDb2dVertex
 10
840.9999847412109
 20
297.0000076293946
 30
0.0
  0
VERTEX
  5
11D
330
11B
100
AcDbEntity
  8
Border (ISO)
100
AcDbVertex
100
AcDb2dVertex
 10
820.999984741211
 20
297.0000076293946
 30
0.0
  0
VERTEX
  5
11F
330
11B
100
AcDbEntity
  8
Border (ISO)
100
AcDbVertex
100
AcDb2dVertex
 10
830.9999847412109
 20
302.773494720459
 30
0.0
  0
VERTEX
  5
120
330
11B
100
AcDbEntity
  8
Border (ISO)
100
AcDbVertex
100
AcDb2dVertex
 10
830.9999847412109
 20
291.2265014648438
 30
0.0
  0
VERTEX
  5
121
330
11B
100
AcDbEntity
  8
Border (ISO)
100
AcDbVertex
100
AcDb2dVertex
 10
820.999984741211
 20
297.0000076293946
 30
0.0
  0
SEQEND
  5
11E
330
11B
100
AcDbEntity
  8
Border (ISO)
  0
LINE
  5
122
330
FC
100
AcDbEntity
  8
Border (ISO)
100
AcDbLine
 10
70.08333206176757
 20
20.0
 30
0.0
 11
70.08333206176757
 21
17.10000038146972
 31
0.0
  0
LINE
  5
123
330
FC
100
AcDbEntity
  8
Border (ISO)
100
AcDbLine
 10
70.08333206176757
 20
574.000015258789
 30
0.0
 11
70.08333206176757
 21
576.8999862670898
 31
0.0
  0
LINE
  5
124
330
FC
100
AcDbEntity
  8
Border (ISO)
100
AcDbLine
 10
140.1666641235351
 20
20.0
 30
0.0
 11
140.1666641235351
 21
17.10000038146972
 31
0.0
  0
LINE
  5
125
330
FC
100
AcDbEntity
  8
Border (ISO)
100
AcDbLine
 10
140.1666641235351
 20
574.000015258789
 30
0.0
 11
140.1666641235351
 21
576.8999862670898
 31
0.0
  0
LINE
  5
126
330
FC
100
AcDbEntity
  8
Border (ISO)
100
AcDbLine
 10
210.2499961853027
 20
20.0
 30
0.0
 11
210.2499961853027
 21
17.10000038146972
 31
0.0
  0
LINE
  5
127
330
FC
100
AcDbEntity
  8
Border (ISO)
100
AcDbLine
 10
210.2499961853027
 20
574.000015258789
 30
0.0
 11
210.2499961853027
 21
576.8999862670898
 31
0.0
  0
LINE
  5
128
330
FC
100
AcDbEntity
  8
Border (ISO)
100
AcDbLine
 10
280.3333282470703
 20
20.0
 30
0.0
 11
280.3333282470703
 21
17.10000038146972
 31
0.0
  0
LINE
  5
129
330
FC
100
AcDbEntity
  8
Border (ISO)
100
AcDbLine
 10
280.3333282470703
 20
574.000015258789
 30
0.0
 11
280.3333282470703
 21
576.8999862670898
 31
0.0
  0
LINE
  5
12A
330
FC
100
AcDbEntity
  8
Border (ISO)
100
AcDbLine
 10
350.4166793823242
 20
20.0
 30
0.0
 11
350.4166793823242
 21
17.10000038146972
 31
0.0
  0
LINE
  5
12B
330
FC
100
AcDbEntity
  8
Border (ISO)
100
AcDbLine
 10
350.4166793823242
 20
574.000015258789
 30
0.0
 11
350.4166793823242
 21
576.8999862670898
 31
0.0
  0
LINE
  5
12C
330
FC
100
AcDbEntity
  8
Border (ISO)
100
AcDbLine
 10
490.5833435058593
 20
20.0
 30
0.0
 11
490.5833435058593
 21
17.10000038146972
 31
0.0
  0
LINE
  5
12D
330
FC
100
AcDbEntity
  8
Border (ISO)
100
AcDbLine
 10
490.5833435058593
 20
574.000015258789
 30
0.0
 11
490.5833435058593
 21
576.8999862670898
 31
0.0
  0
LINE
  5
12E
330
FC
100
AcDbEntity
  8
Border (ISO)
100
AcDbLine
 10
560.6666564941406
 20
20.0
 30
0.0
 11
560.6666564941406
 21
17.10000038146972
 31
0.0
  0
LINE
  5
12F
330
FC
100
AcDbEntity
  8
Border (ISO)
100
AcDbLine
 10
560.6666564941406
 20
574.000015258789
 30
0.0
 11
560.6666564941406
 21
576.8999862670898
 31
0.0
  0
LINE
  5
130
330
FC
100
AcDbEntity
  8
Border (ISO)
100
AcDbLine
 10
630.7500076293945
 20
20.0
 30
0.0
 11
630.7500076293945
 21
17.10000038146972
 31
0.0
  0
LINE
  5
131
330
FC
100
AcDbEntity
  8
Border (ISO)
100
AcDbLine
 10
630.7500076293945
 20
574.000015258789
 30
0.0
 11
630.7500076293945
 21
576.8999862670898
 31
0.0
  0
LINE
  5
132
330
FC
100
AcDbEntity
  8
Border (ISO)
100
AcDbLine
 10
700.8333587646484
 20
20.0
 30
0.0
 11
700.8333587646484
 21
17.10000038146972
 31
0.0
  0
LINE
  5
133
330
FC
100
AcDbEntity
  8
Border (ISO)
100
AcDbLine
 10
700.8333587646484
 20
574.000015258789
 30
0.0
 11
700.8333587646484
 21
576.8999862670898
 31
0.0
  0
LINE
  5
134
330
FC
100
AcDbEntity
  8
Border (ISO)
100
AcDbLine
 10
770.9166717529297
 20
20.0
 30
0.0
 11
770.9166717529297
 21
17.10000038146972
 31
0.0
  0
LINE
  5
135
330
FC
100
AcDbEntity
  8
Border (ISO)
100
AcDbLine
 10
770.9166717529297
 20
574.000015258789
 30
0.0
 11
770.9166717529297
 21
576.8999862670898
 31
0.0
  0
MTEXT
  5
136
330
FC
100
AcDbEntity
  8
Border (ISO)
 62
   232
420
 13238372
100
AcDbMText
 10
34.47766113364014
 20
574.3999999999999
 30
0.0
 40
2.5
 41
0.0
 46
0.0
 71
     7
 72
     1
  1
1
  7
Note Text (ISO)
 73
     1
 44
1.0
  0
MTEXT
  5
138
330
FC
100
AcDbEntity
  8
Border (ISO)
 62
   232
420
 13238372
100
AcDbMText
 10
34.47766113364014
 20
17.1
 30
0.0
 40
2.5
 41
0.0
 46
0.0
 71
     7
 72
     1
  1
1
  7
Note Text (ISO)
 73
     1
 44
1.0
  0
MTEXT
  5
139
330
FC
100
AcDbEntity
  8
Border (ISO)
 62
   232
420
 13238372
100
AcDbMText
 10
104.3669939703322
 20
574.3999999999999
 30
0.0
 40
2.5
 41
0.0
 46
0.0
 71
     7
 72
     1
  1
2
  7
Note Text (ISO)
 73
     1
 44
1.0
  0
MTEXT
  5
13A
330
FC
100
AcDbEntity
  8
Border (ISO)
 62
   232
420
 13238372
100
AcDbMText
 10
104.3669939703322
 20
17.1
 30
0.0
 40
2.5
 41
0.0
 46
0.0
 71
     7
 72
     1
  1
2
  7
Note Text (ISO)
 73
     1
 44
1.0
  0
MTEXT
  5
13B
330
FC
100
AcDbEntity
  8
Border (ISO)
 62
   232
420
 13238372
100
AcDbMText
 10
174.4303272524654
 20
574.3473257688805
 30
0.0
 40
2.5
 41
0.0
 46
0.0
 71
     7
 72
     1
  1
3
  7
Note Text (ISO)
 73
     1
 44
1.0
  0
MTEXT
  5
13C
330
FC
100
AcDbEntity
  8
Border (ISO)
 62
   232
420
 13238372
100
AcDbMText
 10
174.4303272524654
 20
17.04732576888055
 30
0.0
 40
2.5
 41
0.0
 46
0.0
 71
     7
 72
     1
  1
3
  7
Note Text (ISO)
 73
     1
 44
1.0
  0
MTEXT
  5
13D
330
FC
100
AcDbEntity
  8
Border (ISO)
 62
   232
420
 13238372
100
AcDbMText
 10
244.4196603451581
 20
574.3999999999999
 30
0.0
 40
2.5
 41
0.0
 46
0.0
 71
     7
 72
     1
  1
4
  7
Note Text (ISO)
 73
     1
 44
1.0
  0
MTEXT
  5
13E
330
FC
100
AcDbEntity
  8
Border (ISO)
 62
   232
420
 13238372
100
AcDbMText
 10
244.4196603451581
 20
17.1
 30
0.0
 40
2.5
 41
0.0
 46
0.0
 71
     7
 72
     1
  1
4
  7
Note Text (ISO)
 73
     1
 44
1.0
  0
MTEXT
  5
13F
330
FC
100
AcDbEntity
  8
Border (ISO)
 62
   232
420
 13238372
100
AcDbMText
 10
314.6429940368923
 20
574.3473257688805
 30
0.0
 40
2.5
 41
0.0
 46
0.0
 71
     7
 72
     1
  1
5
  7
Note Text (ISO)
 73
     1
 44
1.0
  0
MTEXT
  5
140
330
FC
100
AcDbEntity
  8
Border (ISO)
 62
   232
420
 13238372
100
AcDbMText
 10
314.6429940368923
 20
17.04732576888055
 30
0.0
 40
2.5
 41
0.0
 46
0.0
 71
     7
 72
     1
  1
5
  7
Note Text (ISO)
 73
     1
 44
1.0
  0
MTEXT
  5
141
330
FC
100
AcDbEntity
  8
Border (ISO)
 62
   232
420
 13238372
100
AcDbMText
 10
384.6603272012653
 20
574.3473257688805
 30
0.0
 40
2.5
 41
0.0
 46
0.0
 71
     7
 72
     1
  1
6
  7
Note Text (ISO)
 73
     1
 44
1.0
  0
MTEXT
  5
142
330
FC
100
AcDbEntity
  8
Border (ISO)
 62
   232
420
 13238372
100
AcDbMText
 10
384.6603272012653
 20
17.04732576888055
 30
0.0
 40
2.5
 41
0.0
 46
0.0
 71
     7
 72
     1
  1
6
  7
Note Text (ISO)
 73
     1
 44
1.0
  0
MTEXT
  5
143
330
FC
100
AcDbEntity
  8
Border (ISO)
 62
   232
420
 13238372
100
AcDbMText
 10
454.7676605960387
 20
574.3999999999999
 30
0.0
 40
2.5
 41
0.0
 46
0.0
 71
     7
 72
     1
  1
7
  7
Note Text (ISO)
 73
     1
 44
1.0
  0
MTEXT
  5
144
330
FC
100
AcDbEntity
  8
Border (ISO)
 62
   232
420
 13238372
100
AcDbMText
 10
454.7676605960387
 20
17.1
 30
0.0
 40
2.5
 41
0.0
 46
0.0
 71
     7
 72
     1
  1
7
  7
Note Text (ISO)
 73
     1
 44
1.0
  0
MTEXT
  5
145
330
FC
100
AcDbEntity
  8
Border (ISO)
 62
   232
420
 13238372
100
AcDbMText
 10
524.8089938218518
 20
574.3432739056646
 30
0.0
 40
2.5
 41
0.0
 46
0.0
 71
     7
 72
     1
  1
8
  7
Note Text (ISO)
 73
     1
 44
1.0
  0
MTEXT
  5
146
330
FC
100
AcDbEntity
  8
Border (ISO)
 62
   232
420
 13238372
100
AcDbMText
 10
524.8089938218518
 20
17.04327390566468
 30
0.0
 40
2.5
 41
0.0
 46
0.0
 71
     7
 72
     1
  1
8
  7
Note Text (ISO)
 73
     1
 44
1.0
  0
MTEXT
  5
147
330
FC
100
AcDbEntity
  8
Border (ISO)
 62
   232
420
 13238372
100
AcDbMText
 10
594.882327129585
 20
574.3513776320964
 30
0.0
 40
2.5
 41
0.0
 46
0.0
 71
     7
 72
     1
  1
9
  7
Note Text (ISO)
 73
     1
 44
1.0
  0
MTEXT
  5
148
330
FC
100
AcDbEntity
  8
Border (ISO)
 62
   232
420
 13238372
100
AcDbMText
 10
594.882327129585
 20
17.05137763209641
 30
0.0
 40
2.5
 41
0.0
 46
0.0
 71
     7
 72
     1
  1
9
  7
Note Text (ISO)
 73
     1
 44
1.0
  0
MTEXT
  5
149
330
FC
100
AcDbEntity
  8
Border (ISO)
 62
   232
420
 13238372
100
AcDbMText
 10
664.2896546431711
 20
574.3473257688805
 30
0.0
 40
2.5
 41
0.0
 46
0.0
 71
     7
 72
     1
  1
10
  7
Note Text (ISO)
 73
     1
 44
1.0
  0
MTEXT
  5
14A
330
FC
100
AcDbEntity
  8
Border (ISO)
 62
   232
420
 13238372
100
AcDbMText
 10
664.2896546431711
 20
17.04732576888055
 30
0.0
 40
2.5
 41
0.0
 46
0.0
 71
     7
 72
     1
  1
10
  7
Note Text (ISO)
 73
     1
 44
1.0
  0
MTEXT
  5
14B
330
FC
100
AcDbEntity
  8
Border (ISO)
 62
   232
420
 13238372
100
AcDbMText
 10
734.3729879765045
 20
574.3999999999999
 30
0.0
 40
2.5
 41
0.0
 46
0.0
 71
     7
 72
     1
  1
11
  7
Note Text (ISO)
 73
     1
 44
1.0
  0
MTEXT
  5
14C
330
FC
100
AcDbEntity
  8
Border (ISO)
 62
   232
420
 13238372
100
AcDbMText
 10
734.3729879765045
 20
17.1
 30
0.0
 40
2.5
 41
0.0
 46
0.0
 71
     7
 72
     1
  1
11
  7
Note Text (ISO)
 73
     1
 44
1.0
  0
MTEXT
  5
14D
330
FC
100
AcDbEntity
  8
Border (ISO)
 62
   232
420
 13238372
100
AcDbMText
 10
804.4563213098378
 20
574.3999999999999
 30
0.0
 40
2.5
 41
0.0
 46
0.0
 71
     7
 72
     1
  1
12
  7
Note Text (ISO)
 73
     1
 44
1.0
  0
MTEXT
  5
14E
330
FC
100
AcDbEntity
  8
Border (ISO)
 62
   232
420
 13238372
100
AcDbMText
 10
804.4563213098378
 20
17.1
 30
0.0
 40
2.5
 41
0.0
 46
0.0
 71
     7
 72
     1
  1
12
  7
Note Text (ISO)
 73
     1
 44
1.0
  0
LINE
  5
14F
330
FC
100
AcDbEntity
  8
Border (ISO)
100
AcDbLine
 10
20.0
 20
74.25000190734863
 30
0.0
 11
17.10000038146972
 21
74.25000190734863
 31
0.0
  0
LINE
  5
150
330
FC
100
AcDbEntity
  8
Border (ISO)
100
AcDbLine
 10
820.999984741211
 20
74.25000190734863
 30
0.0
 11
823.8999938964843
 21
74.25000190734863
 31
0.0
  0
LINE
  5
151
330
FC
100
AcDbEntity
  8
Border (ISO)
100
AcDbLine
 10
20.0
 20
148.5000038146973
 30
0.0
 11
17.10000038146972
 21
148.5000038146973
 31
0.0
  0
LINE
  5
152
330
FC
100
AcDbEntity
  8
Border (ISO)
100
AcDbLine
 10
820.999984741211
 20
148.5000038146973
 30
0.0
 11
823.8999938964843
 21
148.5000038146973
 31
0.0
  0
LINE
  5
153
330
FC
100
AcDbEntity
  8
Border (ISO)
100
AcDbLine
 10
20.0
 20
222.7499961853027
 30
0.0
 11
17.10000038146972
 21
222.7499961853027
 31
0.0
  0
LINE
  5
154
330
FC
100
AcDbEntity
  8
Border (ISO)
100
AcDbLine
 10
820.999984741211
 20
222.7499961853027
 30
0.0
 11
823.8999938964843
 21
222.7499961853027
 31
0.0
  0
LINE
  5
155
330
FC
100
AcDbEntity
  8
Border (ISO)
100
AcDbLine
 10
20.0
 20
371.25
 30
0.0
 11
17.10000038146972
 21
371.25
 31
0.0
  0
LINE
  5
156
330
FC
100
AcDbEntity
  8
Border (ISO)
100
AcDbLine
 10
820.999984741211
 20
371.25
 30
0.0
 11
823.8999938964843
 21
371.25
 31
0.0
  0
LINE
  5
157
330
FC
100
AcDbEntity
  8
Border (ISO)
100
AcDbLine
 10
20.0
 20
445.4999923706054
 30
0.0
 11
17.10000038146972
 21
445.4999923706054
 31
0.0
  0
LINE
  5
158
330
FC
100
AcDbEntity
  8
Border (ISO)
100
AcDbLine
 10
820.999984741211
 20
445.4999923706054
 30
0.0
 11
823.8999938964843
 21
445.4999923706054
 31
0.0
  0
LINE
  5
159
330
FC
100
AcDbEntity
  8
Border (ISO)
100
AcDbLine
 10
20.0
 20
519.7499847412109
 30
0.0
 11
17.10000038146972
 21
519.7499847412109
 31
0.0
  0
LINE
  5
15A
330
FC
100
AcDbEntity
  8
Border (ISO)
100
AcDbLine
 10
820.999984741211
 20
519.7499847412109
 30
0.0
 11
823.8999938964843
 21
519.7499847412109
 31
0.0
  0
MTEXT
  5
15B
330
FC
100
AcDbEntity
  8
Border (ISO)
 62
   232
420
 13238372
100
AcDbMText
 10
17.28659316639921
 20
555.625
 30
0.0
 40
2.5
 41
0.0
 46
0.0
 71
     7
 72
     1
  1
A
  7
Note Text (ISO)
 73
     1
 44
1.0
  0
MTEXT
  5
15C
330
FC
100
AcDbEntity
  8
Border (ISO)
 62
   232
420
 13238372
100
AcDbMText
 10
821.5865931663993
 20
555.625
 30
0.0
 40
2.5
 41
0.0
 46
0.0
 71
     7
 72
     1
  1
A
  7
Note Text (ISO)
 73
     1
 44
1.0
  0
MTEXT
  5
15D
330
FC
100
AcDbEntity
  8
Border (ISO)
 62
   232
420
 13238372
100
AcDbMText
 10
17.58703467771087
 20
481.3749999999999
 30
0.0
 40
2.5
 41
0.0
 46
0.0
 71
     7
 72
     1
  1
B
  7
Note Text (ISO)
 73
     1
 44
1.0
  0
MTEXT
  5
15E
330
FC
100
AcDbEntity
  8
Border (ISO)
 62
   232
420
 13238372
100
AcDbMText
 10
821.8870346777109
 20
481.3749999999999
 30
0.0
 40
2.5
 41
0.0
 46
0.0
 71
     7
 72
     1
  1
B
  7
Note Text (ISO)
 73
     1
 44
1.0
  0
MTEXT
  5
15F
330
FC
100
AcDbEntity
  8
Border (ISO)
 62
   232
420
 13238372
100
AcDbMText
 10
17.42778797951198
 20
407.0804294999689
 30
0.0
 40
2.5
 41
0.0
 46
0.0
 71
     7
 72
     1
  1
C
  7
Note Text (ISO)
 73
     1
 44
1.0
  0
MTEXT
  5
160
330
FC
100
AcDbEntity
  8
Border (ISO)
 62
   232
420
 13238372
100
AcDbMText
 10
821.7277879795119
 20
407.0804294999689
 30
0.0
 40
2.5
 41
0.0
 46
0.0
 71
     7
 72
     1
  1
C
  7
Note Text (ISO)
 73
     1
 44
1.0
  0
MTEXT
  5
161
330
FC
100
AcDbEntity
  8
Border (ISO)
 62
   232
420
 13238372
100
AcDbMText
 10
17.43407686575924
 20
332.8750000000001
 30
0.0
 40
2.5
 41
0.0
 46
0.0
 71
     7
 72
     1
  1
D
  7
Note Text (ISO)
 73
     1
 44
1.0
  0
MTEXT
  5
162
330
FC
100
AcDbEntity
  8
Border (ISO)
 62
   232
420
 13238372
100
AcDbMText
 10
821.7340768657592
 20
332.8750000000001
 30
0.0
 40
2.5
 41
0.0
 46
0.0
 71
     7
 72
     1
  1
D
  7
Note Text (ISO)
 73
     1
 44
1.0
  0
MTEXT
  5
163
330
FC
100
AcDbEntity
  8
Border (ISO)
 62
   232
420
 13238372
100
AcDbMText
 10
17.63565709218059
 20
258.6250000000001
 30
0.0
 40
2.5
 41
0.0
 46
0.0
 71
     7
 72
     1
  1
E
  7
Note Text (ISO)
 73
     1
 44
1.0
  0
MTEXT
  5
164
330
FC
100
AcDbEntity
  8
Border (ISO)
 62
   232
420
 13238372
100
AcDbMText
 10
821.9356570921807
 20
258.6250000000001
 30
0.0
 40
2.5
 41
0.0
 46
0.0
 71
     7
 72
     1
  1
E
  7
Note Text (ISO)
 73
     1
 44
1.0
  0
MTEXT
  5
165
330
FC
100
AcDbEntity
  8
Border (ISO)
 62
   232
420
 13238372
100
AcDbMText
 10
17.70352577194248
 20
184.375
 30
0.0
 40
2.5
 41
0.0
 46
0.0
 71
     7
 72
     1
  1
F
  7
Note Text (ISO)
 73
     1
 44
1.0
  0
MTEXT
  5
166
330
FC
100
AcDbEntity
  8
Border (ISO)
 62
   232
420
 13238372
100
AcDbMText
 10
822.0035257719425
 20
184.375
 30
0.0
 40
2.5
 41
0.0
 46
0.0
 71
     7
 72
     1
  1
F
  7
Note Text (ISO)
 73
     1
 44
1.0
  0
MTEXT
  5
167
330
FC
100
AcDbEntity
  8
Border (ISO)
 62
   232
420
 13238372
100
AcDbMText
 10
17.31230986621833
 20
110.0763776320965
 30
0.0
 40
2.5
 41
0.0
 46
0.0
 71
     7
 72
     1
  1
G
  7
Note Text (ISO)
 73
     1
 44
1.0
  0
MTEXT
  5
168
330
FC
100
AcDbEntity
  8
Border (ISO)
 62
   232
420
 13238372
100
AcDbMText
 10
821.6123098662183
 20
110.0763776320965
 30
0.0
 40
2.5
 41
0.0
 46
0.0
 71
     7
 72
     1
  1
G
  7
Note Text (ISO)
 73
     1
 44
1.0
  0
MTEXT
  5
169
330
FC
100
AcDbEntity
  8
Border (ISO)
 62
   232
420
 13238372
100
AcDbMText
 10
17.43914169594322
 20
35.87500000000007
 30
0.0
 40
2.5
 41
0.0
 46
0.0
 71
     7
 72
     1
  1
H
  7
Note Text (ISO)
 73
     1
 44
1.0
  0
MTEXT
  5
16A
330
FC
100
AcDbEntity
  8
Border (ISO)
 62
   232
420
 13238372
100
AcDbMText
 10
821.7391416959433
 20
35.87500000000007
 30
0.0
 40
2.5
 41
0.0
 46
0.0
 71
     7
 72
     1
  1
H
  7
Note Text (ISO)
 73
     1
 44
1.0
  0
ENDBLK
  5
FE
330
FC
100
AcDbEntity
  8
0
100
AcDbBlockEnd
  0
BLOCK
  5
16D
330
16C
100
AcDbEntity
  8
0
100
AcDbBlockBegin
  2
Title Blocks ISO
 70
     2
 10
0.0
 20
0.0
 30
0.0
  3
Title Blocks ISO
  1

  0
ATTDEF
  5
16F
102
{ACAD_XDICTIONARY
360
A8F
102
}
330
16C
100
AcDbEntity
  8
Title (ISO)
 62
   232
420
 13238372
100
AcDbText
 10
34.15585882339947
 20
73.13494450671268
 30
0.0
 40
2.5
  1
491104063032
  7
Note Text (ISO)
100
AcDbAttributeDefinition
280
     0
  3
PART NUMBER
  2
PART_NUMBER_001
 70
     0
280
     0
  0
ATTDEF
  5
172
102
{ACAD_XDICTIONARY
360
A94
102
}
330
16C
100
AcDbEntity
  8
Title (ISO)
 62
   232
420
 13238372
100
AcDbText
 10
33.83688029166227
 20
63.39776635682264
 30
0.0
 40
2.5
  1
PLASSON REDUCING COUPLER
  7
Note Text (ISO)
100
AcDbAttributeDefinition
280
     0
  3
DESCRIPTION
  2
DESCRIPTION_001
 70
     0
280
     0
  0
ATTDEF
  5
A92
102
{ACAD_XDICTIONARY
360
A93
102
}
330
16C
100
AcDbEntity
  8
Title (ISO)
 62
   232
420
 13238372
100
AcDbText
 10
33.94769291686974
 20
59.17905135204449
 30
0.0
 40
2.5
  1
63-32
  7
Note Text (ISO)
100
AcDbAttributeDefinition
280
     0
  3
DESCRIPTION
  2
DESCRIPTION_002
 70
     0
280
     0
  0
ENDBLK
  5
16E
330
16C
100
AcDbEntity
  8
0
100
AcDbBlockEnd
  0
BLOCK
  5
1D5
330
1D4
100
AcDbEntity
  8
0
100
AcDbBlockBegin
  2
2dTransSection0
 70
     0
 10
0.0
 20
0.0
 30
0.0
  3
2dTransSection0
  1

  0
LINE
  5
1D7
330
1D4
100
AcDbEntity
  8
Section Line (ISO)
  6
CHAIN
 48
46.62152481079101
100
AcDbLine
 10
183.5643097684158
 20
40.02878755550319
 30
0.0
 11
557.8784484604604
 21
40.02878755550319
 31
0.0
  0
LINE
  5
1D8
330
1D4
100
AcDbEntity
  8
Section Line (ISO)
  6
Continuous
370
   140
100
AcDbLine
 10
183.5643097684158
 20
40.02878755550319
 30
0.0
 11
194.4823157985047
 21
40.02878755550319
 31
0.0
  0
LINE
  5
1D9
330
1D4
100
AcDbEntity
  8
Section Line (ISO)
  6
Continuous
370
   140
100
AcDbLine
 10
546.9604424303716
 20
40.02878755550319
 30
0.0
 11
557.8784484604604
 21
40.02878755550319
 31
0.0
  0
LINE
  5
1DA
330
1D4
100
AcDbEntity
  8
Section Line (ISO)
  6
Continuous
100
AcDbLine
 10
189.0233127834603
 20
37.52878755550319
 30
0.0
 11
189.0233127834603
 21
40.02878755550319
 31
0.0
  0
POLYLINE
  5
1DB
330
1D4
100
AcDbEntity
  8
Section Line (ISO)
  6
Continuous
100
AcDb2dPolyline
 66
     1
 10
0.0
 20
0.0
 30
0.0
 70
   128
  0
VERTEX
  5
1DC
330
1DB
100
AcDbEntity
  8
Section Line (ISO)
  6
Continuous
100
AcDbVertex
100
AcDb2dVertex
 10
189.5233032917633
 20
37.52878755549251
 30
0.0
  0
VERTEX
  5
1DD
330
1DB
100
AcDbEntity
  8
Section Line (ISO)
  6
Continuous
100
AcDbVertex
100
AcDb2dVertex
 10
189.0233109211578
 20
40.02878755550319
 30
0.0
  0
VERTEX
  5
1DF
330
1DB
100
AcDbEntity
  8
Section Line (ISO)
  6
Continuous
100
AcDbVertex
100
AcDb2dVertex
 10
188.5233185505523
 20
37.52878755549251
 30
0.0
  0
VERTEX
  5
1E0
330
1DB
100
AcDbEntity
  8
Section Line (ISO)
  6
Continuous
100
AcDbVertex
100
AcDb2dVertex
 10
189.5233032917633
 20
37.52878755549251
 30
0.0
  0
SEQEND
  5
1DE
330
1DB
100
AcDbEntity
  8
Section Line (ISO)
  6
Continuous
  0
SOLID
  5
1E1
330
1D4
100
AcDbEntity
  8
Section Line (ISO)
100
AcDbTrace
 10
189.5233032917633
 20
37.52878755549251
 30
0.0
 11
189.0233109211578
 21
40.02878755550319
 31
0.0
 12
188.5233185505523
 22
37.52878755549251
 32
0.0
 13
189.5233032917633
 23
37.52878755549251
 33
0.0
  0
LINE
  5
1E2
330
1D4
100
AcDbEntity
  8
Section Line (ISO)
  6
Continuous
100
AcDbLine
 10
189.5233127834603
 20
37.52878755550319
 30
0.0
 11
189.0233127834603
 21
40.02878755550319
 31
0.0
  0
LINE
  5
1E3
330
1D4
100
AcDbEntity
  8
Section Line (ISO)
  6
Continuous
100
AcDbLine
 10
189.0233127834603
 20
40.02878755550319
 30
0.0
 11
188.5233127834603
 21
37.52878755550319
 31
0.0
  0
LINE
  5
1E4
330
1D4
100
AcDbEntity
  8
Section Line (ISO)
  6
Continuous
100
AcDbLine
 10
188.5233127834603
 20
37.52878755550319
 30
0.0
 11
189.5233127834603
 21
37.52878755550319
 31
0.0
  0
LINE
  5
1E5
330
1D4
100
AcDbEntity
  8
Section Line (ISO)
  6
Continuous
100
AcDbLine
 10
189.0233127834603
 20
32.62603712621918
 30
0.0
 11
189.0233127834603
 21
37.52878755550319
 31
0.0
  0
LINE
  5
1E6
330
1D4
100
AcDbEntity
  8
Section Line (ISO)
  6
Continuous
100
AcDbLine
 10
552.4194454454159
 20
37.52878755550319
 30
0.0
 11
552.4194454454159
 21
40.02878755550319
 31
0.0
  0
POLYLINE
  5
1E7
330
1D4
100
AcDbEntity
  8
Section Line (ISO)
  6
Continuous
100
AcDb2dPolyline
 66
     1
 10
0.0
 20
0.0
 30
0.0
 70
   128
  0
VERTEX
  5
1E8
330
1E7
100
AcDbEntity
  8
Section Line (ISO)
  6
Continuous
100
AcDbVertex
100
AcDb2dVertex
 10
552.9194519734038
 20
37.52878755549251
 30
0.0
  0
VERTEX
  5
1E9
330
1E7
100
AcDbEntity
  8
Section Line (ISO)
  6
Continuous
100
AcDbVertex
100
AcDb2dVertex
 10
552.419440529312
 20
40.02878755550319
 30
0.0
  0
VERTEX
  5
1EB
330
1E7
100
AcDbEntity
  8
Section Line (ISO)
  6
Continuous
100
AcDbVertex
100
AcDb2dVertex
 10
551.9194481587065
 20
37.52878755549251
 30
0.0
  0
VERTEX
  5
1EC
330
1E7
100
AcDbEntity
  8
Section Line (ISO)
  6
Continuous
100
AcDbVertex
100
AcDb2dVertex
 10
552.9194519734038
 20
37.52878755549251
 30
0.0
  0
SEQEND
  5
1EA
330
1E7
100
AcDbEntity
  8
Section Line (ISO)
  6
Continuous
  0
SOLID
  5
1ED
330
1D4
100
AcDbEntity
  8
Section Line (ISO)
100
AcDbTrace
 10
552.9194519734038
 20
37.52878755549251
 30
0.0
 11
552.419440529312
 21
40.02878755550319
 31
0.0
 12
551.9194481587065
 22
37.52878755549251
 32
0.0
 13
552.9194519734038
 23
37.52878755549251
 33
0.0
  0
LINE
  5
1EE
330
1D4
100
AcDbEntity
  8
Section Line (ISO)
  6
Continuous
100
AcDbLine
 10
552.919445445416
 20
37.52878755550319
 30
0.0
 11
552.4194454454159
 21
40.02878755550319
 31
0.0
  0
LINE
  5
1EF
330
1D4
100
AcDbEntity
  8
Section Line (ISO)
  6
Continuous
100
AcDbLine
 10
552.4194454454159
 20
40.02878755550319
 30
0.0
 11
551.9194454454159
 21
37.52878755550319
 31
0.0
  0
LINE
  5
1F0
330
1D4
100
AcDbEntity
  8
Section Line (ISO)
  6
Continuous
100
AcDbLine
 10
551.9194454454159
 20
37.52878755550319
 30
0.0
 11
552.919445445416
 21
37.52878755550319
 31
0.0
  0
LINE
  5
1F1
330
1D4
100
AcDbEntity
  8
Section Line (ISO)
  6
Continuous
100
AcDbLine
 10
552.4194454454159
 20
32.62603712621918
 30
0.0
 11
552.4194454454159
 21
37.52878755550319
 31
0.0
  0
MTEXT
  5
1F2
330
1D4
100
AcDbEntity
  8
Section Line (ISO)
100
AcDbMText
 10
187.5345430975913
 20
28.02878731708461
 30
0.0
 40
3.499999940395355
 41
0.0
 46
0.0
 71
     7
 72
     1
  1
A
  7
Label Text (ISO)
 73
     1
 44
1.0
  0
MTEXT
  5
1F3
330
1D4
100
AcDbEntity
  8
Section Line (ISO)
100
AcDbMText
 10
550.930675759547
 20
28.02878731708461
 30
0.0
 40
3.499999940395355
 41
0.0
 46
0.0
 71
     7
 72
     1
  1
A
  7
Label Text (ISO)
 73
     1
 44
1.0
  0
ENDBLK
  5
1D6
330
1D4
100
AcDbEntity
  8
0
100
AcDbBlockEnd
  0
BLOCK
  5
282
330
281
100
AcDbEntity
  8
0
100
AcDbBlockBegin
  2
*D7
 70
     1
 10
0.0
 20
0.0
 30
0.0
  3
*D7
  1

  0
LINE
  5
35A
330
281
100
AcDbEntity
  8
Dimension (ISO)
440
 16777216
100
AcDbLine
 10
444.0312187885894
 20
788.9426081922252
 30
0.0
 11
469.2062187885896
 21
788.9426081922252
 31
0.0
  0
LINE
  5
35B
330
281
100
AcDbEntity
  8
Dimension (ISO)
440
 16777216
100
AcDbLine
 10
444.0312187885894
 20
725.9426081922251
 30
0.0
 11
469.2062187885896
 21
725.9426081922251
 31
0.0
  0
LINE
  5
35C
330
281
100
AcDbEntity
  8
Dimension (ISO)
440
 16777216
100
AcDbLine
 10
466.0312187885896
 20
786.4426081922252
 30
0.0
 11
466.0312187885896
 21
728.4426081922251
 31
0.0
  0
SOLID
  5
35D
330
281
100
AcDbEntity
  8
Dimension (ISO)
440
 16777216
100
AcDbTrace
 10
465.6145521219229
 20
786.4426081922252
 30
0.0
 11
466.4478854552562
 21
786.4426081922252
 31
0.0
 12
466.0312187885896
 22
788.9426081922252
 32
0.0
 13
466.0312187885896
 23
788.9426081922252
 33
0.0
  0
SOLID
  5
35E
330
281
100
AcDbEntity
  8
Dimension (ISO)
440
 16777216
100
AcDbTrace
 10
465.6145521219229
 20
728.4426081922251
 30
0.0
 11
466.4478854552562
 21
728.4426081922251
 31
0.0
 12
466.0312187885896
 22
725.9426081922251
 32
0.0
 13
466.0312187885896
 23
725.9426081922251
 33
0.0
  0
MTEXT
  5
35F
330
281
100
AcDbEntity
  8
Dimension (ISO)
 62
   232
420
 13238372
440
 16777216
100
AcDbMText
 10
461.5077208555794
 20
728.3874077867917
 30
0.0
 40
2.5
 41
0.0
 46
0.0
 71
     1
 72
     1
  1
\A1;\fAIGDT|b0|i0;\H2.5000;\ln\fTahoma|b0|i0;\H2.5000;63,00
  7
Note Text (ISO)
 11
0.0000000000000001
 21
1.0
 31
0.0
 73
     1
 44
1.0
  0
POINT
  5
360
330
281
100
AcDbEntity
  8
Defpoints
 62
     0
440
 16777216
100
AcDbPoint
 10
444.0312187885894
 20
788.9426081922252
 30
0.0
  0
POINT
  5
361
330
281
100
AcDbEntity
  8
Defpoints
 62
     0
440
 16777216
100
AcDbPoint
 10
444.0312187885894
 20
725.9426081922251
 30
0.0
  0
POINT
  5
362
330
281
100
AcDbEntity
  8
Defpoints
 62
     0
440
 16777216
100
AcDbPoint
 10
466.0312187885896
 20
725.9426081922251
 30
0.0
  0
ENDBLK
  5
283
330
281
100
AcDbEntity
  8
0
100
AcDbBlockEnd
  0
BLOCK
  5
365
330
364
100
AcDbEntity
  8
0
100
AcDbBlockBegin
  2
*D8
 70
     1
 10
0.0
 20
0.0
 30
0.0
  3
*D8
  1

  0
LINE
  5
435
330
364
100
AcDbEntity
  8
Dimension (ISO)
440
 16777216
100
AcDbLine
 10
441.5312187885894
 20
751.2853657658652
 30
0.0
 11
389.5312187885895
 21
751.2853657658652
 31
0.0
  0
SOLID
  5
436
330
364
100
AcDbEntity
  8
Dimension (ISO)
440
 16777216
100
AcDbTrace
 10
441.5312187885894
 20
751.7020324325318
 30
0.0
 11
441.5312187885894
 21
750.8686990991986
 31
0.0
 12
444.0312187885894
 22
751.2853657658652
 32
0.0
 13
444.0312187885894
 23
751.2853657658652
 33
0.0
  0
SOLID
  5
437
330
364
100
AcDbEntity
  8
Dimension (ISO)
440
 16777216
100
AcDbTrace
 10
389.5312187885895
 20
751.7020324325318
 30
0.0
 11
389.5312187885895
 21
750.8686990991986
 31
0.0
 12
387.0312187885895
 22
751.2853657658652
 32
0.0
 13
387.0312187885895
 23
751.2853657658652
 33
0.0
  0
MTEXT
  5
438
330
364
100
AcDbEntity
  8
Dimension (ISO)
 62
   232
420
 13238372
440
 16777216
100
AcDbMText
 10
400.9303121663281
 20
755.2189574176366
 30
0.0
 40
2.5
 41
0.0
 46
0.0
 71
     1
 72
     1
  1
\A1;57,00
  7
Note Text (ISO)
 73
     1
 44
1.0
  0
POINT
  5
439
330
364
100
AcDbEntity
  8
Defpoints
 62
     0
440
 16777216
100
AcDbPoint
 10
444.0312187885894
 20
757.4426081922251
 30
0.0
  0
POINT
  5
43A
330
364
100
AcDbEntity
  8
Defpoints
 62
     0
440
 16777216
100
AcDbPoint
 10
387.0312187885895
 20
757.4426081922251
 30
0.0
  0
POINT
  5
43B
330
364
100
AcDbEntity
  8
Defpoints
 62
     0
440
 16777216
100
AcDbPoint
 10
387.0312187885895
 20
751.2853657658652
 30
0.0
  0
ENDBLK
  5
366
330
364
100
AcDbEntity
  8
0
100
AcDbBlockEnd
  0
BLOCK
  5
43E
330
43D
100
AcDbEntity
  8
0
100
AcDbBlockBegin
  2
*D9
 70
     1
 10
0.0
 20
0.0
 30
0.0
  3
*D9
  1

  0
LINE
  5
50E
330
43D
100
AcDbEntity
  8
Dimension (ISO)
440
 16777216
100
AcDbLine
 10
362.5312187885896
 20
751.2853657658652
 30
0.0
 11
327.5312187885895
 21
751.2853657658652
 31
0.0
  0
SOLID
  5
50F
330
43D
100
AcDbEntity
  8
Dimension (ISO)
440
 16777216
100
AcDbTrace
 10
362.5312187885896
 20
751.7020324325318
 30
0.0
 11
362.5312187885896
 21
750.8686990991986
 31
0.0
 12
365.0312187885896
 22
751.2853657658652
 32
0.0
 13
365.0312187885896
 23
751.2853657658652
 33
0.0
  0
SOLID
  5
510
330
43D
100
AcDbEntity
  8
Dimension (ISO)
440
 16777216
100
AcDbTrace
 10
327.5312187885895
 20
751.7020324325318
 30
0.0
 11
327.5312187885895
 21
750.8686990991986
 31
0.0
 12
325.0312187885895
 22
751.2853657658652
 32
0.0
 13
325.0312187885895
 23
751.2853657658652
 33
0.0
  0
MTEXT
  5
511
330
43D
100
AcDbEntity
  8
Dimension (ISO)
 62
   232
420
 13238372
440
 16777216
100
AcDbMText
 10
324.8597950411961
 20
755.2189574176366
 30
0.0
 40
2.5
 41
0.0
 46
0.0
 71
     1
 72
     1
  1
\A1;40,00
  7
Note Text (ISO)
 73
     1
 44
1.0
  0
POINT
  5
512
330
43D
100
AcDbEntity
  8
Defpoints
 62
     0
440
 16777216
100
AcDbPoint
 10
365.0312187885896
 20
757.4426081922251
 30
0.0
  0
POINT
  5
513
330
43D
100
AcDbEntity
  8
Defpoints
 62
     0
440
 16777216
100
AcDbPoint
 10
325.0312187885895
 20
757.4426081922251
 30
0.0
  0
POINT
  5
514
330
43D
100
AcDbEntity
  8
Defpoints
 62
     0
440
 16777216
100
AcDbPoint
 10
325.0312187885895
 20
751.2853657658652
 30
0.0
  0
ENDBLK
  5
43F
330
43D
100
AcDbEntity
  8
0
100
AcDbBlockEnd
  0
BLOCK
  5
517
330
516
100
AcDbEntity
  8
0
100
AcDbBlockBegin
  2
*D10
 70
     1
 10
0.0
 20
0.0
 30
0.0
  3
*D10
  1

  0
LINE
  5
5E2
330
516
100
AcDbEntity
  8
Dimension (ISO)
440
 16777216
100
AcDbLine
 10
409.8312187885895
 20
798.4426081922253
 30
0.0
 11
510.5791310017212
 21
798.4426081922253
 31
0.0
  0
LINE
  5
5E3
330
516
100
AcDbEntity
  8
Dimension (ISO)
440
 16777216
100
AcDbLine
 10
409.8312187885895
 20
716.4426081922251
 30
0.0
 11
510.5791310017212
 21
716.4426081922251
 31
0.0
  0
LINE
  5
5E4
330
516
100
AcDbEntity
  8
Dimension (ISO)
440
 16777216
100
AcDbLine
 10
507.4041310017212
 20
795.9426081922253
 30
0.0
 11
507.4041310017212
 21
718.9426081922252
 31
0.0
  0
SOLID
  5
5E5
330
516
100
AcDbEntity
  8
Dimension (ISO)
440
 16777216
100
AcDbTrace
 10
506.9874643350545
 20
795.9426081922253
 30
0.0
 11
507.8207976683879
 21
795.9426081922253
 31
0.0
 12
507.4041310017212
 22
798.4426081922253
 32
0.0
 13
507.4041310017212
 23
798.4426081922253
 33
0.0
  0
SOLID
  5
5E6
330
516
100
AcDbEntity
  8
Dimension (ISO)
440
 16777216
100
AcDbTrace
 10
506.9874643350545
 20
718.9426081922252
 30
0.0
 11
507.8207976683879
 21
718.9426081922252
 31
0.0
 12
507.4041310017212
 22
716.4426081922251
 32
0.0
 13
507.4041310017212
 23
716.4426081922251
 33
0.0
  0
MTEXT
  5
5E7
330
516
100
AcDbEntity
  8
Dimension (ISO)
 62
   232
420
 13238372
440
 16777216
100
AcDbMText
 10
503.4638234332704
 20
724.7997270907185
 30
0.0
 40
2.5
 41
0.0
 46
0.0
 71
     1
 72
     1
  1
\A1;82,00
  7
Note Text (ISO)
 11
0.0000000000000001
 21
1.0
 31
0.0
 73
     1
 44
1.0
  0
POINT
  5
5E8
330
516
100
AcDbEntity
  8
Defpoints
 62
     0
440
 16777216
100
AcDbPoint
 10
409.8312187885895
 20
798.4426081922253
 30
0.0
  0
POINT
  5
5E9
330
516
100
AcDbEntity
  8
Defpoints
 62
     0
440
 16777216
100
AcDbPoint
 10
409.8312187885895
 20
716.4426081922251
 30
0.0
  0
POINT
  5
5EA
330
516
100
AcDbEntity
  8
Defpoints
 62
     0
440
 16777216
100
AcDbPoint
 10
507.4041310017212
 20
716.4426081922251
 30
0.0
  0
ENDBLK
  5
518
330
516
100
AcDbEntity
  8
0
100
AcDbBlockEnd
  0
BLOCK
  5
5ED
330
5EC
100
AcDbEntity
  8
0
100
AcDbBlockBegin
  2
*D11
 70
     1
 10
0.0
 20
0.0
 30
0.0
  3
*D11
  1

  0
LINE
  5
6C4
330
5EC
100
AcDbEntity
  8
Dimension (ISO)
440
 16777216
100
AcDbLine
 10
434.7512187885895
 20
816.4426081922252
 30
0.0
 11
516.6173714850757
 21
816.4426081922252
 31
0.0
  0
LINE
  5
6C5
330
5EC
100
AcDbEntity
  8
Dimension (ISO)
440
 16777216
100
AcDbLine
 10
444.0312187885894
 20
757.4426081922251
 30
0.0
 11
516.6173714850756
 21
757.4426081922251
 31
0.0
  0
LINE
  5
6C6
330
5EC
100
AcDbEntity
  8
Dimension (ISO)
440
 16777216
100
AcDbLine
 10
513.4423714850758
 20
813.9426081922252
 30
0.0
 11
513.4423714850757
 21
759.9426081922252
 31
0.0
  0
SOLID
  5
6C7
330
5EC
100
AcDbEntity
  8
Dimension (ISO)
440
 16777216
100
AcDbTrace
 10
513.0257048184091
 20
813.9426081922252
 30
0.0
 11
513.8590381517424
 21
813.9426081922252
 31
0.0
 12
513.4423714850758
 22
816.4426081922252
 32
0.0
 13
513.4423714850758
 23
816.4426081922252
 33
0.0
  0
SOLID
  5
6C8
330
5EC
100
AcDbEntity
  8
Dimension (ISO)
440
 16777216
100
AcDbTrace
 10
513.025704818409
 20
759.9426081922252
 30
0.0
 11
513.8590381517423
 21
759.9426081922252
 31
0.0
 12
513.4423714850757
 22
757.4426081922251
 32
0.0
 13
513.4423714850757
 23
757.4426081922251
 33
0.0
  0
MTEXT
  5
6C9
330
5EC
100
AcDbEntity
  8
Dimension (ISO)
 62
   232
420
 13238372
440
 16777216
100
AcDbMText
 10
509.5087798333041
 20
770.3417015699637
 30
0.0
 40
2.5
 41
0.0
 46
0.0
 71
     1
 72
     1
  1
\A1;59,00
  7
Note Text (ISO)
 11
0.0000000000000001
 21
1.0
 31
0.0
 73
     1
 44
1.0
  0
POINT
  5
6CA
330
5EC
100
AcDbEntity
  8
Defpoints
 62
     0
440
 16777216
100
AcDbPoint
 10
434.7512187885895
 20
816.4426081922252
 30
0.0
  0
POINT
  5
6CB
330
5EC
100
AcDbEntity
  8
Defpoints
 62
     0
440
 16777216
100
AcDbPoint
 10
444.0312187885894
 20
757.4426081922251
 30
0.0
  0
POINT
  5
6CC
330
5EC
100
AcDbEntity
  8
Defpoints
 62
     0
440
 16777216
100
AcDbPoint
 10
513.4423714850757
 20
757.4426081922251
 30
0.0
  0
ENDBLK
  5
5EE
330
5EC
100
AcDbEntity
  8
0
100
AcDbBlockEnd
  0
BLOCK
  5
6CF
330
6CE
100
AcDbEntity
  8
0
100
AcDbBlockBegin
  2
*D12
 70
     1
 10
0.0
 20
0.0
 30
0.0
  3
*D12
  1

  0
LINE
  5
7A6
330
6CE
100
AcDbEntity
  8
Dimension (ISO)
440
 16777216
100
AcDbLine
 10
334.3112187885895
 20
802.4426081922252
 30
0.0
 11
310.0362187885896
 21
802.4426081922252
 31
0.0
  0
LINE
  5
7A7
330
6CE
100
AcDbEntity
  8
Dimension (ISO)
440
 16777216
100
AcDbLine
 10
325.0312187885895
 20
757.4426081922251
 30
0.0
 11
310.0362187885896
 21
757.4426081922251
 31
0.0
  0
LINE
  5
7A8
330
6CE
100
AcDbEntity
  8
Dimension (ISO)
440
 16777216
100
AcDbLine
 10
313.2112187885896
 20
799.9426081922251
 30
0.0
 11
313.2112187885896
 21
759.9426081922252
 31
0.0
  0
SOLID
  5
7A9
330
6CE
100
AcDbEntity
  8
Dimension (ISO)
440
 16777216
100
AcDbTrace
 10
312.7945521219229
 20
799.9426081922251
 30
0.0
 11
313.6278854552563
 21
799.9426081922251
 31
0.0
 12
313.2112187885896
 22
802.4426081922252
 32
0.0
 13
313.2112187885896
 23
802.4426081922252
 33
0.0
  0
SOLID
  5
7AA
330
6CE
100
AcDbEntity
  8
Dimension (ISO)
440
 16777216
100
AcDbTrace
 10
312.7945521219229
 20
759.9426081922252
 30
0.0
 11
313.6278854552563
 21
759.9426081922252
 31
0.0
 12
313.2112187885896
 22
757.4426081922251
 32
0.0
 13
313.2112187885896
 23
757.4426081922251
 33
0.0
  0
MTEXT
  5
7AB
330
6CE
100
AcDbEntity
  8
Dimension (ISO)
 62
   232
420
 13238372
440
 16777216
100
AcDbMText
 10
309.2776271368181
 20
761.2711844448317
 30
0.0
 40
2.5
 41
0.0
 46
0.0
 71
     1
 72
     1
  1
\A1;45,00
  7
Note Text (ISO)
 11
0.0000000000000001
 21
1.0
 31
0.0
 73
     1
 44
1.0
  0
POINT
  5
7AC
330
6CE
100
AcDbEntity
  8
Defpoints
 62
     0
440
 16777216
100
AcDbPoint
 10
334.3112187885895
 20
802.4426081922252
 30
0.0
  0
POINT
  5
7AD
330
6CE
100
AcDbEntity
  8
Defpoints
 62
     0
440
 16777216
100
AcDbPoint
 10
325.0312187885895
 20
757.4426081922251
 30
0.0
  0
POINT
  5
7AE
330
6CE
100
AcDbEntity
  8
Defpoints
 62
     0
440
 16777216
100
AcDbPoint
 10
313.2112187885896
 20
757.4426081922251
 30
0.0
  0
ENDBLK
  5
6D0
330
6CE
100
AcDbEntity
  8
0
100
AcDbBlockEnd
  0
BLOCK
  5
7B1
330
7B0
100
AcDbEntity
  8
0
100
AcDbBlockBegin
  2
*D13
 70
     1
 10
0.0
 20
0.0
 30
0.0
  3
*D13
  1

  0
LINE
  5
894
330
7B0
100
AcDbEntity
  8
Dimension (ISO)
440
 16777216
100
AcDbLine
 10
325.0312187885895
 20
773.4426081922252
 30
0.0
 11
316.9950064754557
 21
773.4426081922252
 31
0.0
  0
LINE
  5
895
330
7B0
100
AcDbEntity
  8
Dimension (ISO)
440
 16777216
100
AcDbLine
 10
325.0312187885895
 20
741.4426081922251
 30
0.0
 11
316.9950064754557
 21
741.4426081922251
 31
0.0
  0
LINE
  5
896
330
7B0
100
AcDbEntity
  8
Dimension (ISO)
440
 16777216
100
AcDbLine
 10
320.1700064754557
 20
770.9426081922251
 30
0.0
 11
320.1700064754557
 21
743.9426081922252
 31
0.0
  0
LINE
  5
897
330
7B0
100
AcDbEntity
  8
Dimension (ISO)
440
 16777216
100
AcDbLine
 10
320.1700064754557
 20
741.4426081922251
 30
0.0
 11
320.1700064754557
 21
722.1254077867915
 31
0.0
  0
SOLID
  5
898
330
7B0
100
AcDbEntity
  8
Dimension (ISO)
440
 16777216
100
AcDbTrace
 10
319.753339808789
 20
770.9426081922251
 30
0.0
 11
320.5866731421224
 21
770.9426081922251
 31
0.0
 12
320.1700064754557
 22
773.4426081922252
 32
0.0
 13
320.1700064754557
 23
773.4426081922252
 33
0.0
  0
SOLID
  5
899
330
7B0
100
AcDbEntity
  8
Dimension (ISO)
440
 16777216
100
AcDbTrace
 10
319.753339808789
 20
743.9426081922252
 30
0.0
 11
320.5866731421224
 21
743.9426081922252
 31
0.0
 12
320.1700064754557
 22
741.4426081922251
 32
0.0
 13
320.1700064754557
 23
741.4426081922251
 33
0.0
  0
MTEXT
  5
89A
330
7B0
100
AcDbEntity
  8
Dimension (ISO)
 62
   232
420
 13238372
440
 16777216
100
AcDbMText
 10
315.6465085424455
 20
722.8874077867917
 30
0.0
 40
2.5
 41
0.0
 46
0.0
 71
     1
 72
     1
  1
\A1;\fAIGDT|b0|i0;\H2.5000;\ln\fTahoma|b0|i0;\H2.5000;32,00
  7
Note Text (ISO)
 11
0.0000000000000001
 21
1.0
 31
0.0
 73
     1
 44
1.0
  0
POINT
  5
89B
330
7B0
100
AcDbEntity
  8
Defpoints
 62
     0
440
 16777216
100
AcDbPoint
 10
325.0312187885895
 20
773.4426081922252
 30
0.0
  0
POINT
  5
89C
330
7B0
100
AcDbEntity
  8
Defpoints
 62
     0
440
 16777216
100
AcDbPoint
 10
325.0312187885895
 20
741.4426081922251
 30
0.0
  0
POINT
  5
89D
330
7B0
100
AcDbEntity
  8
Defpoints
 62
     0
440
 16777216
100
AcDbPoint
 10
320.1700064754557
 20
741.4426081922251
 30
0.0
  0
ENDBLK
  5
7B2
330
7B0
100
AcDbEntity
  8
0
100
AcDbBlockEnd
  0
BLOCK
  5
8A0
330
89F
100
AcDbEntity
  8
0
100
AcDbBlockBegin
  2
*D14
 70
     1
 10
0.0
 20
0.0
 30
0.0
  3
*D14
  1

  0
LINE
  5
983
330
89F
100
AcDbEntity
  8
Dimension (ISO)
440
 16777216
100
AcDbLine
 10
349.0312187885895
 20
779.9426081922251
 30
0.0
 11
278.530902790208
 21
779.9426081922251
 31
0.0
  0
LINE
  5
984
330
89F
100
AcDbEntity
  8
Dimension (ISO)
440
 16777216
100
AcDbLine
 10
349.0312187885895
 20
734.9426081922252
 30
0.0
 11
278.530902790208
 21
734.9426081922252
 31
0.0
  0
LINE
  5
985
330
89F
100
AcDbEntity
  8
Dimension (ISO)
440
 16777216
100
AcDbLine
 10
281.705902790208
 20
777.4426081922252
 30
0.0
 11
281.705902790208
 21
737.4426081922251
 31
0.0
  0
LINE
  5
986
330
89F
100
AcDbEntity
  8
Dimension (ISO)
440
 16777216
100
AcDbLine
 10
281.705902790208
 20
734.9426081922252
 30
0.0
 11
281.705902790208
 21
717.0091844448315
 31
0.0
  0
SOLID
  5
987
330
89F
100
AcDbEntity
  8
Dimension (ISO)
440
 16777216
100
AcDbTrace
 10
281.2892361235413
 20
777.4426081922252
 30
0.0
 11
282.1225694568747
 21
777.4426081922252
 31
0.0
 12
281.705902790208
 22
779.9426081922251
 32
0.0
 13
281.705902790208
 23
779.9426081922251
 33
0.0
  0
SOLID
  5
988
330
89F
100
AcDbEntity
  8
Dimension (ISO)
440
 16777216
100
AcDbTrace
 10
281.2892361235413
 20
737.4426081922251
 30
0.0
 11
282.1225694568747
 21
737.4426081922251
 31
0.0
 12
281.705902790208
 22
734.9426081922252
 32
0.0
 13
281.705902790208
 23
734.9426081922252
 33
0.0
  0
MTEXT
  5
989
330
89F
100
AcDbEntity
  8
Dimension (ISO)
 62
   232
420
 13238372
440
 16777216
100
AcDbMText
 10
277.7723111384365
 20
717.7711844448317
 30
0.0
 40
2.5
 41
0.0
 46
0.0
 71
     1
 72
     1
  1
\A1;45,00
  7
Note Text (ISO)
 11
0.0000000000000001
 21
1.0
 31
0.0
 73
     1
 44
1.0
  0
POINT
  5
98A
330
89F
100
AcDbEntity
  8
Defpoints
 62
     0
440
 16777216
100
AcDbPoint
 10
349.0312187885895
 20
779.9426081922251
 30
0.0
  0
POINT
  5
98B
330
89F
100
AcDbEntity
  8
Defpoints
 62
     0
440
 16777216
100
AcDbPoint
 10
349.0312187885895
 20
734.9426081922252
 30
0.0
  0
POINT
  5
98C
330
89F
100
AcDbEntity
  8
Defpoints
 62
     0
440
 16777216
100
AcDbPoint
 10
281.705902790208
 20
734.9426081922252
 30
0.0
  0
ENDBLK
  5
8A1
330
89F
100
AcDbEntity
  8
0
100
AcDbBlockEnd
  0
BLOCK
  5
98F
330
98E
100
AcDbEntity
  8
0
100
AcDbBlockBegin
  2
*D15
 70
     1
 10
0.0
 20
0.0
 30
0.0
  3
*D15
  1

  0
LINE
  5
A5A
330
98E
100
AcDbEntity
  8
Dimension (ISO)
440
 16777216
100
AcDbLine
 10
444.0312187885894
 20
725.9426081922251
 30
0.0
 11
444.0312187885894
 21
669.2676081922252
 31
0.0
  0
LINE
  5
A5B
330
98E
100
AcDbEntity
  8
Dimension (ISO)
440
 16777216
100
AcDbLine
 10
325.0312187885895
 20
741.4426081922251
 30
0.0
 11
325.0312187885895
 21
669.2676081922252
 31
0.0
  0
LINE
  5
A5C
330
98E
100
AcDbEntity
  8
Dimension (ISO)
440
 16777216
100
AcDbLine
 10
441.5312187885894
 20
672.4426081922252
 30
0.0
 11
327.5312187885895
 21
672.4426081922252
 31
0.0
  0
SOLID
  5
A5D
330
98E
100
AcDbEntity
  8
Dimension (ISO)
440
 16777216
100
AcDbTrace
 10
441.5312187885894
 20
672.8592748588917
 30
0.0
 11
441.5312187885894
 21
672.0259415255585
 31
0.0
 12
444.0312187885894
 22
672.4426081922252
 32
0.0
 13
444.0312187885894
 23
672.4426081922252
 33
0.0
  0
SOLID
  5
A5E
330
98E
100
AcDbEntity
  8
Dimension (ISO)
440
 16777216
100
AcDbTrace
 10
327.5312187885895
 20
672.8592748588917
 30
0.0
 11
327.5312187885895
 21
672.0259415255585
 31
0.0
 12
325.0312187885895
 22
672.4426081922252
 32
0.0
 13
325.0312187885895
 23
672.4426081922252
 33
0.0
  0
MTEXT
  5
A5F
330
98E
100
AcDbEntity
  8
Dimension (ISO)
 62
   232
420
 13238372
440
 16777216
100
AcDbMText
 10
358.5773907480645
 20
676.3761998439965
 30
0.0
 40
2.5
 41
0.0
 46
0.0
 71
     1
 72
     1
  1
\A1;119,00
  7
Note Text (ISO)
 73
     1
 44
1.0
  0
POINT
  5
A60
330
98E
100
AcDbEntity
  8
Defpoints
 62
     0
440
 16777216
100
AcDbPoint
 10
444.0312187885894
 20
725.9426081922251
 30
0.0
  0
POINT
  5
A61
330
98E
100
AcDbEntity
  8
Defpoints
 62
     0
440
 16777216
100
AcDbPoint
 10
325.0312187885895
 20
741.4426081922251
 30
0.0
  0
POINT
  5
A62
330
98E
100
AcDbEntity
  8
Defpoints
 62
     0
440
 16777216
100
AcDbPoint
 10
325.0312187885895
 20
672.4426081922252
 30
0.0
  0
ENDBLK
  5
990
330
98E
100
AcDbEntity
  8
0
100
AcDbBlockEnd
  0
ENDSEC
  0
SECTION
  2
ENTITIES
  0
INSERT
  5
16B
330
70
100
AcDbEntity
  8
0
100
AcDbBlockReference
  2
Borders Default Border
 10
0.0
 20
0.0
 30
0.0
  0
INSERT
  5
173
330
70
100
AcDbEntity
  8
0
100
AcDbBlockReference
 66
     1
  2
Title Blocks ISO
 10
821.0
 20
20.0
 30
0.0
  0
ATTRIB
  5
175
102
{ACAD_XDICTIONARY
360
A97
102
}
330
173
100
AcDbEntity
  8
Title (ISO)
 62
   232
420
 13238372
100
AcDbText
 10
855.1558588233993
 20
93.13494450671269
 30
0.0
 40
2.5
  1
491104063032
  7
Note Text (ISO)
100
AcDbAttribute
280
     0
  2
PART_NUMBER_001
 70
     0
280
     0
  0
ATTRIB
  5
176
102
{ACAD_XDICTIONARY
360
A9C
102
}
330
173
100
AcDbEntity
  8
Title (ISO)
 62
   232
420
 13238372
100
AcDbText
 10
854.8368802916622
 20
83.39776635682264
 30
0.0
 40
2.5
  1
PLASSON REDUCING COUPLER
  7
Note Text (ISO)
100
AcDbAttribute
280
     0
  2
DESCRIPTION_001
 70
     0
280
     0
  0
ATTRIB
  5
A9A
102
{ACAD_XDICTIONARY
360
A9B
102
}
330
173
100
AcDbEntity
  8
Title (ISO)
 62
   232
420
 13238372
100
AcDbText
 10
854.9476929168696
 20
79.17905135204448
 30
0.0
 40
2.5
  1
63-32
  7
Note Text (ISO)
100
AcDbAttribute
280
     0
  2
DESCRIPTION_002
 70
     0
280
     1
  0
SEQEND
  5
174
330
173
100
AcDbEntity
  8
0
  0
LINE
  5
177
330
70
100
AcDbEntity
  8
Visible (ISO)
100
AcDbLine
 10
422.2512187886632
 20
338.6773716077982
 30
0.0
 11
437.2512187886632
 21
338.6773716077982
 31
0.0
  0
SPLINE
  5
178
330
70
100
AcDbEntity
  8
Visible (ISO)
100
AcDbSpline
210
0.0
220
0.0
230
1.0
 70
     8
 71
     3
 72
    22
 73
    18
 74
     0
 42
0.000000001
 43
0.0000000001
 40
1.381640639574954
 40
1.381640639574954
 40
1.381640639577631
 40
1.381640639577631
 40
1.728116836796223
 40
1.728116836796223
 40
2.074593034017493
 40
2.074593034017493
 40
2.418937156583701
 40
2.418937156583701
 40
2.763281279149908
 40
2.763281279149908
 40
3.130628495133165
 40
3.130628495133165
 40
3.497975711116422
 40
3.497975711116422
 40
3.857611325417004
 40
3.857611325417004
 40
4.217246939717586
 40
4.217246939717586
 40
4.217246939717586
 40
4.217246939717586
 10
439.1333473837061
 20
317.1645433259364
 30
0.0
 10
439.1333473837025
 20
317.1645433259359
 30
0.0
 10
438.9097266110228
 20
317.1325612898485
 30
0.0
 10
437.9961579537889
 20
317.0277251864078
 30
0.0
 10
437.3062270746405
 20
316.9577432659128
 30
0.0
 10
435.7117116980993
 20
316.8603671338681
 30
0.0
 10
434.7002297933455
 20
316.8267050404136
 30
0.0
 10
432.4743442861418
 20
316.8718806865423
 30
0.0
 10
431.2599770428167
 20
316.9540718924743
 30
0.0
 10
428.9045383149812
 20
317.2279672769083
 30
0.0
 10
427.6155638412803
 20
317.4445964414578
 30
0.0
 10
425.252812781946
 20
317.9522505044393
 30
0.0
 10
424.1780696817825
 20
318.2396036690848
 30
0.0
 10
422.4978463443997
 20
318.7323175971785
 30
0.0
 10
421.772428457587
 20
318.9715297953684
 30
0.0
 10
420.8051974979134
 20
319.3021567120608
 30
0.0
 10
420.563854592373
 20
319.3907105903944
 30
0.0
 10
420.563854592373
 20
319.3907105903944
 30
0.0
  0
LINE
  5
179
330
70
100
AcDbEntity
  8
Visible (ISO)
100
AcDbLine
 10
437.2512187886632
 20
338.6773716077982
 30
0.0
 11
439.1333473837061
 21
317.1645433259364
 31
0.0
  0
LINE
  5
17A
330
70
100
AcDbEntity
  8
Visible (ISO)
100
AcDbLine
 10
422.2512187886632
 20
338.6773716077982
 30
0.0
 11
420.563854592373
 21
319.3907105903944
 31
0.0
  0
LINE
  5
17B
330
70
100
AcDbEntity
  8
Visible (ISO)
100
AcDbLine
 10
331.8112187886633
 20
324.6773716077982
 30
0.0
 11
346.8112187886633
 21
324.6773716077982
 31
0.0
  0
SPLINE
  5
17C
330
70
100
AcDbEntity
  8
Visible (ISO)
100
AcDbSpline
210
0.0
220
0.0
230
1.0
 70
     8
 71
     3
 72
    14
 73
    10
 74
     0
 42
0.000000001
 43
0.0000000001
 40
4.769263797357807
 40
4.769263797357807
 40
4.769263797357807
 40
4.769263797357807
 40
4.994988936432723
 40
4.994988936432723
 40
5.390730068810926
 40
5.390730068810926
 40
5.801273180646862
 40
5.801273180646862
 40
6.211816292482797
 40
6.211816292482797
 40
6.211816292482797
 40
6.211816292482797
 10
349.0312187886582
 20
302.1111837422151
 30
0.0
 10
348.9027796491416
 20
302.0401733933866
 30
0.0
 10
348.6855427484581
 20
301.920531681872
 30
0.0
 10
347.8665957550997
 20
301.4854223292923
 30
0.0
 10
347.0900196599699
 20
301.0873487961805
 30
0.0
 10
345.2900151103593
 20
300.277507231262
 30
0.0
 10
344.1286685477687
 20
299.8060974172393
 30
0.0
 10
341.5504460866434
 20
299.0353277109796
 30
0.0
 10
340.1300438947414
 20
298.7468803242081
 30
0.0
 10
338.7675413166856
 20
298.6344511295705
 30
0.0
  0
SPLINE
  5
17D
330
70
100
AcDbEntity
  8
Visible (ISO)
100
AcDbSpline
210
0.0
220
0.0
230
1.0
 70
     8
 71
     3
 72
     8
 73
     4
 74
     0
 42
0.000000001
 43
0.0000000001
 40
1.442552495122001
 40
1.442552495122001
 40
1.442552495122001
 40
1.442552495122001
 40
1.612568488428285
 40
1.612568488428285
 40
1.612568488428285
 40
1.612568488428285
 10
349.0312187886582
 20
302.1111837422148
 30
0.0
 10
349.1279590453004
 20
302.1646686798731
 30
0.0
 10
349.1746507719304
 20
302.1908183562296
 30
0.0
 10
349.1746507719304
 20
302.1908183562296
 30
0.0
  0
SPLINE
  5
17E
330
70
100
AcDbEntity
  8
Visible (ISO)
100
AcDbSpline
210
0.0
220
0.0
230
1.0
 70
     8
 71
     3
 72
    14
 73
    10
 74
     0
 42
0.000000001
 43
0.0000000001
 40
6.211816292482797
 40
6.211816292482797
 40
6.211816292482797
 40
6.211816292482797
 40
6.58341338036601
 40
6.58341338036601
 40
6.955010468249223
 40
6.955010468249223
 40
7.33008320927257
 40
7.33008320927257
 40
7.705155950274183
 40
7.705155950274183
 40
7.705155950295919
 40
7.705155950295919
 10
338.7675413166856
 20
298.6344511295705
 30
0.0
 10
337.5342920533507
 20
298.5326874898555
 30
0.0
 10
336.235443244556
 20
298.5678099679051
 30
0.0
 10
333.8820696325689
 20
298.8646544392158
 30
0.0
 10
332.8257418129063
 20
299.1158396285765
 30
0.0
 10
331.165841594052
 20
299.5932458101771
 30
0.0
 10
330.4459057517023
 20
299.8536507097363
 30
0.0
 10
329.4883438638994
 20
300.2209222629815
 30
0.0
 10
329.251473337141
 20
300.3230204717037
 30
0.0
 10
329.2514733371135
 20
300.3230204717155
 30
0.0
  0
LINE
  5
17F
330
70
100
AcDbEntity
  8
Visible (ISO)
100
AcDbLine
 10
346.8112187886633
 20
324.6773716077982
 30
0.0
 11
349.1746507719303
 21
302.1908183562296
 31
0.0
  0
LINE
  5
180
330
70
100
AcDbEntity
  8
Visible (ISO)
100
AcDbLine
 10
331.8112187886633
 20
324.6773716077982
 30
0.0
 11
329.2514733371135
 21
300.3230204717155
 31
0.0
  0
LINE
  5
181
330
70
100
AcDbEntity
  8
Visible (ISO)
100
AcDbLine
 10
356.7812187886633
 20
257.1773716077982
 30
0.0
 11
356.7812187886633
 21
302.1773716077983
 31
0.0
  0
LINE
  5
182
330
70
100
AcDbEntity
  8
Visible (ISO)
100
AcDbLine
 10
349.0312187886633
 20
257.1773716077982
 30
0.0
 11
349.0312187886633
 21
302.1111837422154
 31
0.0
  0
LINE
  5
183
330
70
100
AcDbEntity
  8
Visible (ISO)
100
AcDbLine
 10
375.2812187886633
 20
238.6773716077982
 30
0.0
 11
375.2812187886633
 21
320.6773716077983
 31
0.0
  0
LINE
  5
184
330
70
100
AcDbEntity
  8
Visible (ISO)
100
AcDbLine
 10
409.8312187886632
 20
238.6773716077983
 30
0.0
 11
409.8312187886632
 21
320.6773716077983
 31
0.0
  0
LINE
  5
185
330
70
100
AcDbEntity
  8
Visible (ISO)
100
AcDbLine
 10
444.0312187886632
 20
242.7773716077983
 30
0.0
 11
444.0312187886632
 21
316.5773716077983
 31
0.0
  0
LINE
  5
186
330
70
100
AcDbEntity
  8
Visible (ISO)
100
AcDbLine
 10
325.0312187886633
 20
259.4273716077982
 30
0.0
 11
325.0312187886633
 21
299.9273716077983
 31
0.0
  0
LINE
  5
187
330
70
100
AcDbEntity
  8
Visible (ISO)
100
AcDbLine
 10
349.1505157011022
 20
302.1773716077983
 30
0.0
 11
356.7812187886633
 21
302.1773716077983
 31
0.0
  0
LINE
  5
188
330
70
100
AcDbEntity
  8
Visible (ISO)
100
AcDbLine
 10
349.0312187886633
 20
257.1773716077982
 30
0.0
 11
356.7812187886633
 21
257.1773716077982
 31
0.0
  0
LINE
  5
189
330
70
100
AcDbEntity
  8
Visible (ISO)
100
AcDbLine
 10
356.7812187886633
 20
302.1773716077983
 30
0.0
 11
375.2812187886632
 21
320.6773716077983
 31
0.0
  0
LINE
  5
18A
330
70
100
AcDbEntity
  8
Visible (ISO)
100
AcDbLine
 10
356.7812187886633
 20
257.1773716077982
 30
0.0
 11
375.2812187886633
 21
238.6773716077983
 31
0.0
  0
LINE
  5
18B
330
70
100
AcDbEntity
  8
Visible (ISO)
100
AcDbLine
 10
375.2812187886633
 20
320.6773716077983
 30
0.0
 11
409.8312187886632
 21
320.6773716077983
 31
0.0
  0
LINE
  5
18C
330
70
100
AcDbEntity
  8
Visible (ISO)
100
AcDbLine
 10
375.2812187886633
 20
238.6773716077982
 30
0.0
 11
409.8312187886632
 21
238.6773716077982
 31
0.0
  0
LINE
  5
18D
330
70
100
AcDbEntity
  8
Visible (ISO)
100
AcDbLine
 10
444.0312187886632
 20
242.7773716077983
 30
0.0
 11
409.8312187886632
 21
238.6773716077983
 31
0.0
  0
LINE
  5
18E
330
70
100
AcDbEntity
  8
Visible (ISO)
100
AcDbLine
 10
444.0312187886632
 20
316.5773716077982
 30
0.0
 11
439.1333473837061
 21
317.1645433259364
 31
0.0
  0
LINE
  5
18F
330
70
100
AcDbEntity
  8
Visible (ISO)
100
AcDbLine
 10
420.563854592373
 20
319.3907105903944
 30
0.0
 11
409.8312187886632
 21
320.6773716077983
 31
0.0
  0
LINE
  5
190
330
70
100
AcDbEntity
  8
Visible (ISO)
100
AcDbLine
 10
325.0312187886633
 20
299.9273716077983
 30
0.0
 11
329.2514733371135
 21
300.3230204717155
 31
0.0
  0
LINE
  5
191
330
70
100
AcDbEntity
  8
Visible (ISO)
100
AcDbLine
 10
325.0312187886633
 20
259.4273716077982
 30
0.0
 11
349.0312187886633
 21
257.1773716077982
 31
0.0
  0
LINE
  5
192
330
70
100
AcDbEntity
  8
Visible (ISO)
100
AcDbLine
 10
655.4637468901797
 20
338.6773716077982
 30
0.0
 11
670.4637468901798
 21
338.6773716077982
 31
0.0
  0
LINE
  5
193
330
70
100
AcDbEntity
  8
Visible (ISO)
100
AcDbLine
 10
670.4637468901798
 20
338.6773716077982
 30
0.0
 11
672.1293223709716
 21
319.6397567481513
 31
0.0
  0
LINE
  5
194
330
70
100
AcDbEntity
  8
Visible (ISO)
100
AcDbLine
 10
655.4637468901797
 20
338.6773716077982
 30
0.0
 11
653.7981714093881
 21
319.6397567481513
 31
0.0
  0
LINE
  5
195
330
70
100
AcDbEntity
  8
Visible (ISO)
100
AcDbLine
 10
655.463746890153
 20
324.6773716077982
 30
0.0
 11
670.463746890153
 21
324.6773716077982
 31
0.0
  0
SPLINE
  5
196
330
70
100
AcDbEntity
  8
Visible (ISO)
100
AcDbSpline
210
0.0
220
0.0
230
1.0
 70
     8
 71
     3
 72
     8
 73
     4
 74
     0
 42
0.000000001
 43
0.0000000001
 40
6.15747925888693
 40
6.15747925888693
 40
6.15747925888693
 40
6.15747925888693
 40
6.211816292482797
 40
6.211816292482797
 40
6.211816292482797
 40
6.211816292482797
 10
673.1948107750299
 20
298.688159391212
 30
0.0
 10
673.1972925250001
 20
298.6672954568086
 30
0.0
 10
673.1945455677042
 20
298.6493315860928
 30
0.0
 10
673.1865211487678
 20
298.6344511295705
 30
0.0
  0
SPLINE
  5
197
330
70
100
AcDbEntity
  8
Visible (ISO)
100
AcDbSpline
210
0.0
220
0.0
230
1.0
 70
     8
 71
     3
 72
    24
 73
    20
 74
     0
 42
0.000000001
 43
0.0000000001
 40
6.211816292482797
 40
6.211816292482797
 40
6.211816292482797
 40
6.211816292482797
 40
6.58341338036601
 40
6.58341338036601
 40
6.955010468249223
 40
6.955010468249223
 40
7.33008320927257
 40
7.33008320927257
 40
7.705155950295919
 40
7.705155950295919
 40
8.080228691319268
 40
8.080228691319268
 40
8.455301432342615
 40
8.455301432342615
 40
8.826898520225828
 40
8.826898520225828
 40
9.198495608109041
 40
9.198495608109041
 40
9.252832641704909
 40
9.252832641704909
 40
9.252832641704909
 40
9.252832641704909
 10
673.1865211487678
 20
298.6344511295705
 30
0.0
 10
673.1316441981618
 20
298.5326874898555
 30
0.0
 10
672.8215438629551
 20
298.5678099679051
 30
0.0
 10
671.7114703612985
 20
298.8646544392158
 30
0.0
 10
670.9125279498286
 20
299.1158396285765
 30
0.0
 10
669.1204802461323
 20
299.5932458101771
 30
0.0
 10
667.9968900718168
 20
299.8536507097363
 30
0.0
 10
665.5441478798082
 20
300.2209222629921
 30
0.0
 10
664.2139893602278
 20
300.3230204717155
 30
0.0
 10
661.7135044200722
 20
300.3230204717155
 30
0.0
 10
660.3833459004919
 20
300.2209222629921
 30
0.0
 10
657.9306037084839
 20
299.8536507097363
 30
0.0
 10
656.8070135341688
 20
299.5932458101771
 30
0.0
 10
655.0149658304735
 20
299.1158396285765
 30
0.0
 10
654.2160234190044
 20
298.8646544392158
 30
0.0
 10
653.105949917349
 20
298.5678099679051
 30
0.0
 10
652.795849582143
 20
298.5326874898555
 30
0.0
 10
652.7329482126016
 20
298.6493315860928
 30
0.0
 10
652.7302012553056
 20
298.6672954568086
 30
0.0
 10
652.732683005276
 20
298.688159391212
 30
0.0
  0
LINE
  5
198
330
70
100
AcDbEntity
  8
Visible (ISO)
100
AcDbLine
 10
670.463746890153
 20
324.6773716077982
 30
0.0
 11
673.195384928447
 21
298.6875717544521
 31
0.0
  0
LINE
  5
199
330
70
100
AcDbEntity
  8
Visible (ISO)
100
AcDbLine
 10
655.463746890153
 20
324.6773716077982
 30
0.0
 11
652.732108851859
 21
298.6875717544521
 31
0.0
  0
ARC
  5
19A
330
70
100
AcDbEntity
  8
Visible (ISO)
100
AcDbCircle
 10
662.9637468901559
 20
279.6773716077983
 30
0.0
 40
22.5
100
AcDbArc
 50
116.7220563490982
 51
63.27794365090213
  0
ARC
  5
19B
330
70
100
AcDbEntity
  8
Visible (ISO)
100
AcDbCircle
 10
662.9637468901637
 20
279.6773716077983
 30
0.0
 40
41.0
100
AcDbArc
 50
101.2565709420631
 51
78.74342905793689
  0
CIRCLE
  5
19C
330
70
100
AcDbEntity
  8
Visible (ISO)
100
AcDbCircle
 10
662.9637468901606
 20
279.6773716077983
 30
0.0
 40
14.39999999999999
  0
CIRCLE
  5
19D
330
70
100
AcDbEntity
  8
Visible (ISO)
100
AcDbCircle
 10
662.9637468901488
 20
279.6773716077983
 30
0.0
 40
15.99999999999999
  0
CIRCLE
  5
19E
330
70
100
AcDbEntity
  8
Visible (ISO)
100
AcDbCircle
 10
662.9637468901488
 20
279.6773716077983
 30
0.0
 40
20.24999999999999
  0
LINE
  5
19F
330
70
100
AcDbEntity
  8
Visible (ISO)
100
AcDbLine
 10
356.7812187887483
 20
552.482323893769
 30
0.0
 11
356.7812187887483
 21
597.482323893769
 31
0.0
  0
LINE
  5
1A0
330
70
100
AcDbEntity
  8
Visible (ISO)
100
AcDbLine
 10
349.0312187887483
 20
552.482323893769
 30
0.0
 11
349.0312187887483
 21
597.482323893769
 31
0.0
  0
LINE
  5
1A1
330
70
100
AcDbEntity
  8
Visible (ISO)
100
AcDbLine
 10
375.2812187887483
 20
533.982323893769
 30
0.0
 11
375.2812187887483
 21
615.9823238937691
 31
0.0
  0
LINE
  5
1A2
330
70
100
AcDbEntity
  8
Visible (ISO)
100
AcDbLine
 10
409.8312187887483
 20
533.982323893769
 30
0.0
 11
409.8312187887483
 21
615.9823238937691
 31
0.0
  0
LINE
  5
1A3
330
70
100
AcDbEntity
  8
Visible (ISO)
100
AcDbLine
 10
444.0312187887482
 20
538.0823238937692
 30
0.0
 11
444.0312187887482
 21
611.8823238937691
 31
0.0
  0
LINE
  5
1A4
330
70
100
AcDbEntity
  8
Visible (ISO)
100
AcDbLine
 10
325.0312187887482
 20
554.7323238937691
 30
0.0
 11
325.0312187887482
 21
595.232323893769
 31
0.0
  0
LINE
  5
1A5
330
70
100
AcDbEntity
  8
Visible (ISO)
100
AcDbLine
 10
349.0312187887483
 20
597.482323893769
 30
0.0
 11
356.7812187887483
 21
597.482323893769
 31
0.0
  0
LINE
  5
1A6
330
70
100
AcDbEntity
  8
Visible (ISO)
100
AcDbLine
 10
349.0312187887483
 20
552.482323893769
 30
0.0
 11
356.7812187887483
 21
552.482323893769
 31
0.0
  0
LINE
  5
1A7
330
70
100
AcDbEntity
  8
Visible (ISO)
100
AcDbLine
 10
356.7812187887483
 20
597.482323893769
 30
0.0
 11
375.2812187887483
 21
615.9823238937691
 31
0.0
  0
LINE
  5
1A8
330
70
100
AcDbEntity
  8
Visible (ISO)
100
AcDbLine
 10
356.7812187887483
 20
552.482323893769
 30
0.0
 11
375.2812187887483
 21
533.982323893769
 31
0.0
  0
LINE
  5
1A9
330
70
100
AcDbEntity
  8
Visible (ISO)
100
AcDbLine
 10
375.2812187887483
 20
615.9823238937691
 30
0.0
 11
409.8312187887483
 21
615.9823238937691
 31
0.0
  0
LINE
  5
1AA
330
70
100
AcDbEntity
  8
Visible (ISO)
100
AcDbLine
 10
375.2812187887483
 20
533.982323893769
 30
0.0
 11
409.8312187887483
 21
533.982323893769
 31
0.0
  0
LINE
  5
1AB
330
70
100
AcDbEntity
  8
Visible (ISO)
100
AcDbLine
 10
444.0312187887482
 20
538.0823238937692
 30
0.0
 11
409.8312187887483
 21
533.982323893769
 31
0.0
  0
LINE
  5
1AC
330
70
100
AcDbEntity
  8
Visible (ISO)
100
AcDbLine
 10
444.0312187887482
 20
611.8823238937691
 30
0.0
 11
409.8312187887483
 21
615.9823238937691
 31
0.0
  0
LINE
  5
1AD
330
70
100
AcDbEntity
  8
Visible (ISO)
100
AcDbLine
 10
325.0312187887482
 20
595.232323893769
 30
0.0
 11
349.0312187887483
 21
597.482323893769
 31
0.0
  0
LINE
  5
1AE
330
70
100
AcDbEntity
  8
Visible (ISO)
100
AcDbLine
 10
325.0312187887482
 20
554.7323238937691
 30
0.0
 11
349.0312187887483
 21
552.482323893769
 31
0.0
  0
LINE
  5
1AF
330
70
100
AcDbEntity
  8
Visible (ISO)
100
AcDbLine
 10
84.4585421000073
 20
338.6773716077982
 30
0.0
 11
99.45854210000732
 21
338.6773716077982
 31
0.0
  0
SPLINE
  5
1B0
330
70
100
AcDbEntity
  8
Visible (ISO)
100
AcDbSpline
210
0.0
220
0.0
230
1.0
 70
     8
 71
     3
 72
    24
 73
    20
 74
     0
 42
0.000000001
 43
0.0000000001
 40
0.0
 40
0.0
 40
0.0
 40
0.0
 40
0.3443441225662072
 40
0.3443441225662072
 40
0.6886882451324144
 40
0.6886882451324144
 40
1.035164442353684
 40
1.035164442353684
 40
1.381640639574954
 40
1.381640639574954
 40
1.728116836796223
 40
1.728116836796223
 40
2.074593034017493
 40
2.074593034017493
 40
2.418937156583701
 40
2.418937156583701
 40
2.763281279149908
 40
2.763281279149908
 40
2.800248348938535
 40
2.800248348938535
 40
2.800248348938535
 40
2.800248348938535
 10
101.3402323905618
 20
317.0865931987194
 30
0.0
 10
101.3069979686946
 20
316.9540718924743
 30
0.0
 10
101.0455335827959
 20
316.8718806865423
 30
0.0
 10
100.0561032219043
 20
316.8267050404136
 30
0.0
 10
99.32821140766352
 20
316.8603671338681
 30
0.0
 10
97.66971078464264
 20
316.9577432659128
 30
0.0
 10
96.62502702121308
 20
317.0277251864078
 30
0.0
 10
94.34697205183885
 20
317.1325612898489
 30
0.0
 10
93.11346275741431
 20
317.1645433259364
 30
0.0
 10
90.80362144260584
 20
317.1645433259364
 30
0.0
 10
89.57011214818118
 20
317.1325612898489
 30
0.0
 10
87.29205717880644
 20
317.0277251864078
 30
0.0
 10
86.24737341537645
 20
316.9577432659128
 30
0.0
 10
84.58887279235462
 20
316.8603671338681
 30
0.0
 10
83.8609809781132
 20
316.8267050404136
 30
0.0
 10
82.87155061722033
 20
316.8718806865423
 30
0.0
 10
82.6100862313209
 20
316.9540718924743
 30
0.0
 10
82.57328392746499
 20
317.1008200260569
 30
0.0
 10
82.57228352240003
 20
317.1158089541771
 30
0.0
 10
82.57385183385991
 20
317.1315211991442
 30
0.0
  0
SPLINE
  5
1B1
330
70
100
AcDbEntity
  8
Visible (ISO)
100
AcDbSpline
210
0.0
220
0.0
230
1.0
 70
     8
 71
     3
 72
     8
 73
     4
 74
     0
 42
0.000000001
 43
0.0000000001
 40
5.634245530496639
 40
5.634245530496639
 40
5.634245530496639
 40
5.634245530496639
 40
5.671212600285265
 40
5.671212600285265
 40
5.671212600285265
 40
5.671212600285265
 10
101.3432323661547
 20
317.1315211991442
 30
0.0
 10
101.3448006776146
 20
317.1158089541771
 30
0.0
 10
101.3438002725497
 20
317.1008200260569
 30
0.0
 10
101.3402323905618
 20
317.0865931987194
 30
0.0
  0
LINE
  5
1B2
330
70
100
AcDbEntity
  8
Visible (ISO)
100
AcDbLine
 10
99.45854210000732
 20
338.6773716077982
 30
0.0
 11
101.3435725975051
 21
317.1313744290975
 31
0.0
  0
LINE
  5
1B3
330
70
100
AcDbEntity
  8
Visible (ISO)
100
AcDbLine
 10
84.4585421000073
 20
338.6773716077982
 30
0.0
 11
82.57351160250946
 21
317.1313744290975
 31
0.0
  0
ARC
  5
1B4
330
70
100
AcDbEntity
  8
Visible (ISO)
100
AcDbCircle
 10
91.95854210000142
 20
279.6773716077983
 30
0.0
 40
41.0
100
AcDbArc
 50
102.9176641248301
 51
77.08233587516993
  0
CIRCLE
  5
1B5
330
70
100
AcDbEntity
  8
Visible (ISO)
100
AcDbCircle
 10
91.95854210001156
 20
279.6773716077983
 30
0.0
 40
36.89999999999998
  0
CIRCLE
  5
1B6
330
70
100
AcDbEntity
  8
Visible (ISO)
100
AcDbCircle
 10
91.95854210001156
 20
279.6773716077983
 30
0.0
 40
31.5
  0
CIRCLE
  5
1B7
330
70
100
AcDbEntity
  8
Visible (ISO)
100
AcDbCircle
 10
91.9585420999887
 20
279.6773716077983
 30
0.0
 40
15.99999999999998
  0
CIRCLE
  5
1B8
330
70
100
AcDbEntity
  8
Visible (ISO)
100
AcDbCircle
 10
91.9585420999887
 20
279.6773716077983
 30
0.0
 40
14.39999999999999
  0
CIRCLE
  5
1B9
330
70
100
AcDbEntity
  8
Visible (ISO)
100
AcDbCircle
 10
429.7512187885894
 20
40.02878755550644
 30
0.0
 40
2.0
  0
CIRCLE
  5
1BA
330
70
100
AcDbEntity
  8
Visible (ISO)
100
AcDbCircle
 10
339.3112187885895
 20
40.02878755550229
 30
0.0
 40
2.0
  0
CIRCLE
  5
1BB
330
70
100
AcDbEntity
  8
Visible (ISO)
100
AcDbCircle
 10
429.7512187885894
 20
40.02878755550733
 30
0.0
 40
5.0
  0
CIRCLE
  5
1BC
330
70
100
AcDbEntity
  8
Visible (ISO)
100
AcDbCircle
 10
429.7512187885894
 20
40.02878755550733
 30
0.0
 40
7.5
  0
SPLINE
  5
1BD
330
70
100
AcDbEntity
  8
Visible (ISO)
100
AcDbSpline
210
0.0
220
0.0
230
1.0
 70
    11
 71
     3
 72
    38
 73
    34
 74
     0
 42
0.000000001
 43
0.0000000001
 40
0.0
 40
0.0
 40
0.0
 40
0.0
 40
0.3443441225662072
 40
0.3443441225662072
 40
0.6886882451324144
 40
0.6886882451324144
 40
1.035164442353684
 40
1.035164442353684
 40
1.381640639574954
 40
1.381640639574954
 40
1.728116836796223
 40
1.728116836796223
 40
2.074593034017493
 40
2.074593034017493
 40
2.418937156583701
 40
2.418937156583701
 40
2.763281279149908
 40
2.763281279149908
 40
3.130628495133165
 40
3.130628495133165
 40
3.497975711116422
 40
3.497975711116422
 40
3.857611325417004
 40
3.857611325417004
 40
4.217246939717586
 40
4.217246939717586
 40
4.576882554018169
 40
4.576882554018169
 40
4.936518168318751
 40
4.936518168318751
 40
5.303865384302008
 40
5.303865384302008
 40
5.671212600285265
 40
5.671212600285265
 40
5.671212600285265
 40
5.671212600285265
 10
430.1203236030254
 20
49.41047784605537
 30
0.0
 10
431.2599770427428
 20
49.37724342418775
 30
0.0
 10
432.4743442860681
 20
49.11577903828864
 30
0.0
 10
434.7002297932717
 20
48.12634867739642
 30
0.0
 10
435.7117116980254
 20
47.39845686315532
 30
0.0
 10
437.3062270745667
 20
45.73995624013398
 30
0.0
 10
437.996157953715
 20
44.69527247670423
 30
0.0
 10
438.9097266109525
 20
42.41721750732978
 30
0.0
 10
439.1333473836322
 20
41.18370821290518
 30
0.0
 10
439.1333473836322
 20
38.87386689809672
 30
0.0
 10
438.9097266109525
 20
37.6403576036721
 30
0.0
 10
437.996157953715
 20
35.36230263429759
 30
0.0
 10
437.3062270745667
 20
34.31761887086781
 30
0.0
 10
435.7117116980254
 20
32.65911824784641
 30
0.0
 10
434.7002297932717
 20
31.93122643360528
 30
0.0
 10
432.4743442860681
 20
30.94179607271309
 30
0.0
 10
431.2599770427428
 20
30.68033168681403
 30
0.0
 10
428.9045383149073
 20
30.61164269625262
 30
0.0
 10
427.6155638412066
 20
30.82971850302452
 30
0.0
 10
425.2528127818723
 20
31.77536361678404
 30
0.0
 10
424.1780696817087
 20
32.50248527518684
 30
0.0
 10
422.4978463443259
 20
34.17770155465448
 30
0.0
 10
421.7724284575132
 20
35.23213814747195
 30
0.0
 10
420.8051974978396
 20
37.55798782760308
 30
0.0
 10
420.5638545922992
 20
38.83000217449968
 30
0.0
 10
420.5638545922992
 20
41.22757293650355
 30
0.0
 10
420.8051974978396
 20
42.4995872834001
 30
0.0
 10
421.7724284575132
 20
44.82543696353103
 30
0.0
 10
422.4978463443259
 20
45.87987355634836
 30
0.0
 10
424.1780696817087
 20
47.5550898358157
 30
0.0
 10
425.2528127818723
 20
48.28221149421833
 30
0.0
 10
427.6155638412066
 20
49.22785660797756
 30
0.0
 10
428.9045383149073
 20
49.44593241474932
 30
0.0
 10
430.1203236030254
 20
49.41047784605537
 30
0.0
  0
CIRCLE
  5
1BE
330
70
100
AcDbEntity
  8
Visible (ISO)
100
AcDbCircle
 10
339.3112187885895
 20
40.02878755550319
 30
0.0
 40
5.0
  0
CIRCLE
  5
1BF
330
70
100
AcDbEntity
  8
Visible (ISO)
100
AcDbCircle
 10
339.3112187885895
 20
40.02878755550319
 30
0.0
 40
7.5
  0
SPLINE
  5
1C0
330
70
100
AcDbEntity
  8
Visible (ISO)
100
AcDbSpline
210
0.0
220
0.0
230
1.0
 70
     8
 71
     3
 72
    14
 73
    10
 74
     0
 42
0.000000001
 43
0.0000000001
 40
4.769263797357807
 40
4.769263797357807
 40
4.769263797357807
 40
4.769263797357807
 40
4.994988936432723
 40
4.994988936432723
 40
5.390730068810926
 40
5.390730068810926
 40
5.801273180646862
 40
5.801273180646862
 40
6.211816292482797
 40
6.211816292482797
 40
6.211816292482797
 40
6.211816292482797
 10
349.0312187885844
 20
38.30423743512277
 30
0.0
 10
348.9027796490678
 20
37.5375989363601
 30
0.0
 10
348.6855427483843
 20
36.77632782114019
 30
0.0
 10
347.8665957550259
 20
34.79147075022483
 30
0.0
 10
347.0900196598961
 20
33.65232393009021
 30
0.0
 10
345.2900151102855
 20
31.82820494649514
 30
0.0
 10
344.1286685476949
 20
31.02777537466471
 30
0.0
 10
341.5504460865696
 20
29.98602285729479
 30
0.0
 10
340.1300438946675
 20
29.74538485062975
 30
0.0
 10
338.7675413166118
 20
29.80601329688051
 30
0.0
  0
SPLINE
  5
1C1
330
70
100
AcDbEntity
  8
Visible (ISO)
100
AcDbSpline
210
0.0
220
0.0
230
1.0
 70
     8
 71
     3
 72
    10
 73
     6
 74
     0
 42
0.000000001
 43
0.0000000001
 40
1.442552495122001
 40
1.442552495122001
 40
1.442552495122001
 40
1.442552495122001
 40
1.612568488428285
 40
1.612568488428285
 40
1.782584481734595
 40
1.782584481734595
 40
1.782584481734595
 40
1.782584481734595
 10
349.0312187885844
 20
38.30423743512278
 30
0.0
 10
349.1279590452265
 20
38.88166893614265
 30
0.0
 10
349.1746507718565
 20
39.4620675778089
 30
0.0
 10
349.1746507718565
 20
40.59550753318421
 30
0.0
 10
349.1279590452265
 20
41.17590617485053
 30
0.0
 10
349.0312187885843
 20
41.75333767587047
 30
0.0
  0
SPLINE
  5
1C2
330
70
100
AcDbEntity
  8
Visible (ISO)
100
AcDbSpline
210
0.0
220
0.0
230
1.0
 70
     8
 71
     3
 72
    30
 73
    26
 74
     0
 42
0.000000001
 43
0.0000000001
 40
6.211816292482797
 40
6.211816292482797
 40
6.211816292482797
 40
6.211816292482797
 40
6.58341338036601
 40
6.58341338036601
 40
6.955010468249223
 40
6.955010468249223
 40
7.33008320927257
 40
7.33008320927257
 40
7.705155950295919
 40
7.705155950295919
 40
8.080228691319268
 40
8.080228691319268
 40
8.455301432342615
 40
8.455301432342615
 40
8.826898520225828
 40
8.826898520225828
 40
9.198495608109041
 40
9.198495608109041
 40
9.609038719944976
 40
9.609038719944976
 40
10.01958183178091
 40
10.01958183178091
 40
10.41532296415911
 40
10.41532296415911
 40
10.64104810323403
 40
10.64104810323403
 40
10.64104810323403
 40
10.64104810323403
 10
338.7675413166118
 20
29.80601329688051
 30
0.0
 10
337.5342920532768
 20
29.86089024748605
 30
0.0
 10
336.2354432444821
 20
30.17099058269238
 30
0.0
 10
333.8820696324951
 20
31.28106408434846
 30
0.0
 10
332.8257418128324
 20
32.08000649581802
 30
0.0
 10
331.1658415939782
 20
33.87205419951391
 30
0.0
 10
330.4459057516285
 20
34.99564437382942
 30
0.0
 10
329.4883438637978
 20
37.44838656583771
 30
0.0
 10
329.2514733370397
 20
38.77854508541813
 30
0.0
 10
329.2514733370397
 20
41.27903002557378
 30
0.0
 10
329.4883438637978
 20
42.60918854515415
 30
0.0
 10
330.4459057516285
 20
45.06193073716223
 30
0.0
 10
331.1658415939782
 20
46.18552091147757
 30
0.0
 10
332.8257418128324
 20
47.97756861517317
 30
0.0
 10
333.8820696324951
 20
48.77651102664259
 30
0.0
 10
336.2354432444821
 20
49.8865845282985
 30
0.0
 10
337.5342920532768
 20
50.1966848635048
 30
0.0
 10
340.1300438946675
 20
50.31219026036123
 30
0.0
 10
341.5504460865696
 20
50.07155225369636
 30
0.0
 10
344.1286685476949
 20
49.0297997363269
 30
0.0
 10
345.2900151102855
 20
48.22937016449675
 30
0.0
 10
347.0900196598961
 20
46.40525118090216
 30
0.0
 10
347.8665957550259
 20
45.26610436076778
 30
0.0
 10
348.6855427483843
 20
43.28124728985267
 30
0.0
 10
348.9027796490729
 20
42.51997617460228
 30
0.0
 10
349.0312187885895
 20
41.75333767583966
 30
0.0
  0
LINE
  5
1C3
330
70
100
AcDbEntity
  8
Visible (ISO)
100
AcDbLine
 10
356.7812187885895
 20
17.52878755548984
 30
0.0
 11
356.7812187885895
 21
62.52878755548983
 31
0.0
  0
LINE
  5
1C4
330
70
100
AcDbEntity
  8
Visible (ISO)
100
AcDbLine
 10
349.0312187885895
 20
17.52878755548984
 30
0.0
 11
349.0312187885895
 21
38.30423743512275
 31
0.0
  0
LINE
  5
1C5
330
70
100
AcDbEntity
  8
Visible (ISO)
100
AcDbLine
 10
349.0312187885895
 20
41.7533376758705
 30
0.0
 11
349.0312187885895
 21
62.52878755548984
 31
0.0
  0
LINE
  5
1C6
330
70
100
AcDbEntity
  8
Visible (ISO)
100
AcDbLine
 10
375.2812187885894
 20
-0.9712124445101455
 30
0.0
 11
375.2812187885894
 21
81.02878755548983
 31
0.0
  0
LINE
  5
1C7
330
70
100
AcDbEntity
  8
Visible (ISO)
100
AcDbLine
 10
409.8312187885893
 20
-0.9712124445101277
 30
0.0
 11
409.8312187885893
 21
81.02878755548983
 31
0.0
  0
LINE
  5
1C8
330
70
100
AcDbEntity
  8
Visible (ISO)
100
AcDbLine
 10
444.0312187885893
 20
3.12878755548986
 30
0.0
 11
444.0312187885893
 21
76.92878755548981
 31
0.0
  0
LINE
  5
1C9
330
70
100
AcDbEntity
  8
Visible (ISO)
100
AcDbLine
 10
325.0312187885895
 20
19.77878755548984
 30
0.0
 11
325.0312187885895
 21
60.27878755548982
 31
0.0
  0
LINE
  5
1CA
330
70
100
AcDbEntity
  8
Visible (ISO)
100
AcDbLine
 10
349.0312187885895
 20
62.52878755548983
 30
0.0
 11
356.7812187885895
 21
62.52878755548983
 31
0.0
  0
LINE
  5
1CB
330
70
100
AcDbEntity
  8
Visible (ISO)
100
AcDbLine
 10
349.0312187885895
 20
17.52878755548984
 30
0.0
 11
356.7812187885895
 21
17.52878755548984
 31
0.0
  0
LINE
  5
1CC
330
70
100
AcDbEntity
  8
Visible (ISO)
100
AcDbLine
 10
356.7812187885895
 20
62.52878755548983
 30
0.0
 11
375.2812187885894
 21
81.02878755548983
 31
0.0
  0
LINE
  5
1CD
330
70
100
AcDbEntity
  8
Visible (ISO)
100
AcDbLine
 10
356.7812187885895
 20
17.52878755548984
 30
0.0
 11
375.2812187885894
 21
-0.9712124445101633
 31
0.0
  0
LINE
  5
1CE
330
70
100
AcDbEntity
  8
Visible (ISO)
100
AcDbLine
 10
375.2812187885894
 20
81.02878755548983
 30
0.0
 11
409.8312187885893
 21
81.02878755548983
 31
0.0
  0
LINE
  5
1CF
330
70
100
AcDbEntity
  8
Visible (ISO)
100
AcDbLine
 10
375.2812187885894
 20
-0.9712124445101721
 30
0.0
 11
409.8312187885893
 21
-0.9712124445101721
 31
0.0
  0
LINE
  5
1D0
330
70
100
AcDbEntity
  8
Visible (ISO)
100
AcDbLine
 10
444.0312187885893
 20
3.12878755548986
 30
0.0
 11
409.8312187885893
 21
-0.9712124445101633
 31
0.0
  0
LINE
  5
1D1
330
70
100
AcDbEntity
  8
Visible (ISO)
100
AcDbLine
 10
444.0312187885893
 20
76.92878755548981
 30
0.0
 11
409.8312187885893
 21
81.02878755548983
 31
0.0
  0
LINE
  5
1D2
330
70
100
AcDbEntity
  8
Visible (ISO)
100
AcDbLine
 10
325.0312187885895
 20
60.27878755548982
 30
0.0
 11
349.0312187885895
 21
62.52878755548984
 31
0.0
  0
LINE
  5
1D3
330
70
100
AcDbEntity
  8
Visible (ISO)
100
AcDbLine
 10
325.0312187885895
 20
19.77878755548983
 30
0.0
 11
349.0312187885895
 21
17.52878755548983
 31
0.0
  0
INSERT
  5
1F4
330
70
100
AcDbEntity
  8
Section Line (ISO)
100
AcDbBlockReference
  2
2dTransSection0
 10
0.0
 20
0.0
 30
0.0
  0
LINE
  5
1F5
330
70
100
AcDbEntity
  8
Visible (ISO)
100
AcDbLine
 10
349.0312187885895
 20
734.9426081922252
 30
0.0
 11
356.7812187885895
 21
734.9426081922252
 31
0.0
  0
LINE
  5
1F6
330
70
100
AcDbEntity
  8
Visible (ISO)
100
AcDbLine
 10
356.7812187885895
 20
734.9426081922252
 30
0.0
 11
375.2812187885895
 21
716.4426081922251
 31
0.0
  0
LINE
  5
1F7
330
70
100
AcDbEntity
  8
Visible (ISO)
100
AcDbLine
 10
375.2812187885894
 20
716.4426081922251
 30
0.0
 11
409.8312187885895
 21
716.4426081922251
 31
0.0
  0
LINE
  5
1F8
330
70
100
AcDbEntity
  8
Visible (ISO)
100
AcDbLine
 10
409.8312187885895
 20
716.4426081922251
 30
0.0
 11
444.0312187885894
 21
720.5426081922252
 31
0.0
  0
LINE
  5
1F9
330
70
100
AcDbEntity
  8
Visible (ISO)
100
AcDbLine
 10
444.0312187885894
 20
720.5426081922252
 30
0.0
 11
444.0312187885894
 21
725.9426081922253
 31
0.0
  0
LINE
  5
1FA
330
70
100
AcDbEntity
  8
Visible (ISO)
100
AcDbLine
 10
444.0312187885894
 20
725.9426081922253
 30
0.0
 11
428.8312187885894
 21
725.9426081922251
 31
0.0
  0
LINE
  5
1FB
330
70
100
AcDbEntity
  8
Visible (ISO)
100
AcDbLine
 10
428.8312187885894
 20
725.9426081922251
 30
0.0
 11
421.2312187885894
 21
724.327178323533
 31
0.0
  0
LINE
  5
1FC
330
70
100
AcDbEntity
  8
Visible (ISO)
100
AcDbLine
 10
421.2312187885894
 20
724.327178323533
 30
0.0
 11
421.2312187885894
 21
725.9426081922251
 31
0.0
  0
LINE
  5
1FD
330
70
100
AcDbEntity
  8
Visible (ISO)
100
AcDbLine
 10
421.2312187885894
 20
725.9426081922251
 30
0.0
 11
387.0312187885895
 21
725.9426081922251
 31
0.0
  0
LINE
  5
1FE
330
70
100
AcDbEntity
  8
Visible (ISO)
100
AcDbLine
 10
387.0312187885895
 20
725.9426081922251
 30
0.0
 11
367.0312187885895
 21
741.4426081922251
 31
0.0
  0
LINE
  5
1FF
330
70
100
AcDbEntity
  8
Visible (ISO)
100
AcDbLine
 10
367.0312187885895
 20
741.4426081922251
 30
0.0
 11
367.0312187885895
 21
743.0426081922251
 31
0.0
  0
LINE
  5
200
330
70
100
AcDbEntity
  8
Visible (ISO)
100
AcDbLine
 10
367.0312187885895
 20
743.0426081922251
 30
0.0
 11
365.0312187885895
 21
743.0426081922251
 31
0.0
  0
LINE
  5
201
330
70
100
AcDbEntity
  8
Visible (ISO)
100
AcDbLine
 10
365.0312187885895
 20
743.0426081922251
 30
0.0
 11
365.0312187885895
 21
741.4426081922251
 31
0.0
  0
LINE
  5
202
330
70
100
AcDbEntity
  8
Visible (ISO)
100
AcDbLine
 10
365.0312187885895
 20
741.4426081922251
 30
0.0
 11
341.0312187885895
 21
741.4426081922251
 31
0.0
  0
LINE
  5
203
330
70
100
AcDbEntity
  8
Visible (ISO)
100
AcDbLine
 10
341.0312187885895
 20
741.4426081922251
 30
0.0
 11
341.0312187885895
 21
740.3089731966518
 31
0.0
  0
LINE
  5
204
330
70
100
AcDbEntity
  8
Visible (ISO)
100
AcDbLine
 10
341.0312187885895
 20
740.3089731966518
 30
0.0
 11
335.6978854552562
 21
741.4426081922251
 31
0.0
  0
LINE
  5
205
330
70
100
AcDbEntity
  8
Visible (ISO)
100
AcDbLine
 10
335.6978854552562
 20
741.4426081922251
 30
0.0
 11
325.0312187885895
 21
741.4426081922251
 31
0.0
  0
LINE
  5
206
330
70
100
AcDbEntity
  8
Visible (ISO)
100
AcDbLine
 10
325.0312187885895
 20
741.4426081922251
 30
0.0
 11
325.0312187885895
 21
737.1926081922252
 31
0.0
  0
LINE
  5
207
330
70
100
AcDbEntity
  8
Visible (ISO)
100
AcDbLine
 10
325.0312187885895
 20
737.1926081922252
 30
0.0
 11
349.0312187885895
 21
734.9426081922252
 31
0.0
  0
LINE
  5
208
330
70
100
AcDbEntity
  8
Visible (ISO)
100
AcDbLine
 10
344.3112187885895
 20
802.4426081922252
 30
0.0
 11
344.3112187885895
 21
788.4426081922251
 31
0.0
  0
LINE
  5
209
330
70
100
AcDbEntity
  8
Visible (ISO)
100
AcDbLine
 10
344.3112187885895
 20
788.4426081922251
 30
0.0
 11
341.3112187885895
 21
788.4426081922251
 31
0.0
  0
LINE
  5
20A
330
70
100
AcDbEntity
  8
Visible (ISO)
100
AcDbLine
 10
341.3112187885895
 20
788.4426081922251
 30
0.0
 11
341.3112187885895
 21
799.4426081922251
 31
0.0
  0
LINE
  5
20B
330
70
100
AcDbEntity
  8
Visible (ISO)
100
AcDbLine
 10
341.3112187885895
 20
799.4426081922251
 30
0.0
 11
337.3112187885895
 21
799.4426081922251
 31
0.0
  0
LINE
  5
20C
330
70
100
AcDbEntity
  8
Visible (ISO)
100
AcDbLine
 10
337.3112187885895
 20
799.4426081922251
 30
0.0
 11
337.3112187885895
 21
788.4426081922251
 31
0.0
  0
LINE
  5
20D
330
70
100
AcDbEntity
  8
Visible (ISO)
100
AcDbLine
 10
337.3112187885895
 20
788.4426081922251
 30
0.0
 11
334.3112187885895
 21
788.4426081922251
 31
0.0
  0
LINE
  5
20E
330
70
100
AcDbEntity
  8
Visible (ISO)
100
AcDbLine
 10
334.3112187885895
 20
788.4426081922251
 30
0.0
 11
334.3112187885895
 21
802.4426081922252
 31
0.0
  0
LINE
  5
20F
330
70
100
AcDbEntity
  8
Visible (ISO)
100
AcDbLine
 10
334.3112187885895
 20
802.4426081922252
 30
0.0
 11
331.8112187885895
 21
802.4426081922252
 31
0.0
  0
LINE
  5
210
330
70
100
AcDbEntity
  8
Visible (ISO)
100
AcDbLine
 10
331.8112187885895
 20
802.4426081922252
 30
0.0
 11
329.2514733370398
 21
778.0882570561424
 31
0.0
  0
LINE
  5
211
330
70
100
AcDbEntity
  8
Visible (ISO)
100
AcDbLine
 10
329.2514733370398
 20
778.0882570561424
 30
0.0
 11
325.0312187885895
 21
777.6926081922251
 31
0.0
  0
LINE
  5
212
330
70
100
AcDbEntity
  8
Visible (ISO)
100
AcDbLine
 10
325.0312187885895
 20
777.6926081922251
 30
0.0
 11
325.0312187885895
 21
773.4426081922252
 31
0.0
  0
LINE
  5
213
330
70
100
AcDbEntity
  8
Visible (ISO)
100
AcDbLine
 10
325.0312187885895
 20
773.4426081922252
 30
0.0
 11
335.6978854552562
 21
773.4426081922252
 31
0.0
  0
LINE
  5
214
330
70
100
AcDbEntity
  8
Visible (ISO)
100
AcDbLine
 10
335.6978854552562
 20
773.4426081922252
 30
0.0
 11
341.0312187885895
 21
774.5762431877985
 31
0.0
  0
LINE
  5
215
330
70
100
AcDbEntity
  8
Visible (ISO)
100
AcDbLine
 10
341.0312187885895
 20
774.5762431877985
 30
0.0
 11
341.0312187885895
 21
773.4426081922252
 31
0.0
  0
LINE
  5
216
330
70
100
AcDbEntity
  8
Visible (ISO)
100
AcDbLine
 10
341.0312187885895
 20
773.4426081922252
 30
0.0
 11
365.0312187885895
 21
773.4426081922252
 31
0.0
  0
LINE
  5
217
330
70
100
AcDbEntity
  8
Visible (ISO)
100
AcDbLine
 10
365.0312187885895
 20
773.4426081922252
 30
0.0
 11
365.0312187885895
 21
771.8426081922252
 31
0.0
  0
LINE
  5
218
330
70
100
AcDbEntity
  8
Visible (ISO)
100
AcDbLine
 10
365.0312187885895
 20
771.8426081922252
 30
0.0
 11
367.0312187885895
 21
771.8426081922252
 31
0.0
  0
LINE
  5
219
330
70
100
AcDbEntity
  8
Visible (ISO)
100
AcDbLine
 10
367.0312187885895
 20
771.8426081922252
 30
0.0
 11
367.0312187885895
 21
773.4426081922252
 31
0.0
  0
LINE
  5
21A
330
70
100
AcDbEntity
  8
Visible (ISO)
100
AcDbLine
 10
367.0312187885895
 20
773.4426081922252
 30
0.0
 11
387.0312187885895
 21
788.9426081922252
 31
0.0
  0
LINE
  5
21B
330
70
100
AcDbEntity
  8
Visible (ISO)
100
AcDbLine
 10
387.0312187885895
 20
788.9426081922252
 30
0.0
 11
421.2312187885894
 21
788.9426081922252
 31
0.0
  0
LINE
  5
21C
330
70
100
AcDbEntity
  8
Visible (ISO)
100
AcDbLine
 10
421.2312187885894
 20
788.9426081922252
 30
0.0
 11
421.2312187885894
 21
790.5580380609174
 31
0.0
  0
LINE
  5
21D
330
70
100
AcDbEntity
  8
Visible (ISO)
100
AcDbLine
 10
421.2312187885894
 20
790.5580380609174
 30
0.0
 11
428.8312187885894
 21
788.9426081922252
 31
0.0
  0
LINE
  5
21E
330
70
100
AcDbEntity
  8
Visible (ISO)
100
AcDbLine
 10
428.8312187885894
 20
788.9426081922252
 30
0.0
 11
444.0312187885894
 21
788.9426081922252
 31
0.0
  0
LINE
  5
21F
330
70
100
AcDbEntity
  8
Visible (ISO)
100
AcDbLine
 10
444.0312187885894
 20
788.9426081922252
 30
0.0
 11
444.0312187885894
 21
794.3426081922251
 31
0.0
  0
LINE
  5
220
330
70
100
AcDbEntity
  8
Visible (ISO)
100
AcDbLine
 10
444.0312187885894
 20
794.3426081922251
 30
0.0
 11
439.1333473836323
 21
794.9297799103633
 31
0.0
  0
LINE
  5
221
330
70
100
AcDbEntity
  8
Visible (ISO)
100
AcDbLine
 10
439.1333473836323
 20
794.9297799103633
 30
0.0
 11
437.2512187885894
 21
816.4426081922252
 31
0.0
  0
LINE
  5
222
330
70
100
AcDbEntity
  8
Visible (ISO)
100
AcDbLine
 10
437.2512187885894
 20
816.4426081922252
 30
0.0
 11
434.7512187885895
 21
816.4426081922252
 31
0.0
  0
LINE
  5
223
330
70
100
AcDbEntity
  8
Visible (ISO)
100
AcDbLine
 10
434.7512187885895
 20
816.4426081922252
 30
0.0
 11
434.7512187885895
 21
802.4426081922252
 31
0.0
  0
LINE
  5
224
330
70
100
AcDbEntity
  8
Visible (ISO)
100
AcDbLine
 10
434.7512187885895
 20
802.4426081922252
 30
0.0
 11
431.7512187885895
 21
802.4426081922252
 31
0.0
  0
LINE
  5
225
330
70
100
AcDbEntity
  8
Visible (ISO)
100
AcDbLine
 10
431.7512187885895
 20
802.4426081922252
 30
0.0
 11
431.7512187885895
 21
813.4426081922251
 31
0.0
  0
LINE
  5
226
330
70
100
AcDbEntity
  8
Visible (ISO)
100
AcDbLine
 10
431.7512187885895
 20
813.4426081922251
 30
0.0
 11
427.7512187885895
 21
813.4426081922253
 31
0.0
  0
LINE
  5
227
330
70
100
AcDbEntity
  8
Visible (ISO)
100
AcDbLine
 10
427.7512187885895
 20
813.4426081922253
 30
0.0
 11
427.7512187885895
 21
802.4426081922252
 31
0.0
  0
LINE
  5
228
330
70
100
AcDbEntity
  8
Visible (ISO)
100
AcDbLine
 10
427.7512187885895
 20
802.4426081922252
 30
0.0
 11
424.7512187885894
 21
802.4426081922252
 31
0.0
  0
LINE
  5
229
330
70
100
AcDbEntity
  8
Visible (ISO)
100
AcDbLine
 10
424.7512187885894
 20
802.4426081922252
 30
0.0
 11
424.7512187885894
 21
816.4426081922252
 31
0.0
  0
LINE
  5
22A
330
70
100
AcDbEntity
  8
Visible (ISO)
100
AcDbLine
 10
424.7512187885894
 20
816.4426081922252
 30
0.0
 11
422.2512187885895
 21
816.4426081922252
 31
0.0
  0
LINE
  5
22B
330
70
100
AcDbEntity
  8
Visible (ISO)
100
AcDbLine
 10
422.2512187885895
 20
816.4426081922252
 30
0.0
 11
420.5638545922993
 21
797.1559471748213
 31
0.0
  0
LINE
  5
22C
330
70
100
AcDbEntity
  8
Visible (ISO)
100
AcDbLine
 10
420.5638545922993
 20
797.1559471748213
 30
0.0
 11
409.8312187885894
 21
798.4426081922252
 31
0.0
  0
LINE
  5
22D
330
70
100
AcDbEntity
  8
Visible (ISO)
100
AcDbLine
 10
409.8312187885894
 20
798.4426081922252
 30
0.0
 11
375.2812187885895
 21
798.4426081922252
 31
0.0
  0
LINE
  5
22E
330
70
100
AcDbEntity
  8
Visible (ISO)
100
AcDbLine
 10
375.2812187885895
 20
798.4426081922252
 30
0.0
 11
356.7812187885895
 21
779.9426081922251
 31
0.0
  0
LINE
  5
22F
330
70
100
AcDbEntity
  8
Visible (ISO)
100
AcDbLine
 10
356.7812187885895
 20
779.9426081922251
 30
0.0
 11
349.0312187885895
 21
779.9426081922251
 31
0.0
  0
LINE
  5
230
330
70
100
AcDbEntity
  8
Visible (ISO)
100
AcDbLine
 10
349.0312187885895
 20
779.9426081922251
 30
0.0
 11
349.1746507718565
 21
779.9560549406565
 31
0.0
  0
LINE
  5
231
330
70
100
AcDbEntity
  8
Visible (ISO)
100
AcDbLine
 10
349.1746507718565
 20
779.9560549406565
 30
0.0
 11
346.8112187885895
 21
802.4426081922252
 31
0.0
  0
LINE
  5
232
330
70
100
AcDbEntity
  8
Visible (ISO)
100
AcDbLine
 10
346.8112187885895
 20
802.4426081922252
 30
0.0
 11
344.3112187885895
 21
802.4426081922252
 31
0.0
  0
SPLINE
  5
233
330
70
100
AcDbEntity
  8
Visible (ISO)
100
AcDbSpline
210
0.0
220
0.0
230
1.0
 70
     8
 71
     3
 72
     8
 73
     4
 74
     0
 42
0.000000001
 43
0.0000000001
 40
1.612568488428285
 40
1.612568488428285
 40
1.612568488428285
 40
1.612568488428285
 40
1.682933950827077
 40
1.682933950827077
 40
1.682933950827077
 40
1.682933950827077
 10
349.1746507718566
 20
779.9560549406565
 30
0.0
 10
349.1746507718566
 20
779.9560549406565
 30
0.0
 10
349.1666528073634
 20
779.9515756849487
 30
0.0
 10
349.1504189012539
 20
779.9425331227081
 30
0.0
  0
LINE
  5
234
330
70
100
AcDbEntity
  8
Visible (ISO)
100
AcDbLine
 10
334.3112187885895
 20
802.4426081922252
 30
0.0
 11
344.3112187885895
 21
802.4426081922252
 31
0.0
  0
LINE
  5
235
330
70
100
AcDbEntity
  8
Visible (ISO)
100
AcDbLine
 10
367.0312187885895
 20
743.0426081922251
 30
0.0
 11
367.0312187885895
 21
771.8426081922252
 31
0.0
  0
LINE
  5
236
330
70
100
AcDbEntity
  8
Visible (ISO)
100
AcDbLine
 10
387.0312187885895
 20
725.9426081922251
 30
0.0
 11
387.0312187885895
 21
788.9426081922252
 31
0.0
  0
LINE
  5
237
330
70
100
AcDbEntity
  8
Visible (ISO)
100
AcDbLine
 10
421.2312187885894
 20
725.9426081922251
 30
0.0
 11
421.2312187885894
 21
788.9426081922252
 31
0.0
  0
LINE
  5
238
330
70
100
AcDbEntity
  8
Visible (ISO)
100
AcDbLine
 10
365.0312187885895
 20
743.0426081922251
 30
0.0
 11
365.0312187885895
 21
771.8426081922252
 31
0.0
  0
LINE
  5
239
330
70
100
AcDbEntity
  8
Visible (ISO)
100
AcDbLine
 10
428.8312187885895
 20
725.9426081922251
 30
0.0
 11
428.8312187885895
 21
788.9426081922252
 31
0.0
  0
LINE
  5
23A
330
70
100
AcDbEntity
  8
Visible (ISO)
100
AcDbLine
 10
341.0312187885895
 20
741.4426081922251
 30
0.0
 11
341.0312187885895
 21
773.4426081922252
 31
0.0
  0
LINE
  5
23B
330
70
100
AcDbEntity
  8
Visible (ISO)
100
AcDbLine
 10
335.6978854552562
 20
741.4426081922251
 30
0.0
 11
335.6978854552562
 21
773.4426081922252
 31
0.0
  0
LINE
  5
23C
330
70
100
AcDbEntity
  8
Visible (ISO)
100
AcDbLine
 10
325.0312187885895
 20
741.4426081922251
 30
0.0
 11
325.0312187885895
 21
773.4426081922252
 31
0.0
  0
LINE
  5
23D
330
70
100
AcDbEntity
  8
Visible (ISO)
100
AcDbLine
 10
444.0312187885894
 20
725.9426081922251
 30
0.0
 11
444.0312187885894
 21
788.9426081922252
 31
0.0
  0
LINE
  5
23E
330
70
100
AcDbEntity
  8
Visible (ISO)
100
AcDbLine
 10
424.7512187885894
 20
816.4426081922252
 30
0.0
 11
434.7512187885895
 21
816.4426081922252
 31
0.0
  0
MTEXT
  5
23F
330
70
100
AcDbEntity
  8
Symbol (ISO)
100
AcDbMText
 10
371.6688672164291
 20
849.6926082922295
 30
0.0
 40
3.499999940395355
 41
0.0
 46
0.0
 71
     7
 72
     1
  1
A-A ( 1 : 1 )
  7
Label Text (ISO)
 73
     1
 44
1.0
  0
HATCH
  5
27E
330
70
100
AcDbEntity
  8
Hatch (ISO)
100
AcDbHatch
 10
0.0
 20
0.0
 30
0.0
210
0.0
220
0.0
230
1.0
  2
ANSI31
 70
     0
 71
     0
 91
        2
 92
        1
 93
       43
 72
     1
 10
344.3112187885895
 20
802.4426081922252
 11
344.3112187885895
 21
788.4426081922251
 72
     1
 10
344.3112187885895
 20
788.4426081922251
 11
341.3112187885896
 21
788.4426081922251
 72
     1
 10
341.3112187885895
 20
788.4426081922251
 11
341.3112187885895
 21
799.4426081922251
 72
     1
 10
341.3112187885895
 20
799.4426081922251
 11
337.3112187885895
 21
799.4426081922251
 72
     1
 10
337.3112187885895
 20
799.4426081922251
 11
337.3112187885895
 21
788.4426081922251
 72
     1
 10
337.3112187885895
 20
788.4426081922251
 11
334.3112187885895
 21
788.4426081922251
 72
     1
 10
334.3112187885895
 20
788.4426081922251
 11
334.3112187885895
 21
802.4426081922252
 72
     1
 10
334.3112187885895
 20
802.4426081922252
 11
331.8112187885895
 21
802.4426081922252
 72
     1
 10
331.8112187885895
 20
802.4426081922252
 11
329.2514733370398
 21
778.0882570561424
 72
     1
 10
329.2514733370398
 20
778.0882570561424
 11
325.0312187885895
 21
777.6926081922251
 72
     1
 10
325.0312187885895
 20
777.6926081922251
 11
325.0312187885895
 21
773.4426081922252
 72
     1
 10
325.0312187885895
 20
773.4426081922252
 11
335.6978854552562
 21
773.4426081922252
 72
     1
 10
335.6978854552562
 20
773.4426081922252
 11
341.0312187885895
 21
774.5762431877985
 72
     1
 10
341.0312187885895
 20
774.5762431877985
 11
341.0312187885895
 21
773.4426081922252
 72
     1
 10
341.0312187885895
 20
773.4426081922252
 11
365.0312187885895
 21
773.4426081922252
 72
     1
 10
365.0312187885895
 20
773.4426081922252
 11
365.0312187885895
 21
771.8426081922252
 72
     1
 10
365.0312187885895
 20
771.8426081922252
 11
367.0312187885895
 21
771.8426081922252
 72
     1
 10
367.0312187885895
 20
771.8426081922252
 11
367.0312187885895
 21
773.4426081922252
 72
     1
 10
367.0312187885895
 20
773.4426081922252
 11
387.0312187885895
 21
788.9426081922252
 72
     1
 10
387.0312187885895
 20
788.9426081922252
 11
421.2312187885895
 21
788.9426081922252
 72
     1
 10
421.2312187885894
 20
788.9426081922252
 11
421.2312187885894
 21
790.5580380609174
 72
     1
 10
421.2312187885894
 20
790.5580380609174
 11
428.8312187885894
 21
788.9426081922252
 72
     1
 10
428.8312187885895
 20
788.9426081922252
 11
444.0312187885894
 21
788.9426081922252
 72
     1
 10
444.0312187885894
 20
788.9426081922252
 11
444.0312187885894
 21
794.3426081922251
 72
     1
 10
444.0312187885894
 20
794.3426081922251
 11
439.1333473836322
 21
794.9297799103633
 72
     1
 10
439.1333473836323
 20
794.9297799103633
 11
437.2512187885895
 21
816.4426081922252
 72
     1
 10
437.2512187885894
 20
816.4426081922252
 11
434.7512187885895
 21
816.4426081922252
 72
     1
 10
434.7512187885895
 20
816.4426081922252
 11
434.7512187885895
 21
802.4426081922252
 72
     1
 10
434.7512187885895
 20
802.4426081922252
 11
431.7512187885895
 21
802.4426081922252
 72
     1
 10
431.7512187885895
 20
802.4426081922252
 11
431.7512187885895
 21
813.4426081922251
 72
     1
 10
431.7512187885895
 20
813.4426081922253
 11
427.7512187885895
 21
813.4426081922253
 72
     1
 10
427.7512187885895
 20
813.4426081922253
 11
427.7512187885895
 21
802.4426081922253
 72
     1
 10
427.7512187885895
 20
802.4426081922252
 11
424.7512187885895
 21
802.4426081922252
 72
     1
 10
424.7512187885894
 20
802.4426081922252
 11
424.7512187885894
 21
816.4426081922252
 72
     1
 10
424.7512187885894
 20
816.4426081922252
 11
422.2512187885895
 21
816.4426081922252
 72
     1
 10
422.2512187885895
 20
816.4426081922252
 11
420.5638545922992
 21
797.1559471748213
 72
     1
 10
420.5638545922993
 20
797.1559471748213
 11
409.8312187885894
 21
798.4426081922252
 72
     1
 10
409.8312187885895
 20
798.4426081922253
 11
375.2812187885896
 21
798.4426081922253
 72
     1
 10
375.2812187885895
 20
798.4426081922253
 11
356.7812187885895
 21
779.9426081922253
 72
     1
 10
356.7812187885895
 20
779.9426081922251
 11
349.0312187885895
 21
779.9426081922251
 72
     1
 10
349.0312187885895
 20
779.9426081922251
 11
349.1746507718565
 21
779.9560549406565
 72
     1
 10
349.1746507718565
 20
779.9560549406565
 11
346.8112187885895
 21
802.4426081922252
 72
     1
 10
346.8112187885895
 20
802.4426081922252
 11
344.3112187885895
 21
802.4426081922252
 97
        0
 92
        1
 93
       19
 72
     1
 10
349.0312187885895
 20
734.9426081922252
 11
356.7812187885895
 21
734.9426081922252
 72
     1
 10
356.7812187885895
 20
734.9426081922252
 11
375.2812187885895
 21
716.4426081922251
 72
     1
 10
375.2812187885895
 20
716.4426081922251
 11
409.8312187885894
 21
716.4426081922251
 72
     1
 10
409.8312187885895
 20
716.4426081922251
 11
444.0312187885894
 21
720.5426081922252
 72
     1
 10
444.0312187885894
 20
720.5426081922252
 11
444.0312187885894
 21
725.9426081922251
 72
     1
 10
444.0312187885894
 20
725.9426081922253
 11
428.8312187885894
 21
725.9426081922253
 72
     1
 10
428.8312187885895
 20
725.9426081922251
 11
421.2312187885896
 21
724.3271783235329
 72
     1
 10
421.2312187885896
 20
724.327178323533
 11
421.2312187885896
 21
725.9426081922253
 72
     1
 10
421.2312187885896
 20
725.9426081922251
 11
387.0312187885895
 21
725.9426081922251
 72
     1
 10
387.0312187885895
 20
725.9426081922251
 11
367.0312187885895
 21
741.4426081922251
 72
     1
 10
367.0312187885895
 20
741.4426081922251
 11
367.0312187885895
 21
743.0426081922251
 72
     1
 10
367.0312187885895
 20
743.0426081922251
 11
365.0312187885895
 21
743.0426081922251
 72
     1
 10
365.0312187885896
 20
743.0426081922251
 11
365.0312187885896
 21
741.4426081922251
 72
     1
 10
365.0312187885896
 20
741.4426081922251
 11
341.0312187885896
 21
741.4426081922251
 72
     1
 10
341.0312187885896
 20
741.4426081922251
 11
341.0312187885896
 21
740.3089731966518
 72
     1
 10
341.0312187885896
 20
740.3089731966518
 11
335.6978854552563
 21
741.4426081922251
 72
     1
 10
335.6978854552562
 20
741.4426081922251
 11
325.0312187885895
 21
741.4426081922251
 72
     1
 10
325.0312187885896
 20
741.4426081922251
 11
325.0312187885896
 21
737.1926081922252
 72
     1
 10
325.0312187885896
 20
737.1926081922253
 11
349.0312187885896
 21
734.9426081922253
 97
        0
 75
     0
 76
     1
 52
0.0
 41
25.4
 77
     0
 78
     1
 53
45.0
 43
0.0
 44
0.0
 45
-2.245064030267288
 46
2.245064030267288
 79
     0
 98
        1
 10
384.5312187885895
 20
766.4426081922191
  0
DIMENSION
  5
27F
330
70
100
AcDbEntity
  8
Dimension (ISO)
100
AcDbDimension
280
     0
  2
*D7
 10
466.0312187885896
 20
725.9426081922251
 30
0.0
 11
466.0312187885895
 21
733.9426081922251
 31
0.0
 70
   160
  1
\fAIGDT|b0|i0;\H2.5000;\ln\fTahoma|b0|i0;\H2.5000;<>
 42
63.0
 73
     0
 74
     0
 75
     0
  3
Default (ISO)
100
AcDbAlignedDimension
 13
444.0312187885894
 23
788.9426081922252
 33
0.0
 14
444.0312187885894
 24
725.9426081922251
 34
0.0
 50
90.0
100
AcDbRotatedDimension
1001
ACAD
1000
DSTYLE
1002
{
1070
   172
1070
     0
1070
   289
1070
     1
1070
   271
1070
     2
1070
   272
1070
     2
1070
    48
1040
0.0
1070
    47
1040
0.0
1002
}
  0
DIMENSION
  5
363
330
70
100
AcDbEntity
  8
Dimension (ISO)
100
AcDbDimension
280
     0
  2
*D8
 10
387.0312187885895
 20
751.2853657658652
 30
0.0
 11
405.0312187885895
 21
751.2853657658652
 31
0.0
 70
   160
  1
<>
 42
56.99999999999994
 73
     0
 74
     0
 75
     0
  3
Default (ISO)
100
AcDbAlignedDimension
 13
444.0312187885894
 23
757.4426081922251
 33
0.0
 14
387.0312187885895
 24
757.4426081922251
 34
0.0
 50
180.0
100
AcDbRotatedDimension
1001
ACAD
1000
DSTYLE
1002
{
1070
   172
1070
     0
1070
   289
1070
     1
1070
   271
1070
     2
1070
    76
1070
     1
1070
    75
1070
     1
1070
   272
1070
     2
1070
    48
1040
0.0
1070
    47
1040
0.0
1002
}
  0
DIMENSION
  5
43C
330
70
100
AcDbEntity
  8
Dimension (ISO)
100
AcDbDimension
280
     0
  2
*D9
 10
325.0312187885895
 20
751.2853657658652
 30
0.0
 11
329.0312187885895
 21
751.2853657658652
 31
0.0
 70
   160
  1
<>
 42
40.00000000000006
 73
     0
 74
     0
 75
     0
  3
Default (ISO)
100
AcDbAlignedDimension
 13
365.0312187885896
 23
757.4426081922251
 33
0.0
 14
325.0312187885895
 24
757.4426081922251
 34
0.0
 50
180.0
100
AcDbRotatedDimension
1001
ACAD
1000
DSTYLE
1002
{
1070
   172
1070
     0
1070
   289
1070
     1
1070
   271
1070
     2
1070
    76
1070
     1
1070
    75
1070
     1
1070
   272
1070
     2
1070
    48
1040
0.0
1070
    47
1040
0.0
1002
}
  0
DIMENSION
  5
515
330
70
100
AcDbEntity
  8
Dimension (ISO)
100
AcDbDimension
280
     0
  2
*D10
 10
507.4041310017212
 20
716.4426081922251
 30
0.0
 11
507.4041310017211
 21
728.9426081922251
 31
0.0
 70
   160
  1
<>
 42
82.00000000000011
 73
     0
 74
     0
 75
     0
  3
Default (ISO)
100
AcDbAlignedDimension
 13
409.8312187885895
 23
798.4426081922253
 33
0.0
 14
409.8312187885895
 24
716.4426081922251
 34
0.0
 50
90.0
100
AcDbRotatedDimension
1001
ACAD
1000
DSTYLE
1002
{
1070
   172
1070
     0
1070
   289
1070
     1
1070
   271
1070
     2
1070
   272
1070
     2
1070
    48
1040
0.0
1070
    47
1040
0.0
1002
}
  0
DIMENSION
  5
5EB
330
70
100
AcDbEntity
  8
Dimension (ISO)
100
AcDbDimension
280
     0
  2
*D11
 10
513.4423714850757
 20
757.4426081922251
 30
0.0
 11
513.4423714850755
 21
774.4426081922251
 31
0.0
 70
   160
  1
<>
 42
59.0
 73
     0
 74
     0
 75
     0
  3
Default (ISO)
100
AcDbAlignedDimension
 13
434.7512187885895
 23
816.4426081922252
 33
0.0
 14
444.0312187885894
 24
757.4426081922251
 34
0.0
 50
90.0
100
AcDbRotatedDimension
1001
ACAD
1000
DSTYLE
1002
{
1070
   172
1070
     0
1070
   289
1070
     1
1070
   271
1070
     2
1070
   272
1070
     2
1070
    48
1040
0.0
1070
    47
1040
0.0
1002
}
  0
DIMENSION
  5
6CD
330
70
100
AcDbEntity
  8
Dimension (ISO)
100
AcDbDimension
280
     0
  2
*D12
 10
313.2112187885896
 20
757.4426081922251
 30
0.0
 11
313.2112187885895
 21
765.4426081922252
 31
0.0
 70
   160
  1
<>
 42
45.0
 73
     0
 74
     0
 75
     0
  3
Default (ISO)
100
AcDbAlignedDimension
 13
334.3112187885895
 23
802.4426081922252
 33
0.0
 14
325.0312187885895
 24
757.4426081922251
 34
0.0
 50
90.0
100
AcDbRotatedDimension
1001
ACAD
1000
DSTYLE
1002
{
1070
   172
1070
     0
1070
   289
1070
     1
1070
   271
1070
     2
1070
   272
1070
     2
1070
    48
1040
0.0
1070
    47
1040
0.0
1002
}
  0
DIMENSION
  5
7AF
330
70
100
AcDbEntity
  8
Dimension (ISO)
100
AcDbDimension
280
     0
  2
*D13
 10
320.1700064754557
 20
741.4426081922251
 30
0.0
 11
320.1700064754556
 21
728.4426081922251
 31
0.0
 70
   160
  1
\fAIGDT|b0|i0;\H2.5000;\ln\fTahoma|b0|i0;\H2.5000;<>
 42
32.0
 73
     0
 74
     0
 75
     0
  3
Default (ISO)
100
AcDbAlignedDimension
 13
325.0312187885895
 23
773.4426081922252
 33
0.0
 14
325.0312187885895
 24
741.4426081922251
 34
0.0
 50
90.0
100
AcDbRotatedDimension
1001
ACAD
1000
DSTYLE
1002
{
1070
   172
1070
     0
1070
   289
1070
     2
1070
   271
1070
     2
1070
   272
1070
     2
1070
    48
1040
0.0
1070
    47
1040
0.0
1002
}
  0
DIMENSION
  5
89E
330
70
100
AcDbEntity
  8
Dimension (ISO)
100
AcDbDimension
280
     0
  2
*D14
 10
281.705902790208
 20
734.9426081922252
 30
0.0
 11
281.7059027902079
 21
721.9426081922251
 31
0.0
 70
   160
  1
<>
 42
45.0
 73
     0
 74
     0
 75
     0
  3
Default (ISO)
100
AcDbAlignedDimension
 13
349.0312187885895
 23
779.9426081922251
 33
0.0
 14
349.0312187885895
 24
734.9426081922252
 34
0.0
 50
90.0
100
AcDbRotatedDimension
1001
ACAD
1000
DSTYLE
1002
{
1070
   172
1070
     0
1070
   289
1070
     2
1070
   271
1070
     2
1070
   272
1070
     2
1070
    48
1040
0.0
1070
    47
1040
0.0
1002
}
  0
DIMENSION
  5
98D
330
70
100
AcDbEntity
  8
Dimension (ISO)
100
AcDbDimension
280
     0
  2
*D15
 10
325.0312187885895
 20
672.4426081922252
 30
0.0
 11
363.5312187885895
 21
672.4426081922252
 31
0.0
 70
   160
  1
<>
 42
118.9999999999999
 73
     0
 74
     0
 75
     0
  3
Default (ISO)
100
AcDbAlignedDimension
 13
444.0312187885894
 23
725.9426081922251
 33
0.0
 14
325.0312187885895
 24
741.4426081922251
 34
0.0
 50
180.0
100
AcDbRotatedDimension
1001
ACAD
1000
DSTYLE
1002
{
1070
   172
1070
     0
1070
   289
1070
     1
1070
   271
1070
     2
1070
   272
1070
     2
1070
    48
1040
0.0
1070
    47
1040
0.0
1002
}
  0
ELLIPSE
  5
A63
330
70
100
AcDbEntity
  8
Visible (ISO)
100
AcDbEllipse
 10
734.0827711685806
 20
589.1968893363765
 30
0.0
 11
-2.0
 21
0.0000000000000005
 31
0.0
210
0.0
220
0.0
230
1.0
 40
0.5758617009853118
 41
2.972903479732083
 42
6.451874481037235
  0
ELLIPSE
  5
A64
330
70
100
AcDbEntity
  8
Visible (ISO)
100
AcDbEllipse
 10
670.1320338780597
 20
540.9244492332077
 30
0.0
 11
-2.0
 21
0.0000000000000002
 31
0.0
210
0.0
220
0.0
230
1.0
 40
0.5758617009853118
 41
2.972903479732144
 42
6.451874481037235
  0
ELLIPSE
  5
A65
330
70
100
AcDbEntity
  8
Visible (ISO)
100
AcDbEllipse
 10
734.0827711685806
 20
591.649530710904
 30
0.0
 11
5.000000000000001
 21
-0.0000000000000006
 31
0.0
210
0.0
220
0.0
230
1.0
 40
0.5758617009853117
 41
0.0
 42
6.283185307179586
  0
LINE
  5
A66
330
70
100
AcDbEntity
  8
Visible (ISO)
100
AcDbLine
 10
736.0827711685806
 20
589.1968893363765
 30
0.0
 11
736.0827711685806
 21
589.0106008763129
 31
0.0
  0
LINE
  5
A67
330
70
100
AcDbEntity
  8
Visible (ISO)
100
AcDbLine
 10
732.0827711685806
 20
589.1968893363765
 30
0.0
 11
732.0827711685806
 21
589.010600876313
 31
0.0
  0
ELLIPSE
  5
A68
330
70
100
AcDbEntity
  8
Visible (ISO)
100
AcDbEllipse
 10
734.0827711685806
 20
591.649530710904
 30
0.0
 11
7.500000000000001
 21
-0.0000000000000011
 31
0.0
210
0.0
220
0.0
230
1.0
 40
0.5758617009853118
 41
0.0
 42
6.283185307179586
  0
SPLINE
  5
A69
330
70
100
AcDbEntity
  8
Visible (ISO)
100
AcDbSpline
210
0.0
220
0.0
230
1.0
 70
     8
 71
     3
 72
    26
 73
    22
 74
     0
 42
0.000000001
 43
0.0000000001
 40
2.031917191700348
 40
2.031917191700348
 40
2.031917191700348
 40
2.031917191700348
 40
2.074593034017493
 40
2.074593034017493
 40
2.418937156583701
 40
2.418937156583701
 40
2.763281279149908
 40
2.763281279149908
 40
3.130628495133165
 40
3.130628495133165
 40
3.497975711116422
 40
3.497975711116422
 40
3.857611325417004
 40
3.857611325417004
 40
4.217246939717586
 40
4.217246939717586
 40
4.576882554018169
 40
4.576882554018169
 40
4.936518168318751
 40
4.936518168318751
 40
4.976032582144377
 40
4.976032582144377
 40
4.976032582144377
 40
4.976032582144377
 10
743.4672913563897
 20
574.2019301412874
 30
0.0
 10
743.4770155017075
 20
574.1136284075126
 30
0.0
 10
743.4832718842963
 20
574.0259825617052
 30
0.0
 10
743.5086192666018
 20
573.239290841233
 30
0.0
 10
743.3080907905228
 20
572.5035049704554
 30
0.0
 10
742.4337849719326
 20
571.2311753500837
 30
0.0
 10
741.7599808996344
 20
570.6974182204816
 30
0.0
 10
740.1430046535312
 20
569.9342461879168
 30
0.0
 10
739.0773591806198
 20
569.6752853914721
 30
0.0
 10
736.7379698117736
 20
569.5132770440498
 30
0.0
 10
735.4638590222101
 20
569.6066518365127
 30
0.0
 10
733.0912049152733
 20
570.0074298392741
 30
0.0
 10
731.8326577432017
 20
570.3369720909742
 30
0.0
 10
729.5040980918019
 20
571.1604988957601
 30
0.0
 10
728.4339929162459
 20
571.6525808576339
 30
0.0
 10
726.7386543720588
 20
572.6288613954359
 30
0.0
 10
726.0098596067006
 20
573.1726970134396
 30
0.0
 10
725.0491710964184
 20
574.243322250003
 30
0.0
 10
724.8165197382654
 20
574.7725041204252
 30
0.0
 10
724.8184636638126
 20
575.3015160072344
 30
0.0
 10
724.8214795330965
 20
575.3540242533325
 30
0.0
 10
724.827332770639
 20
575.4066149101712
 30
0.0
  0
LINE
  5
A6A
330
70
100
AcDbEntity
  8
Visible (ISO)
100
AcDbLine
 10
741.5685164533668
 20
591.9156869441706
 30
0.0
 11
743.4677386851937
 21
574.2019341052321
 31
0.0
  0
LINE
  5
A6B
330
70
100
AcDbEntity
  8
Visible (ISO)
100
AcDbLine
 10
726.5970258837945
 20
591.9156869441706
 30
0.0
 11
724.8269702161718
 21
575.4066507281891
 31
0.0
  0
ELLIPSE
  5
A6C
330
70
100
AcDbEntity
  8
Visible (ISO)
100
AcDbEllipse
 10
670.1320338780597
 20
543.3770906077353
 30
0.0
 11
5.000000000000001
 21
-0.0000000000000006
 31
0.0
210
0.0
220
0.0
230
1.0
 40
0.5758617009853117
 41
0.0
 42
6.283185307179586
  0
LINE
  5
A6D
330
70
100
AcDbEntity
  8
Visible (ISO)
100
AcDbLine
 10
672.1320338780596
 20
540.9244492332077
 30
0.0
 11
672.1320338780596
 21
540.7381607731442
 31
0.0
  0
LINE
  5
A6E
330
70
100
AcDbEntity
  8
Visible (ISO)
100
AcDbLine
 10
668.1320338780596
 20
540.9244492332077
 30
0.0
 11
668.1320338780596
 21
540.7381607731442
 31
0.0
  0
ELLIPSE
  5
A6F
330
70
100
AcDbEntity
  8
Visible (ISO)
100
AcDbEllipse
 10
670.1320338780597
 20
543.3770906077353
 30
0.0
 11
7.500000000000001
 21
-0.0000000000000011
 31
0.0
210
0.0
220
0.0
230
1.0
 40
0.5758617009853118
 41
0.0
 42
6.283185307179586
  0
SPLINE
  5
A70
330
70
100
AcDbEntity
  8
Visible (ISO)
100
AcDbSpline
210
0.0
220
0.0
230
1.0
 70
     8
 71
     3
 72
    12
 73
     8
 74
     0
 42
0.000000001
 43
0.0000000001
 40
5.286999169640125
 40
5.286999169640125
 40
5.286999169640125
 40
5.286999169640125
 40
5.390730068810926
 40
5.390730068810926
 40
5.801273180646862
 40
5.801273180646862
 40
6.211816292482797
 40
6.211816292482797
 40
6.211816292482797
 40
6.211816292482797
 10
680.0916158775378
 20
524.4458275814033
 30
0.0
 10
680.1282596280093
 20
524.1668140835067
 30
0.0
 10
680.1474928909931
 20
523.8879145033295
 30
0.0
 10
680.1583688729688
 20
522.5243497869962
 30
0.0
 10
679.9031620213566
 20
521.3401232155631
 30
0.0
 10
678.8167137050374
 20
519.2359443630161
 30
0.0
 10
677.982494449455
 20
518.3237565819998
 30
0.0
 10
676.9761888516507
 20
517.7017228508073
 30
0.0
  0
SPLINE
  5
A71
330
70
100
AcDbEntity
  8
Visible (ISO)
100
AcDbSpline
210
0.0
220
0.0
230
1.0
 70
     8
 71
     3
 72
    20
 73
    16
 74
     0
 42
0.000000001
 43
0.0000000001
 40
6.211816292482797
 40
6.211816292482797
 40
6.211816292482797
 40
6.211816292482797
 40
6.58341338036601
 40
6.58341338036601
 40
6.955010468249223
 40
6.955010468249223
 40
7.33008320927257
 40
7.33008320927257
 40
7.705155950295919
 40
7.705155950295919
 40
8.080228691319268
 40
8.080228691319268
 40
8.455301432342615
 40
8.455301432342615
 40
8.548920083217728
 40
8.548920083217728
 40
8.548920083217728
 40
8.548920083217728
 10
676.9761888516507
 20
517.7017228508073
 30
0.0
 10
676.065346070749
 20
517.1386981247499
 30
0.0
 10
674.9276472204416
 20
516.764798265233
 30
0.0
 10
672.4786202801034
 20
516.5012161333943
 30
0.0
 10
671.1667461187363
 20
516.6017656277504
 30
0.0
 10
668.7258503343985
 20
517.0458775683159
 30
0.0
 10
667.4222805867208
 20
517.4231371590758
 30
0.0
 10
665.0108314459587
 20
518.3322299726845
 30
0.0
 10
663.9027745809767
 20
518.8608822542959
 30
0.0
 10
662.1346647235379
 20
519.8790690043296
 30
0.0
 10
661.3615933700237
 20
520.4336864183935
 30
0.0
 10
660.3043412378435
 20
521.5220858200318
 30
0.0
 10
660.0189145224554
 20
522.0598684353529
 30
0.0
 10
659.9602598953498
 20
522.697191671861
 30
0.0
 10
659.9630473949258
 20
522.8273376441078
 30
0.0
 10
659.9808032224274
 20
522.9601500898708
 30
0.0
  0
LINE
  5
A72
330
70
100
AcDbEntity
  8
Visible (ISO)
100
AcDbLine
 10
677.6114522934619
 20
543.69683657517
 30
0.0
 11
680.0931368330087
 21
524.4461723084707
 31
0.0
  0
LINE
  5
A73
330
70
100
AcDbEntity
  8
Visible (ISO)
100
AcDbLine
 10
662.6526154626574
 20
543.69683657517
 30
0.0
 11
659.9793698976068
 21
522.9602151169777
 31
0.0
  0
ELLIPSE
  5
A74
330
70
100
AcDbEntity
  8
Visible (ISO)
100
AcDbEllipse
 10
682.4851893453905
 20
513.701179109772
 30
0.0
 11
11.22822476064294
 21
-19.49812731326998
 31
0.0
210
0.0
220
0.0
230
0.9999999999999998
 40
0.578093115915639
 41
0.0
 42
2.585302193918055
  0
ELLIPSE
  5
A75
330
70
100
AcDbEntity
  8
Visible (ISO)
100
AcDbEllipse
 10
677.005111791194
 20
510.5454123278819
 30
0.0
 11
11.22822476064294
 21
-19.49812731326998
 31
0.0
210
0.0
220
0.0
230
0.9999999999999998
 40
0.578093115915639
 41
6.216717050187263
 42
8.467697581559747
  0
ELLIPSE
  5
A76
330
70
100
AcDbEntity
  8
Visible (ISO)
100
AcDbEllipse
 10
695.5666647973436
 20
521.2342998149291
 30
0.0
 11
-20.46032067495147
 21
35.52992088195742
 31
0.0
210
0.0
220
0.0
230
1.0
 40
0.578093115915639
 41
2.354260781769611
 42
6.754506146389571
  0
ELLIPSE
  5
A77
330
70
100
AcDbEntity
  8
Visible (ISO)
100
AcDbEllipse
 10
719.9972040873424
 20
535.3029117264521
 30
0.0
 11
-20.46032067495149
 21
35.5299208819574
 31
0.0
210
0.0
220
0.0
230
1.0
 40
0.578093115915639
 41
3.141592653589792
 42
6.283185307179585
  0
ELLIPSE
  5
A78
330
70
100
AcDbEntity
  8
Visible (ISO)
100
AcDbEllipse
 10
744.1802560039259
 20
549.2290051381478
 30
0.0
 11
18.41428860745441
 21
-31.97692879376275
 31
0.0
210
0.0
220
0.0
230
0.9999999999999998
 40
0.5780931159156394
 41
0.0850363216704242
 42
2.409829262878083
  0
ELLIPSE
  5
A79
330
70
100
AcDbEntity
  8
Visible (ISO)
100
AcDbEllipse
 10
671.3482575417008
 20
507.2878466175438
 30
0.0
 11
-7.984515385346086
 21
13.86533497832532
 31
0.0
210
0.0
220
0.0
230
1.0
 40
0.578093115915639
 41
0.7834719046390291
 42
2.358120748951261
  0
ELLIPSE
  5
A7A
330
70
100
AcDbEntity
  8
Visible (ISO)
100
AcDbEllipse
 10
671.3482575417008
 20
507.2878466175438
 30
0.0
 11
-8.550235764316278
 21
14.84772428812396
 31
0.0
210
0.0
220
0.0
230
1.0
 40
0.5780931159156392
 41
0.7860741409056607
 42
2.355518512684607
  0
ELLIPSE
  5
A7B
330
70
100
AcDbEntity
  8
Visible (ISO)
100
AcDbEllipse
 10
667.5770213753719
 20
505.116136143985
 30
0.0
 11
-7.984515385346091
 21
13.86533497832532
 31
0.0
210
0.0
220
0.0
230
1.0
 40
0.578093115915639
 41
0.4898523421852135
 42
2.651740311405376
  0
ELLIPSE
  5
A7C
330
70
100
AcDbEntity
  8
Visible (ISO)
100
AcDbEllipse
 10
660.0345490427144
 20
500.7727151968674
 30
0.0
 11
7.984515385346094
 21
-13.86533497832532
 31
0.0
210
0.0
220
0.0
230
0.9999999999999998
 40
0.578093115915639
 41
0.0
 42
6.283185307179586
  0
ELLIPSE
  5
A7D
330
70
100
AcDbEntity
  8
Visible (ISO)
100
AcDbEllipse
 10
660.0345490427144
 20
500.7727151968674
 30
0.0
 11
10.10540228457865
 21
-17.54831458194298
 31
0.0
210
0.0
220
0.0
230
1.0
 40
0.5780931159156392
 41
0.0
 42
6.283185307179586
  0
LINE
  5
A7E
330
70
100
AcDbEntity
  8
Visible (ISO)
100
AcDbLine
 10
688.2333365518381
 20
491.0472850146126
 30
0.0
 11
693.7134141060346
 21
494.2030517965027
 31
0.0
  0
LINE
  5
A7F
330
70
100
AcDbEntity
  8
Visible (ISO)
100
AcDbLine
 10
689.0317362899857
 20
491.5070528458884
 30
0.0
 11
695.4545433330726
 21
487.7796848268206
 31
0.0
  0
LINE
  5
A80
330
70
100
AcDbEntity
  8
Visible (ISO)
100
AcDbLine
 10
675.106344122392
 20
556.7642206968866
 30
0.0
 11
699.536883412391
 21
570.8328326084096
 31
0.0
  0
LINE
  5
A81
330
70
100
AcDbEntity
  8
Visible (ISO)
100
AcDbLine
 10
716.0269854722951
 20
485.7043789329717
 30
0.0
 11
740.4575247622939
 21
499.7729908444947
 31
0.0
  0
LINE
  5
A82
330
70
100
AcDbEntity
  8
Visible (ISO)
100
AcDbLine
 10
764.0980634503119
 20
518.2717579069413
 30
0.0
 11
742.1281012499934
 21
500.9059703584447
 31
0.0
  0
LINE
  5
A83
330
70
100
AcDbEntity
  8
Visible (ISO)
100
AcDbLine
 10
725.4506657595804
 20
581.22376286891
 30
0.0
 11
701.3553229457718
 21
571.7090437951233
 31
0.0
  0
LINE
  5
A84
330
70
100
AcDbEntity
  8
Visible (ISO)
100
AcDbLine
 10
649.2776667069754
 20
517.8942669373838
 30
0.0
 11
660.3861263322919
 21
526.1154636740201
 31
0.0
  0
LINE
  5
A85
330
70
100
AcDbEntity
  8
Visible (ISO)
100
AcDbLine
 10
669.4438417487317
 20
482.8751381999496
 30
0.0
 11
687.4598814645468
 21
490.6592156646399
 31
0.0
  0
ENDSEC
  0
SECTION
  2
OBJECTS
  0
DICTIONARY
  5
C
330
0
100
AcDbDictionary
281
     1
  3
ACAD_CIP_PREVIOUS_PRODUCT_INFO
350
A86
  3
ACAD_COLOR
350
63
  3
ACAD_DETAILVIEWSTYLE
350
6A
  3
ACAD_GROUP
350
D
  3
ACAD_LAYOUT
350
62
  3
ACAD_MATERIAL
350
10
  3
ACAD_MLEADERSTYLE
350
66
  3
ACAD_MLINESTYLE
350
5F
  3
ACAD_PLOTSETTINGS
350
61
  3
ACAD_PLOTSTYLENAME
350
E
  3
ACAD_SCALELIST
350
42
  3
ACAD_SECTIONVIEWSTYLE
350
68
  3
ACAD_TABLESTYLE
350
64
  3
ACAD_VISUALSTYLE
350
29
  3
ACDB_RECOMPOSE_DATA
350
A9F
  3
AcDbVariableDictionary
350
A87
  0
DICTIONARY
  5
A8F
330
16F
100
AcDbDictionary
280
     1
281
     1
  3
ACAD_MLATT
360
A91
  3
ACAD_XREC_ROUNDTRIP
360
A90
  0
DICTIONARY
  5
A94
330
172
100
AcDbDictionary
280
     1
281
     1
  3
ACAD_MLATT
360
A96
  3
ACAD_XREC_ROUNDTRIP
360
A95
  0
DICTIONARY
  5
A93
330
A92
100
AcDbDictionary
280
     1
281
     1
  0
DICTIONARY
  5
A97
330
175
100
AcDbDictionary
280
     1
281
     1
  3
ACAD_MLATT
360
A99
  3
ACAD_XREC_ROUNDTRIP
360
A98
  0
DICTIONARY
  5
A9C
330
176
100
AcDbDictionary
280
     1
281
     1
  3
ACAD_MLATT
360
A9E
  3
ACAD_XREC_ROUNDTRIP
360
A9D
  0
DICTIONARY
  5
A9B
330
A9A
100
AcDbDictionary
280
     1
281
     1
  0
XRECORD
  5
A86
102
{ACAD_REACTORS
330
C
102
}
330
C
100
AcDbXrecord
280
     1
300
INVPROSA
300
2015
300
INVPROSA_F_S
  0
DICTIONARY
  5
63
102
{ACAD_REACTORS
330
C
102
}
330
C
100
AcDbDictionary
281
     1
  0
DICTIONARY
  5
6A
102
{ACAD_REACTORS
330
C
102
}
330
C
100
AcDbDictionary
281
     1
  3
Imperial24
350
6B
  0
DICTIONARY
  5
D
102
{ACAD_REACTORS
330
C
102
}
330
C
100
AcDbDictionary
281
     1
  0
DICTIONARY
  5
62
102
{ACAD_REACTORS
330
C
102
}
330
C
100
AcDbDictionary
281
     1
  3
Layout1
350
6F
  3
Layout2
350
77
  3
Model
350
73
  0
DICTIONARY
  5
10
102
{ACAD_REACTORS
330
C
102
}
330
C
100
AcDbDictionary
281
     1
  3
ByBlock
350
19
  3
ByLayer
350
11
  3
Global
350
21
  0
DICTIONARY
  5
66
102
{ACAD_REACTORS
330
C
102
}
330
C
100
AcDbDictionary
281
     1
  3
Standard
350
67
  0
DICTIONARY
  5
5F
102
{ACAD_REACTORS
330
C
102
}
330
C
100
AcDbDictionary
281
     1
  3
Standard
350
60
  0
DICTIONARY
  5
61
102
{ACAD_REACTORS
330
C
102
}
330
C
100
AcDbDictionary
281
     1
  0
ACDBDICTIONARYWDFLT
  5
E
102
{ACAD_REACTORS
330
C
102
}
330
C
100
AcDbDictionary
281
     1
  3
Normal
350
F
100
AcDbDictionaryWithDefault
340
F
  0
DICTIONARY
  5
42
102
{ACAD_REACTORS
330
C
102
}
330
C
100
AcDbDictionary
281
     1
  3
A0
350
43
  3
A1
350
44
  3
A2
350
45
  3
A3
350
46
  3
A4
350
47
  3
A5
350
48
  3
A6
350
49
  3
A7
350
4A
  3
A8
350
4B
  3
A9
350
4C
  3
B0
350
4D
  3
B1
350
4E
  3
B2
350
4F
  3
B3
350
50
  3
B4
350
51
  3
B5
350
52
  3
B6
350
53
  0
DICTIONARY
  5
68
102
{ACAD_REACTORS
330
C
102
}
330
C
100
AcDbDictionary
281
     1
  3
Imperial24
350
69
  0
DICTIONARY
  5
64
102
{ACAD_REACTORS
330
C
102
}
330
C
100
AcDbDictionary
281
     1
  3
Standard
350
65
  0
DICTIONARY
  5
29
102
{ACAD_REACTORS
330
C
102
}
330
C
100
AcDbDictionary
281
     1
  3
2dWireframe
350
2F
  3
Basic
350
2E
  3
Brighten
350
35
  3
ColorChange
350
39
  3
Conceptual
350
32
  3
Dim
350
34
  3
EdgeColorOff
350
41
  3
Facepattern
350
38
  3
Flat
350
2A
  3
FlatWithEdges
350
2B
  3
Gouraud
350
2C
  3
GouraudWithEdges
350
2D
  3
Hidden
350
31
  3
JitterOff
350
3F
  3
Linepattern
350
37
  3
OverhangOff
350
40
  3
Realistic
350
33
  3
Shaded
350
3E
  3
Shaded with edges
350
3D
  3
Shades of Gray
350
3A
  3
Sketchy
350
3B
  3
Thicken
350
36
  3
Wireframe
350
30
  3
X-Ray
350
3C
  0
XRECORD
  5
A9F
102
{ACAD_REACTORS
330
C
102
}
330
C
100
AcDbXrecord
280
     1
 90
        1
330
65
330
16F
330
172
330
175
330
176
330
7AF
330
89E
  0
DICTIONARY
  5
A87
102
{ACAD_REACTORS
330
C
102
}
330
C
100
AcDbDictionary
281
     1
  3
CANNOSCALE
350
A8C
  3
CMLEADERSTYLE
350
A89
  3
CTABLESTYLE
350
A88
  3
CVIEWDETAILSTYLE
350
A8A
  3
CVIEWSECTIONSTYLE
350
A8B
  0
XRECORD
  5
A91
102
{ACAD_REACTORS
330
A8F
102
}
330
A8F
100
AcDbXrecord
280
     1
 70
     4
 70
     0
 70
     0
 40
1.0
  2
PART_NUMBER
  1
Embedded Object
 10
34.22301799019188
 20
75.68699284482417
 30
0.0
 40
2.5
 41
181.6575261045072
 46
0.0
 71
     1
 72
     5
  1
491104063032
  7
Note Text (ISO)
 73
     1
 44
1.0
  0
XRECORD
  5
A90
102
{ACAD_REACTORS
330
A8F
102
}
330
A8F
100
AcDbXrecord
280
     1
102
ACAD_MATT_HEIGHT
140
2.5
  0
XRECORD
  5
A96
102
{ACAD_REACTORS
330
A94
102
}
330
A94
100
AcDbXrecord
280
     1
 70
     4
 70
     0
 70
     1
340
A92
 40
1.0
  2
DESCRIPTION
  1
Embedded Object
 10
34.09040614630361
 20
65.94981469493413
 30
0.0
 40
2.5
 41
50.87075514884978
 46
0.0
 71
     1
 72
     5
  1
PLASSON REDUCING COUPLER 63-32
  7
Note Text (ISO)
 73
     1
 44
1.0
  0
XRECORD
  5
A95
102
{ACAD_REACTORS
330
A94
102
}
330
A94
100
AcDbXrecord
280
     1
102
ACAD_MATT_HEIGHT
140
2.5
  0
XRECORD
  5
A99
102
{ACAD_REACTORS
330
A97
102
}
330
A97
100
AcDbXrecord
280
     1
 70
     2
 70
     0
 70
     0
 40
1.0
  2
PART_NUMBER
  1
Embedded Object
 10
855.2230179901917
 20
95.68699284482418
 30
0.0
 40
2.5
 41
181.6575261045072
 46
0.0
 71
     1
 72
     5
  1
491104063032
  7
Note Text (ISO)
 73
     1
 44
1.0
  0
XRECORD
  5
A98
102
{ACAD_REACTORS
330
A97
102
}
330
A97
100
AcDbXrecord
280
     1
102
ACAD_MATT_HEIGHT
140
2.5
  0
XRECORD
  5
A9E
102
{ACAD_REACTORS
330
A9C
102
}
330
A9C
100
AcDbXrecord
280
     1
 70
     2
 70
     0
 70
     1
340
A9A
 40
1.0
  2
DESCRIPTION
  1
Embedded Object
 10
855.0904061463034
 20
85.94981469493413
 30
0.0
 40
2.5
 41
50.87075514884978
 46
0.0
 71
     1
 72
     5
  1
PLASSON REDUCING COUPLER 63-32
  7
Note Text (ISO)
 73
     1
 44
1.0
  0
XRECORD
  5
A9D
102
{ACAD_REACTORS
330
A9C
102
}
330
A9C
100
AcDbXrecord
280
     1
102
ACAD_MATT_HEIGHT
140
2.5
  0
ACDBDETAILVIEWSTYLE
  5
6B
102
{ACAD_XDICTIONARY
360
AD4
102
}
102
{ACAD_REACTORS
330
6A
102
}
330
6A
100
AcDbModelDocViewStyle
 70
     0
  3
Imperial24
290
     0
100
AcDbDetailViewStyle
 70
     0
 71
     0
 90
        3
 71
     1
340
55
 62
   256
 40
0.24
340
0
 62
   256
 40
0.24
300

 40
0.36
280
     3
 71
     2
340
5D
 90
       25
 62
   256
 71
     3
340
55
 62
   256
 40
0.24
 90
        1
 40
0.75
 90
        1
300
%<\AcVar ViewType \f "%tc1">% %<\AcVar ViewDetailId>%\PSCALE %<\AcVar ViewScale \f "%sn">%
 71
     4
340
5D
 90
       25
 62
   256
340
5D
 90
       25
 62
   256
280
     0
  0
LAYOUT
  5
6F
102
{ACAD_REACTORS
330
62
102
}
330
62
100
AcDbPlotSettings
  1

  2

  4

  6

 40
0.0
 41
0.0
 42
0.0
 43
0.0
 44
0.0
 45
0.0
 46
0.0
 47
0.0
 48
0.0
 49
0.0
140
0.0
141
0.0
142
1.0
143
1.0
 70
   688
 72
     0
 73
     0
 74
     5
  7

 75
    16
147
1.0
 76
     0
 77
     2
 78
   300
148
0.0
149
0.0
100
AcDbLayout
  1
Layout1
 70
     1
 71
     1
 10
0.0
 20
0.0
 11
12.0
 21
9.0
 12
0.0
 22
0.0
 32
0.0
 14
0.0
 24
0.0
 34
0.0
 15
0.0
 25
0.0
 35
0.0
146
0.0
 13
0.0
 23
0.0
 33
0.0
 16
1.0
 26
0.0
 36
0.0
 17
0.0
 27
1.0
 37
0.0
 76
     0
330
6C
  0
LAYOUT
  5
77
102
{ACAD_REACTORS
330
62
102
}
330
62
100
AcDbPlotSettings
  1

  2

  4

  6

 40
0.0
 41
0.0
 42
0.0
 43
0.0
 44
0.0
 45
0.0
 46
0.0
 47
0.0
 48
0.0
 49
0.0
140
0.0
141
0.0
142
1.0
143
1.0
 70
   688
 72
     0
 73
     0
 74
     5
  7

 75
    16
147
1.0
 76
     0
 77
     2
 78
   300
148
0.0
149
0.0
100
AcDbLayout
  1
Layout2
 70
     1
 71
     2
 10
0.0
 20
0.0
 11
12.0
 21
9.0
 12
0.0
 22
0.0
 32
0.0
 14
0.0
 24
0.0
 34
0.0
 15
0.0
 25
0.0
 35
0.0
146
0.0
 13
0.0
 23
0.0
 33
0.0
 16
1.0
 26
0.0
 36
0.0
 17
0.0
 27
1.0
 37
0.0
 76
     0
330
74
  0
LAYOUT
  5
73
102
{ACAD_REACTORS
330
62
102
}
330
62
100
AcDbPlotSettings
  1

  2

  4

  6

 40
0.0
 41
0.0
 42
0.0
 43
0.0
 44
0.0
 45
0.0
 46
0.0
 47
0.0
 48
0.0
 49
0.0
140
0.0
141
0.0
142
1.0
143
1.0
 70
  1712
 72
     0
 73
     0
 74
     0
  7

 75
     0
147
1.0
 76
     0
 77
     2
 78
   300
148
0.0
149
0.0
100
AcDbLayout
  1
Model
 70
     1
 71
     0
 10
0.0
 20
0.0
 11
12.0
 21
9.0
 12
0.0
 22
0.0
 32
0.0
 14
0.0
 24
0.0
 34
0.0
 15
0.0
 25
0.0
 35
0.0
146
0.0
 13
0.0
 23
0.0
 33
0.0
 16
1.0
 26
0.0
 36
0.0
 17
0.0
 27
1.0
 37
0.0
 76
     0
330
70
  0
MATERIAL
  5
19
102
{ACAD_XDICTIONARY
360
1A
102
}
102
{ACAD_REACTORS
330
10
102
}
330
10
100
AcDbMaterial
  1
ByBlock
 72
     0
 43
0.0208333333333333
 43
0.0
 43
0.0
 43
0.0
 43
0.0
 43
0.0208333333333333
 43
0.0
 43
0.0
 43
0.0
 43
0.0
 43
1.0
 43
0.0
 43
0.0
 43
0.0
 43
0.0
 43
1.0
 77
     0
 47
0.0208333333333333
 47
0.0
 47
0.0
 47
0.0
 47
0.0
 47
0.0208333333333333
 47
0.0
 47
0.0
 47
0.0
 47
0.0
 47
1.0
 47
0.0
 47
0.0
 47
0.0
 47
0.0
 47
1.0
171
     0
 49
0.0208333333333333
 49
0.0
 49
0.0
 49
0.0
 49
0.0
 49
0.0208333333333333
 49
0.0
 49
0.0
 49
0.0
 49
0.0
 49
1.0
 49
0.0
 49
0.0
 49
0.0
 49
0.0
 49
1.0
175
     0
142
0.0208333333333333
142
0.0
142
0.0
142
0.0
142
0.0
142
0.0208333333333333
142
0.0
142
0.0
142
0.0
142
0.0
142
1.0
142
0.0
142
0.0
142
0.0
142
0.0
142
1.0
179
     0
144
0.0208333333333333
144
0.0
144
0.0
144
0.0
144
0.0
144
0.0208333333333333
144
0.0
144
0.0
144
0.0
144
0.0
144
1.0
144
0.0
144
0.0
144
0.0
144
0.0
144
1.0
147
0.0208333333333333
147
0.0
147
0.0
147
0.0
147
0.0
147
0.0208333333333333
147
0.0
147
0.0
147
0.0
147
0.0
147
1.0
147
0.0
147
0.0
147
0.0
147
0.0
147
1.0
  0
MATERIAL
  5
11
102
{ACAD_XDICTIONARY
360
12
102
}
102
{ACAD_REACTORS
330
10
102
}
330
10
100
AcDbMaterial
  1
ByLayer
 72
     0
 43
0.0208333333333333
 43
0.0
 43
0.0
 43
0.0
 43
0.0
 43
0.0208333333333333
 43
0.0
 43
0.0
 43
0.0
 43
0.0
 43
1.0
 43
0.0
 43
0.0
 43
0.0
 43
0.0
 43
1.0
 77
     0
 47
0.0208333333333333
 47
0.0
 47
0.0
 47
0.0
 47
0.0
 47
0.0208333333333333
 47
0.0
 47
0.0
 47
0.0
 47
0.0
 47
1.0
 47
0.0
 47
0.0
 47
0.0
 47
0.0
 47
1.0
171
     0
 49
0.0208333333333333
 49
0.0
 49
0.0
 49
0.0
 49
0.0
 49
0.0208333333333333
 49
0.0
 49
0.0
 49
0.0
 49
0.0
 49
1.0
 49
0.0
 49
0.0
 49
0.0
 49
0.0
 49
1.0
175
     0
142
0.0208333333333333
142
0.0
142
0.0
142
0.0
142
0.0
142
0.0208333333333333
142
0.0
142
0.0
142
0.0
142
0.0
142
1.0
142
0.0
142
0.0
142
0.0
142
0.0
142
1.0
179
     0
144
0.0208333333333333
144
0.0
144
0.0
144
0.0
144
0.0
144
0.0208333333333333
144
0.0
144
0.0
144
0.0
144
0.0
144
1.0
144
0.0
144
0.0
144
0.0
144
0.0
144
1.0
147
0.0208333333333333
147
0.0
147
0.0
147
0.0
147
0.0
147
0.0208333333333333
147
0.0
147
0.0
147
0.0
147
0.0
147
1.0
147
0.0
147
0.0
147
0.0
147
0.0
147
1.0
  0
MATERIAL
  5
21
102
{ACAD_XDICTIONARY
360
22
102
}
102
{ACAD_REACTORS
330
10
102
}
330
10
100
AcDbMaterial
  1
Global
 72
     0
 43
0.0208333333333333
 43
0.0
 43
0.0
 43
0.0
 43
0.0
 43
0.0208333333333333
 43
0.0
 43
0.0
 43
0.0
 43
0.0
 43
1.0
 43
0.0
 43
0.0
 43
0.0
 43
0.0
 43
1.0
 77
     0
 47
0.0208333333333333
 47
0.0
 47
0.0
 47
0.0
 47
0.0
 47
0.0208333333333333
 47
0.0
 47
0.0
 47
0.0
 47
0.0
 47
1.0
 47
0.0
 47
0.0
 47
0.0
 47
0.0
 47
1.0
171
     0
 49
0.0208333333333333
 49
0.0
 49
0.0
 49
0.0
 49
0.0
 49
0.0208333333333333
 49
0.0
 49
0.0
 49
0.0
 49
0.0
 49
1.0
 49
0.0
 49
0.0
 49
0.0
 49
0.0
 49
1.0
175
     0
142
0.0208333333333333
142
0.0
142
0.0
142
0.0
142
0.0
142
0.0208333333333333
142
0.0
142
0.0
142
0.0
142
0.0
142
1.0
142
0.0
142
0.0
142
0.0
142
0.0
142
1.0
179
     0
144
0.0208333333333333
144
0.0
144
0.0
144
0.0
144
0.0
144
0.0208333333333333
144
0.0
144
0.0
144
0.0
144
0.0
144
1.0
144
0.0
144
0.0
144
0.0
144
0.0
144
1.0
147
0.0208333333333333
147
0.0
147
0.0
147
0.0
147
0.0
147
0.0208333333333333
147
0.0
147
0.0
147
0.0
147
0.0
147
1.0
147
0.0
147
0.0
147
0.0
147
0.0
147
1.0
  0
MLEADERSTYLE
  5
67
102
{ACAD_XDICTIONARY
360
AD0
102
}
102
{ACAD_REACTORS
330
66
102
}
330
66
100
AcDbMLeaderStyle
179
     2
170
     2
171
     1
172
     0
 90
        2
 40
0.0
 41
0.0
173
     1
 91
-1056964608
340
5B
 92
       -2
290
     1
 42
0.09
291
     1
 43
0.36
  3
Standard
 44
0.18
300

342
55
174
     1
178
     6
175
     1
176
     0
 93
-1056964608
 45
0.18
292
     0
297
     0
 46
0.18
 94
-1056964608
 47
1.0
 49
1.0
140
1.0
293
     1
141
0.0
294
     1
177
     0
142
1.0
295
     0
296
     0
143
0.125
271
     0
272
     9
273
     9
  0
MLINESTYLE
  5
60
102
{ACAD_REACTORS
330
5F
102
}
330
5F
100
AcDbMlineStyle
  2
STANDARD
 70
     0
  3

 62
   256
 51
90.0
 52
90.0
 71
     2
 49
0.5
 62
   256
  6
BYLAYER
 49
-0.5
 62
   256
  6
BYLAYER
  0
ACDBPLACEHOLDER
  5
F
102
{ACAD_REACTORS
330
E
102
}
330
E
  0
SCALE
  5
43
102
{ACAD_REACTORS
330
42
102
}
330
42
100
AcDbScale
 70
     0
300
1:1
140
1.0
141
1.0
290
     1
  0
SCALE
  5
44
102
{ACAD_REACTORS
330
42
102
}
330
42
100
AcDbScale
 70
     0
300
1/128" = 1'-0"
140
0.0078125
141
12.0
290
     0
  0
SCALE
  5
45
102
{ACAD_REACTORS
330
42
102
}
330
42
100
AcDbScale
 70
     0
300
1/64" = 1'-0"
140
0.015625
141
12.0
290
     0
  0
SCALE
  5
46
102
{ACAD_REACTORS
330
42
102
}
330
42
100
AcDbScale
 70
     0
300
1/32" = 1'-0"
140
0.03125
141
12.0
290
     0
  0
SCALE
  5
47
102
{ACAD_REACTORS
330
42
102
}
330
42
100
AcDbScale
 70
     0
300
1/16" = 1'-0"
140
0.0625
141
12.0
290
     0
  0
SCALE
  5
48
102
{ACAD_REACTORS
330
42
102
}
330
42
100
AcDbScale
 70
     0
300
3/32" = 1'-0"
140
0.09375
141
12.0
290
     0
  0
SCALE
  5
49
102
{ACAD_REACTORS
330
42
102
}
330
42
100
AcDbScale
 70
     0
300
1/8" = 1'-0"
140
0.125
141
12.0
290
     0
  0
SCALE
  5
4A
102
{ACAD_REACTORS
330
42
102
}
330
42
100
AcDbScale
 70
     0
300
3/16" = 1'-0"
140
0.1875
141
12.0
290
     0
  0
SCALE
  5
4B
102
{ACAD_REACTORS
330
42
102
}
330
42
100
AcDbScale
 70
     0
300
1/4" = 1'-0"
140
0.25
141
12.0
290
     0
  0
SCALE
  5
4C
102
{ACAD_REACTORS
330
42
102
}
330
42
100
AcDbScale
 70
     0
300
3/8" = 1'-0"
140
0.375
141
12.0
290
     0
  0
SCALE
  5
4D
102
{ACAD_REACTORS
330
42
102
}
330
42
100
AcDbScale
 70
     0
300
1/2" = 1'-0"
140
0.5
141
12.0
290
     0
  0
SCALE
  5
4E
102
{ACAD_REACTORS
330
42
102
}
330
42
100
AcDbScale
 70
     0
300
3/4" = 1'-0"
140
0.75
141
12.0
290
     0
  0
SCALE
  5
4F
102
{ACAD_REACTORS
330
42
102
}
330
42
100
AcDbScale
 70
     0
300
1" = 1'-0"
140
1.0
141
12.0
290
     0
  0
SCALE
  5
50
102
{ACAD_REACTORS
330
42
102
}
330
42
100
AcDbScale
 70
     0
300
1-1/2" = 1'-0"
140
1.5
141
12.0
290
     0
  0
SCALE
  5
51
102
{ACAD_REACTORS
330
42
102
}
330
42
100
AcDbScale
 70
     0
300
3" = 1'-0"
140
3.0
141
12.0
290
     0
  0
SCALE
  5
52
102
{ACAD_REACTORS
330
42
102
}
330
42
100
AcDbScale
 70
     0
300
6" = 1'-0"
140
6.0
141
12.0
290
     0
  0
SCALE
  5
53
102
{ACAD_REACTORS
330
42
102
}
330
42
100
AcDbScale
 70
     0
300
1'-0" = 1'-0"
140
12.0
141
12.0
290
     0
  0
ACDBSECTIONVIEWSTYLE
  5
69
102
{ACAD_XDICTIONARY
360
AD2
102
}
102
{ACAD_REACTORS
330
68
102
}
330
68
100
AcDbModelDocViewStyle
 70
     0
  3
Imperial24
290
     0
100
AcDbSectionViewStyle
 70
     0
 71
     0
 90
       78
 71
     1
340
55
 62
   256
 40
0.24
340
0
340
0
 62
   256
 40
0.24
300
I, O, Q, S, X, Z
 40
0.48
 90
        3
 40
0.18
 90
        1
 71
     2
340
5D
 90
       25
 62
   256
340
5D
 90
       50
 62
   256
 40
0.24
 40
0.0
 40
0.24
 71
     3
340
55
 62
   256
 40
0.24
 90
        1
 40
0.75
 90
        1
300
%<\AcVar ViewType \f "%tc1">% %<\AcVar ViewSectionStartId>%-%<\AcVar ViewSectionEndId>%\PSCALE %<\AcVar ViewScale \f "%sn">%
 71
     4
 62
   256
 62
   257
300
ANSI31
 40
1.0
 90
        0
290
     0
290
     0
 90
        6
 40
0.0
 40
1.570796326794896
 40
0.2617993877991494
 40
1.308996938995747
 40
-0.2617993877991494
 40
1.832595714594046
  0
TABLESTYLE
  5
65
102
{ACAD_XDICTIONARY
360
A8D
102
}
102
{ACAD_REACTORS
330
64
102
}
330
64
100
AcDbTableStyle
280
     0
  3
Standard
 70
     0
 71
     0
 40
0.06
 41
0.06
280
     0
281
     0
  7
Standard
140
0.18
170
     2
 62
     0
 63
     7
283
     0
 90
      512
 91
        0
  1

274
    -2
284
     1
 64
     0
275
    -2
285
     1
 65
     0
276
    -2
286
     1
 66
     0
277
    -2
287
     1
 67
     0
278
    -2
288
     1
 68
     0
279
    -2
289
     1
 69
     0
  7
Standard
140
0.25
170
     5
 62
     0
 63
     7
283
     0
 90
      512
 91
        0
  1

274
    -2
284
     1
 64
     0
275
    -2
285
     1
 65
     0
276
    -2
286
     1
 66
     0
277
    -2
287
     1
 67
     0
278
    -2
288
     1
 68
     0
279
    -2
289
     1
 69
     0
  7
Standard
140
0.18
170
     5
 62
     0
 63
     7
283
     0
 90
      512
 91
        0
  1

274
    -2
284
     1
 64
     0
275
    -2
285
     1
 65
     0
276
    -2
286
     1
 66
     0
277
    -2
287
     1
 67
     0
278
    -2
288
     1
 68
     0
279
    -2
289
     1
 69
     0
  0
VISUALSTYLE
  5
2F
102
{ACAD_XDICTIONARY
360
AAA
102
}
102
{ACAD_REACTORS
330
29
102
}
330
29
100
AcDbVisualStyle
  2
2dWireframe
 70
     4
177
     2
291
     0
 71
     0
176
     1
 72
     2
176
     1
 73
     0
176
     1
 90
        0
176
     1
 40
0.6
176
     1
 41
30.0
176
     1
 63
     7
421
 16777215
176
     1
 74
     1
176
     1
 91
        4
176
     1
 64
     7
176
     1
 65
   257
176
     1
 75
     1
176
     1
175
     1
176
     1
 42
1.0
176
     1
 92
        0
176
     1
 66
   257
176
     1
 43
1.0
176
     1
 76
     1
176
     1
 77
     6
176
     1
 78
     2
176
     1
 67
     7
176
     1
 79
     5
176
     1
170
     0
176
     1
171
     0
176
     1
290
     0
176
     1
 93
        1
176
     1
 44
0.0
176
     1
173
     0
176
     1
1001
ACAD
1000
AcDbSavedByObjectVersion
1070
     0
  0
VISUALSTYLE
  5
2E
102
{ACAD_XDICTIONARY
360
AA8
102
}
102
{ACAD_REACTORS
330
29
102
}
330
29
100
AcDbVisualStyle
  2
Basic
 70
     7
177
     2
291
     1
 71
     1
176
     1
 72
     0
176
     1
 73
     1
176
     1
 90
        0
176
     1
 40
0.6
176
     1
 41
30.0
176
     1
 63
     7
421
 16777215
176
     1
 74
     0
176
     1
 91
        4
176
     1
 64
     7
176
     1
 65
   257
176
     1
 75
     1
176
     1
175
     1
176
     1
 42
1.0
176
     1
 92
        8
176
     1
 66
     7
176
     1
 43
1.0
176
     1
 76
     1
176
     1
 77
     6
176
     1
 78
     2
176
     1
 67
     7
176
     1
 79
     5
176
     1
170
     0
176
     1
171
     0
176
     1
290
     0
176
     1
 93
        1
176
     1
 44
0.0
176
     1
173
     0
176
     1
1001
ACAD
1000
AcDbSavedByObjectVersion
1070
     0
  0
VISUALSTYLE
  5
35
102
{ACAD_XDICTIONARY
360
AB6
102
}
102
{ACAD_REACTORS
330
29
102
}
330
29
100
AcDbVisualStyle
  2
Brighten
 70
    12
177
     2
291
     1
 71
     2
176
     1
 72
     2
176
     1
 73
     0
176
     1
 90
        0
176
     1
 40
0.6
176
     1
 41
30.0
176
     1
 63
     7
421
 16777215
176
     1
 74
     1
176
     1
 91
        4
176
     1
 64
     7
176
     1
 65
   257
176
     1
 75
     1
176
     1
175
     1
176
     1
 42
1.0
176
     1
 92
        8
176
     1
 66
     7
176
     1
 43
1.0
176
     1
 76
     1
176
     1
 77
     6
176
     1
 78
     2
176
     1
 67
     7
176
     1
 79
     5
176
     1
170
     0
176
     1
171
     0
176
     1
290
     0
176
     1
 93
        1
176
     1
 44
50.0
176
     1
173
     0
176
     1
1001
ACAD
1000
AcDbSavedByObjectVersion
1070
     0
  0
VISUALSTYLE
  5
39
102
{ACAD_XDICTIONARY
360
ABE
102
}
102
{ACAD_REACTORS
330
29
102
}
330
29
100
AcDbVisualStyle
  2
ColorChange
 70
    16
177
     2
291
     1
 71
     2
176
     1
 72
     2
176
     1
 73
     3
176
     1
 90
        0
176
     1
 40
0.6
176
     1
 41
30.0
176
     1
 63
     8
421
  8421504
176
     1
 74
     1
176
     1
 91
        4
176
     1
 64
     7
176
     1
 65
   257
176
     1
 75
     1
176
     1
175
     1
176
     1
 42
1.0
176
     1
 92
        8
176
     1
 66
     8
424
  8421504
176
     1
 43
1.0
176
     1
 76
     1
176
     1
 77
     6
176
     1
 78
     2
176
     1
 67
     7
176
     1
 79
     5
176
     1
170
     0
176
     1
171
     0
176
     1
290
     0
176
     1
 93
        1
176
     1
 44
0.0
176
     1
173
     0
176
     1
1001
ACAD
1000
AcDbSavedByObjectVersion
1070
     0
  0
VISUALSTYLE
  5
32
102
{ACAD_XDICTIONARY
360
AB0
102
}
102
{ACAD_REACTORS
330
29
102
}
330
29
100
AcDbVisualStyle
  2
Conceptual
 70
     9
177
     2
291
     0
 71
     3
176
     1
 72
     2
176
     1
 73
     0
176
     1
 90
        0
176
     1
 40
0.6
176
     1
 41
30.0
176
     1
 63
     7
421
 16777215
176
     1
 74
     2
176
     1
 91
        2
176
     1
 64
     7
176
     1
 65
   257
176
     1
 75
     1
176
     1
175
     1
176
     1
 42
179.0
176
     1
 92
        8
176
     1
 66
     7
176
     1
 43
1.0
176
     1
 76
     1
176
     1
 77
     6
176
     1
 78
     2
176
     1
 67
     7
176
     1
 79
     3
176
     1
170
     0
176
     1
171
     0
176
     1
290
     0
176
     1
 93
        1
176
     1
 44
0.0
176
     1
173
     0
176
     1
1001
ACAD
1000
AcDbSavedByObjectVersion
1070
     0
  0
VISUALSTYLE
  5
34
102
{ACAD_XDICTIONARY
360
AB4
102
}
102
{ACAD_REACTORS
330
29
102
}
330
29
100
AcDbVisualStyle
  2
Dim
 70
    11
177
     2
291
     1
 71
     2
176
     1
 72
     2
176
     1
 73
     0
176
     1
 90
        0
176
     1
 40
0.6
176
     1
 41
30.0
176
     1
 63
     7
421
 16777215
176
     1
 74
     1
176
     1
 91
        4
176
     1
 64
     7
176
     1
 65
   257
176
     1
 75
     1
176
     1
175
     1
176
     1
 42
1.0
176
     1
 92
        8
176
     1
 66
     7
176
     1
 43
1.0
176
     1
 76
     1
176
     1
 77
     6
176
     1
 78
     2
176
     1
 67
     7
176
     1
 79
     5
176
     1
170
     0
176
     1
171
     0
176
     1
290
     0
176
     1
 93
        1
176
     1
 44
-50.0
176
     1
173
     0
176
     1
1001
ACAD
1000
AcDbSavedByObjectVersion
1070
     0
  0
VISUALSTYLE
  5
41
102
{ACAD_XDICTIONARY
360
ACE
102
}
102
{ACAD_REACTORS
330
29
102
}
330
29
100
AcDbVisualStyle
  2
EdgeColorOff
 70
    22
177
     2
291
     1
 71
     2
176
     0
 72
     2
176
     0
 73
     0
176
     0
 90
        0
176
     0
 40
0.6
176
     0
 41
30.0
176
     0
 63
     7
421
 16777215
176
     0
 74
     1
176
     0
 91
        4
176
     0
 64
     7
176
     0
 65
   257
176
     0
 75
     1
176
     0
175
     1
176
     0
 42
1.0
176
     0
 92
        8
176
     2
 66
     7
176
     0
 43
1.0
176
     0
 76
     1
176
     0
 77
     6
176
     0
 78
     2
176
     0
 67
     7
176
     0
 79
     5
176
     0
170
     0
176
     0
171
     0
176
     0
290
     0
176
     0
 93
        1
176
     0
 44
0.0
176
     0
173
     0
176
     0
1001
ACAD
1000
AcDbSavedByObjectVersion
1070
     0
  0
VISUALSTYLE
  5
38
102
{ACAD_XDICTIONARY
360
ABC
102
}
102
{ACAD_REACTORS
330
29
102
}
330
29
100
AcDbVisualStyle
  2
Facepattern
 70
    15
177
     2
291
     1
 71
     2
176
     1
 72
     2
176
     1
 73
     0
176
     1
 90
        0
176
     1
 40
0.6
176
     1
 41
30.0
176
     1
 63
     7
421
 16777215
176
     1
 74
     1
176
     1
 91
        4
176
     1
 64
     7
176
     1
 65
   257
176
     1
 75
     1
176
     1
175
     1
176
     1
 42
1.0
176
     1
 92
        8
176
     1
 66
     7
176
     1
 43
1.0
176
     1
 76
     1
176
     1
 77
     6
176
     1
 78
     2
176
     1
 67
     7
176
     1
 79
     5
176
     1
170
     0
176
     1
171
     0
176
     1
290
     0
176
     1
 93
        1
176
     1
 44
0.0
176
     1
173
     0
176
     1
1001
ACAD
1000
AcDbSavedByObjectVersion
1070
     0
  0
VISUALSTYLE
  5
2A
102
{ACAD_XDICTIONARY
360
AA0
102
}
102
{ACAD_REACTORS
330
29
102
}
330
29
100
AcDbVisualStyle
  2
Flat
 70
     0
177
     2
291
     1
 71
     2
176
     1
 72
     1
176
     1
 73
     1
176
     1
 90
        2
176
     1
 40
0.6
176
     1
 41
30.0
176
     1
 63
     7
421
 16777215
176
     1
 74
     0
176
     1
 91
        0
176
     1
 64
     7
176
     1
 65
   257
176
     1
 75
     1
176
     1
175
     1
176
     1
 42
1.0
176
     1
 92
        8
176
     1
 66
     7
176
     1
 43
1.0
176
     1
 76
     1
176
     1
 77
     6
176
     1
 78
     2
176
     1
 67
     7
176
     1
 79
     5
176
     1
170
     0
176
     1
171
     0
176
     1
290
     0
176
     1
 93
       13
176
     1
 44
0.0
176
     1
173
     0
176
     1
1001
ACAD
1000
AcDbSavedByObjectVersion
1070
     0
  0
VISUALSTYLE
  5
2B
102
{ACAD_XDICTIONARY
360
AA2
102
}
102
{ACAD_REACTORS
330
29
102
}
330
29
100
AcDbVisualStyle
  2
FlatWithEdges
 70
     1
177
     2
291
     1
 71
     2
176
     1
 72
     1
176
     1
 73
     1
176
     1
 90
        2
176
     1
 40
0.6
176
     1
 41
30.0
176
     1
 63
     7
421
 16777215
176
     1
 74
     1
176
     1
 91
        0
176
     1
 64
     7
176
     1
 65
   257
176
     1
 75
     1
176
     1
175
     1
176
     1
 42
1.0
176
     1
 92
        0
176
     1
 66
   257
176
     1
 43
1.0
176
     1
 76
     1
176
     1
 77
     6
176
     1
 78
     2
176
     1
 67
     7
176
     1
 79
     5
176
     1
170
     0
176
     1
171
     0
176
     1
290
     0
176
     1
 93
       13
176
     1
 44
0.0
176
     1
173
     0
176
     1
1001
ACAD
1000
AcDbSavedByObjectVersion
1070
     0
  0
VISUALSTYLE
  5
2C
102
{ACAD_XDICTIONARY
360
AA4
102
}
102
{ACAD_REACTORS
330
29
102
}
330
29
100
AcDbVisualStyle
  2
Gouraud
 70
     2
177
     2
291
     1
 71
     2
176
     1
 72
     2
176
     1
 73
     1
176
     1
 90
        2
176
     1
 40
0.6
176
     1
 41
30.0
176
     1
 63
     7
421
 16777215
176
     1
 74
     0
176
     1
 91
        0
176
     1
 64
     7
176
     1
 65
   257
176
     1
 75
     1
176
     1
175
     1
176
     1
 42
1.0
176
     1
 92
        0
176
     1
 66
     7
176
     1
 43
1.0
176
     1
 76
     1
176
     1
 77
     6
176
     1
 78
     2
176
     1
 67
     7
176
     1
 79
     5
176
     1
170
     0
176
     1
171
     0
176
     1
290
     0
176
     1
 93
       13
176
     1
 44
0.0
176
     1
173
     0
176
     1
1001
ACAD
1000
AcDbSavedByObjectVersion
1070
     0
  0
VISUALSTYLE
  5
2D
102
{ACAD_XDICTIONARY
360
AA6
102
}
102
{ACAD_REACTORS
330
29
102
}
330
29
100
AcDbVisualStyle
  2
GouraudWithEdges
 70
     3
177
     2
291
     1
 71
     2
176
     1
 72
     2
176
     1
 73
     1
176
     1
 90
        2
176
     1
 40
0.6
176
     1
 41
30.0
176
     1
 63
     7
421
 16777215
176
     1
 74
     1
176
     1
 91
        0
176
     1
 64
     7
176
     1
 65
   257
176
     1
 75
     1
176
     1
175
     1
176
     1
 42
1.0
176
     1
 92
        0
176
     1
 66
   257
176
     1
 43
1.0
176
     1
 76
     1
176
     1
 77
     6
176
     1
 78
     2
176
     1
 67
     7
176
     1
 79
     5
176
     1
170
     0
176
     1
171
     0
176
     1
290
     0
176
     1
 93
       13
176
     1
 44
0.0
176
     1
173
     0
176
     1
1001
ACAD
1000
AcDbSavedByObjectVersion
1070
     0
  0
VISUALSTYLE
  5
31
102
{ACAD_XDICTIONARY
360
AAE
102
}
102
{ACAD_REACTORS
330
29
102
}
330
29
100
AcDbVisualStyle
  2
Hidden
 70
     6
177
     2
291
     0
 71
     1
176
     1
 72
     2
176
     1
 73
     2
176
     1
 90
        0
176
     1
 40
0.6
176
     1
 41
30.0
176
     1
 63
     7
421
 16777215
176
     1
 74
     2
176
     1
 91
        2
176
     1
 64
     7
176
     1
 65
   257
176
     1
 75
     2
176
     1
175
     1
176
     1
 42
40.0
176
     1
 92
        0
176
     1
 66
   257
176
     1
 43
1.0
176
     1
 76
     1
176
     1
 77
     6
176
     1
 78
     2
176
     1
 67
     7
176
     1
 79
     3
176
     1
170
     0
176
     1
171
     0
176
     1
290
     0
176
     1
 93
        1
176
     1
 44
0.0
176
     1
173
     0
176
     1
1001
ACAD
1000
AcDbSavedByObjectVersion
1070
     0
  0
VISUALSTYLE
  5
3F
102
{ACAD_XDICTIONARY
360
ACA
102
}
102
{ACAD_REACTORS
330
29
102
}
330
29
100
AcDbVisualStyle
  2
JitterOff
 70
    20
177
     2
291
     1
 71
     2
176
     0
 72
     2
176
     0
 73
     0
176
     0
 90
        0
176
     0
 40
0.6
176
     0
 41
30.0
176
     0
 63
     7
421
 16777215
176
     0
 74
     1
176
     0
 91
        4
176
     0
 64
     7
176
     0
 65
   257
176
     0
 75
     1
176
     0
175
     1
176
     0
 42
1.0
176
     0
 92
       10
176
     2
 66
     7
176
     0
 43
1.0
176
     0
 76
     1
176
     0
 77
     6
176
     0
 78
     2
176
     0
 67
     7
176
     0
 79
     5
176
     0
170
     0
176
     0
171
     0
176
     0
290
     0
176
     0
 93
        1
176
     0
 44
0.0
176
     0
173
     0
176
     0
1001
ACAD
1000
AcDbSavedByObjectVersion
1070
     0
  0
VISUALSTYLE
  5
37
102
{ACAD_XDICTIONARY
360
ABA
102
}
102
{ACAD_REACTORS
330
29
102
}
330
29
100
AcDbVisualStyle
  2
Linepattern
 70
    14
177
     2
291
     1
 71
     2
176
     1
 72
     2
176
     1
 73
     0
176
     1
 90
        0
176
     1
 40
0.6
176
     1
 41
30.0
176
     1
 63
     7
421
 16777215
176
     1
 74
     1
176
     1
 91
        4
176
     1
 64
     7
176
     1
 65
   257
176
     1
 75
     7
176
     1
175
     7
176
     1
 42
1.0
176
     1
 92
        8
176
     1
 66
     7
176
     1
 43
1.0
176
     1
 76
     1
176
     1
 77
     6
176
     1
 78
     2
176
     1
 67
     7
176
     1
 79
     5
176
     1
170
     0
176
     1
171
     0
176
     1
290
     0
176
     1
 93
        1
176
     1
 44
0.0
176
     1
173
     0
176
     1
1001
ACAD
1000
AcDbSavedByObjectVersion
1070
     0
  0
VISUALSTYLE
  5
40
102
{ACAD_XDICTIONARY
360
ACC
102
}
102
{ACAD_REACTORS
330
29
102
}
330
29
100
AcDbVisualStyle
  2
OverhangOff
 70
    21
177
     2
291
     1
 71
     2
176
     0
 72
     2
176
     0
 73
     0
176
     0
 90
        0
176
     0
 40
0.6
176
     0
 41
30.0
176
     0
 63
     7
421
 16777215
176
     0
 74
     1
176
     0
 91
        4
176
     0
 64
     7
176
     0
 65
   257
176
     0
 75
     1
176
     0
175
     1
176
     0
 42
1.0
176
     0
 92
        9
176
     2
 66
     7
176
     0
 43
1.0
176
     0
 76
     1
176
     0
 77
     6
176
     0
 78
     2
176
     0
 67
     7
176
     0
 79
     5
176
     0
170
     0
176
     0
171
     0
176
     0
290
     0
176
     0
 93
        1
176
     0
 44
0.0
176
     0
173
     0
176
     0
1001
ACAD
1000
AcDbSavedByObjectVersion
1070
     0
  0
VISUALSTYLE
  5
33
102
{ACAD_XDICTIONARY
360
AB2
102
}
102
{ACAD_REACTORS
330
29
102
}
330
29
100
AcDbVisualStyle
  2
Realistic
 70
     8
177
     2
291
     0
 71
     2
176
     1
 72
     3
176
     1
 73
     0
176
     1
 90
        2
176
     1
 40
0.6
176
     1
 41
30.0
176
     1
 63
     7
421
 16777215
176
     1
 74
     0
176
     1
 91
        0
176
     1
 64
     7
176
     1
 65
   257
176
     1
 75
     1
176
     1
175
     1
176
     1
 42
1.0
176
     1
 92
        8
176
     1
 66
   257
176
     1
 43
1.0
176
     1
 76
     1
176
     1
 77
     6
176
     1
 78
     2
176
     1
 67
     7
176
     1
 79
     3
176
     1
170
     0
176
     1
171
     0
176
     1
290
     0
176
     1
 93
       13
176
     1
 44
0.0
176
     1
173
     0
176
     1
1001
ACAD
1000
AcDbSavedByObjectVersion
1070
     0
  0
VISUALSTYLE
  5
3E
102
{ACAD_XDICTIONARY
360
AC8
102
}
102
{ACAD_REACTORS
330
29
102
}
330
29
100
AcDbVisualStyle
  2
Shaded
 70
    27
177
     2
291
     0
 71
     2
176
     1
 72
     2
176
     1
 73
     1
176
     1
 90
        2
176
     1
 40
0.6
176
     1
 41
30.0
176
     1
 63
     7
421
 16777215
176
     1
 74
     0
176
     1
 91
        4
176
     1
 64
     7
176
     1
 65
   257
176
     1
 75
     1
176
     1
175
     1
176
     1
 42
1.0
176
     1
 92
        8
176
     1
 66
   257
176
     1
 43
1.0
176
     1
 76
     1
176
     1
 77
     6
176
     1
 78
     2
176
     1
 67
     8
425
  7895160
176
     1
 79
     3
176
     1
170
     0
176
     1
171
     0
176
     1
290
     0
176
     1
 93
        5
176
     1
 44
0.0
176
     1
173
     0
176
     1
1001
ACAD
1000
AcDbSavedByObjectVersion
1070
     0
  0
VISUALSTYLE
  5
3D
102
{ACAD_XDICTIONARY
360
AC6
102
}
102
{ACAD_REACTORS
330
29
102
}
330
29
100
AcDbVisualStyle
  2
Shaded with edges
 70
    26
177
     2
291
     0
 71
     2
176
     1
 72
     2
176
     1
 73
     1
176
     1
 90
        2
176
     1
 40
0.6
176
     1
 41
30.0
176
     1
 63
     7
421
 16777215
176
     1
 74
     1
176
     1
 91
       10
176
     1
 64
     7
176
     1
 65
   257
176
     1
 75
     2
176
     1
175
     1
176
     1
 42
1.0
176
     1
 92
        8
176
     1
 66
   257
176
     1
 43
1.0
176
     1
 76
     1
176
     1
 77
     6
176
     1
 78
     2
176
     1
 67
     7
176
     1
 79
     3
176
     1
170
     0
176
     1
171
     0
176
     1
290
     0
176
     1
 93
        5
176
     1
 44
0.0
176
     1
173
     0
176
     1
1001
ACAD
1000
AcDbSavedByObjectVersion
1070
     0
  0
VISUALSTYLE
  5
3A
102
{ACAD_XDICTIONARY
360
AC0
102
}
102
{ACAD_REACTORS
330
29
102
}
330
29
100
AcDbVisualStyle
  2
Shades of Gray
 70
    23
177
     2
291
     0
 71
     2
176
     1
 72
     2
176
     1
 73
     3
176
     1
 90
        0
176
     1
 40
0.6
176
     1
 41
30.0
176
     1
 63
     7
421
 16777215
176
     1
 74
     2
176
     1
 91
        2
176
     1
 64
     7
176
     1
 65
     7
176
     1
 75
     1
176
     1
175
     1
176
     1
 42
40.0
176
     1
 92
        8
176
     1
 66
     7
176
     1
 43
1.0
176
     1
 76
     1
176
     1
 77
     6
176
     1
 78
     2
176
     1
 67
     7
176
     1
 79
     3
176
     1
170
     0
176
     1
171
     0
176
     1
290
     0
176
     1
 93
        1
176
     1
 44
0.0
176
     1
173
     0
176
     1
1001
ACAD
1000
AcDbSavedByObjectVersion
1070
     0
  0
VISUALSTYLE
  5
3B
102
{ACAD_XDICTIONARY
360
AC2
102
}
102
{ACAD_REACTORS
330
29
102
}
330
29
100
AcDbVisualStyle
  2
Sketchy
 70
    24
177
     2
291
     0
 71
     1
176
     1
 72
     2
176
     1
 73
     2
176
     1
 90
        0
176
     1
 40
0.6
176
     1
 41
30.0
176
     1
 63
     7
421
 16777215
176
     1
 74
     2
176
     1
 91
        2
176
     1
 64
     7
176
     1
 65
     7
176
     1
 75
     1
176
     1
175
     1
176
     1
 42
40.0
176
     1
 92
       11
176
     1
 66
     7
176
     1
 43
1.0
176
     1
 76
     1
176
     1
 77
     6
176
     1
 78
     2
176
     1
 67
     7
176
     1
 79
     6
176
     1
170
     0
176
     1
171
     0
176
     1
290
     0
176
     1
 93
        1
176
     1
 44
0.0
176
     1
173
     0
176
     1
1001
ACAD
1000
AcDbSavedByObjectVersion
1070
     0
  0
VISUALSTYLE
  5
36
102
{ACAD_XDICTIONARY
360
AB8
102
}
102
{ACAD_REACTORS
330
29
102
}
330
29
100
AcDbVisualStyle
  2
Thicken
 70
    13
177
     2
291
     1
 71
     2
176
     1
 72
     2
176
     1
 73
     0
176
     1
 90
        0
176
     1
 40
0.6
176
     1
 41
30.0
176
     1
 63
     7
421
 16777215
176
     1
 74
     1
176
     1
 91
        4
176
     1
 64
     7
176
     1
 65
   257
176
     1
 75
     1
176
     1
175
     1
176
     1
 42
1.0
176
     1
 92
       12
176
     1
 66
     7
176
     1
 43
1.0
176
     1
 76
     1
176
     1
 77
     6
176
     1
 78
     2
176
     1
 67
     7
176
     1
 79
     5
176
     1
170
     0
176
     1
171
     0
176
     1
290
     0
176
     1
 93
        1
176
     1
 44
0.0
176
     1
173
     0
176
     1
1001
ACAD
1000
AcDbSavedByObjectVersion
1070
     0
  0
VISUALSTYLE
  5
30
102
{ACAD_XDICTIONARY
360
AAC
102
}
102
{ACAD_REACTORS
330
29
102
}
330
29
100
AcDbVisualStyle
  2
Wireframe
 70
     5
177
     2
291
     0
 71
     0
176
     1
 72
     2
176
     1
 73
     0
176
     1
 90
        0
176
     1
 40
0.6
176
     1
 41
30.0
176
     1
 63
     7
421
 16777215
176
     1
 74
     1
176
     1
 91
        4
176
     1
 64
     7
176
     1
 65
   257
176
     1
 75
     1
176
     1
175
     1
176
     1
 42
1.0
176
     1
 92
        0
176
     1
 66
   257
176
     1
 43
1.0
176
     1
 76
     1
176
     1
 77
     6
176
     1
 78
     2
176
     1
 67
     7
176
     1
 79
     3
176
     1
170
     0
176
     1
171
     0
176
     1
290
     0
176
     1
 93
        1
176
     1
 44
0.0
176
     1
173
     0
176
     1
1001
ACAD
1000
AcDbSavedByObjectVersion
1070
     0
  0
VISUALSTYLE
  5
3C
102
{ACAD_XDICTIONARY
360
AC4
102
}
102
{ACAD_REACTORS
330
29
102
}
330
29
100
AcDbVisualStyle
  2
X-Ray
 70
    25
177
     2
291
     0
 71
     2
176
     1
 72
     2
176
     1
 73
     1
176
     1
 90
        1
176
     1
 40
0.5
176
     1
 41
30.0
176
     1
 63
     7
421
 16777215
176
     1
 74
     1
176
     1
 91
        0
176
     1
 64
     7
176
     1
 65
   257
176
     1
 75
     1
176
     1
175
     1
176
     1
 42
1.0
176
     1
 92
        8
176
     1
 66
     7
176
     1
 43
1.0
176
     1
 76
     1
176
     1
 77
     6
176
     1
 78
     2
176
     1
 67
     7
176
     1
 79
     3
176
     1
170
     0
176
     1
171
     0
176
     1
290
     0
176
     1
 93
       13
176
     1
 44
0.0
176
     1
173
     0
176
     1
1001
ACAD
1000
AcDbSavedByObjectVersion
1070
     0
  0
DICTIONARYVAR
  5
A8C
102
{ACAD_REACTORS
330
A87
102
}
330
A87
100
DictionaryVariables
280
     0
  1
1:1
  0
DICTIONARYVAR
  5
A89
102
{ACAD_REACTORS
330
A87
102
}
330
A87
100
DictionaryVariables
280
     0
  1
STANDARD
  0
DICTIONARYVAR
  5
A88
102
{ACAD_REACTORS
330
A87
102
}
330
A87
100
DictionaryVariables
280
     0
  1
STANDARD
  0
DICTIONARYVAR
  5
A8A
102
{ACAD_REACTORS
330
A87
102
}
330
A87
100
DictionaryVariables
280
     0
  1
Imperial24
  0
DICTIONARYVAR
  5
A8B
102
{ACAD_REACTORS
330
A87
102
}
330
A87
100
DictionaryVariables
280
     0
  1
Imperial24
  0
DICTIONARY
  5
AD4
330
6B
100
AcDbDictionary
280
     1
281
     1
  3
ACAD_XREC_ROUNDTRIP
360
AD5
  0
DICTIONARY
  5
1A
330
19
100
AcDbDictionary
280
     1
281
     1
  3
BUMPTILE
360
1C
  3
DIFFUSETILE
360
1B
  3
OPACITYTILE
360
1F
  3
REFLECTIONTILE
360
1E
  3
REFRACTIONTILE
360
20
  3
SPECULARTILE
360
1D
  0
DICTIONARY
  5
12
330
11
100
AcDbDictionary
280
     1
281
     1
  3
BUMPTILE
360
14
  3
DIFFUSETILE
360
13
  3
FBXASSET
360
EA
  3
OPACITYTILE
360
17
  3
REFLECTIONTILE
360
16
  3
REFRACTIONTILE
360
18
  3
SPECULARTILE
360
15
  0
DICTIONARY
  5
22
330
21
100
AcDbDictionary
280
     1
281
     1
  3
BUMPTILE
360
24
  3
DIFFUSETILE
360
23
  3
OPACITYTILE
360
27
  3
REFLECTIONTILE
360
26
  3
REFRACTIONTILE
360
28
  3
SPECULARTILE
360
25
  0
DICTIONARY
  5
AD0
330
67
100
AcDbDictionary
280
     1
281
     1
  3
ACAD_XREC_ROUNDTRIP
360
AD1
  0
DICTIONARY
  5
AD2
330
69
100
AcDbDictionary
280
     1
281
     1
  3
ACAD_XREC_ROUNDTRIP
360
AD3
  0
DICTIONARY
  5
A8D
330
65
100
AcDbDictionary
280
     1
281
     1
  3
ACAD_ROUNDTRIP_2008_TABLESTYLE_CELLSTYLEMAP
360
A8E
  0
DICTIONARY
  5
AAA
330
2F
100
AcDbDictionary
280
     1
281
     1
  3
ACAD_XREC_ROUNDTRIP
360
AAB
  0
DICTIONARY
  5
AA8
330
2E
100
AcDbDictionary
280
     1
281
     1
  3
ACAD_XREC_ROUNDTRIP
360
AA9
  0
DICTIONARY
  5
AB6
330
35
100
AcDbDictionary
280
     1
281
     1
  3
ACAD_XREC_ROUNDTRIP
360
AB7
  0
DICTIONARY
  5
ABE
330
39
100
AcDbDictionary
280
     1
281
     1
  3
ACAD_XREC_ROUNDTRIP
360
ABF
  0
DICTIONARY
  5
AB0
330
32
100
AcDbDictionary
280
     1
281
     1
  3
ACAD_XREC_ROUNDTRIP
360
AB1
  0
DICTIONARY
  5
AB4
330
34
100
AcDbDictionary
280
     1
281
     1
  3
ACAD_XREC_ROUNDTRIP
360
AB5
  0
DICTIONARY
  5
ACE
330
41
100
AcDbDictionary
280
     1
281
     1
  3
ACAD_XREC_ROUNDTRIP
360
ACF
  0
DICTIONARY
  5
ABC
330
38
100
AcDbDictionary
280
     1
281
     1
  3
ACAD_XREC_ROUNDTRIP
360
ABD
  0
DICTIONARY
  5
AA0
330
2A
100
AcDbDictionary
280
     1
281
     1
  3
ACAD_XREC_ROUNDTRIP
360
AA1
  0
DICTIONARY
  5
AA2
330
2B
100
AcDbDictionary
280
     1
281
     1
  3
ACAD_XREC_ROUNDTRIP
360
AA3
  0
DICTIONARY
  5
AA4
330
2C
100
AcDbDictionary
280
     1
281
     1
  3
ACAD_XREC_ROUNDTRIP
360
AA5
  0
DICTIONARY
  5
AA6
330
2D
100
AcDbDictionary
280
     1
281
     1
  3
ACAD_XREC_ROUNDTRIP
360
AA7
  0
DICTIONARY
  5
AAE
330
31
100
AcDbDictionary
280
     1
281
     1
  3
ACAD_XREC_ROUNDTRIP
360
AAF
  0
DICTIONARY
  5
ACA
330
3F
100
AcDbDictionary
280
     1
281
     1
  3
ACAD_XREC_ROUNDTRIP
360
ACB
  0
DICTIONARY
  5
ABA
330
37
100
AcDbDictionary
280
     1
281
     1
  3
ACAD_XREC_ROUNDTRIP
360
ABB
  0
DICTIONARY
  5
ACC
330
40
100
AcDbDictionary
280
     1
281
     1
  3
ACAD_XREC_ROUNDTRIP
360
ACD
  0
DICTIONARY
  5
AB2
330
33
100
AcDbDictionary
280
     1
281
     1
  3
ACAD_XREC_ROUNDTRIP
360
AB3
  0
DICTIONARY
  5
AC8
330
3E
100
AcDbDictionary
280
     1
281
     1
  3
ACAD_XREC_ROUNDTRIP
360
AC9
  0
DICTIONARY
  5
AC6
330
3D
100
AcDbDictionary
280
     1
281
     1
  3
ACAD_XREC_ROUNDTRIP
360
AC7
  0
DICTIONARY
  5
AC0
330
3A
100
AcDbDictionary
280
     1
281
     1
  3
ACAD_XREC_ROUNDTRIP
360
AC1
  0
DICTIONARY
  5
AC2
330
3B
100
AcDbDictionary
280
     1
281
     1
  3
ACAD_XREC_ROUNDTRIP
360
AC3
  0
DICTIONARY
  5
AB8
330
36
100
AcDbDictionary
280
     1
281
     1
  3
ACAD_XREC_ROUNDTRIP
360
AB9
  0
DICTIONARY
  5
AAC
330
30
100
AcDbDictionary
280
     1
281
     1
  3
ACAD_XREC_ROUNDTRIP
360
AAD
  0
DICTIONARY
  5
AC4
330
3C
100
AcDbDictionary
280
     1
281
     1
  3
ACAD_XREC_ROUNDTRIP
360
AC5
  0
XRECORD
  5
AD5
102
{ACAD_REACTORS
330
AD4
102
}
330
AD4
100
AcDbXrecord
280
     1
102
DISPLAYNAME
  1
Imperial24
102
FLAGS
 90
        0
  0
XRECORD
  5
1C
102
{ACAD_REACTORS
330
1A
102
}
330
1A
100
AcDbXrecord
280
     1
270
     1
271
     1
  0
XRECORD
  5
1B
102
{ACAD_REACTORS
330
1A
102
}
330
1A
100
AcDbXrecord
280
     1
270
     1
271
     1
  0
XRECORD
  5
1F
102
{ACAD_REACTORS
330
1A
102
}
330
1A
100
AcDbXrecord
280
     1
270
     1
271
     1
  0
XRECORD
  5
1E
102
{ACAD_REACTORS
330
1A
102
}
330
1A
100
AcDbXrecord
280
     1
270
     1
271
     1
  0
XRECORD
  5
20
102
{ACAD_REACTORS
330
1A
102
}
330
1A
100
AcDbXrecord
280
     1
270
     1
271
     1
  0
XRECORD
  5
1D
102
{ACAD_REACTORS
330
1A
102
}
330
1A
100
AcDbXrecord
280
     1
270
     1
271
     1
  0
XRECORD
  5
14
102
{ACAD_REACTORS
330
12
102
}
330
12
100
AcDbXrecord
280
     1
270
     1
271
     1
  0
XRECORD
  5
13
102
{ACAD_REACTORS
330
12
102
}
330
12
100
AcDbXrecord
280
     1
270
     1
271
     1
  0
XRECORD
  5
EA
102
{ACAD_REACTORS
330
12
102
}
330
12
100
AcDbXrecord
280
     1
 70
     1
 90
1959938040
 71
     1
  1
7AC09148-AC17-4F0B-9EBA-7C306CFC277F
311
504B0304140006080800C7031D4B747564EBDB000000200100004F00000035373843343644352D344631422D344346362D413739462D3636314341303938354244302F4173736574446174612F446566696E6974696F6E4974657261746F7250726F706572746965732E62696E454E3D4FC33010352C8881817FC01F3076C0
311
B1130442B683BBC042B72EC884A38DE4A455EC08BA31F2AFE1AC0671D2DDBDFB7877EF9B10F2331B427284FE85F10CF3020618BB76D96EA0F7E4043B66FFE8F73066380F8F11E6B281773F8594694F5D6C21043FC0768AE7FFAB17BD4F78CF87CB4C3A45FF6BC47C617DF896057C1C347D2224FE6D7773EF638474C74A5559
311
219B920A57182AAC9354ABDA51290BAB795D95A6E1EC19E2761A5B884C69CBEB425454DB4221871B5A3F184D95BDE6D23A7BA594636933F5AF83EF02E36C96F0B21BD66275CB52D7C32F504B0304140006080800C7031D4BF924DBD009010000300200004500000035373843343644352D344631422D344346362D41373946
311
2D3636314341303938354244302F4173736574446174612F496E7374616E636550726F706572746965732E62696EEB606060F80F0540260323103700495E20ED9E9A975A94991C9C9C919A9BA8021430777436B03434B1D075743634D735713370D2B5747572D4357736363073767336323777634768046931363471713532
311
B5D435353131D635313332D475727372D13534373670367376B67474B5042A03DBCBA019D37FE8ABC6157B20CD04146B0062181F4C03F940F0C11EA29A8141C08141002C0426541C106CAC2CA046088033B02A030AC2157C6006F21A8018AAF50194E6010A610250382264E08660284CD9E98021862280A91564B406929A0F
311
F62C401E28B6F88038B83CB1243943D7A928312F2535052403940249782416A594E7E7A740E2900328120EE4E91A1A1B91123920F3A0710300504B0304140006080800C7031D4B88E57597CD3F0000904100006B00000035373843343644352D344631422D344346362D413739462D3636314341303938354244302F526573
311
6F75726365732F37414330393134382D414331372D344630422D394542412D3743333036434643323737462F7468756D626E61696C2F302F67656E657269635F706E67355B773CD4FF1FBF73E71C0E67EF7576C9DEF3EC995D46C6A1EC5046649CBDF79E192942562825CE965D8A868C2842C8DE9FDFD1F7E7F138F7078FCF
311
6B3F5FCFD7EBFDFEC41B196891913091804020321D6D7513FC77D8C5070EC3FFEE51B21F068154CC75D455CC028A3EA68992803810109FDDE5D5CEC5521B28A1B422BF80741695D5B529DA1C2D058AD2388BDA9F476F7C2CADC939304173DBF48A452BF8A700C0C70C3D121C1AA15A5270C22E2B9E28763651F7DA0D12CE11
311
077B2ECD0D560B5E3DE2368B1E65C5E1C87384A4CC5F2D9FB8BE39E9B77C753783A37998F5CEF1B4FEE553463245C9712270880DF339E0B882A6BA713D865F6F384C842D440934EF264F4A304F8DE4EEFA1E2BF5E2D91F5ADD9613D6E31DDB33ED31DB1D7916CAF091286EA3D31B9CFECB78BB0060245B943C4C040119FF78
311
0A74DD308BA9D028678674EB5504ECF284EE814DAED07440BAF649BE4B55DA2890F4D73E2D489A59EE54FDB0A85B59F2F52C4858A02705C4815A792B0C4A996A2023ECB195073E115E3E3647F64243A8338F2000BCB58DA5692C7E7C3D413F963FEDF3CF00FBB0F831A9D51360FECA43819F527B89FA260EB63C5DA676830A
311
A3626A3693B23F1A17A0DFFCE3EE164E31B5365EDF0C89EF64D8E38AB0BA9A1117D7C3A0EC44F44F4023095E80BA610DE336D0F99593A88BFC5306E72DF98F7FD132ED95878DF2964EA7E43071359FD83B2BDF9C6B5BDF768F0F3C0FC351199526F53D9460A34511F75D1B63E488178569472C91A94497807A3FD4A390C655
311
8F26D416365C3656DE6E769DA9D8FC73774E1709812842DD8EF96AED1960F79D21B395CDDFE6F92CB4EB962A4668C76990E2EF29798C8941D67DA50F4A5F947872460F1F6FDB794E8A29FD7AC0C0D6E0714339CE258FB17AE8535221E3464A10F29A0BE5EEECEFC5675926A89F49EB14E5711894F6586DB5754EB4D5DA9C64
311
37EBA57DB97A24F8B8A8DB295FFD73266CF57E82694DF5166DDF93573AFE9C9C5EB05F8FEF8E89E0A8917B0B3724DB7BEBB53252581EFC3E38166BA131A3A5B42FE2AD00A769BBFA4458D2DE7822F8C4F63D0B8E21B285AE13325F3410A435C648C9D91FDEB109E73CEDA7BC796961AF79175E1A3CE4C5E8B0D009B0C9E29E
311
FD98BC8E97554E3D8D838424E270F7685226E5AC268E021EDE3522D583E8F20C0BDE2959EF5BBFEEDAB32FE9A3ED0E39F211A86AA9DEBFC68182EDED132AB8BB794442D2D7EA9F4D8BFF52BC4D55BB165124EE90A42D101E67BBBB292FFB4F66DE5BF2300E44546757DA7CEF8932BFC9F92A0707953491A55C5A5ACEDABD9F
311
A1AEA01BAC3DC5A24E22E7C47213493996EFBC369D086ED9397C9BA6C7F9855C7BD5E15BFC8C53DB3D2A4C5901A57ACD2FBDF4D1676E95338B2C2BCE65FDA4C64F5FEFDC7D9CA5AA1FCF11E193F2FDABF0F4916BF13FB916A224380E6462A9815F2300DC49CC4DF8D055CEF76462F4B7A7ACA7365C2707891370BC1D0AA620
311
3C44CCAB47084FEC057F27FFCD57F89B8B9852459798A675C66BD7CE572CAF71FF7E6D7ECF7BF62CAB7B3F1107DCD04DC55A3F9961700286141C94A4F771FEB2BCDA2DDEE0CB0BAE402FF1DB0100F8E475DFFFC074DDB4498AB7D186A7654DDB1CB680D703D47CEB4E72F8CB13D86A4AA68116E26387B93FD6738779B34FED
311
B8E517EDF2BAF28D9BE93A1D3A164320E07D42E514725C29515FF361754213EDE06B079A2E99EB1CA82A02019EADEEB87B9AF005BD04BBCECB14AACD6B24EFBE482194A97DD32400685FF1FEF1544D1B14EFB1E7F08E6D2CD2AF52DE757F35F5E62332EE88EA26417AD5C3E0E319D68F25414E6D672BD4522B278C57D18F01
311
13921C71D96527E091F00CEB15AE23D24667369BD3CEFA10C7549D930890BA4366F4EBC55F01F746109F98ABCDD5A3EE06619C6AD78AB33E48E4C9BD21BF7478B385EC05C4F8987E2C1BFA0A60EBEDAA0AE0B015C2720ECE180FB6F2DEFBEB822D96338C9B63822183BBF52FB664A7AE57003AABCE512BF77E7E31BDA2E739
311
AC4C131657DDFE5225E900FB56CC01CDE808FA4A9C9DA16AC679656BB64796283D89812B8F91136AE18EE5EBBAF47A73BE3C153EB5D4CD491B4BFB4FE690A4CF9ABA08C0D8AA64220C438C96EA6CA80B58FE5761E697B3A292EB9FBDA502FA863E49FE694ADDFFF9D62C520BDD1A22014147A0903A05B9B729F54272EF8393
311
1FEEC057BFF8C8055C279EAC5C0011804828734024F6CFA319C9CC6867C727184465CD9BB7ED386AFFD96B294A85E3802FAE47244602D8273615952B98C4F23F7EAE4463D9D638EEE374A20959E0FE519C4CFB0FBFE5DD80C2AA3F9DB961D1BDE57E67C9BB47B77FDD74EE3094F5DBBE3EBC1FBDB7393F5116263009E2EFE1
311
AF9A221B2AE234C902BF70E9F280ED23E73908361565964333A3F01D0B006AF32FB21AA1316744B489D5A198E85299241735BE559675130955C902A8ED761FC0DBE337A9F91919AF5CE32AF902ADF9AB2615E00E8A94586BA1A90839B61832FF1BFB76D2EFADE6DB1BA04CCAD3DA649E7E2A0219F592E22F2AD54847EEA8E4
311
2271011E9074F8F3DD9FBA6CDF88FFC9FC7E811AD1CA8F4557CE4AFC7BBEDCF0114A48689F20A584520C74DA8127124B767E2FB91A6B186246727BE63C9445BAE02088D58B8EFDC0F1072407CD9B89A13F6303B4A928F593AD489B58E6869325790ADC406036C591729FE14021F94B7796BB11848D463536A092A26F077F94
311
639F7CEEE2A724C66EC885F4A24F8B8A0AC321F8FD149BA529460FAA34E4663C02D41FDF80BCA222D42F0ABFF8490F4FA74C673807C2051D8E467B47B616072860069A9A303ABA9B319D58404461401B0A0F9BE5E1E151C14BC33B32ABE03DDE91708DFAEB15E7C0D593C86BB7D7EC17BE56E57975F077BFD5525F3A1A361D
311
584A75E08CF29FC7B44B2B3085014F3A5A14517377C3F6B8F37E59514C3B12F8AACDEDDA4DFC49BE5710101534CD6FB6DE15B50F11A09472AABA727F0C49D9CB906B158030065F48EB3625E010CEC1D511D0053474B11E6A4F01C0D6EF1BED3A944FDEC70E0DDCDC756C86545910E0DAE3BE3AA9A404574C2995CD5CAF9549
311
226BC94B4F4F0F5F9086F418F6B32346464610D8BC7391D3C3A3CCF04CFC1FB2A3A3170E369511868F14EEA4E5E438CC73DB1F3248AA94B6B2FF33B222FF3D1E7BF146CAD229770158063BCE4F5391964DF62F7E52A7BE0EEA829C9E13C4C147D6F93FE59E111DAB5E4594D6F3CD1AD375EE039930EFE5AF2BB2D41C83C7DA
311
BD8C659BAFBE8FAB392CA634F3D15C1D945DB4588D2B0824A4EC928AAC565557CA2F0DAA588CA5BE30B3A8004F7BF005E96CBF891D7F18112A3619FDF530DC8AA64954258E1811789B5189B49B4EB53F5F89F7D37523894F3EB57B373763C91E502F52CC99EB7BDDF933FC324C4FFC2561DFFA7339FAFDD0A4BFBE6D3A8FF9
311
ED1FC49898139864602458968913181918F719CCF5A68B2EE9C1FF050E34E63107003B8120FA982C21B30A874E4F5E4B38D5A8290C4B8D9BE48A0BE31EA995BDC37AC6DE90BA17D259DEF53605D55922FEB1855D915B659FBEB350EE0DFB2F9F766E1C84CC8964B75D08667445EAB966015F63A18A9E0A325C1B3DC628C0D3
311
CB60F767FA93CC65F25458BD23C3B312716E5F40E5858AC06EBA9AB14F95DB99147B832069201541D09A0D856E12C629CF32683760EE855537D1901988D5EBC156676C7DD51D7207CF3267AF1D76C2AD867315E44618015313A98B19941C696FED3461CAA9B5415F918556D7802EDACEFD6B2E45853A9735DFC9DBF7E440F9
311
319F8B6805A973BCCDC76C069A9144E51F187EDCC12FC31B5DEAAF0A76137199B106EC84ADA6B6EE697D4E6A96E007417F4E880E8B1E89B4BCE9D81EF611E2ED8F0C1A6C25F620FAFAAB656A7C42D464880E8AFAB0E0FC8EA38CA9A8AEEAEE3E4648BA4680270A89743CDD3E6C6CBF34B7B640EFA285ABC7EA0A1E28F3CC96
311
3D114A80123EE66D0AF7D5380EB41909B605AB4765B709B808590458157E69BA1378FEC4B48CAF6A730E3BE3C5EF2DD1A5EAF94B1DDE50CEB55DDFD7EE9A16747FA4B223359FB1FCC69E1194892BABB93A1D5C4E807AC0EA2E30180811E77A2291F6E7F7FAA5E0F60215BC6024E48DE436C511F0628B8CA189982D4D83CCA1
311
7D305A7E923C37941CFDFDCD93ACAF735EF5F0E61BBD3E6C41A59B242790D3A3BAC7064DCD89AA2E37214EC839820949D5CAA31E240D2948E48F690298974A96BA9A8432BC90F5071D6537C9666EA4564796B7AFFFA548077BEEA75F63083435074BA182F3699557397F71548383FDA8CA34D99B981E72835ECDA5DDDC1513
311
15173D05A21F651AAF8524E88209E2E7A737ED1045800CE3390050BCFB8BE588DF111617874C62575039CA588EEFDEFEFE319B739DE2EDC147092A262611E159650E787917885EF08F1F51B8F2D8A71D60B58B190FEF9541A1BE94BC19FEA50784DA1419FE4B0FB51B8D36B5FF8E1286FD8AF42B91E59A5F1CC4D60174E764
311
045FD8C57B18209B217F89A62252BD20BE0E63E12B8E8F029FE19E0E8D0870F58721A557082250D5424F7909369376E41666C0EE77CD87CB283F661D5FB6D0DA023CB67320A20DC7BE661E9E1BFE5463085C557DA1FF9BE835733766C3D139F2CF9E2208873AD0EB4814DE9E6BF2CAF81614D4D43906ED1C05A3265CABBFE1
311
92770FC2F64F940CB6B17B5F166F133C9AEEAD2641807C3E69515171DD74C4A85311513D6EC9530B3B601B6BA3EBFF3B5C3D2F7D69765141E345F75433953D013ADDF8F6AA7DC3F4A7563FE5C7D367937E2900D7EAD0F9FC9A4A1A9B5BDF1FEF08532660C01C5D6DE22199AA774383E306DAB87E301ABB7D213887F9869D49
311
42D0D71E94B27EDF216A318BD488D45DF84529EF575AF3C3938C0AAA0215B01994153E2054A0B894DA5C784980633AAD48576957CF4AEAEAFADC7C587368551C73DBE1E57C58AC713303A8BFC258BD04B51724459FF9E24C03A81E0E0679CEB9B348C0DC998FEB9C6D6EFA77D247CC8F92D3848599ED89A23218D0636465AD
311
1CEEB7DC140D7426F83491C4E8E8281C2FB35240918FFECE880CA2A42D70E8B20B34DF5221C7DB0CF90ECCB9C745B37A47E9B716FF7A97B7A252C1F3814DC7B1E1A7F72B8751D524EF7CAE45B0C73B3BE7D08ED39781B380DDFC9AA4A4749C9493DB5BAD07A6EA6C092FBD0E85DB004DF06B8C9D3089C5320187E4CE184615
311
8C7EA7DDAE8AD9AFFF21AA3A1026BB06A259845E8232DEE62811A4DA9CEAB3A4887320B76E2AE5615EAB7BDF738CBDD01F1E64064BC13D9EC53576751CA8CACD58B3CEB0E6CA585BD089B2A59B9FC101403387AADBDBE70586B93D64BF3AD4453EF9C3B6A93817E8346991798601344F79A83C51F3D50F7BF2683A3605F51A
311
72449489E0EE6169C749C60B1035651103AEE24D24E51A759C840DD3FC6504DA6FE107510E447B43461C79D22970B75DE5E1BD3007D1AFC619A4A4A69B5626AF5E9B8374E20677F77E2F8E73DF868E8BEC7EBA7B6A75EEF7205E1AB9486CB642741D6E03FF13FCCEDB1C4AC129886268B01CDF4B124AF797CF784F3C6DEC97
311
A17D4B558070A0F1C04DA4FF9BDBF34159AEFE958479824B3F58EBD1E19088A2AFDE501B6F2052368A3FD0E650A179EFAB1561E1D27527077136E652676C3670F42DCB3352F48F6BC86D2C3B0051727E41A0A4DC6CE2BE9D47F5CAA2935A3C0539AF080665997194ABECD723B08129CC5B6B21D2E7D54CD4D12610E7E9FB83
311
06771A89576C7A982002775ED44F3F744CF21EEBB27A631671D921938AAEE3EB0D19CD1E083727F607823E817BF599DCED5394E37EEBC2E88782E638920CA641EF74D4CDFCDEF06F4278ECB18E31E7E9876F2D783C8BF429C75395F57E98C2B495A3DA077EB3AC3C158608B6B57FE3EA48484D9A480096FCEE0DE880950E7E
311
5A5714131C5C41AAA29FD19AE81AC145FA1B9E85C7169A5AB837B213493DF7E9AA4B5FBF9CDEB36EBD21EF1181B7CF7366AB2A951D01E37AF4EB835D1BE8C117CFBE7625D2EBCDB0B20C5A4B45CED0BCDE3EE8DA9DA78C2E21DEAAFFD1197E463C33CC6A80FB785669B856EFF7A8CCCA2841B5A5369173320B1170C368B274
311
8D81062EA0296E5E2D95D7667A4A46D98A6FF475C76AAB0A8C8D45E226FAFC9FE0133EA9F60111F99CA81ACE03A1D14C89E8B0D69079C91464FA1D99E651D0EAF606F345C42A8A1AA9BA391031582B96D5B4176A77AADB01F12FD298A75DEEBB2C82F0B8650E880722F8DDD90C56A7A058E5FDEF1AC93545BA27367C76F5D8
311
F9690CB6F8DAE141EDD7971F0FB548A2AE435F224D6E5954CA155512F7332029D5A1230854B79F258EC5FFDB09F5F6343A8EB193229B7F7E79B3E48F8E183860B38C8269D1B53738FF1E0BACF6AADA6D4869E9DE708E79B5DADCC09B1BC76F649731CFAF59A83FD8BAE4C749D66FA87A3810D4D62FFE826FA400C0F325D2BC
311
0F3CA35F5847B82A2ACC7961745C823E4D863D54460AF792CE6F79B5C7A33B25C3AEA6CDE15A919B6367D781E9D44F61BF828672594A3E1D9EDD6DF179A81F27EAC05B936575D73E05C209DDD2115CFB705DF9BBF3C911589B3640735E9E618FC9C36A7326C82B2205E244C55D56FDB9D5DC93CE958D4BF8174D2B3DA54CB3
311
C09F2C2A6DFF73D23B2197355761AD421EC581284A7EF8DE2CE3497C0C804D49B41DFD6A7360844E5BEFFB495CFCDB97A4595911CDBA623274CE852B5E278AF0BEB1770E9D37CD977B2766A7DED0E94B840E1E95E8C77DE5CB6354AF7871427C28ADBEEF7BA0A28E19DE9ACD75F379FE373EAE6DDDAE3834692F9C2B03B4FC
311
A8FCA9ABE8EEEBEBB725B88A7C90941E850682CA04061A7DF0CE82ED49BFAFFD42C309818FAE14755CAAE78B0F73243ECCCAD7DF58FCB9CDFAE7A4D3E6671A613639130D056C8383C8F4FCF4808C331E544DD26E4755D09EA05253B3049A1E32587CC25D72E073E2CD96D04A71BBCB0038FEC3F53D254199C3CDC67CD66640
311
269431860225392B2CB3ECD0B4498AAE78BA1994246AE1EE78F2EDFB79F6C6CB6B5E279C4D373FBC21CB2698C9ACBBEB6A4BB6B39E16AB0E421CCBFC7654D81ED86022F9BB522146F9F4772E2D0E4FA70120C95A85A417BF5078B232F4754363EB1750B2AC2148EB46B1EA72AD9B4D23ADCBC589D70106C3EC2ABEEED84DFE
311
28E718C6C83502C28E9FDD3B09DA0A6F6F7B72B706A31C9E2A331EE70DA56A083D2177BFD63C55B11D8D949FAFCF90B23A1E24B9B5018B9A17E99F2890EC302F330FE7936E2C23F0D237EC8916F5166AB84B62A21BB0B950146962D754F92CC2C8877BED8FC7B7B25726DD19545392570B3A2C66B58F027BEF412E552D12A5
311
88C4A3CC5C3193FCB3485EFFF700D0B9EEC077754A33DC1FB9E25AF814628F91DDFECB667D3F7690803F38D13F8AE39353523BB08FC6760144AFA2CE28236F65EDBB3D5F59A57D612B99E3D7E5F8A851666BF9B5A6658EFC96EEB37A378ABB0EB3FDDF1303AF32C41BD1C8560745D7BD81066B0D6313359CF488563D3BA3F8
311
E2185D1FAA3EBA1397C9D0E3DD232180A4DCADB6AF25DB3AC3CC26589C8239E66E81547BC7E2F328F9884764CA37EB5DBE390DFC03A5246B456A7C3684C4377D0EEF9A350680FA9A077E8B2957B489E09AB1AD41316944C2254B5984830F691C93CAA767EECF976FA5647538830B5E63236A6F0365C1E0F3E327F24FE35EDD
311
BD7360B0F7374837409F7A6311BECC12B7026D4FA1AE204FA3F5FE904B1F420C7A9044AE58E403E7C4848E7DA25DC9EDAC79DD756FAA26B9EA83ACE8A214A2612A22AFA19DAE7DBAC5F8CDE1292A485F98DAC731A29FE01A3966E96BCB9FB5A4C8830E1B9AF0C54B87FBE221A097036E5D28D1F869F810C06A9BB0AC0612F6
311
9AEBAF893C6E7AD59460208BAB3A6B09CA4F6BDDAB8CF0D1F84B72487498395A70DCD754796E271099A567A55CF242BBED64696378BB6CF25EF0FCDB589F3A82F1116D010A9AB9FA4358809EE0C973A2B4229BAA876A70B03AB49CBA7FBE71DB1832FFD32F9BF2C8E98075CACAFB36921235D0F552B6A67E94E094097A5D7D
311
F681B40623DA535ADA7A9AD8E9A62407D7C9A5AE51D62A17A83A23728DE86BB56115804D3F2675F2C6B87541A0FC497BF0CA86420F558C9859EBE9FAD62747E323E3AADC03FDCDDFE7407B09DA90B44E3185723C5381EAEF589765E2F7A099BA46695BAD60CEF3491B8A171F5F56444F7CE9455312C3498C74173AEA0214EC
311
029833B34B650CBB5A5508D5091665309642791708ECF27CF11DB3D797D6CFE474453BD4BFADB768094B2147814D81C7CBAF8228DCAF5564B5891F5EF6A860EB2E323CB82AB868D8EA048880D63B0DE5341F1B3D53297B928A11E15F25E5148990F710747C3509ED14909C552EBE3973246FCE55D00564D8310BC3EBC5085D
311
08D806799B77D6C57FDF5E55837F9E934F09C03C729271B64F12D0A9F9E938107CAF7BF1EC8CF1BB9B42363D33070F4CACB425E605DDB0A34A12BB936DE286B9887A4E2E558F0886498BFF49C311D96C277CF6A9FC0D75AD0ECC5226D7E0E3572012E56D7FDE4410CEC7A6D0F997F225A2055B8B92E3956E875AE4993CB3D4
311
C9063AF98FD45E1BAB165640A43439A2C9181A7C355B297C0A0CCFFAE19B6FA3C2BA238A885FBC98B8F6DAF4B94B97304878DF4D8BFF6A4AEDF79E90ED4E68F00CD7299F4E0D83E35601AF0CBEF18C1E870E74758FA91F5131075004DB3CFCF09AE1DABC11957FD9808C92E8A678CE9DBE40DDA0E0D1D505AAFBCBA208232B
311
FB6FB3704E8985E61ADE53DE74152F5C7DE74B1DEDCD37DC3E8FB30D7EBA8B9EFFC3606BF90B8D438279CB7709FC7C00D327F41817EEA71CD9E49FE9C8C9A81C70915D9F0F15958EC5AA4C3BBFAF46986B90F188BDB24B89DE3C6F29EC3E6F66D84856EE96A35E657CA41B41EFD8DBFA16AD6E91439EA92B40B21C053249F5
311
1AE50EB0B24C770FFAF40DF12C8436366819C48E36547D4E7B72FE2BBF10828583057814A668BDF183F6B2E58DFB151103E56303E63D00F39C27C4661605DB644D19175D02E3F0241E8FC3458D17AAAADB117CE9EEA690D0DB01E634878C04C2C9310B69FCAB831151E3AD293BEF6E46B0ABCECB50F5939B39C613D41E81FA
311
E8D34CAE3C4566B761D37185FE864AC32FCB71AEF39DAA5BAB88609BB980CD2F07A8F941653B529567726E2B2A58D079DD57E1E5E31426CF184A04D7B03B985F276D47406AF276FE32E3328BA866EB1FD39BEF57863A317634AA5FE467409B3873F5069EF0D71AF00AD189D17BA1974ECDB2D623E9E14086386A6AAB580782
311
5C37B015BFE892AFD154920EC437EB945D958E18622E1E0FE2FA06557CE4BB9BBD05A2D40E774DA2B65473791E314B7D6C886820B2FCFE4AA272B3B8B15E7344A145E8AF919B5454D89D36D413E87211186BF6F645E5EC94DCCE8E1C799022E4EC9BC86D7A0F2AFB1FC4B2CE48F84B3F49ECE65BAD24CADCC07EFF39AB06BE
311
9E6B27A059938EA7208838455383DDBCFCD967DDE4650EF92A14FF933C975DB20BD7FEEBC4487576485963D757D16340D9599FEB362F775F38CA4185A86F74B629C81B133644A3B18FD056E997E0734F9BE26D11C0AAFC669E2AC9FC41D281F8B2E1C35AE27BCE05F3DA295488096688719D974DF1B5D182DB7792288697F8
311
763CFB43562C1CDEE11C4AABD5C22B6E33F6F389CFC3477C5919DC0D533F8A7A1846B7ADB60ABDC26C43D0CFC8910B7C15EE22675BD02702ED39DB77A87A192CA7A543E6205B979B9F5A6B512A3CA799E198B2D5797C0AF8D1D872CA455D4D431A7879D4DD76110B5FF7F4176B54477A9EB5E4A5D11214FDA585F0382751D8
311
E2582BA5D2075053298FEB8F1537304E32CB22C2E2B693DC0A760B1DFCA751BDC445AFDCBB12820ED85F6D5298933C7EF1211E9E057684056CDA3FEF3BB6052355E162DF27C59E965A8DDB7F9437EB72CDDA3A090DE65A5B2F50326247B7EC67B73ACC7047FC9B353D6EE990F772207C6EC52B39DC2F3C0754821DAB559F7C
311
1809C7D0DD5B0499D0442E0A6E391B3D5DB46D11E731E6794EC77523FBDAA242ED67F9FA1FB684255671F63C9BCFE6E7E896D51001A6113EF2298BA494E0B0980D1FA5B9D60796554C02256B1E0345FB7C6186B6A19D2DCA270416262845FA4F42DB5D9B0A0B6F07FCA2E56C242522E001E0CEB734AF310FC8BFB57E38E03A
311
ACE93B3326A2197891E68452B26A6307FDABFEE0223D3C03C3C73D2D5BC054C8311F12004CAE488E5C29287F8156A2CAA4AD0D7BE6B97264E4139F437CE73ADF52E5134C52B819777C18B323A5924E4F67AFD13B1CDC3A61793A79FAF5C0CEB718E441071E797C6DCCB9EFCF7E4A1E9F3DF3C2F9C9E8294E9586868788C972
311
857FB0556D7A26941A7EEB9B580AD78EC40B85DC906B4120A563CA3B87797ED612D3B035962BB75F6515A393F4CB057F564CDF54F2E5A024514E6A1F901DB80C7E70B1FC05E356A7E72FABF4775B3E3FB8F70A2A8E7B6A94542BB304157978CCC999E707A29CC795E67A59CC546A5D47B368954CA7B6E75EC9E1F6FC73CE3B
311
4F71F8CB1A6B15923D61EAAEB14626AAA9D04A26EB9C66CD1BE86CA31A5D8703DE04CD1EBCE4F5CCB62F93909AD11E55799A781A956ED27D3E738F4538CB04ADABC7DAEF20BC35BA6A90BCC1DC61BA05F20D8832FFB9BC9B15E2DB838A0AFBB7E0C82A562127E0446894F427794C3037186F622BF24DE1B00AA10A23BFA47B
311
2A180D6DA5AD6F7326FEB8C100C2D7142EB2A0B2A9D1008A09BA343D70E054AB69E2A7EDB783CBD92537FAF4A44D1296AC2792729104B3276C276C951D0CF3CF3F1E6B017720A7B8505A5FF9589365979678C36F1BAF759EAF57C60F1FF5FE9DCF5F8E764FF25A2D06CF25117A8FED51884C13B2B750DB0E4F5E3D64124FCF
311
11F0AD8F1CC3B3DA4B38ED22BF1CB2585EE6BFEBBA63FBFD44F9537B9B37BDD6B358720F98A8125AED4349CCFEB0E135F19E208A04CA7E2B10711185D72E381F448036EF57C9F874E54A971CA37A639E986AC0226DC5AA00D5B14FEA9192234B3DE617814FC221C92F33F1D392F297731B567FD98FD91D989379AF567A65B8
311
ADF177591DB90FBEA99BF4ED11B16E50A0AB1DBF1156D034BBE04D69D08F939D8E92BF525A1DDAFF80ECBC95D8F45D3FDD289FD23F7D8B452F8EBB34EC082DEEE68E18EDDF072060FAD2AB1504DD4879BF67099FC58F6E9DEFBF645D16334A3E9A127C6F1AF6132CF287E433B43A0EE93812B4AA0B194E03EE3FF91EF9C6ED
311
0074A2F6EB18A96A7C9890B1FCDA1F2095E944DB911ED54C60DF16FB74C8CE9BDC7C54C4F14078CF73C2FFF1F1BBCCD7CF64F71407EA1683DBC410D226627F66E509060D5C0AFD611DE681D509DB8DD12FB1265B03C6F5C55FF4C30BD94187FF692B4F152982502F193098A789526A038AB529A52BC0DC4FB6285CBAC10A8B
311
8DB75DCD9BDABBB221E27D1F8DA9F5EE5926A1C8AA9BA9BC09239C6A7F12914EA3B59EFF7AAEC3FFCCE56F1C5C2980AD072793527565E774F4631DB178CEEC691B1F367BEA0CF2907E1D6B854D527065979DDEF002D8B2ACEA7CE21AE297737EDE1D45B31233B73FEA35BCFDD0B09721FDBAF6432681F2FD10C3E9EFB246FD
311
6E854B344ACC9D8A0EEF876A7314B49B6A499FC650B099D650DBFEC7638ADFD245E2B7839DA5AC5F7D5623FC0ECEEC8653FC9B2BDD1AD4D00A566FBA7186DD3C9CD26512551637498CADB950FEC71ADB9A5524285DE328B8EC7EC75D2345AEC6A27C42AF6D9B92155315C80DBFCABBB7DA0FAE425C4FB896B15C9BFAC4FE67
311
DF5A23D30C93DA4D8F36FB15D100050DA6062E22AEC5F4DAC4F6FEEF97AE05DE63C6D38F9E068A20BC5E3B6BCD75320C5090924E7F93640A7735B1A43451C2D91EE62C6238B797349E59890AF3A520DF4A87095F3ABEC2E61F0593416CE46CDCBE0E00E2523FCCD04408588B5B6C9DB6459C786CE378770B54F51DA3A5E1DF
311
2A3349BEAAC234A6CF8993B598B3B25B4B113E353A4D750FA7534749430F3EBF2512E7EA3FD43C6AB9A1F765A58463B306721A15D224FAFE8C6F5E3432D57EE697DA0DD5A9D4866A8BCCAAA9DFF1F06047851408FEC060471D0E3EB86BFAF46E4B5E60311DC3E3CEA147C75CF971BE74689507154FF2D2E92F15CDB2B9182B
311
11459FD8ACAC5A85F174BC94A7F4EE4C4F5CAFA7C02E37BF0BC77B7DCD0C047BC316F562A01A441AFA7931CC84A28CB9F4AA367EB515778F29BFE61195FA671F4352E5E46E3A64773F1F76EE5EB36D7BCE9BCEAD837A4D77F8DB8C92AEEF6711920D7C7D0F76B0FD0EB7AB83724CD35BCA7D36DDDF5FBB7FF6F04A91F3E2BB
311
3B8F1A43CD659639507FF6331C5F697BCC782AE57D757A27D97F1AB9E0AEDB43F92F1B2AACDF5FEC8ADBAF9F814E2027003BA2F9E144B1938A7A04050AE5D953B82C45619165C813A10E76DD6906B3C16438064D14CDA713AEC420034613E1AC7241904A49FBF87409AFB1FCB9B72FE7933A87D8FBEDACECE4EDCF6A4FE9FB
311
94D5DEB74FAB7CFEAE17EE965DF980DCCA2D04134994F9A2E94D2265DA4FE6AA7B7AC15FACAC2B5ABBCD7DFF542C5314FDAB2E1B9D8B65220B8E2B638BE008E8DCA22678C820C5053664D15E89F2D735B51A84955E81A443545E9FF787BE0FA700A76D136C27DA179A7C6E8939E01BE756E19CB292798063D8B97F44E8A27B
311
CF3A614FEB8BE974A718E86F7EC99B53CA35FA24F61F2B07266684623A3D4CF073E511F3A10A8FDAFAF0078C577F4DF9D339FE7862E5FA47CF4344209E5BF76D783B1B48E152AD281B15FCB934DCDA49CEC5706B1EE8B460F435324A5CAD154725E21AB8044B75A557A79F6C807B9340AA3D92503E866F4274412926C8C504
311
E4D5EF8C0E68DD0B028781A6B4054F11CF18941F101C57CCC796773ABC8DED9CD91FE5788806C05E548895354AEAC96546D55B0E94A59F148D061F42AA398D822CDECA4CDE79E13469BDCC44FDC990F366BA5978C15F97ED80CBFD73B0CD9B8B83A4F6845BDFBFAF034019473FB9A63BD55D3A4A7284757071574029A4D016
311
DCCBE95DD679EF3C4880BF169422F8C89B68A988D2B13793CAED4F74DE7486C72DC94DF46B8E93D8E02EFCB1FF9B3BA10C8AE7F653DF94F4AF466CDDCEF5776687F7C4C14B63E4EED1719DC2EC482D7DBCC7AE518CDE3D5FF86D39000EC3673C0044E1D308BF05F74D1B5F033A7D1BE7F74BC55BBE3E4A20F920946CA0271E
311
B17BD2B80E5660ACB8A29A79F5E4BBA49D4D945B6EEF4A7EFEAA65E5555BBB57A7E15D2F83C69F30BBB978D2B39F1F26FC097424D39BB33CA3D87ABF64E307938B685BAD44F71556A30B7E712CA4FE600613C3E554B69ADE949A7CFE214DF1FFF05CB82151EC6FC31950239F94CF7AD39DC473F6EA356E5EC2C4EFA04383CE
311
FE985A127484366FBEE3C0EC4FEA363E4F6632AE781392FD45D67B63FB8DF70E82734F431FD3443172A0E30A83D60982D55FA6A2CF86DBA8382502ACC6CDEF3B907982EED1160E14863FA242F9757347E1544275CCDCF71ECD5F8621CBEA326B8BA884AD7F825781923E66971F04010D574C541D8427A438A37EEF8AF88240
311
EED7362C953F5A81DE2D56109CDE2524EA0F5D2F87308C0C47BD97AD605878AB8589E17CA83930CB5E0DCCD75853D68B1AB136594926DE426C367428E9334AFAFF90ECE221BB5DC9E5BB53D2CDEF954EAA9CD814F0E5725F1965DD458E5F8487683AD86B9D0076BE3EE91EB1CECC5331A67A3F79D8B27587C12EC2A6A70474
311
749F27B4C0BBAFB94B34189E88DC18964BE4121B9137FD516C7755356E50D6714E31ACD222621EBBCD1CFF81D87479056A9DA0E0B8EA19D24CF937DA89F78E8650CCBDC110AAB6C4E46DCBFD0446BA9E2060E81F314AC2031E88135E5476AC0160EF5C0DD2EEF1B8B5CB2D198BE9A554A9093B5F7D7E4B5407DDFCA1D9C152
311
FD97F55BFFFDFE802954DFEC8995B983E28AC92F1971E28F531DC407A1280EB125F64A72E617EFB27DFBCEDCDA2D6F2BDADA36873EE46B9BE1782998C63DA7182BC383FB6FD15DA472B175D7E8B4FC88F38D6E07FEAA3FA3CBB8F6B449ECF14D2175E5C5CCA3A42ABF24CA6C9395AF74535F4DDB38CB84F56614B0FD32D7E1
311
9CA5CF988DB4449C40E23DF2B16772594554579094450F56F253CD25EA7F77366FB1CFE79696C428BB64D5A41E986189427E5E4D7E2DAE3D5BB4972B3DC44EAABDDDD63A2264ECFA5C786EB0EE1FDC5BE34FA0F08376869FD1E61EA06CAE15191135445EE8F0394161C3266A596AA035572BB0C8876180D8B9C77D307DF9DC
311
DF7365ABDA6F3A2366436457A4DFC1F259666569A9E4A79C817BDD5610E5200FCE894A358EC72858D50EF67545DA81C6FACE3D457BAF70367E1E6BDD9A952FB4F56247F58F523B97E640246051A72F79BE42FFA0B3187F63097F91C48B868586F714B0EBD5A00A8412C1236E1298F60C72BE6C96B82B404CADAA304AE9F303
311
176B14BA53FBC2D5E86377E35542019E24D97B96A49B2C0E5006E7795954DEAF5DA58958839043C6C70BD3B1B33B6DC5C31316D8A6923F142E26F6711A2258AF977DDF1F970ECC4F1F2B434B96D81BEB6E89BF3BBB3C7C8CC80505070723D6D7D7D3C8CA27CA164A26024FED94B12A86031867241DA53D929636DA600F050B
311
C40CE48B8BA03D69224720DEE2ED2127390BDF5E6EA64527BBD4C4C63FA76BB801FEEC0E61218EC98A8A86CD8313781617877E66692839B9468CF4DB8E50A73986E558E309C0D6F676F921BE02F1185454DC75B111572FF9D27D85EA14C05AD7271225B391C4275659CA4A43759D0BA44639BE4C30A84DB7F67A41399FB95C
311
BF923B1B1672ABC807C1590557FB18D811983FA97F5E609516D62281D38B1281F68FC75528C35E4CD7DF0F7DBB5E5DD69C414EBEA2F4A5B241B996BA77AE6C772E367408C633EA3E438B68563EA8BE7667F3A4C4FDEEA52ABD78A2820F443B7914A15F180018D231E64519C56A12F6CA7C8DAE18F06F6B769DBF92329EF6A5
311
D18FBCE600F36BD8E8198DE5CDAA96181F3A756EBA5501CEE58F497EA4F418A2B82565B9BCC611713C0B708CCA1F398B78C5F7D03B3437CC18F13061F55C7BEDADD5ACB1DB0E36D3CE47FF6EA1A563A57E9649EA5D14D1A50EAA457463381C073777EF1600607BAF6428A7DDC079D47A204EF1E1F1F0589FB054D45E02CE62
311
3B3823C317C601E589E22B1E88B448524B86A82828E32345EC18AE17214B42F8C41C6D428016D9BA31DDCB47572561E5A402E5BA4FCE55F78AF7268524AA04130F3A20BA5D1E9F9948EA48FC8F5314FDB35E21898198060034ACE5E3E2BBCA34092518F275190AF65F45867FF0900AA4B81F25427414C372BF51DC29AA855C
311
5428EE1EEDD6B849AD60F6E73475C2D2523F8A2772C840A478DED18A8C5C91B085F255DC4F54EA7AA8947354FD17ECF8FB3B4A0DE7B483CAF3A1165EE05BBA413E5C1FEF3DE1D6B8F2F3F3251C17D9FCAB48A9AAF63AC773A0E413BBC46A9ADF84A566FC920E4D8C52C9769EE3301CADEEEDD92B312E02E2A7E35B7F1E7D20
311
3FE5A7D75578B06E99D0E46FFADB8FDA17ED8880390DA29094202D6F645F76F6F96409CDA05495A96E84B04A00D1A6C6C81D7F3DE9376E828CCF144EE50E364ACCE7237EA0BFB5607ED1AC3CFE73794E5B61739D14DF1743441B1AC98F00ECEDE9E7301FA29755FBEFA68C91EF2B314CF510537EF1ABFC9A762496280B546F
311
5EDAAF8A5B387D469FC9A878A92828C88608453ACEC6094DCA54111E7AD5B2663DFE2DD151B7F123B9F4FEF8EE36AB125FD7AD52A59B1B765B3E3F73E3F73DEA93875004D2AFFE3CDE9493B87A9904DD052028949041A91DC0E1BA47BA714343FD5B25E0A6A09503AFC17C790058A836A324FE31D7893512E28230332F1531
311
81C1E018E1124EBE1BA262AA428A518237D1EA7275E48C5C561BD19ED6912EDD8367DA0F31E40EEAE9683DA9257525AEA7B632B97119E17145A90231768A4F3B9120FF32E8319B015E3CBE26F1A754177D8185345817C096B0CE443A955D13AC15E1FB5DEEA0239EC32A3C92241A237B0B02FFCB4F93CF2B02570C8D192E2F
311
2A68CEEB42F12E6F8CEEFF46C251E22B4341C56FB08CCE550E7A9D6F4D6564B9EA52A83D5BF2C6E03FA19D2775E15A8A7ACF30A13C259EE7F5EF2AC3BA354F1500E1A07FC63FB4686E2F12EC69719F9ECF5FE3F35598DF2CE944008CE78F0911BA5BE5D0A34E0098FF038669C26030BA9B300303039852A8F6F496341737CA
311
7E0D2E3AAA36DE0A70AA7D9CA0D54D9AD84B18A44C9E625475E1C97B93BEBB38DCE7D227E67A2D00F531436136355F243D1FC0D712C5765754FA22FCFFAE97919161F46D6E61ACB37D83777B385889770B50765B127768443A5C4D3A4E35A3151111F146B7CA116F918A049F1C272F2CD7976C69A0068773451659A97E0F4A
311
08FE604C3FF6CE7385DB19F4D3ABC8A0D80DA8A42096AC377DB49382B36E270B6FA7570188B4B7D1DDDDA82ACA487CCA5D38BD3BD039ADBAFA4ACFF27809239B722081E2EB9F145320553D183F28471C388BC8814E5045676767AB58A8E72D1CED2CA731379515D2E533E4CF0B39DFC625F97AC4836831A4DE330E87A8126F
311
A17EBE583D614E71E22A8DBF2825599743E0640037303E8E1B1E8EA4E1ABFA4F62907B5E4E0E5DCFDAB417C36C6848A2B8D15F1E505434C0707E16B1CFC2A1C36A42BBF55734F8F4301DDC2A5110CEE8C0747F69519265012A2174BF4E955ECD4FDE095A3ABC70536B7AD0B9D7892F81287D667C108703C9B66A221E9A0929
311
D030008F77FF6F5D2108EF5706FC87A3069B976F7C9FC3239D13D283CDEA83597461079FEEE049B0F392889898B7D87D31F8D60ED7B56B91823A8E4EDDB36C6172ECEE42BD42B12CD67994FA0F0DFAE9389356F4CD4425A4B8AA55CBF7ECD585C6A2C2316791E43D5C06841ADBB226A87FD61515FFBB0167B74E56BD7F3E90
311
A57A97FEDCBDF483A0D6699A8C0849CAEB4947FAA90D8E332D9DEBD9F4738C37DA0CAF9CF3DAA68BCB67C420459C7A64498D6E848E5CADE92BB6901F607AA331104A67F7CD650EE169B1DAE94D2C31C2F993632259B6957E246EFE4C5481107B07118607700040E5812A2A2A38DA0076875258C753F60E0F2662C748EDD5F3
311
F3686B8FC3BD6FE631ECCAA1E8B1C1E565AD117E54893E79F4672E32F9E46B2A183DFDCF3EECB4D4D077DBEA0DA254D256045109670050129E9B9B1A9E4A11344D61497A992778095151510C4BB7EF2009B63AA4360635312E4CF668B7E0D3D85A8688E2BD83B569439892ADB63461930D428E0DE42E4AC57CE48DA5CC1449
311
530D8BD3D6A0F08DF20C8E8F570F2CFFFCEA286E30969B4654D498A58D9DA782E19FE3F002181838925592C4A1EF0B332D88B61A92C644547BED490D3A42CFFAB70E36D961F694F6307F72FF15A1C79D5B1B5CEFD353D9E2B52566DEC8F8F09CB3E8359C0F68EBBB7898243E34E12A015B2685AB303C04D3A9E00671FF3DFF
311
0A184E4A2ABEB2B666AF5B3A209C73D8EF29DCDB069C9F391EEE9DD0F74C7BCDE16F8F02E3B8816122BBEB50665775B600549D8BB33A54A6BF940C028118BC6878C79958D6784F9DEAA6E26748386FFAF8D0D0101E2847B6563F5D8DC1D78F787BE00E2C941AE12148D4A81599FE8F68D4DA5CDED75530ADE138240300EE13
311
B0FC13A1687FED6774662C05A2B7DFB186732F0D7A93545D8B0A6390AE5054D9CB582DA846D7A061B3358B45E2B52DDE63E114397EDB7E09233A579155D795BE76102CF277F4DF8B188C4F2879BEAE3C08347124BF9ED23B128259FE107D31E34A652F090B30B39E0D9AF917B76A2806135621A8A60681F16AF216514BBD02
311
711585B5B1AE823F4B2D0369EA5B6BCB863072727FFC871CA6C9AB79A814D989057E9470A3D238BC87CBB4A0EA49AFE2B86F22E499793CAA9047080450166BDC357524561E258C77CB697F1ABB32562CF87C3B7AA12F911EF19FB3E5C02222E887D08202A60A17151F5E053A86B437771088B4FEE14D652C43E8D939995D34
311
545E12E2FF93D4E366EAD25F10CB7DED141563C3D0C447AF06078A91135FD4B9611583CB4BF3BD167F2399CEAB0E0100F8FFC305F00F1711717173138B4B48C83022295DE657EFEDD97F238ECA80F528AFB4F8D67AD4E2594B9A3AA86D7487EFC313BA95745C186F0CDD84CC12DC9CB0424B42203D351FD9C0A3AF10CC7F38
311
8E0329279087386421F194F4A29464C1DEF7EF8BE515E4A199DCD5B909342598D8FE6A231F71336248D5CEC5454455C7BE383B3BC7B260FED27F703FDC39A170F3827239102F59D4DEE7FEF82EAA1A5E4BA94DCC4CC44E7E2EDE20F24244E4454369D2E87C3F823F193FD4FD27E1C23984B01898D15ABC20711A8A55805495
311
1A6AE280096BA36CBA439603B7B0B4C45F248C14B2383B4B5CD8ECECE4FF859AD4A6CA2326D020EF090F4041D28DB66E5256B56232CC52829DE8060BAE6BBF37D4B7469B822454FE93210A3E8D15E69FFCF01123222611C51C4FD0A041A0CFA2471CF6BE38D2B20FA4C3525B5B8B586759475CF80ADFE67A284AC24651E52B
311
8E683D24C2622642F27E7C3C22783BCF63648BC398BD6CD0D9C97E7E7E3EACB6126DB7A6C1FD9F1031302EE67ED96F22B77C7CA0239BB324207559B105E4693EB26EC46182A92C9C0DBD24F29B31C5C5AC1F84300E0E17CEEAC15F5736FA4A98971E2F1423BFCD68D4BBD5F86E74B40A369F39507C88FCDB35D2DD8DEBEA4A
311
F999E23CF2816D204200DF6E611781B9884C1AC8888B4DE397320472959434323A5A36B22A8E1F721A270DF3BD65E4A31C11FF048AFB0D8B7B6881423793963A23CFCE935FC189ED36FAE35C46DA3574C979E4394BE52084F3081837BE033396D2EBD80F1F691B273F660D2B32FA27A33B1DE4ADA5F0FA4651511102DFA410
311
DDA86E065272CA314D5249DF91B06BB92807B28EFD54F08F7B525252782CD276DD02E6B0319B13DF87B1F6361AD6B28FC0D711CF445429B9E5A433CD493051C49A9E03DDB1B147D880253514A5DED88009018620EE229101C041950E2D8AA8E1F5F5438E0C0C0C60EEDEE9E3E0C051948C69F84BB7B2A48A1F3C8EB9E68646
311
87F4F4F6F6E2FA87608ADAF9C5E117B7C1A737E710769DA1D15ECE6A84502AA855398712D5FB51BE92E4EF824969CE18278798AC303C2C7980DD2500ADF8FB1E6D6C2FAAFF9987178923334A244758BAA01A9A1B70FA5097D01E1CC2A58DAD0EC94CE6430AA9B0C10D75E3C6BAC670EFBADEE1607739CE0FC18A2587E3EC30
311
58562014C64219C69BC269082D5C2F4A659278D585755912176D78A1B641719C2A394CED495A1AC5D583FD2F5EDD93308EA7EAE8A6DD396598BDBD3D4CFED62D18A5BDFDE0DD5C80D1A89BA62697B131AE7CE9A6594138582F1B37D68F1749AC7CB67A70695D48A4A056AC1FBD4E82358CEAE38F54B95A9016F9000F9879C0
311
D9D131768635CA798895F27D6F1614F11F2838A83611AA51C9A3DDB539D42979C29F10465655C17BEC3E2760B80DCBF609198C7B171A531905F3EC218D696025975E986C6B4C666666787271F202805577DD5A3EF0CAFAF91B62DC4B2DB4217A7606282F31D8DDBC290593BAA93EA6353AFA9939B877978481E15CFC9F2755
311
CDC00C538F63A4BA3E80AE009B73CA0185687D339A507D165B74290D6EE46D5C58148F020C3668ABE9EF2F7549170DC80DB41FFC1D678FF19AEB10C7133832B104B80F691B3138F97A92D26E551F1F110400D45AC71A9B9AC41A1A1B1DAEED0B0810638EFFB511D46B121C6FEA0F38CD00E03CFFEB9713FE1F9C263E4DDEC1
311
60D0497FA9A132BA608584057FB15380825DE6C7FC3C667EE947D488A09898D8E939C4953BF4EC9836344D2CC6B2971B2A21A572B06096F4982D2CC7232D46E8EA69DC83722E267754D777F97F96D5DA74E1E75178084D0E70F12AD33E5F71EF2AFA599B2BEBF60A5BE475F444F240CBFE8143C334E7ED9150FEEFEF7EB020
311
C4DBED388DD1D6A167A76F3CBF119B578AE8CFA7736ACAFA4440A1C47185638A0D2F3EB5BDDEFDA958FB13CE4AA4923D5BF840392D45544329525749734866684BF7F8D9D54D892E19BCA9F829A0F8BFCBEEA6CFDFC61D74EA1A645ED7A1FF241739F15694BD835B66FEC5677E40FE69BD3F91AE402F036537218A401CB082
311
8604AD189E575015C6F3F6BBC8AC79CF6C70653847254B31551EFCBEB5978B9DB85D58D0FA41A9DFE9C624834AA04949D24B5AE6D299E072D152D12097920F14AA92C31C3B97E28B6C2E6E9C23D63043ECBBC0A60FDF5BD0C33C127EA8A3308B8B6AFFEB28B4455BF6E7AF4FC6222728357EB8E46E85053E6A8843AB23295B
311
F838ABDA94658FEF3F832F147046B4ACD6F7D48E8FCC9618582961C898D1C7A253C91BFECBDA6BA18A1FCF70755DCCEE2222F41B76D23CA98D0CB3D95F0CF66D57FFF65E2A90F5DF40FC3187621E981BD0BC1D992787212688976B94A8F0C6EF646624B570B78E068826F87CE27041A95C9A4871FF65CC17FCB1639629AD6A
311
9517000D63AC231F3D741CB8430777E7ECF80CE7A3F73C0F162F7E56AA71F4DA80A33CD6ACEE78E2C11FAC03DAFCE929B106F8F6B3ED2DC71FF994BD9CEF4E9A94896EF1B6E2B7B4978168BCF0847A3D2A4F1B0500B926E634B174548E9FBAD27153FB5FC36799B1E6C7C38A94E1F9E996796D7B485E635D5287A2AE76FBD1
311
1A341DB3F8F810385BB7296391973DC6C37C452A9305AEBBE0CDB6C566DB59FE60C8E94B1FD090354BF51439FFD1B48D725228FFA88C84F686F547107A7A235665A4593B7C34D748C1AC8D56DD5DA861EEFBADDECBBD65117E65851F90351AEB65F0EFCFF4BCFEF24CB7A5879699FAC437A7AF9099186CF006BB923A59E37D
311
7A36A29FD8D2CBB914A5E9D0A8FD212FBF796AE9A67958FF1D5D8B85F78F96219D4714EB919929241B6C018AAE0C02069F8D919961EC5DDFBFB7573E3AC8E08BFB7C8534BE6DE045B3CD63DBD71F7638BA2309CAE398EA3A7D8F98BBBC7AEB367EFA5CFA27A9F8F2F52FE878058E6209C026453F8E7E8A237DFC389E9590F6
311
059B397CFD65183BBF936E86896612A5B5FEE49DAC8455D026218AFEBEC12B3523A45B57B82C9C97E02ACFA1184DB18E48CF615DBF39C3CC6F0B4AE6BBEEA2E39D944E290302FA3DE33FA7E40296E2EF7BF1CD855BBECFAD0FD622BEE9746FC4FDFDE545AE6E3BC234CADF83A0FB76DFB145BF3828AE3436368AC24989454F
311
8FF70A177672C711CAA1A76107218CF948CA01F873520E7A2B118EBB161ABAD432932029628B6761590C98AB590C8C8C79798CE9F715BA696E839E9131A4BB68BE923F1747FBFF165331FFDD4D05997ACD168F12CA75348DAC04C7F509FE83898A8B421181AF492861CE81E4A2DD0A30850CFA95E05F097FF70F9E777310D5
311
84A75BA7018922E271DAB1D785671157685B7D383D3E074DDB4F1E44EF04B07BAAC75A062077C54B9752C738C9D804D402E02851F3F89605AF189738C18C021D2139EAF72513824E10DDD3047BACC8521ED7E98B257D1166903B1B08FA6F918FD7E162913FEC7D0EF4787E29C35FBA8C6E2C9C20E9AB30AE42CA2A01A090E7
311
D010C1B5BF9CEE2A304BF3A987FB40D836979B79E18D70F257DA61E808472DD85B82761825779D6B90CAEB0F23360C6F80A7D7D77545E95B3DFF0CF96A827F9B5BCECD2C9698718417EF80FEEDEE938AFF55859D0D540B7FE09435583A6F04874A0C7E8CF234DF4879722000167F5872CEC6BF3EF7E5A8CC8121E6A359227C
311
8A29C95212F9F735BC72A887D56B8F309FC525BFB4FD767AAEC4AEFF249CFBBD2DE1AB9969A6155C7D8DABC307E47324C1F916C7BCFF40ABA5644E9FFB9238D19ADADA49D9610F01ABBA57E4DFCBDCCBB2B93C8953206C91DE01B0E2651A6D6C31721915B31F7B7CBCE55466F6D70402788FA91D73BE4ADCBA99A35F17D6B8
311
3383704917D6833F0FA3CD45C926ADB8BC17999A4A0AFBCE2541F7B8CF4C2F5FBA611B3E626D64407CB32C122DFF4EF8674D6EDBB86C8F7C6A16D50FA685E2CCA34F8F7D1D8265BB0042E9D7F1F666F7BE5FAA5184DF58E12122A42EF02F461B3F369AC746F96528AD208512AB56844CF75B97F352DF7995024FB028553858
311
54F3798670D01CAC771AC3E1889EC25F61A20C1F8CAB46898817F9C47E2CDA1F286BF2F358298709FE567C91133E2638C8B53975E753EA8BFD3578B5F7186B7BF084EBA3F77BAC3132A5779902EC22AF2D2E79F42D324E083386DAEE9810D1B44A5DAA54513C7A71E52A4AB9257D975B621308FE4D2141CC3DCFE946C154A3
311
C1DFCCA7629EC69ACFA831634ADDA93C0388D2A9A2DDAFCF957C6995BCE7FBB6DC4EBAE79E63EB08E9A25F52F67076F7093CA545CA3053B5BF576DEAD4E0017143C5F759F32B2D6F145B52B67B48909B7C7FCA6586EE385A2189C16932CB6DDFD9152AE317C430492A578ED27B72D85D40C7C93C097939E1B50F4D67F05334
311
FE9DC362C30B7FF561B95259138ECFD9274C8D695C31B14D4EAA9F3D7FA8DDF652F8C5DEFA23284C799B7D94416DEE81E05A866302DC70192A5368EA65E1CED8BF107A1E2D3119A71E85DC1A7B0C1E93274CE04DD0F2ABC8AC7C987FDB002B6F81757B43502EF7A0D92E416494FAEEA4C9C090CD9557AA4D532F4996A272B9
311
4355C5A0E4974EEA9627476F30809B94D8D8D860062E02204643BEC7D0438AF800FC7E2B26955D595421E83C69E1A07E0E3122285835F014AD538188CF9737CE76D464A353FA55A001AB2526B84E985083693BC76FE211CA1D000679C889E3C009832C87E1AC2EDD05C302557422DF0800E316FCAC86978A371F025A6C7DAA
311
9F333E7BD160403A1A06EA75AA9888FF01504B0304140006080800C7031D4B28BB58AF800100009E0500003D00000035373843343644352D344631422D344346362D413739462D3636314341303938354244302F536368656D61732F436F6D6D6F6E536368656D612E786D6CBD544D4FC23018BEFB2B96DE15493C78601010
311
A34B880709DEDFB52FD0D8B54BD70DF6EFED3AC0B12E6442E2716BFB3CEFF3D18E26FB440405EA8C2B1992E1C323095052C5B8DC842437EBFB673219DF8DA659866649B798C078B48AE6410122242F2A4994AC7F93815DF85C049C8564CA0A901499DD886B2EB9B1E02448F358701A9235880C49A0119892A20C89D1B9FD76
311
8815CAD268CB5E0355B40B1E47F3E37A2020464BED06AA57CE8FCC20C3C3446D46761A2632A8C1283D07031EFF2AE7CCB1BFEEE916E406DFAC8E36FFD99A9D60A6944090EEDC3B670C7DC13DE86B6B2C5C240D6E503BB85ACD579D513F1B9F9A69DC9CC22AFA80C426D40AF0B21EA168559156B6276F0F726A6BFF04DCD513
311
A87A62CAD41FB24FCB2858B3952E3D852084DA25B9303C15687973CC8E8AAE11DF2836C38C6A9E765E8C1BA1BFB1DC29CDFE518C8B5A7655A4ED7E77291ABEB80DBD82EC866ADE1B8D05AF9E35CF09D7A061F38A986D9EC412B8F0F65E5D81534D9B231D1E5A8FE577A241F3A5FD01504B0304140006080800C7031D4B2CCE
311
BD668A040000E01200003E00000035373843343644352D344631422D344346362D413739462D3636314341303938354244302F536368656D61732F47656E65726963536368656D612E786D6CD5586D6FDB380CFE7EBF42F0F7A649B70E1B90744856B4970F450FCD7A5F05459613EDE4174872DADCAF3F522F8ED3B88D2F1D
311
06AC4050DBA2493EE4438AF2F8EB73AEC8466823CB62928C06C384888297A92C5693A4B6D9D9E7E4EBD51FE3A931C22EF85AE4EC6AFC38BF261BA626C9AD288496DC3F4FCEAFC63366845F7A10452AF41DB320C0D44EC26EAB20918735565582695670811A6A49643A49A6E9069FA4604A64B29016DC4B48552F95E4932463
311
CA888468C1D2B250DB4962750DF7CE273069CE8363F1FF4EDB00E0A21999574AE4A2B00C353B93F3BD4777B8A61ED8F604ABFEDD79CE56A2B7BDFBDBC50996E0ADDE16FED26223C5D30956C29BDF4A55EA686E5E58B112DA45CE67F76F4FA27EFA3FB672FD7372FC388FAECDCA5209E693CAD167BADCD272F943701B3812F8
311
A3D852008B1D2E32DB927B2F833C6EA95879925356D254582695095A3CE982924720BE5774A3CB9CDCDB350427D2DF20DA1B5532EBE2D5D6288D75D4F7E4FD9890A0EF8E3D93EBB8F8BA4758158EF6FB90A6F9520281C93DE7AAC6D24607DA296BB96018123F821A7D6A5C5884050C475DA4865442732C8B95684A50165CBB
311
3A32F25F783A4A480ED59AD7F924B968AEA50131F46303223E6A397B0E52976030DC1DCA81D7E7C1EDEEA42C19FF27635C505E2BD5198A599020DF50A2330FCB3AAF28CB0124108429553EF1B228802E2265D8F7CC2401042B155BCC7070F1E5C55F13B4A9577362CCCE46C32174E010C3C378C44841A4BDA00FE3A12006CE
311
11EE6AEC59894D3526DDE1CD59D503ECC324017F8061B7F162162FA62EDD81AE3308617770796DCBDAD2B2625C5AE8A63DE20B2C8AA5E95E76E5730823955956E33E705425A2187C185D36489A1B44D3DCEC2172F6BA2105C3546287A7194B2331768EBBE64F6E70A9930ABE0ADEA89E9E2C38523B810287AD67A54A039C16
311
06EAFE68F8304610BB9093DBDDABC0B2AE4E290DCDA15376D7E39F72B556F0B32EAB5D3D498B4C41ABADEC3A1434C422D87E8025A84BDCB2B1417ED750FAE4DA8976863974C577C7F902D3F156AD354DEA3540DE6BEAE2BEA52F7A2EB4CA43802ECE5BF2CE2EDC9347179FFB023CE412E60BE16DA0BE29B374988A553F561D
311
C04615DD35F7D2C8979F60E5955CE93DF29DED8AFA1EE6642D53418086C03C47C377910F75F7E8F5EF665F70B60FFB22AEDF897D119E8423C773E819A3C1E55E550599EE6EDCA34D0C86FD72057DF2CD46F16A470682471C164E4346D5306BF12D7D12D82CFF673D41636C347443FEB51B50D72EA171A8E4A58623A4A16E0F
311
A2B8B10A0D23268D87C33896EE8FB73305A74BF224EDBADFA0BD674AB354D63DB7BD5D83426761C077DE767728235446A552754EB93B755891C3C4CC6CADE37CF0E912A7BB38DBA010F9DE1282EDF470CA69A9CDA482E334C4A6EA4107987980B17E72F31730EBF88BBD39E7C629F56797A3C0009C2C5AE7951D9A05A02773
311
440F02EEB4DE396A3B6A570C72CCFBCD823B0B8ED3F1D5CEDDFED772FA70236C83FB7D86C385D570B87107535572A60A96035F8F7C6A7192F13007246BBE0521855E6AC46F3E27689CEE7D186A6FD679D98CDCAD13333E04EBE7ED6F55FF01504B0304140006080800C7031D4B6180134D5F0100006B030000450000003537
311
3843343644352D344631422D344346362D413739462D3636314341303938354244302F536368656D61732F52656E6465724D6174657269616C536368656D612E786D6CA5934D6FC2300C86EFFB1551EEE343DBA41D1A103009551ADAD40EAE28A4A68D9426284961FCFBE5A340113B2071746D3F765EBF4DC6BFB5407BD086
311
2B49F0B037C0082453059725C18DDD3EBFE3F1E829991803366715D474942CD30FB4A782E00C64017A412D684E454CE3FE28995203B162A6EA5AC94B66997D225E109CD63B0135484BAD1B3C07E9080CA35DB3119C11BCA5C200461A68A1A438126C75E3E230D40FF81FB3F03C91D1E3A3A0AF79FE28E25BC39EC3E17E4C2A
311
2D94A0833A51AF55BCCA7D88572FCBAC529C4140B020FC3AAFA886621DCED7EAD7664CC86024E806DC297DA1BB393E4156543457A4537DB8817349A70F8ACBF09B3EEE2CB2F33E91B65D60786E4E3B39B77E3FEEEF5650424525DA657FB8B46BE6BF064646F0A0F7327C0BC1BC1B4CBBC1C419FA3CCB23500007872A2580CA
311
AE5461865565294E4EDB4617B62FF579DF9A5B2F54E834076A597573A020912FED777F9B3F504B0304140006080800C7031D4B3D97790751000000570000004700000035373843343644352D344631422D344346362D413739462D3636314341303938354244302F4173736574446174612F41737365745461626C654F6643
311
6F6E74656E74732E62696E5361606030777436B03434B1D075743634D735713370D2B5747572D43577363630737673363237771302AACB4D2C492DCA4CCC492C28484D2C4ACC4B4E050A82012F90744FCD03CA26072767A4E6260200504B0304140006080800C7031D4BF86583405800000068000000450000003537384334
311
3644352D344631422D344346362D413739462D3636314341303938354244302F4173736574446174612F53747265616D56657273696F6E5461626C652E696E66558CBD0A80300C06F73E4B117FB66E451741D041DC5BF98480A492E4FDD18EAEC7DD4555D89EF28DF51A0B1BD8340C4DE7DD848B988C0ACF0649566493F240
311
8C508DDEBB99D5129FF8F1AF8CF5B9503E20FAE5A16B5AF702504B0304140006080800C7031D4B274ED6B337010000A20400003600000035373843343644352D344631422D344346362D413739462D3636314341303938354244302F4173736574446174612F636E782E786D6CCD94314FC3301085FF4A6489318E53902895
311
E30AC1D209242A06B6AB7329561D3BB22F08FE3D769B0154C4D421EBE9BBBBE727BF93EBCFDE161F18A2F1AE613517AC40A77D6BDCBE612375E592156B2583F7F4036385831E1B96CB4CC97DF0E330955AEC60B4B96A8D3B4CC5FB1891B6B0B3F8D43D7847E828B2425B88B16151BF630F1C46F22DC6036F8180D73C60F463
311
D0982691E9719AA4030261CBD442D4B7A558968BBBAD10AB6BB1AA6FDE6495492577DEDB89376959F0C3D542E8D35EA684AC32A0E418CC44E5D730F5974ABE334E568954325248AE4C1DF435A40E18066B345032AFF29A90CA0421F4B23AC14A56D9855F5E3C62679CC92D9B240DC887E7241003199CA127FFA9BDBC371B17
311
099CC6393B72AEF1F23EBC1C7FD1EB2996C7DCCC2F2DE71AB971DD05B2521DCF498A4EBE2EEA1B504B0304140006080800C7031D4B08BD9362E7000000600100006700000035373843343644352D344631422D344346362D413739462D3636314341303938354244302F5265736F75726365732F37414330393134382D4143
311
31372D344630422D394542412D3743333036434643323737462F7468756D626E61696C2F302F636E782E786D6C4D90C16EC4200C447F2542EA3181A495BA5D11F6277AEAA5728937454B300253B57F5F6839EC69ACF193E5197DF93EFCF085293B0AAB982725060C963617F65514BE8E27315C8C4E447C878921C081AB68B6
311
307A4F5462B736BC42F1CDF52EDCBAB963C0E4EC7B0CBB18AC879C5791ED271E304161DA30DFA60D18A6794A98A9248BF500BB03FB019B1018376116353F8FEA342E2FAF4A9D1FD5797E7AD3B291467F10F9CEBBC098283E2CCA521D43FD4769D900A34B729D6A2184B97B4ECBBA343A73AAF93BC43FB14210A37716B8D624
311
C932F258218443CB7FD868D9F256F92BA36AEBC6FC02504B0304140006080800C7031D4BA233C2345D000000800000006500000035373843343644352D344631422D344346362D413739462D3636314341303938354244302F5265736F75726365732F37414330393134382D414331372D344630422D394542412D37433330
311
36434643323737462F7468756D626E61696C2F636E782E786D6C4D8B490E80201004BF42E6EE76F3C0F216234B883063108CCF170C074F95AE5473F5C4C06E932E4F28601967600677D21E9D8092EDB002539227A2FCCB80E1168D80A6417297A89C5D6963B7129A0D1E8F2EE73AA7B62BBEB8B27DE50B504B030414000608
311
0800C7031D4BBE89762363000000880000005B00000035373843343644352D344631422D344346362D413739462D3636314341303938354244302F5265736F75726365732F37414330393134382D414331372D344630422D394542412D3743333036434643323737462F636E782E786D6C4DCC3B0E80201004D0AB90EDFD75
311
167CCE820A4A845D83603CBE602CAC26799919AEEEE0D965E2E908050C6D0FCCE04C8BC355404EB6198129C92351FAD580A10E464065907C8D948F8F166375F655BDC3FDC3B4E530A176BE7057BDC43B2A593FE403504B0304140006080800C7031D4BCD64BC0A7E000000A30000003600000035373843343644352D344631
311
422D344346362D413739462D3636314341303938354244302F5265736F75726365732F636E782E786D6C4D8CD10AC22018465F45FE7B4BD7C80DD4E124DF63343724A761337AFC3476D1D50787EF1C3E7C368FDE36BD5C0C02E88900B2E11E67175601795F700768903CC5B8FFDD008569B3022A06C9D714F3F340B35DA6EC
311
2BF52E3C0EC894263D6D3BAC3465B83564C4FD6D5498E90BB96AA31BC64C31CE5529F3EB95AD79F905504B0304140006080800C7031D4BC69266290B010000550300003400000035373843343644352D344631422D344346362D413739462D3636314341303938354244302F536368656D61732F636E782E786D6CCD93BD4E
311
042114855F65426239C08C26AE1B862D2CAC6CD4CA0E99BB2B59E04EF831FAF6C248B19BD869B11D9C7CB939E7C015BB4F67BB0F08D1A09FC84039E9C06B9C8D3F4C24A77DBF21DD4E8A80984E30D279E560225526521C02E6A54933EC55B655B5C61F9B788FCEA17FD6EFE014E9B455314E24AE57AA72C219E291CE2A293A
311
D0001173D0502624E3A04DD001548299C8910FB73DDFF4E3DD0BE7DB6BBE1D6E5E05ABA4146F88B6F1C62708B85C8D5C6339FA62880B56012972308DAA29883C75474B1F8215428A984269A191E96B29A45A166BB44AA52CB6823F8C14AC863D8BFC001E82D1979AF9CCDEBF857E023F43782C2F158CB2979AFD37977FAB80
311
AD1B50BE415D08F90D504B0304140006080800C7031D4BE3603EBE7A000000C20000002C00000035373843343644352D344631422D344346362D413739462D3636314341303938354244302F636E782E786D6C6DCD410EC2201085E1AB90D9DBEACE05D09878023D01A1D34A8419C380F1F82DA68B9AB8FDFEC93C3D7C5254
311
6FCC12980C9CBA232824CF63A0D9402DD3E10C6AB03A3397DD192872090D3406ABE7CCF5B5D18893ABB1690CF4DCF02282E5EA8A5BB96FFE536F285CB347F95BEFFE81C9ED5AFF9D5B1FB575BB00504B0304140006080800C7031D4B2671F9957E000000A300000007000000636E782E786D6C4D8CD10A832018465F45FE7B
311
3703350333CAF03D6259C84AC3E5D8E34F4717BBFAE0F09D23BBCFBEA1B78D2F177C0BD58D00B2FE1166E7D716D2B96001A853328670FEDD00F969B72D140C4AAE31A4E342B35DA6B415BA39FFBC20AB85A67C64989A6AC0541B8EFBBA3198F34AF7A4116C184936EE45C9F3EBE52D79F505504B0304140006080800C7031D
311
4BCA1DF9C9A900000073010000130000005B436F6E74656E745F54797065735D2E786D6CA590410EC2300C04BF12E5DEBA70400835E500FC800F84E0B411AD13252E2ABF27A55740421CEDDDD9B55CEFA7A117778CC979527255565220197F75D42A39B22DB652EC9BFAFC089844F65252B2630E3B80643A1C742A7D40CA8A
311
F571D09CC7D842D0E6A65B8475556DC07862242E78CE904D7D44ABC79EC569CAEBA537E3521C16DF5CA5A40EA17746733E0B6615DE7217475F386F18B9481C510F1F021CD9FF027EA0E1F5C4E609504B0304140006080800C7031D4B3DEE336E64000000790000001B0000006175746F6465736B2D64657369676E2D706163
311
6B6167652E786D6C35CBC10E83200C00D05F21DCA56CA76D41FC96062B120735B69A7DBE268BB7777961F8D5AF396893C2ADB70FE7ADA196782C2DF776D7A97B5933C430F15651E5469C55D70F80A4992A3ADC954792C525AE70A1E4D6AD9816CC044FEFDF01FE3FDE907802504B0304140006080800C7031D4BDA534853FA
311
000000960100003700000035373843343644352D344631422D344346362D413739462D3636314341303938354244302F4173736574446174612F636F72652E786D6C8550CB6E833010FC15B47783799447641C9542BEA0A7DE2CE3102BC1467E54FDFCDA814AEDA9A75DCDCECCEE0E397FAD8FE453182BB5EA214F31244271
311
3D4BB5F4E0DD15B5909C29315ABB5F3448145B450F11064A16A3FD76405C2B275444959EC501326B8583843F42D383E537B1B294791718F69E6E8CDFD922D23CDD7994782FE7432AE7E026AF5218A0E3E5ED65C4C380CAAA1E5155D40D6A9B624243338D97AEEACAA9AC4916C59438B9FE6CE746302766A005CE1B845B5474
311
EF189F4A7CCAAB0F92452625D699F0F3B1347E07F4355E3D32C748B64FFFB8FA6DFEDFD54BE5CAE270DD1516681E8E7C0E28C9624AA13C230C35264ABF01504B0304140006080800C7031D4B65881D9EF40000008E0100006800000035373843343644352D344631422D344346362D413739462D3636314341303938354244
311
302F5265736F75726365732F37414330393134382D414331372D344630422D394542412D3743333036434643323737462F7468756D626E61696C2F302F636F72652E786D6C8550CB6E833010FC15B47783791448641C8942BEA0A7DE2CDBA156828DFCA8FAF9B50395DA534FBB9A9D99DD1D72F95A1FD9A7B44E193D409963
311
C8A4E64628BD0C10FC0DF5905D28B1C6F85F34C8345BE50009064A166BC27640DC682F7542B511F2009973D243C61FB119C0F10FB9B29C051F19EE9E6F8CDFD922F332DF799484A0C4215522BAA99B9216E8747D7D99F038A2BA6927D4546D87FAAE9AD1D8CDD3F5D49CEAB96E4991C49478B5FE6CE756322F05D00A971DC2
311
3DAA4E6F189F6B7C2E9B7752242625CEDBF8F3B1347D0714936247FFB8854DFCEF1694F67575B8ED0A07B48CC73D079414299D589ED1C59A92A4DF504B0304140006080800C7031D4BBA9D7951FB000000960100006600000035373843343644352D344631422D344346362D413739462D3636314341303938354244302F52
311
65736F75726365732F37414330393134382D414331372D344630422D394542412D3743333036434643323737462F7468756D626E61696C2F636F72652E786D6C8550CB6E833010FC15B47783791448641C8942BEA0A7DE5CE3102B60233FAA7E7EED40A5F6D4D3AE66676677875CBED625F914C64AAD3AC8530C89505C4F52
311
CD1D7877432D24174A8CD6EE170D12C556D141848192D968BF1D10D7CA091551A5277180CC5AE120E14B683AB0FC2E569632EF02C33ED28DF1079B459AA73B8F12EFE57448E514DCE44D0A0374B8BEBE0CB8EF5159D503AA8ABA416D538CA86FC6E17AAA4EE558D6248B624A9C5C7FB67323981313D002E70DC22D2A4E6F18
311
9F4B7CCEAB7792452625D699F0F3B1347E07D4DDFDFAA1985C48B64FFFB8FA6DFADFD54BE5CAE270DD1516681E8E7C0E28C9624AA13C230C35264ABF01504B0304140006080800C7031D4B184884930E010000B10100005C00000035373843343644352D344631422D344346362D413739462D363631434130393835424430
311
2F5265736F75726365732F37414330393134382D414331372D344630422D394542412D3743333036434643323737462F636F72652E786D6C8590CB6EC32014447FC5BA7B6CFCA8B1234C14BFBEA0ABEE904D1C94182C03553FBF90B852BBEAEAA26186C31D7AFE5A1FD1A7D88DD4AA8134C6100935E959AAA50167AFA882E8
311
CCE8AEB5FD658348F1553410646074D9B5DB0E69D2CA0A1554A5677188DC1861219A1EFED080996E62E53177D63BCC3DDEF874E78B88D3F8E563D439391F5139FBD7E4558A1D583F766F3D6E5B9417658F8AAC24A822D9805A32F4635DD4F9909734096146AD5C7FE8D32EB81533B00CA704E10A65F53BC6A71C9FD2E28326
311
C1C9A8B1BBDFF98086ED80914B87EBB4A8D0A5F3B962C42DAA87F6824897E3B21BBB8C909126AFE01FA0DBE6FF814E2A9B6707F09530C052FFFFE705A34928D08F67BB7E86B2D937504B0304140006080800C7031D4B4E0F2F0EFB000000960100003700000035373843343644352D344631422D344346362D413739462D36
311
36314341303938354244302F5265736F75726365732F636F72652E786D6C8550CB6E833010FC15B47783793440641C89423EA0EAA937CB6C122BC18EFCA8FAF9B5132AB5A79E76353B33BB3BECF0B5DEB24FB44E193D409953C8504BB3287D1E20F813E9203B70668DF1BF689069B1E2000906CECED684FB0649A33DEA846A
311
B3E0060AE7D043266FB119C0C90BAE2217C14786BBE67721AFE28C79993F799C85A0964DAA96E8A64E0A2DF0E9F8FA32D1712475B39B4853ED5AD2B5D54CC6769E8E7DD3D773BD63451273E6D5FAB35D5A141E17E0152D5B423B52F5EF94EE6BBA2F9B0F56242667CEDBF8F3B6347D07FC0D9D0956A263C573FAC735DC97FF
311
5D83D2BEAE36D7A7C2012FE3918F0167454A29964784B1A644F937504B0304140006080800C7031D4B48400EACF8000000940100003500000035373843343644352D344631422D344346362D413739462D3636314341303938354244302F536368656D61732F636F72652E786D6C8550CB6E833010FC15B47783799447641C
311
89427EA03DF5661987580936F2A3EAE7D70E546A4F3DED6A76667677C8F96B7D249FC258A9550F798A21118AEB59AAA507EFAEA885E44C89D1DAFDA241A2D82A7A883050B218EDB703E25A39A122AAF42C0E90592B1C24FC119A1E2CBF8995A5CCBBC0B0F77463FCCE1691E6E9CEA3C47B391F523907377995C2001D2FAF2F
311
231E065456F588AAA26E50DB14131A9A69BC7455574E654DB228A6C4C9F5673B37823931032D70DE20DCA2A27BC7F854E2535E7D902C3229B1CE849F8FA5F13BA06FCF3B2DC9F6D91F4FBFCDFF7B7AA95C591C9EBBC202CDC389CF012559CC28946780A1C63CE937504B0304140006080800C7031D4B33992B4001010000D7
311
0100002D00000035373843343644352D344631422D344346362D413739462D3636314341303938354244302F636F72652E786D6C95914D6EC3201085AF82D86383E3DF0813258E7C82AEBAA366E2A2C46019A87AFCE2DA55DB5DBB023DBE37C39BE1A7F7E981DE6071DA9A16B384620466B04A9BB1C5C1DF488DD149F0C55A
311
FF03C3C8C8095ABCCA58F071B161DEA5C11A0F66558D55B08BD239F0180D8F7869B11B5E6192890C3E12EE9ECC72B8CB1112966C9CE05E4F5FD66101E94161915156115A93AC79A2F478A047963FF37425050FDAF843B63783E90514B2B38F91B02878BABD462A68B5335AC53FEA9B86251255DDE5E5B52079CF2E24EFFA92
311
9CABA62765C9BA336DEAE272A5B148340BEEFC1227B3175967F057FB66FC952CCCEA9FC93687C3827D874AD7310B9E7EEE209EEB4AC407504B0304140006080800C7031D4BA42BAFDA08010000B201000008000000636F72652E786D6C8D50CB6E833010FC156BEF06F3288FC83812857C414FBDB9D82156C046D844EDDFD7
311
0E546A6F3DAD3533BB331E7AFE9C27F490AB55463790440490D483114A8F0D6CEE8A2B4067465763DC2F1920CD67D9408081D17135DB724083D14EEA806A23E401726BA503344CFED1801D6E72E611DF9C57D87BB4F0E1CE471925D1AE63D4A9F9677558257752004B49526252E1B47E23E494915392BFD3382819DD36250E
311
2B25BCBBBA2AB902EB2EAF2F1D695B9CE54587F3B4287155A63D6ECBBEBBD4799DF55941E3B0CCA875ABFFF371C4E774C8F247F0A5F14E31FA61CC74087C28818C9EBE80111A07E24FE86D11FF08ADB4CBD2E3E0BE6181253ED093F0C6A1413F9EF5FA19DA66DF504B01021400140006080800C7031D4B747564EBDB000000
311
200100004F000000000000000000000000000000000035373843343644352D344631422D344346362D413739462D3636314341303938354244302F4173736574446174612F446566696E6974696F6E4974657261746F7250726F706572746965732E62696E504B01021400140006080800C7031D4BF924DBD0090100003002
311
000045000000000000000000000000004801000035373843343644352D344631422D344346362D413739462D3636314341303938354244302F4173736574446174612F496E7374616E636550726F706572746965732E62696E504B01021400140006080800C7031D4B88E57597CD3F0000904100006B000000000000000000
311
00000000B402000035373843343644352D344631422D344346362D413739462D3636314341303938354244302F5265736F75726365732F37414330393134382D414331372D344630422D394542412D3743333036434643323737462F7468756D626E61696C2F302F67656E657269635F706E67504B01021400140006080800
311
C7031D4B28BB58AF800100009E0500003D000000000000000000000000000A43000035373843343644352D344631422D344346362D413739462D3636314341303938354244302F536368656D61732F436F6D6D6F6E536368656D612E786D6C504B01021400140006080800C7031D4B2CCEBD668A040000E01200003E000000
311
00000000000000000000E544000035373843343644352D344631422D344346362D413739462D3636314341303938354244302F536368656D61732F47656E65726963536368656D612E786D6C504B01021400140006080800C7031D4B6180134D5F0100006B0300004500000000000000000000000000CB4900003537384334
311
3644352D344631422D344346362D413739462D3636314341303938354244302F536368656D61732F52656E6465724D6174657269616C536368656D612E786D6C504B01021400140006080800C7031D4B3D977907510000005700000047000000000000000000000000008D4B000035373843343644352D344631422D344346
311
362D413739462D3636314341303938354244302F4173736574446174612F41737365745461626C654F66436F6E74656E74732E62696E504B01021400140006080800C7031D4BF865834058000000680000004500000000000000000000000000434C000035373843343644352D344631422D344346362D413739462D363631
311
4341303938354244302F4173736574446174612F53747265616D56657273696F6E5461626C652E696E66504B01021400140006080800C7031D4B274ED6B337010000A20400003600000000000000000000000000FE4C000035373843343644352D344631422D344346362D413739462D3636314341303938354244302F4173
311
736574446174612F636E782E786D6C504B01021400140006080800C7031D4B08BD9362E7000000600100006700000000000000000000000000894E000035373843343644352D344631422D344346362D413739462D3636314341303938354244302F5265736F75726365732F37414330393134382D414331372D344630422D
311
394542412D3743333036434643323737462F7468756D626E61696C2F302F636E782E786D6C504B01021400140006080800C7031D4BA233C2345D000000800000006500000000000000000000000000F54F000035373843343644352D344631422D344346362D413739462D3636314341303938354244302F5265736F757263
311
65732F37414330393134382D414331372D344630422D394542412D3743333036434643323737462F7468756D626E61696C2F636E782E786D6C504B01021400140006080800C7031D4BBE89762363000000880000005B00000000000000000000000000D550000035373843343644352D344631422D344346362D413739462D
311
3636314341303938354244302F5265736F75726365732F37414330393134382D414331372D344630422D394542412D3743333036434643323737462F636E782E786D6C504B01021400140006080800C7031D4BCD64BC0A7E000000A30000003600000000000000000000000000B151000035373843343644352D344631422D
311
344346362D413739462D3636314341303938354244302F5265736F75726365732F636E782E786D6C504B01021400140006080800C7031D4BC69266290B0100005503000034000000000000000000000000008352000035373843343644352D344631422D344346362D413739462D3636314341303938354244302F53636865
311
6D61732F636E782E786D6C504B01021400140006080800C7031D4BE3603EBE7A000000C20000002C00000000000000000000000000E053000035373843343644352D344631422D344346362D413739462D3636314341303938354244302F636E782E786D6C504B01021400140006080800C7031D4B2671F9957E000000A300
311
00000700000000000000000000000000A4540000636E782E786D6C504B01021400140006080800C7031D4BCA1DF9C9A9000000730100001300000000000000000000000000475500005B436F6E74656E745F54797065735D2E786D6C504B01021400140006080800C7031D4B3DEE336E64000000790000001B000000000000
311
00000000000000215600006175746F6465736B2D64657369676E2D7061636B6167652E786D6C504B01021400140006080800C7031D4BDA534853FA000000960100003700000000000000000000000000BE56000035373843343644352D344631422D344346362D413739462D3636314341303938354244302F417373657444
311
6174612F636F72652E786D6C504B01021400140006080800C7031D4B65881D9EF40000008E01000068000000000000000000000000000D58000035373843343644352D344631422D344346362D413739462D3636314341303938354244302F5265736F75726365732F37414330393134382D414331372D344630422D394542
311
412D3743333036434643323737462F7468756D626E61696C2F302F636F72652E786D6C504B01021400140006080800C7031D4BBA9D7951FB0000009601000066000000000000000000000000008759000035373843343644352D344631422D344346362D413739462D3636314341303938354244302F5265736F7572636573
311
2F37414330393134382D414331372D344630422D394542412D3743333036434643323737462F7468756D626E61696C2F636F72652E786D6C504B01021400140006080800C7031D4B184884930E010000B10100005C00000000000000000000000000065B000035373843343644352D344631422D344346362D413739462D36
311
36314341303938354244302F5265736F75726365732F37414330393134382D414331372D344630422D394542412D3743333036434643323737462F636F72652E786D6C504B01021400140006080800C7031D4B4E0F2F0EFB0000009601000037000000000000000000000000008E5C000035373843343644352D344631422D
311
344346362D413739462D3636314341303938354244302F5265736F75726365732F636F72652E786D6C504B01021400140006080800C7031D4B48400EACF8000000940100003500000000000000000000000000DE5D000035373843343644352D344631422D344346362D413739462D3636314341303938354244302F536368
311
656D61732F636F72652E786D6C504B01021400140006080800C7031D4B33992B4001010000D70100002D00000000000000000000000000295F000035373843343644352D344631422D344346362D413739462D3636314341303938354244302F636F72652E786D6C504B01021400140006080800C7031D4BA42BAFDA080100
311
00B2010000080000000000000000000000000075600000636F72652E786D6C504B0506000000001A001A00210B0000A36100000000
310
504B0304140006080800C7031D4B000000000000000000000000370000006662782F44373331333133412D374235382D344642412D394239322D3634464143383841413543392F617474726962757465732E62696E504B0304140006080800C7031D4B000000000000000000000000350000006662782F4437333133313341
310
2D374235382D344642412D394239322D3634464143383841413543392F76657274696365732E62696E504B0304140006080800C7031D4BF270F1330600000004000000360000006662782F44373331333133412D374235382D344642412D394239322D3634464143383841413543392F747269616E676C65732E62696E6366
310
60600000504B0304140006080800C7031D4B88E57597CD3F000090410000420000006662782F44373331333133412D374235382D344642412D394239322D3634464143383841413543392F7265736F75726365732F322F305F67656E657269632E706E67355B773CD4FF1FBF73E71C0E67EF7576C9DEF3EC995D46C6A1EC50
310
46649CBDF79E192942562825CE965D8A868C2842C8DE9FDFD1F7E7F138F7078FCF6B3F5FCFD7EBFDFEC41B196891913091804020321D6D7513FC77D8C5070EC3FFEE51B21F068154CC75D455CC028A3EA68992803810109FDDE5D5CEC5521B28A1B422BF80741695D5B529DA1C2D058AD2388BDA9F476F7C2CADC939304173
310
DBF48A452BF8A700C0C70C3D121C1AA15A5270C22E2B9E28763651F7DA0D12CE11077B2ECD0D560B5E3DE2368B1E65C5E1C87384A4CC5F2D9FB8BE39E9B77C753783A37998F5CEF1B4FEE553463245C9712270880DF339E0B882A6BA713D865F6F384C842D440934EF264F4A304F8DE4EEFA1E2BF5E2D91F5ADD9613D6E31D
310
DB33ED31DB1D7916CAF091286EA3D31B9CFECB78BB0060245B943C4C040119FF780A74DD308BA9D028678674EB5504ECF284EE814DAED07440BAF649BE4B55DA2890F4D73E2D489A59EE54FDB0A85B59F2F52C4858A02705C4815A792B0C4A996A2023ECB195073E115E3E3647F64243A8338F2000BCB58DA5692C7E7C3D41
310
3F963FEDF3CF00FBB0F831A9D51360FECA43819F527B89FA260EB63C5DA676830AA3626A3693B23F1A17A0DFFCE3EE164E31B5365EDF0C89EF64D8E38AB0BA9A1117D7C3A0EC44F44F4023095E80BA610DE336D0F99593A88BFC5306E72DF98F7FD132ED95878DF2964EA7E43071359FD83B2BDF9C6B5BDF768F0F3C0FC351
310
199526F53D9460A34511F75D1B63E488178569472C91A94497807A3FD4A390C6558F26D416365C3656DE6E769DA9D8FC73774E1709812842DD8EF96AED1960F79D21B395CDDFE6F92CB4EB962A4668C76990E2EF29798C8941D67DA50F4A5F947872460F1F6FDB794E8A29FD7AC0C0D6E0714339CE258FB17AE8535221E346
310
4A10F29A0BE5EEECEFC5675926A89F49EB14E5711894F6586DB5754EB4D5DA9C6437EBA57DB97A24F8B8A8DB295FFD73266CF57E82694DF5166DDF93573AFE9C9C5EB05F8FEF8E89E0A8917B0B3724DB7BEBB53252581EFC3E38166BA131A3A5B42FE2AD00A769BBFA4458D2DE7822F8C4F63D0B8E21B285AE13325F3410A4
310
35C648C9D91FDEB109E73CEDA7BC796961AF79175E1A3CE4C5E8B0D009B0C9E29EFD98BC8E97554E3D8D838424E270F7685226E5AC268E021EDE3522D583E8F20C0BDE2959EF5BBFEEDAB32FE9A3ED0E39F211A86AA9DEBFC68182EDED132AB8BB794442D2D7EA9F4D8BFF52BC4D55BB165124EE90A42D101E67BBBB292FFB
310
4F66DE5BF2300E44546757DA7CEF8932BFC9F92A0707953491A55C5A5ACEDABD9FA1AEA01BAC3DC5A24E22E7C47213493996EFBC369D086ED9397C9BA6C7F9855C7BD5E15BFC8C53DB3D2A4C5901A57ACD2FBDF4D1676E95338B2C2BCE65FDA4C64F5FEFDC7D9CA5AA1FCF11E193F2FDABF0F4916BF13FB916A224380E6462
310
A9815F2300DC49CC4DF8D055CEF76462F4B7A7ACA7365C2707891370BC1D0AA6203C44CCAB47084FEC057F27FFCD57F89B8B9852459798A675C66BD7CE572CAF71FF7E6D7ECF7BF62CAB7B3F1107DCD04DC55A3F9961700286141C94A4F771FEB2BCDA2DDEE0CB0BAE402FF1DB0100F8E475DFFFC074DDB4498AB7D186A765
310
4DDB1CB680D703D47CEB4E72F8CB13D86A4AA68116E26387B93FD6738779B34FEDB8E517EDF2BAF28D9BE93A1D3A164320E07D42E514725C29515FF361754213EDE06B079A2E99EB1CA82A02019EADEEB87B9AF005BD04BBCECB14AACD6B24EFBE482194A97DD32400685FF1FEF1544D1B14EFB1E7F08E6D2CD2AF52DE757F
310
35F5E62332EE88EA26417AD5C3E0E319D68F25414E6D672BD4522B278C57D18F0113921C71D96527E091F00CEB15AE23D24667369BD3CEFA10C7549D930890BA4366F4EBC55F01F746109F98ABCDD5A3EE06619C6AD78AB33E48E4C9BD21BF7478B385EC05C4F8987E2C1BFA0A60EBEDAA0AE0B015C2720ECE180FB6F2DEFB
310
EB822D96338C9B63822183BBF52FB664A7AE57003AABCE512BF77E7E31BDA2E739AC4C131657DDFE5225E900FB56CC01CDE808FA4A9C9DA16AC679656BB64796283D89812B8F91136AE18EE5EBBAF47A73BE3C153EB5D4CD491B4BFB4FE690A4CF9ABA08C0D8AA64220C438C96EA6CA80B58FE5761E697B3A292EB9FBDA502
310
FA863E49FE694ADDFFF9D62C520BDD1A22014147A0903A05B9B729F54272EF83931FEEC057BFF8C8055C279EAC5C0011804828734024F6CFA319C9CC6867C727184465CD9BB7ED386AFFD96B294A85E3802FAE47244602D8273615952B98C4F23F7EAE4463D9D638EEE374A20959E0FE519C4CFB0FBFE5DD80C2AA3F9DB961
310
D1BDE57E67C9BB47B77FDD74EE3094F5DBBE3EBC1FBDB7393F5116263009E2EFE1AF9A221B2AE234C902BF70E9F280ED23E73908361565964333A3F01D0B006AF32FB21AA1316744B489D5A198E85299241735BE559675130955C902A8ED761FC0DBE337A9F91919AF5CE32AF902ADF9AB2615E00E8A94586BA1A90839B618
310
32FF1BFB76D2EFADE6DB1BA04CCAD3DA649E7E2A0219F592E22F2AD54847EEA8E42271011E9074F8F3DD9FBA6CDF88FFC9FC7E811AD1CA8F4557CE4AFC7BBEDCF0114A48689F20A584520C74DA8127124B767E2FB91A6B186246727BE63C9445BAE02088D58B8EFDC0F1072407CD9B89A13F6303B4A928F593AD489B58E686
310
9325790ADC406036C591729FE14021F94B7796BB11848D463536A092A26F077F94639F7CEEE2A724C66EC885F4A24F8B8A0AC321F8FD149BA529460FAA34E4663C02D41FDF80BCA222D42F0ABFF8490F4FA74C673807C2051D8E467B47B616072860069A9A303ABA9B319D58404461401B0A0F9BE5E1E151C14BC33B32ABE0
310
3DDE91708DFAEB15E7C0D593C86BB7D7EC17BE56E57975F077BFD5525F3A1A361D584A75E08CF29FC7B44B2B3085014F3A5A14517377C3F6B8F37E59514C3B12F8AACDEDDA4DFC49BE5710101534CD6FB6DE15B50F11A09472AABA727F0C49D9CB906B158030065F48EB3625E010CEC1D511D0053474B11E6A4F01C0D6EF1B
310
ED3A944FDEC70E0DDCDC756C86545910E0DAE3BE3AA9A404574C2995CD5CAF9549226BC94B4F4F0F5F9086F418F6B32346464610D8BC7391D3C3A3CCF04CFC1FB2A3A3170E369511868F14EEA4E5E438CC73DB1F3248AA94B6B2FF33B222FF3D1E7BF146CAD229770158063BCE4F5391964DF62F7E52A7BE0EEA829C9E13C4
310
C147D6F93FE59E111DAB5E4594D6F3CD1AD375EE039930EFE5AF2BB2D41C83C7DABD8C659BAFBE8FAB392CA634F3D15C1D945DB4588D2B0824A4EC928AAC565557CA2F0DAA588CA5BE30B3A8004F7BF005E96CBF891D7F18112A3619FDF530DC8AA64954258E1811789B5189B49B4EB53F5F89F7D37523894F3EB57B373763
310
C91E502F52CC99EB7BDDF933FC324C4FFC2561DFFA7339FAFDD0A4BFBE6D3A8FF9ED1FC49898139864602458968913181918F719CCF5A68B2EE9C1FF050E34E63107003B8120FA982C21B30A874E4F5E4B38D5A8290C4B8D9BE48A0BE31EA995BDC37AC6DE90BA17D259DEF53605D55922FEB1855D915B659FBEB350EE0DFB
310
2F9F766E1C84CC8964B75D08667445EAB966015F63A18A9E0A325C1B3DC628C0D3CB60F767FA93CC65F25458BD23C3B312716E5F40E5858AC06EBA9AB14F95DB99147B832069201541D09A0D856E12C629CF32683760EE855537D1901988D5EBC156676C7DD51D7207CF3267AF1D76C2AD867315E44618015313A98B19941C
310
696FED3461CAA9B5415F918556D7802EDACEFD6B2E45853A9735DFC9DBF7E440F9319F8B6805A973BCCDC76C069A9144E51F187EDCC12FC31B5DEAAF0A76137199B106EC84ADA6B6EE697D4E6A96E007417F4E880E8B1E89B4BCE9D81EF611E2ED8F0C1A6C25F620FAFAAB656A7C42D464880E8AFAB0E0FC8EA38CA9A8AEEA
310
EE3E4648BA4680270A89743CDD3E6C6CBF34B7B640EFA285ABC7EA0A1E28F3CC963D114A80123EE66D0AF7D5380EB41909B605AB4765B709B808590458157E69BA1378FEC4B48CAF6A730E3BE3C5EF2DD1A5EAF94B1DDE50CEB55DDFD7EE9A16747FA4B223359FB1FCC69E1194892BABB93A1D5C4E807AC0EA2E30180811E7
310
7A2291F6E7F7FAA5E0F60215BC6024E48DE436C511F0628B8CA189982D4D83CCA17D305A7E923C37941CFDFDCD93ACAF735EF5F0E61BBD3E6C41A59B242790D3A3BAC7064DCD89AA2E37214EC839820949D5CAA31E240D2948E48F690298974A96BA9A8432BC90F5071D6537C9666EA4564796B7AFFFA548077BEEA75F6308
310
3435074BA182F3699557397F71548383FDA8CA34D99B981E72835ECDA5DDDC151315173D05A21F651AAF8524E88209E2E7A737ED1045800CE3390050BCFB8BE588DF111617874C62575039CA588EEFDEFEFE319B739DE2EDC147092A262611E159650E787917885EF08F1F51B8F2D8A71D60B58B190FEF9541A1BE94BC19FE
310
A50784DA1419FE4B0FB51B8D36B5FF8E1286FD8AF42B91E59A5F1CC4D60174E764045FD8C57B18209B217F89A62252BD20BE0E63E12B8E8F029FE19E0E8D0870F58721A557082250D5424F7909369376E41666C0EE77CD87CB283F661D5FB6D0DA023CB67320A20DC7BE661E9E1BFE5463085C557DA1FF9BE835733766C3D1
310
39F2CF9E2208873AD0EB4814DE9E6BF2CAF81614D4D43906ED1C05A3265CABBFE192770FC2F64F940CB6B17B5F166F133C9AEEAD2641807C3E69515171DD74C4A85311513D6EC9530B3B601B6BA3EBFF3B5C3D2F7D69765141E345F75433953D013ADDF8F6AA7DC3F4A7563FE5C7D367937E2900D7EAD0F9FC9A4A1A9B5BDF
310
1FEF08532660C01C5D6DE22199AA774383E306DAB87E301ABB7D213887F9869D4942D0D71E94B27EDF216A318BD488D45DF84529EF575AF3C3938C0AAA0215B01994153E2054A0B894DA5C784980633AAD48576957CF4AEAEAFADC7C587368551C73DBE1E57C58AC713303A8BFC258BD04B51724459FF9E24C03A81E0E0679
310
CEB9B348C0DC998FEB9C6D6EFA77D247CC8F92D3848599ED89A23218D0636465AD1CEEB7DC140D7426F83491C4E8E8281C2FB35240918FFECE880CA2A42D70E8B20B34DF5221C7DB0CF90ECCB9C745B37A47E9B716FF7A97B7A252C1F3814DC7B1E1A7F72B8751D524EF7CAE45B0C73B3BE7D08ED39781B380DDFC9AA4A474
310
9C9493DB5BAD07A6EA6C092FBD0E85DB004DF06B8C9D3089C5320187E4CE1846158C7EA7DDAE8AD9AFFF21AA3A1026BB06A259845E8232DEE62811A4DA9CEAB3A4887320B76E2AE5615EAB7BDF738CBDD01F1E64064BC13D9EC53576751CA8CACD58B3CEB0E6CA585BD089B2A59B9FC101403387AADBDBE70586B93D64BF3A
310
D4453EF9C3B6A93817E8346991798601344F79A83C51F3D50F7BF2683A3605F51A72449489E0EE6169C749C60B1035651103AEE24D24E51A759C840DD3FC6504DA6FE107510E447B43461C79D22970B75DE5E1BD3007D1AFC619A4A4A69B5626AF5E9B8374E20677F77E2F8E73DF868E8BEC7EBA7B6A75EEF7205E1AB9486C
310
B642741D6E03FF13FCCEDB1C4AC129886268B01CDF4B124AF797CF784F3C6DEC97A17D4B558070A0F1C04DA4FF9BDBF34159AEFE958479824B3F58EBD1E19088A2AFDE501B6F2052368A3FD0E650A179EFAB1561E1D27527077136E652676C3670F42DCB3352F48F6BC86D2C3B0051727E41A0A4DC6CE2BE9D47F5CAA2935A
310
3C0539AF080665997194ABECD723B08129CC5B6B21D2E7D54CD4D12610E7E9FB8306771A89576C7A982002775ED44F3F744CF21EEBB27A631671D921938AAEE3EB0D19CD1E083727F607823E817BF599DCED5394E37EEBC2E88782E638920CA641EF74D4CDFCDEF06F4278ECB18E31E7E9876F2D783C8BF429C75395F57E98
310
C2B495A3DA077EB3AC3C158608B6B57FE3EA48484D9A480096FCEE0DE880950E7E5A5714131C5C41AAA29FD19AE81AC145FA1B9E85C7169A5AB837B213493DF7E9AA4B5FBF9CDEB36EBD21EF1181B7CF7366AB2A951D01E37AF4EB835D1BE8C117CFBE7625D2EBCDB0B20C5A4B45CED0BCDE3EE8DA9DA78C2E21DEAAFFD119
310
7E463C33CC6A80FB785669B856EFF7A8CCCA2841B5A5369173320B1170C368B2748D81062EA0296E5E2D95D7667A4A46D98A6FF475C76AAB0A8C8D45E226FAFC9FE0133EA9F60111F99CA81ACE03A1D14C89E8B0D69079C91464FA1D99E651D0EAF606F345C42A8A1AA9BA391031582B96D5B4176A77AADB01F12FD298A75D
310
EEBB2C82F0B8650E880722F8DDD90C56A7A058E5FDEF1AC93545BA27367C76F5D8F9690CB6F8DAE141EDD7971F0FB548A2AE435F224D6E5954CA155512F7332029D5A1230854B79F258EC5FFDB09F5F6343A8EB193229B7F7E79B3E48F8E183860B38C8269D1B53738FF1E0BACF6AADA6D4869E9DE708E79B5DADCC09B1BC7
310
6F649731CFAF59A83FD8BAE4C749D66FA87A3810D4D62FFE826FA400C0F325D2BC0F3CA35F5847B82A2ACC7961745C823E4D863D54460AF792CE6F79B5C7A33B25C3AEA6CDE15A919B6367D781E9D44F61BF828672594A3E1D9EDD6DF179A81F27EAC05B936575D73E05C209DDD2115CFB705DF9BBF3C911589B3640735E9E
310
618FC9C36A7326C82B2205E244C55D56FDB9D5DC93CE958D4BF8174D2B3DA54CB3C09F2C2A6DFF73D23B2197355761AD421EC581284A7EF8DE2CE3497C0C804D49B41DFD6A7360844E5BEFFB495CFCDB97A4595911CDBA623274CE852B5E278AF0BEB1770E9D37CD977B2766A7DED0E94B840E1E95E8C77DE5CB6354AF7871
310
427C28ADBEEF7BA0A28E19DE9ACD75F379FE373EAE6DDDAE3834692F9C2B03B4FCA8FCA9ABE8EEEBEBB725B88A7C90941E850682CA04061A7DF0CE82ED49BFAFFD42C309818FAE14755CAAE78B0F73243ECCCAD7DF58FCB9CDFAE7A4D3E6671A613639130D056C8383C8F4FCF4808C331E544DD26E4755D09EA05253B3049A
310
1E32587CC25D72E073E2CD96D04A71BBCB0038FEC3F53D254199C3CDC67CD66640269431860225392B2CB3ECD0B4498AAE78BA1994246AE1EE78F2EDFB79F6C6CB6B5E279C4D373FBC21CB2698C9ACBBEB6A4BB6B39E16AB0E421CCBFC7654D81ED86022F9BB522146F9F4772E2D0E4FA70120C95A85A417BF5078B232F475
310
4363EB1750B2AC2148EB46B1EA72AD9B4D23ADCBC589D70106C3EC2ABEEED84DFE28E718C6C83502C28E9FDD3B09DA0A6F6F7B72B706A31C9E2A331EE70DA56A083D2177BFD63C55B11D8D949FAFCF90B23A1E24B9B5018B9A17E99F2890EC302F330FE7936E2C23F0D237EC8916F5166AB84B62A21BB0B950146962D754F9
310
2CC2C8877BED8FC7B7B25726DD19545392570B3A2C66B58F027BEF412E552D12A588C4A3CC5C3193FCB3485EFFF700D0B9EEC077754A33DC1FB9E25AF814628F91DDFECB667D3F7690803F38D13F8AE39353523BB08FC6760144AFA2CE28236F65EDBB3D5F59A57D612B99E3D7E5F8A851666BF9B5A6658EFC96EEB37A378A
310
BB0EB3FDDF1303AF32C41BD1C8560745D7BD81066B0D6313359CF488563D3BA3F8E2185D1FAA3EBA1397C9D0E3DD232180A4DCADB6AF25DB3AC3CC26589C8239E66E81547BC7E2F328F9884764CA37EB5DBE390DFC03A5246B456A7C3684C4377D0EEF9A350680FA9A077E8B2957B489E09AB1AD41316944C2254B5984830F
310
691C93CAA767EECF976FA5647538830B5E63236A6F0365C1E0F3E327F24FE35EDDBD7360B0F7374837409F7A6311BECC12B7026D4FA1AE204FA3F5FE904B1F420C7A9044AE58E403E7C4848E7DA25DC9EDAC79DD756FAA26B9EA83ACE8A214A2612A22AFA19DAE7DBAC5F8CDE1292A485F98DAC731A29FE01A3966E96BCB9F
310
B5A4C8830E1B9AF0C54B87FBE221A097036E5D28D1F869F810C06A9BB0AC0612F69AEBAF893C6E7AD59460208BAB3A6B09CA4F6BDDAB8CF0D1F84B72487498395A70DCD754796E271099A567A55CF242BBED64696378BB6CF25EF0FCDB589F3A82F1116D010A9AB9FA4358809EE0C973A2B4229BAA876A70B03AB49CBA7FBE
310
71DB1832FFD32F9BF2C8E98075CACAFB36921235D0F552B6A67E94E094097A5D7DF681B40623DA535ADA7A9AD8E9A62407D7C9A5AE51D62A17A83A23728DE86BB56115804D3F2675F2C6B87541A0FC497BF0CA86420F558C9859EBE9FAD62747E323E3AADC03FDCDDFE7407B09DA90B44E3185723C5381EAEF589765E2F7A0
310
99BA46695BAD60CEF3491B8A171F5F56444F7CE9455312C3498C74173AEA0214EC029833B34B650CBB5A5508D5091665309642791708ECF27CF11DB3D797D6CFE474453BD4BFADB768094B2147814D81C7CBAF8228DCAF5564B5891F5EF6A860EB2E323CB82AB868D8EA048880D63B0DE5341F1B3D53297B928A11E15F25E5
310
148990F710747C3509ED14909C552EBE3973246FCE55D00564D8310BC3EBC5085D08D806799B77D6C57FDF5E55837F9E934F09C03C729271B64F12D0A9F9E938107CAF7BF1EC8CF1BB9B42363D33070F4CACB425E605DDB0A34A12BB936DE286B9887A4E2E558F0886498BFF49C311D96C277CF6A9FC0D75AD0ECC5226D7E0
310
E3572012E56D7FDE4410CEC7A6D0F997F225A2055B8B92E3956E875AE4993CB3D4C9063AF98FD45E1BAB165640A43439A2C9181A7C355B297C0A0CCFFAE19B6FA3C2BA238A885FBC98B8F6DAF4B94B97304878DF4D8BFF6A4AEDF79E90ED4E68F00CD7299F4E0D83E35601AF0CBEF18C1E870E74758FA91F5131075004DB3C
310
FCF09AE1DABC11957FD9808C92E8A678CE9DBE40DDA0E0D1D505AAFBCBA208232BFB6FB3704E8985E61ADE53DE74152F5C7DE74B1DEDCD37DC3E8FB30D7EBA8B9EFFC3606BF90B8D438279CB7709FC7C00D327F41817EEA71CD9E49FE9C8C9A81C70915D9F0F15958EC5AA4C3BBFAF46986B90F188BDB24B89DE3C6F29EC3E
310
6F66D84856EE96A35E657CA41B41EFD8DBFA16AD6E91439EA92B40B21C053249F51AE50EB0B24C770FFAF40DF12C8436366819C48E36547D4E7B72FE2BBF10828583057814A668BDF183F6B2E58DFB151103E56303E63D00F39C27C4661605DB644D19175D02E3F0241E8FC3458D17AAAADB117CE9EEA690D0DB01E634878C
310
04C2C9310B69FCAB831151E3AD293BEF6E46B0ABCECB50F5939B39C613D41E81FAE8D34CAE3C4566B761D37185FE864AC32FCB71AEF39DAA5BAB88609BB980CD2F07A8F941653B529567726E2B2A58D079DD57E1E5E31426CF184A04D7B03B985F276D47406AF276FE32E3328BA866EB1FD39BEF57863A317634AA5FE46740
310
9B3873F5069EF0D71AF00AD189D17BA1974ECDB2D623E9E14086386A6AAB5807825C37B015BFE892AFD154920EC437EB945D958E18622E1E0FE2FA06557CE4BB9BBD05A2D40E774DA2B65473791E314B7D6C886820B2FCFE4AA272B3B8B15E7344A145E8AF919B5454D89D36D413E87211186BF6F645E5EC94DCCE8E1C7990
310
22E4EC9BC86D7A0F2AFB1FC4B2CE48F84B3F49ECE65BAD24CADCC07EFF39AB06BE9E6B27A059938EA7208838455383DDBCFCD967DDE4650EF92A14FF933C975DB20BD7FEEBC4487576485963D757D16340D9599FEB362F775F38CA4185A86F74B629C81B133644A3B18FD056E997E0734F9BE26D11C0AAFC669E2AC9FC41D2
310
81F8B2E1C35AE27BCE05F3DA295488096688719D974DF1B5D182DB7792288697F8763CFB43562C1CDEE11C4AABD5C22B6E33F6F389CFC3477C5919DC0D533F8A7A1846B7ADB60ABDC26C43D0CFC8910B7C15EE22675BD02702ED39DB77A87A192CA7A543E6205B979B9F5A6B512A3CA799E198B2D5797C0AF8D1D872CA455D
310
4D431A7879D4DD76110B5FF7F4176B54477A9EB5E4A5D11214FDA585F0382751D8E2582BA5D2075053298FEB8F1537304E32CB22C2E2B693DC0A760B1DFCA751BDC445AFDCBB12820ED85F6D5298933C7EF1211E9E057684056CDA3FEF3BB6052355E162DF27C59E965A8DDB7F9437EB72CDDA3A090DE65A5B2F50326247B7
310
EC67B73ACC7047FC9B353D6EE990F772207C6EC52B39DC2F3C0754821DAB559F7C1809C7D0DD5B0499D0442E0A6E391B3D5DB46D11E731E6794EC77523FBDAA242ED67F9FA1FB684255671F63C9BCFE6E7E896D51001A6113EF2298BA494E0B0980D1FA5B9D60796554C02256B1E0345FB7C6186B6A19D2DCA270416262845
310
FA4F42DB5D9B0A0B6F07FCA2E56C242522E001E0CEB734AF310FC8BFB57E38E03AACE93B3326A2197891E68452B26A6307FDABFEE0223D3C03C3C73D2D5BC054C8311F12004CAE488E5C29287F8156A2CAA4AD0D7BE6B97264E4139F437CE73ADF52E5134C52B819777C18B323A5924E4F67AFD13B1CDC3A61793A79FAF5C0
310
CEB718E441071E797C6DCCB9EFCF7E4A1E9F3DF3C2F9C9E8294E9586868788C972857FB0556D7A26941A7EEB9B580AD78EC40B85DC906B4120A563CA3B87797ED612D3B035962BB75F6515A393F4CB057F564CDF54F2E5A024514E6A1F901DB80C7E70B1FC05E356A7E72FABF4775B3E3FB8F70A2A8E7B6A94542BB3041579
310
78CCC999E707A29CC795E67A59CC546A5D47B368954CA7B6E75EC9E1F6FC73CE3B4F71F8CB1A6B15923D61EAAEB14626AAA9D04A26EB9C66CD1BE86CA31A5D8703DE04CD1EBCE4F5CCB62F93909AD11E55799A781A956ED27D3E738F4538CB04ADABC7DAEF20BC35BA6A90BCC1DC61BA05F20D8832FFB9BC9B15E2DB838A0A
310
FBB7E0C82A562127E0446894F427794C3037186F622BF24DE1B00AA10A23BFA47B2A180D6DA5AD6F7326FEB8C100C2D7142EB2A0B2A9D1008A09BA343D70E054AB69E2A7EDB783CBD92537FAF4A44D1296AC2792729104B3276C276C951D0CF3CF3F1E6B017720A7B8505A5FF9589365979678C36F1BAF759EAF57C60F1FF5
310
FE9DCF5F8E764FF25A2D06CF25117A8FED51884C13B2B750DB0E4F5E3D64124FCF11F0AD8F1CC3B3DA4B38ED22BF1CB2585EE6BFEBBA63FBFD44F9537B9B37BDD6B358720F98A8125AED4349CCFEB0E135F19E208A04CA7E2B10711185D72E381F448036EF57C9F874E54A971CA37A639E986AC0226DC5AA00D5B14FEA9192
310
234B3DE617814FC221C92F33F1D392F297731B567FD98FD91D989379AF567A65B8ADF177591DB90FBEA99BF4ED11B16E50A0AB1DBF1156D034BBE04D69D08F939D8E92BF525A1DDAFF80ECBC95D8F45D3FDD289FD23F7D8B452F8EBB34EC082DEEE68E18EDDF072060FAD2AB1504DD4879BF67099FC58F6E9DEFBF645D1633
310
4A3E9A127C6F1AF6132CF287E433B43A0EE93812B4AA0B194E03EE3FF91EF9C6ED0074A2F6EB18A96A7C9890B1FCDA1F2095E944DB911ED54C60DF16FB74C8CE9BDC7C54C4F14078CF73C2FFF1F1BBCCD7CF64F71407EA1683DBC410D226627F66E509060D5C0AFD611DE681D509DB8DD12FB1265B03C6F5C55FF4C30BD941
310
87FF692B4F152982502F193098A789526A038AB529A52BC0DC4FB6285CBAC10A8B8DB75DCD9BDABBB221E27D1F8DA9F5EE5926A1C8AA9BA9BC09239C6A7F12914EA3B59EFF7AAEC3FFCCE56F1C5C2980AD072793527565E774F4631DB178CEEC691B1F367BEA0CF2907E1D6B854D527065979DDEF002D8B2ACEA7CE21AE297
310
737EDE1D45B31233B73FEA35BCFDD0B09721FDBAF6432681F2FD10C3E9EFB246FD6E854B344ACC9D8A0EEF876A7314B49B6A499FC650B099D650DBFEC7638ADFD245E2B7839DA5AC5F7D5623FC0ECEEC8653FC9B2BDD1AD4D00A566FBA7186DD3C9CD26512551637498CADB950FEC71ADB9A5524285DE328B8EC7EC75D2345
310
AEC6A27C42AF6D9B92155315C80DBFCABBB7DA0FAE425C4FB896B15C9BFAC4FE67DF5A23D30C93DA4D8F36FB15D100050DA6062E22AEC5F4DAC4F6FEEF97AE05DE63C6D38F9E068A20BC5E3B6BCD75320C5090924E7F93640A7735B1A43451C2D91EE62C6238B797349E59890AF3A520DF4A87095F3ABEC2E61F0593416CE4
310
6CDCBE0E00E2523FCCD04408588B5B6C9DB6459C786CE378770B54F51DA3A5E1DF2A3349BEAAC234A6CF8993B598B3B25B4B113E353A4D750FA7534749430F3EBF2512E7EA3FD43C6AB9A1F765A58463B306721A15D224FAFE8C6F5E3432D57EE697DA0DD5A9D4866A8BCCAAA9DFF1F06047851408FEC060471D0E3EB86BFA
310
F46E4B5E60311DC3E3CEA147C75CF971BE74689507154FF2D2E92F15CDB2B9182B11459FD8ACAC5A85F174BC94A7F4EE4C4F5CAFA7C02E37BF0BC77B7DCD0C047BC316F562A01A441AFA7931CC84A28CB9F4AA367EB515778F29BFE61195FA671F4352E5E46E3A64773F1F76EE5EB36D7BCE9BCEAD837A4D77F8DB8C92AEEF
310
6711920D7C7D0F76B0FD0EB7AB83724CD35BCA7D36DDDF5FBB7FF6F04A91F3E2BB3B8F1A43CD659639507FF6331C5F697BCC782AE57D757A27D97F1AB9E0AEDB43F92F1B2AACDF5FEC8ADBAF9F814E2027003BA2F9E144B1938A7A04050AE5D953B82C45619165C813A10E76DD6906B3C16438064D14CDA713AEC420034613
310
E1AC7241904A49FBF87409AFB1FCB9B72FE7933A87D8FBEDACECE4EDCF6A4FE9FB94D5DEB74FAB7CFEAE17EE965DF980DCCA2D04134994F9A2E94D2265DA4FE6AA7B7AC15FACAC2B5ABBCD7DFF542C5314FDAB2E1B9D8B65220B8E2B638BE008E8DCA22678C820C5053664D15E89F2D735B51A84955E81A443545E9FF787BE
310
0FA700A76D136C27DA179A7C6E8939E01BE756E19CB292798063D8B97F44E8A27BCF3A614FEB8BE974A718E86F7EC99B53CA35FA24F61F2B07266684623A3D4CF073E511F3A10A8FDAFAF0078C577F4DF9D339FE7862E5FA47CF4344209E5BF76D783B1B48E152AD281B15FCB934DCDA49CEC5706B1EE8B460F435324A5CAD
310
154725E21AB8044B75A557A79F6C807B9340AA3D92503E866F4274412926C8C504E4D5EF8C0E68DD0B028781A6B4054F11CF18941F101C57CCC796773ABC8DED9CD91FE5788806C05E548895354AEAC96546D55B0E94A59F148D061F42AA398D822CDECA4CDE79E13469BDCC44FDC990F366BA5978C15F97ED80CBFD73B0CD
310
9B8B83A4F6845BDFBFAF034019473FB9A63BD55D3A4A7284757071574029A4D016DCCBE95DD679EF3C4880BF169422F8C89B68A988D2B13793CAED4F74DE7486C72DC94DF46B8E93D8E02EFCB1FF9B3BA10C8AE7F653DF94F4AF466CDDCEF5776687F7C4C14B63E4EED1719DC2EC482D7DBCC7AE518CDE3D5FF86D39000EC3
310
673C0044E1D308BF05F74D1B5F033A7D1BE7F74BC55BBE3E4A20F920946CA0271EB17BD2B80E5660ACB8A29A79F5E4BBA49D4D945B6EEF4A7EFEAA65E5555BBB57A7E15D2F83C69F30BBB978D2B39F1F26FC097424D39BB33CA3D87ABF64E307938B685BAD44F71556A30B7E712CA4FE600613C3E554B69ADE949A7CFE214D
310
F1FFF05CB82151EC6FC31950239F94CF7AD39DC473F6EA356E5EC2C4EFA04383CEFE985A127484366FBEE3C0EC4FEA363E4F6632AE781392FD45D67B63FB8DF70E82734F431FD3443172A0E30A83D60982D55FA6A2CF86DBA8382502ACC6CDEF3B907982EED1160E14863FA242F9757347E1544275CCDCF71ECD5F8621CBEA
310
326B8BA884AD7F825781923E66971F04010D574C541D8427A438A37EEF8AF88240EED7362C953F5A81DE2D56109CDE2524EA0F5D2F87308C0C47BD97AD605878AB8589E17CA83930CB5E0DCCD75853D68B1AB136594926DE426C367428E9334AFAFF90ECE221BB5DC9E5BB53D2CDEF954EAA9CD814F0E5725F1965DD458E5F
310
8487683AD86B9D0076BE3EE91EB1CECC5331A67A3F79D8B27587C12EC2A6A70474749F27B4C0BBAFB94B34189E88DC18964BE4121B9137FD516C7755356E50D6714E31ACD222621EBBCD1CFF81D87479056A9DA0E0B8EA19D24CF937DA89F78E8650CCBDC110AAB6C4E46DCBFD0446BA9E2060E81F314AC2031E88135E5476
310
AC0160EF5C0DD2EEF1B8B5CB2D198BE9A554A9093B5F7D7E4B5407DDFCA1D9C152FD97F55BFFFDFE802954DFEC8995B983E28AC92F1971E28F531DC407A1280EB125F64A72E617EFB27DFBCEDCDA2D6F2BDADA36873EE46B9BE1782998C63DA7182BC383FB6FD15DA472B175D7E8B4FC88F38D6E07FEAA3FA3CBB8F6B449EC
310
F14D2175E5C5CCA3A42ABF24CA6C9395AF74535F4DDB38CB84F56614B0FD32D7E19CA5CF988DB4449C40E23DF2B16772594554579094450F56F253CD25EA7F77366FB1CFE79696C428BB64D5A41E986189427E5E4D7E2DAE3D5BB4972B3DC44EAABDDDD63A2264ECFA5C786EB0EE1FDC5BE34FA0F08376869FD1E61EA06CAE
310
15191135445EE8F0394161C3266A596AA035572BB0C8876180D8B9C77D307DF9DCDF7365ABDA6F3A2366436457A4DFC1F259666569A9E4A79C817BDD5610E5200FCE894A358EC72858D50EF67545DA81C6FACE3D457BAF70367E1E6BDD9A952FB4F56247F58F523B97E640246051A72F79BE42FFA0B3187F63097F91C48B86
310
8586F714B0EBD5A00A8412C1236E1298F60C72BE6C96B82B404CADAA304AE9F303176B14BA53FBC2D5E86377E35542019E24D97B96A49B2C0E5006E7795954DEAF5DA58958839043C6C70BD3B1B33B6DC5C31316D8A6923F142E26F6711A2258AF977DDF1F970ECC4F1F2B434B96D81BEB6E89BF3BBB3C7C8CC80505070723
310
D6D7D7D3C8CA27CA164A26024FED94B12A86031867241DA53D929636DA600F050BC40CE48B8BA03D69224720DEE2ED2127390BDF5E6EA64527BBD4C4C63FA76BB801FEEC0E61218EC98A8A86CD8313781617877E66692839B9468CF4DB8E50A73986E558E309C0D6F676F921BE02F1185454DC75B111572FF9D27D85EA14C0
310
5AD7271225B391C4275659CA4A43759D0BA44639BE4C30A84DB7F67A41399FB95CBF923B1B1672ABC807C1590557FB18D811983FA97F5E609516D62281D38B1281F68FC75528C35E4CD7DF0F7DBB5E5DD69C414EBEA2F4A5B241B996BA77AE6C772E367408C633EA3E438B68563EA8BE7667F3A4C4FDEEA52ABD78A2820F44
310
3B7914A15F180018D231E64519C56A12F6CA7C8DAE18F06F6B769DBF92329EF6A5D18FBCE600F36BD8E8198DE5CDAA96181F3A756EBA5501CEE58F497EA4F418A2B82565B9BCC611713C0B708CCA1F398B78C5F7D03B3437CC18F13061F55C7BEDADD5ACB1DB0E36D3CE47FF6EA1A563A57E9649EA5D14D1A50EAA45746338
310
1C073777EF1600607BAF6428A7DDC079D47A204EF1E1F1F0589FB054D45E02CE623B3823C317C601E589E22B1E88B448524B86A82828E32345EC18AE17214B42F8C41C6D428016D9BA31DDCB47572561E5A402E5BA4FCE55F78AF7268524AA04130F3A20BA5D1E9F9948EA48FC8F5314FDB35E21898198060034ACE5E3E2BB
310
CA34092518F275190AF65F45867FF0900AA4B81F25427414C372BF51DC29AA855C5428EE1EEDD6B849AD60F6E73475C2D2523F8A2772C840A478DED18A8C5C91B085F255DC4F54EA7AA8947354FD17ECF8FB3B4A0DE7B483CAF3A1165EE05BBA413E5C1FEF3DE1D6B8F2F3F3251C17D9FCAB48A9AAF63AC773A0E413BBC46A
310
9ADF84A566FC920E4D8C52C9769EE3301CADEEEDD92B312E02E2A7E35B7F1E7D203FE5A7D75578B06E99D0E46FFADB8FDA17ED8880390DA29094202D6F645F76F6F96409CDA05495A96E84B04A00D1A6C6C81D7F3DE9376E828CCF144EE50E364ACCE7237EA0BFB5607ED1AC3CFE73794E5B61739D14DF1743441B1AC98F00
310
ECEDE9E7301FA29755FBEFA68C91EF2B314CF510537EF1ABFC9A762496280B546F5EDAAF8A5B387D469FC9A878A92828C88608453ACEC6094DCA54111E7AD5B2663DFE2DD151B7F123B9F4FEF8EE36AB125FD7AD52A59B1B765B3E3F73E3F73DEA93875004D2AFFE3CDE9493B87A9904DD052028949041A91DC0E1BA47BA71
310
4343FD5B25E0A6A09503AFC17C790058A836A324FE31D7893512E28230332F153181C1E018E1124EBE1BA262AA428A518237D1EA7275E48C5C561BD19ED6912EDD8367DA0F31E40EEAE9683DA9257525AEA7B632B97119E17145A90231768A4F3B9120FF32E8319B015E3CBE26F1A754177D8185345817C096B0CE443A955D
310
13AC15E1FB5DEEA0239EC32A3C92241A237B0B02FFCB4F93CF2B02570C8D192E2F2A68CEEB42F12E6F8CEEFF46C251E22B4341C56FB08CCE550E7A9D6F4D6564B9EA52A83D5BF2C6E03FA19D2775E15A8A7ACF30A13C259EE7F5EF2AC3BA354F1500E1A07FC63FB4686E2F12EC69719F9ECF5FE3F35598DF2CE944008CE78F
310
0911BA5BE5D0A34E0098FF038669C26030BA9B300303039852A8F6F496341737CA7E0D2E3AAA36DE0A70AA7D9CA0D54D9AD84B18A44C9E625475E1C97B93BEBB38DCE7D227E67A2D00F531436136355F243D1FC0D712C5765754FA22FCFFAE97919161F46D6E61ACB37D83777B385889770B50765B127768443A5C4D3A4E35
310
A3151111F146B7CA116F918A049F1C272F2CD7976C69A0068773451659A97E0F4A08FE604C3FF6CE7385DB19F4D3ABC8A0D80DA8A42096AC377DB49382B36E270B6FA7570188B4B7D1DDDDA82ACA487CCA5D38BD3BD039ADBAFA4ACFF27809239B722081E2EB9F145320553D183F28471C388BC8814E5045676767AB58A8E7
310
2D1CED2CA731379515D2E533E4CF0B39DFC625F97AC4836831A4DE330E87A8126FA17EBE583D614E71E22A8DBF2825599743E0640037303E8E1B1E8EA4E1ABFA4F62907B5E4E0E5DCFDAB417C36C6848A2B8D15F1E505434C0707E16B1CFC2A1C36A42BBF55734F8F4301DDC2A5110CEE8C0747F69519265012A2174BF4E95
310
5ECD4FDE095A3ABC70536B7AD0B9D7892F81287D667C108703C9B66A221E9A0929D030008F77FF6F5D2108EF5706FC87A3069B976F7C9FC3239D13D283CDEA83597461079FEEE049B0F392889898B7D87D31F8D60ED7B56B91823A8E4EDDB36C6172ECEE42BD42B12CD67994FA0F0DFAE9389356F4CD4425A4B8AA55CBF7EC
310
D585C6A2C2316791E43D5C06841ADBB226A87FD61515FFBB0167B74E56BD7F3E90A57A97FEDCBDF483A0D6699A8C0849CAEB4947FAA90D8E332D9DEBD9F4738C37DA0CAF9CF3DAA68BCB67C420459C7A64498D6E848E5CADE92BB6901F607AA331104A67F7CD650EE169B1DAE94D2C31C2F993632259B6957E246EFE4C5481
310
107B07118607700040E5812A2A2A38DA0076875258C753F60E0F2662C748EDD5F3F3686B8FC3BD6FE631ECCAA1E8B1C1E565AD117E54893E79F4672E32F9E46B2A183DFDCF3EECB4D4D077DBEA0DA254D256045109670050129E9B9B1A9E4A11344D61497A992778095151510C4BB7EF2009B63AA4360635312E4CF668B7E0
310
D3D85A8688E2BD83B569439892ADB63461930D428E0DE42E4AC57CE48DA5CC1449530D8BD3D6A0F08DF20C8E8F570F2CFFFCEA286E30969B4654D498A58D9DA782E19FE3F002181838925592C4A1EF0B332D88B61A92C644547BED490D3A42CFFAB70E36D961F694F6307F72FF15A1C79D5B1B5CEFD353D9E2B52566DEC8F8
310
F09CB3E8359C0F68EBBB7898243E34E12A015B2685AB303C04D3A9E00671FF3DFF0A184E4A2ABEB2B666AF5B3A209C73D8EF29DCDB069C9F391EEE9DD0F74C7BCDE16F8F02E3B8816122BBEB50665775B600549D8BB33A54A6BF940C028118BC6878C79958D6784F9DEAA6E26748386FFAF8D0D0101E2847B6563F5D8DC1D7
310
8F787BE00E2C941AE12148D4A81599FE8F68D4DA5CDED75530ADE138240300EE13B0FC13A1687FED6774662C05A2B7DFB186732F0D7A93545D8B0A6390AE5054D9CB582DA846D7A061B3358B45E2B52DDE63E114397EDB7E09233A579155D795BE76102CF277F4DF8B188C4F2879BEAE3C08347124BF9ED23B128259FE107D
310
31E34A652F090B30B39E0D9AF917B76A2806135621A8A60681F16AF216514BBD02711585B5B1AE823F4B2D0369EA5B6BCB863072727FFC871CA6C9AB79A814D989057E9470A3D238BC87CBB4A0EA49AFE2B86F22E499793CAA9047080450166BDC357524561E258C77CB697F1ABB32562CF87C3B7AA12F911EF19FB3E5C022
310
22E887D08202A60A17151F5E053A86B437771088B4FEE14D652C43E8D939995D34545E12E2FF93D4E366EAD25F10CB7DED141563C3D0C447AF06078A91135FD4B9611583CB4BF3BD167F2399CEAB0E0100F8FFC305F00F1711717173138B4B48C83022295DE657EFEDD97F238ECA80F528AFB4F8D67AD4E2594B9A3AA86D74
310
87EFC313BA95745C186F0CDD84CC12DC9CB0424B42203D351FD9C0A3AF10CC7F388E0329279087386421F194F4A29464C1DEF7EF8BE515E4A199DCD5B909342598D8FE6A231F71336248D5CEC5454455C7BE383B3BC7B260FED27F703FDC39A170F3827239102F59D4DEE7FEF82EAA1A5E4BA94DCC4CC44E7E2EDE20F24244
310
E4454369D2E87C3F823F193FD4FD27E1C23984B01898D15ABC20711A8A558054951A6AE280096BA36CBA439603B7B0B4C45F248C14B2383B4B5CD8ECECE4FF859AD4A6CA2326D020EF090F4041D28DB66E5256B56232CC52829DE8060BAE6BBF37D4B7469B822454FE93210A3E8D15E69FFCF01123222611C51C4FD0A041A0
310
CFA2471CF6BE38D2B20FA4C3525B5B8B586759475CF80ADFE67A284AC24651E52B8E683D24C2622642F27E7C3C22783BCF63648BC398BD6CD0D9C97E7E7E3EACB6126DB7A6C1FD9F1031302EE67ED96F22B77C7CA0239BB324207559B105E4693EB26EC46182A92C9C0DBD24F29B31C5C5AC1F84300E0E17CEEAC15F5736FA
310
4A98971E2F1423BFCD68D4BBD5F86E74B40A369F39507C88FCDB35D2DD8DEBEA4AF999E23CF2816D204200DF6E611781B9884C1AC8888B4DE397320472959434323A5A36B22A8E1F721A270DF3BD65E4A31C11FF048AFB0D8B7B6881423793963A23CFCE935FC189ED36FAE35C46DA3574C979E4394BE52084F3081837BE03
310
3396D2EBD80F1F691B273F660D2B32FA27A33B1DE4ADA5F0FA4651511102DFA410DDA86E065272CA314D5249DF91B06BB92807B28EFD54F08F7B525252782CD276DD02E6B0319B13DF87B1F6361AD6B28FC0D711CF445429B9E5A433CD493051C49A9E03DDB1B147D880253514A5DED88009018620EE229101C041950E2D8A
310
A8E1F5F5438E0C0C0C60EEDEE9E3E0C051948C69F84BB7B2A48A1F3C8EB9E6864687F4F4F6F6E2FA87608ADAF9C5E117B7C1A737E710769DA1D15ECE6A84502AA855398712D5FB51BE92E4EF824969CE18278798AC303C2C7980DD2500ADF8FB1E6D6C2FAAFF9987178923334A244758BAA01A9A1B70FA5097D01E1CC2A58D
310
AD0EC94CE6430AA9B0C10D75E3C6BAC670EFBADEE1607739CE0FC18A2587E3EC3058562014C64219C69BC269082D5C2F4A659278D585755912176D78A1B641719C2A394CED495A1AC5D583FD2F5EDD93308EA7EAE8A6DD396598BDBD3D4CFED62D18A5BDFDE0DD5C80D1A89BA62697B131AE7CE9A6594138582F1B37D68F17
310
49AC7CB67A70695D48A4A056AC1FBD4E82358CEAE38F54B95A9016F9000F9879C0D9D131768635CA798895F27D6F1614F11F2838A83611AA51C9A3DDB539D42979C29F10465655C17BEC3E2760B80DCBF609198C7B171A531905F3EC218D696025975E986C6B4C666666787271F202805577DD5A3EF0CAFAF91B62DC4B2DB4
310
217A7606282F31D8DDBC290593BAA93EA6353AFA9939B877978481E15CFC9F2755CDC00C538F63A4BA3E80AE009B73CA0185687D339A507D165B74290D6EE46D5C58148F020C3668ABE9EF2F7549170DC80DB41FFC1D678FF19AEB10C7133832B104B80F691B3138F97A92D26E551F1F110400D45AC71A9B9AC41A1A1B1DAE
310
ED0B0810638EFFB511D46B121C6FEA0F38CD00E03CFFEB9713FE1F9C263E4DDEC160D0497FA9A132BA608584057FB15380825DE6C7FC3C667EE947D488A09898D8E939C4953BF4EC9836344D2CC6B2971B2A21A572B06096F4982D2CC7232D46E8EA69DC83722E267754D777F97F96D5DA74E1E75178084D0E70F12AD33E5F
310
71EF2AFA599B2BEBF60A5BE475F444F240CBFE8143C334E7ED9150FEEFEF7EB020C4DBED388DD1D6A167A76F3CBF119B578AE8CFA7736ACAFA4440A1C47185638A0D2F3EB5BDDEFDA958FB13CE4AA4923D5BF840392D45544329525749734866684BF7F8D9D54D892E19BCA9F829A0F8BFCBEEA6CFDFC61D74EA1A645ED7A1
310
FF241739F15694BD835B66FEC5677E40FE69BD3F91AE402F036537218A401CB0828604AD189E575015C6F3F6BBC8AC79CF6C70653847254B31551EFCBEB5978B9DB85D58D0FA41A9DFE9C624834AA04949D24B5AE6D299E072D152D12097920F14AA92C31C3B97E28B6C2E6E9C23D63043ECBBC0A60FDF5BD0C33C127EA8A3
310
308B8B6AFFEB28B4455BF6E7AF4FC6222728357EB8E46E85053E6A8843AB23295BF838ABDA94658FEF3F832F147046B4ACD6F7D48E8FCC9618582961C898D1C7A253C91BFECBDA6BA18A1FCF70755DCCEE2222F41B76D23CA98D0CB3D95F0CF66D57FFF65E2A90F5DF40FC3187621E981BD0BC1D992787212688976B94A8F0
310
C6EF646624B570B78E068826F87CE27041A95C9A4871FF65CC17FCB1639629AD6A9517000D63AC231F3D741CB8430777E7ECF80CE7A3F73C0F162F7E56AA71F4DA80A33CD6ACEE78E2C11FAC03DAFCE929B106F8F6B3ED2DC71FF994BD9CEF4E9A94896EF1B6E2B7B4978168BCF0847A3D2A4F1B0500B926E634B174548E9F
310
BAD27153FB5FC36799B1E6C7C38A94E1F9E996796D7B485E635D5287A2AE76FBD11A341DB3F8F810385BB7296391973DC6C37C452A9305AEBBE0CDB6C566DB59FE60C8E94B1FD090354BF51439FFD1B48D725228FFA88C84F686F547107A7A235665A4593B7C34D748C1AC8D56DD5DA861EEFBADDECBBD65117E65851F9035
310
1AEB65F0EFCFF4BCFEF24CB7A5879699FAC437A7AF9099186CF006BB923A59E37D7A36A29FD8D2CBB914A5E9D0A8FD212FBF796AE9A67958FF1D5D8B85F78F96219D4714EB919929241B6C018AAE0C02069F8D919961EC5DDFBFB7573E3AC8E08BFB7C8534BE6DE045B3CD63DBD71F7638BA2309CAE398EA3A7D8F98BBBC7A
310
EB367EFA5CFA27A9F8F2F52FE878058E6209C026453F8E7E8A237DFC389E9590F6059B397CFD65183BBF936E86896612A5B5FEE49DAC8455D026218AFEBEC12B3523A45B57B82C9C97E02ACFA1184DB18E48CF615DBF39C3CC6F0B4AE6BBEEA2E39D944E290302FA3DE33FA7E40296E2EF7BF1CD855BBECFAD0FD622BEE974
310
6FC4FDFDE545AE6E3BC234CADF83A0FB76DFB145BF3828AE3436368AC24989454F8FF70A177672C711CAA1A76107218CF948CA01F873520E7A2B118EBB161ABAD432932029628B6761590C98AB590C8C8C79798CE9F715BA696E839E9131A4BB68BE923F1747FBFF165331FFDD4D05997ACD168F12CA75348DAC04C7F509FE
310
83898A8B421181AF492861CE81E4A2DD0A30850CFA95E05F097FF70F9E777310D584A75BA7018922E271DAB1D785671157685B7D383D3E074DDB4F1E44EF04B07BAAC75A062077C54B9752C738C9D804D402E02851F3F89605AF189738C18C021D2139EAF72513824E10DDD3047BACC8521ED7E98B257D1166903B1B08FA6F
310
918FD7E162913FEC7D0EF4787E29C35FBA8C6E2C9C20E9AB30AE42CA2A01A090E7D010C1B5BF9CEE2A304BF3A987FB40D836979B79E18D70F257DA61E808472DD85B82761825779D6B90CAEB0F23360C6F80A7D7D77545E95B3DFF0CF96A827F9B5BCECD2C9698718417EF80FEEDEE938AFF55859D0D540B7FE09435583A6F
310
04874A0C7E8CF234DF4879722000167F5872CEC6BF3EF7E5A8CC8121E6A359227C8A29C95212F9F735BC72A887D56B8F309FC525BFB4FD767AAEC4AEFF249CFBBD2DE1AB9969A6155C7D8DABC307E47324C1F916C7BCFF40ABA5644E9FFB9238D19ADADA49D9610F01ABBA57E4DFCBDCCBB2B93C8953206C91DE01B0E2651A
310
6D6C31721915B31F7B7CBCE55466F6D70402788FA91D73BE4ADCBA99A35F17D6B83383704917D6833F0FA3CD45C926ADB8BC17999A4A0AFBCE2541F7B8CF4C2F5FBA611B3E626D64407CB32C122DFF4EF8674D6EDBB86C8F7C6A16D50FA685E2CCA34F8F7D1D8265BB0042E9D7F1F666F7BE5FAA5184DF58E12122A42EF02F
310
461B3F369AC746F96528AD208512AB56844CF75B97F352DF7995024FB02855385854F3798670D01CAC771AC3E1889EC25F61A20C1F8CAB46898817F9C47E2CDA1F286BF2F358298709FE567C91133E2638C8B53975E753EA8BFD3578B5F7186B7BF084EBA3F77BAC3132A5779902EC22AF2D2E79F42D324E083386DAEE9810
310
D1B44A5DAA54513C7A71E52A4AB9257D975B621308FE4D2141CC3DCFE946C154A3C1DFCCA7629EC69ACFA831634ADDA93C0388D2A9A2DDAFCF957C6995BCE7FBB6DC4EBAE79E63EB08E9A25F52F67076F7093CA545CA3053B5BF576DEAD4E0017143C5F759F32B2D6F145B52B67B48909B7C7FCA6586EE385A2189C16932CB
310
6DDFD9152AE317C430492A578ED27B72D85D40C7C93C097939E1B50F4D67F05334FE9DC362C30B7FF561B95259138ECFD9274C8D695C31B14D4EAA9F3D7FA8DDF652F8C5DEFA23284C799B7D94416DEE81E05A866302DC70192A5368EA65E1CED8BF107A1E2D3119A71E85DC1A7B0C1E93274CE04DD0F2ABC8AC7C987FDB00
310
2B6F81757B43502EF7A0D92E416494FAEEA4C9C090CD9557AA4D532F4996A272B94355C5A0E4974EEA9627476F30809B94D8D8D860062E02204643BEC7D0438AF800FC7E2B26955D595421E83C69E1A07E0E3122285835F014AD538188CF9737CE76D464A353FA55A001AB2526B84E985083693BC76FE211CA1D000679C889
310
E3C009832C87E1AC2EDD05C302557422DF0800E316FCAC86978A371F025A6C7DAA9F333E7BD160403A1A06EA75AA9888FF01504B0304140006080800C7031D4B51464CB48900000043010000360000006662782F44373331333133412D374235382D344642412D394239322D3634464143383841413543392F646972656374
310
6F72792E786D6C9D8F310EC2300C45AF127987122606C71DD918B841D4B851A43646695A717C52A85029031293A5A76FBF6FACEF7DA7264E43906840EF0FA03836E242F406C6DCEE4EA06AC22492573150D1F66C60C640E8938CB705396EEDD86DE9B5042FE27813D640EA63BB001C722AF6E55CB61E4863F58284D5D3F53D
310
D715CE1C3985E63FD7F1B7EBDD617E9F1E504B0304140006080800C7031D4B539C729B3B070000211C0000340000006662782F44373331333133412D374235382D344642412D394239322D3634464143383841413543392F6F626A656374732E786D6CDD59598FDB3610FE2B84FAD23E58876F075A073EE2C048370962A4E8
310
9B40CBB4975D5DA0A45DBBBFBE438A9445AD6C6B730041D7C05AA6A8E1CC37F7C87D7B0C03F444584AE3E8CE704CDB4024F2E31D8D0E77469EED3B6303BD9D2297C57156D967A00887E4CEE0CBC6D43DB0384FE4D28EEC711ED45757F3BF51EA938818C80F709ADE19A9FF40426CE23C8B77247D347738C3E6617F341DB3D8
310
A8933D309C3CD48E4A30235106ACC27A045424078EFE1344B2A6AEC53768DB7AEDB675AF6CB384E03AA3344A331CF92FB8AA1DD7BDC055EDB89ED35FBEEB0E269D41BFDFEBF4875DA7335FCD971D67D4B317C3C562327B3731D0D4DDC671502A2021D10EB47832A68E6BF13BA5F8128526BEFD388A882FD16CDAB023922E25
310
691D130D584788565148216B65A1D752F80BDB5A81A2B1A4A1AD8453DF55EB8DB7FF0008691B2B6529E1569E660C742DB12FFCC176AD6255D30B4D518833C2280E5040B70C3350106C2D14A491E1DEC249218E99D0A2A257E5150CFBB62F3571B9CF8380FBAF31159EE6813F922C159CD17F093B735F3D0D780269731A6563
310
296C764A80C4C4B5C46271AFD795370B20D13EC007B01610936FEA756B782D782C582F8DE987D5F6B8E1F1A1F9F084C5096119B73CE1CCD2EF94062BA605C6D7029402575D776754BE00F41F01F99217E482E6183DF68F7D253BC351BA8F5908DA4136EAD8F0CF46FCF2C5956B950F4F11D262E5254CC16D7F10A69A18DAD9
310
1548A7EE13187DCC7A52B88D8F03B0E97B1A713F074341410C4B10EFF7DBA3315D43308545780A07203D7C5C8B5F22F82AE840BCA969A829FCB650947298BA9F9D75F51E6C8651BF549526E3257C073F04DFD972F36193B33DF6C9BD74EC25D9D38866904C9B19D240D75CFEEBFAA3F0C8F9E94F7CAAFAA0B6CB87730E310F
310
1C0D7AD948BD20A1186085E7E1423562E59E82BB07018E489CA772BD2950F97110336F7BF20A1F6E3CEB2F6504C561D2021A831964779FD18483624CA5BACA48689E714AC1C43093267828D4EA6DF330F17018E7118FB52F6DB1CE07041A6E8A4055505396ADDC5691DDD1FD3E4F217A35925C68404A8756840B13EF43206B
310
E297913DC39045E3C8A39084C15B1A4FD00E28C1BBCE734A82BD4783200FBD3D0D209178214E2ED06F294135753D92D373CC768D0475CB524EA96C88032E815520A97455047DA953469E28AF33454253E940DB210B5163DABF902F78AA68005419A330F3D16C614F9CFEB8335B38A34E7F65CF3B9377F35967B4E8D9C3C56A
310
D11D8D56753E55B8AA263C5025AF7334FFCB1EF2701B611AC00D2E36DE256FDE8AF47967416CB496A39E031F386C3E18C3D970EC643EE97686FDD56C311ECF6683C5C462248D73E693D4EA5AB6A74C32890E97B852DCBD0CA250D7DCCE764A5F7561FEBF41F47D3D29684AFC55836819BB1A2AC2B641943F5A0FA1D87FE439
310
CAF3A1EC6B749F5A10ADF3D114E75E19976DB3678B3FC79974ED49773C1996C67E35508B73BE3BCE3549E043E399675E9C609F66CD09B5864BCB38FDAADC62F69C010274CAFFE521D7F38C3CC4A3213E106F8F799BD010186F49D098C30E419CA63422A968F35E947F359AB609D5949E731B8C90A65E4832FC2DF627FA869A
310
4D436C0E3C6848333E12B8591594062D5B904B1479FB0B895BC87FF2521C2641D1EADEC2C0E92A085493D364719C697EC413D89B8733CFDE1131B9B845BD645FD5078D5AAB539F7C33F90BF0A8BAE627C2A38E685F3A990367C2FFC610548603A737528AB885953A2AE38D5C9043EBE99FBC67420F0FAD0ACD763AA9946C45
310
519D9110FA589CE5AC95BF0E07F68B83645CA83944E5A4571687A281532D1CA0273AB84BE56DE518A843690483AE5682BC90A2D184852EC4508FCFAE5EE1D757955DA5FADDF1F2A757CC55E70BC5F4E7360E502D170158461FADA66EACBAB57A287DC6990F817423BE3B73F0881DD99D1B338D5C5389AEEAD35BD5F39A07D4
310
1046B698C7D97B7E117CC1A06A689F534B166D56B1BEE689CD84E9F4990F8D699DD6A7F79B1A155869FDF4678E1179AE5190AB0BDE0D5F21F5757D6EFA6B14A4445FD7571EFF253A0AA5C0CA1C0DC6C1691C5098CA931D3A9018B2378C1D5A741B2C24A9C8CA60BC3248A957022D9E7E2A86AA19DE06EA69FF01C3643A90BD
310
58EEC3541432E69D21D7D16F3007E5A348319D321FA10D9331CC4039A37706586C46A1DB32B730CF12D34341BD36AF04C7C6D181E7FBE2A9F2F7F9318E0E44A5B35CE59E36B848C9346782C236112F0AA0EA2B6E4CDD6F175DB183700697DB3C2B85392F9CA59120A83702857030F67B94F01EA1A0B82E97638A3D1A24AD46
310
F357EDA0A0DAC9303B88F97A05EFD9F2B3C547E3EB4F2809F20357E7B5EE57A3D4E15D7790175328170C438A99605E432EDE589F590CEF9842B4A26004E8F7E378F887B588C3308E8A256B26DF54A1CD03BC77DA596AE6076DBCED0C2C310590737D6F8B5362E25DFA080BA05A46F970B480583380329A560C406984EB021E
310
D3F6AF9748D64695094935EC7278C4501F8123F19739DC6DAA1B2A1348F005E04ADC3C5FA805D76230059FFE07504B0304140006080800C7031D4BC15C590DE1000000550100003C0000006662782F44373331333133412D374235382D344642412D394239322D3634464143383841413543392F7265736F75726365732F32
310
2F636E782E786D6C4D90DD6A032110855F45845EAEBA9B42D3E09A97E8556F82752756A2CEE24F69DEBE9A5AE8D50CE77C0C678E3C7F074FBE20658771A53313944034B8B968575ACB753A5272563221967F18255107586997A9923661DD87B4C15557DF55EFE26D88E262214272E6B2474B89F13AE79566F30941335D0B6E
310
906F6CD345B39925C858938176A2B800E38449A00B6C542D627E99C4715A5EDF84381DC4697E7E97BC934A7E20FAC1BB5820E1FEB408836D8D2D9190BC034AD6E406D5DF68C65F3CD6E249DE6C257349AD838195FBDE3017B405FE407E5D25797FB28D47036DF642D40F504B0304140006080800C7031D4BFF15A4A45D0000
310
00800000003A0000006662782F44373331333133412D374235382D344642412D394239322D3634464143383841413543392F7265736F75726365732F636E782E786D6C4D8B3B0E80201005AF42B6F75B59F0390B113044D83508C6E30BC6C26AF226F3B8BA6360974DA7271430F523308B2B198F9B80925DB700539227A2FC
310
CB80A18E5640D320F996A81C9F32D6E9129A0D1EF74FCE750E6D57BC7165FBCA07504B0304140006080800C7031D4B2900E3504301000056050000300000006662782F44373331333133412D374235382D344642412D394239322D3634464143383841413543392F636E782E786D6CCD94C14E032110865F6543E27159B69A
310
581B96261E7C020FC61BCB4EB75816363018FBF642DDB61AD3E8A1497B23C347F2FF333FC3971F8329DEC107ED6C436ACA480156B94EDBBE211157E59C144BC1BD73F80D2385950334249789E0BD77719C4A1DAC6434B96AB4DD4C4589E8751B1102299491213424A8350C92CA88AE83B0A19D44496BEA21B8E815A4F7A807
310
98DE2B0F12A12362C6EAFB92CDCBD9C333638B5BB6A8EF5E799549C15BE7CCC46B8BE0DD783363CAA5A34D7218AF322078F47AA2B207228EDA68AB2DAFD2BDE021E9B5FDC4E176CCDC381AAD24A646554E216099209003AFBE60C1ABECF887EFA7C797A38674EAB40785CE6F2FD686FA541B0ED2684AC4FFBAB003FF32EFDA
310
B764F972733F6978127636BBFBE48614DDDF49487992B637D7F8010ED2CE9FFFB45850AB6B34BD577626CFD56E05A6C1E78D283E01504B0304140006080800C7031D4B46F9AA0E7F000000A30000000B0000006662782F636E782E786D6C4D8CD10AC22018855F45FE7BABD5D614D4A18BBDC7686E48CE3F6C468F9FC62EE2
310
5C7CF071CE11DD67F5E46DE3CB6190501D4E406CB8E3E4C222216D3365403A2522E2F6570312C6D54A281A945822A6E7AE263B8FC917EB5D78ECF2D65EAA1C4D5BD3305A0F46536EF8995EEB41F78C69DDF43C2F8E6592F1FBCB2CF7EA0B504B0304140006080800C7031D4BA6D797065F0000008200000007000000636E78
310
2E786D6C4DCB3B0E80201045D1AD90E9FD7516806B51190811670C8A61F982B1B0BAC9C97B72CA7B1037C6D3332918DA1E04D2CAC69353902EDB8C20262D23F3F59B81A079470595414B17391D1F19B4730A5583A7ED43BBE4025D9592775E5ADFFA01504B0304140006080800C7031D4BECFD112DA8000000260100001300
310
00005B436F6E74656E745F54797065735D2E786D6C7D4F4B0EC22010BD0A61DF525D18634ABB506FE00510A79458060253536F2FD89D5197F3FED3F68B9BD80362B21E25DFD40D6780DADF2C1AC9671AAA3D677DD75E9E0112CB5A4C928F44E12044D22338956A1F003333F8E814E5331A1194BE2B0362DB343BA13D122055
310
543278D79E6050F344ECBC6478EDCD76CE8EABAE5449AE4298AC56946789C28AAFBEABC53F3EAF09A84A1441B91F0101CD4780756578C173A578FFDDBD00504B0304140006080800C7031D4B3DEE336E64000000790000001B0000006175746F6465736B2D64657369676E2D7061636B6167652E786D6C35CBC10E83200C00
310
D05F21DCA56CA76D41FC96062B120735B69A7DBE268BB7777961F8D5AF396893C2ADB70FE7ADA196782C2DF776D7A97B5933C430F15651E5469C55D70F80A4992A3ADC954792C525AE70A1E4D6AD9816CC044FEFDF01FE3FDE907802504B0304140006080800C7031D4B25BBB64EF30000008E0100003D0000006662782F44
310
373331333133412D374235382D344642412D394239322D3634464143383841413543392F7265736F75726365732F322F636F72652E786D6C8550CB6EC32010FC156BEFD8605B098E3051A3C65FD0536F08888B1283C5A3EAE71762576A4F3DED6A76667677D8F96B79549FDA07E3EC08A4C650692B9D32761E21C51BA2509D
310
39F3CEC55F34A8AC58F4080506CE66EFD2BA43D2D9A86D41AD537A0745083A42251FB91921C80FBD885AA49819E15EAF42DEC5AC6B526F3CCE52326A971A95DDCCCD680F7C38F4A49D5E0F885EBB09F5F47245C3D462D493E142C9D01DE94BC79A22E62C9AE567BBF45A44AD80B7981C11A6A81DDE303E75F844FA77D61426
310
6721FAFCF3BEB47C97E9ACD9D03F6E6955FFBB256363D7EE6E9B220027F9B8E780B3A6A493CB33BA5C4B92FC1B504B0304140006080800C7031D4BD9EECC6FF8000000960100003B0000006662782F44373331333133412D374235382D344642412D394239322D3634464143383841413543392F7265736F75726365732F63
310
6F72652E786D6C8550CB6E833010FC15B477830D2881C8386AD4F0053DF566990DB5126CE447D5CFAF1DA8D49E7ADAD5ECCCECEEF0F3D7F2283ED1796DCD00ACA450A05176D2661E20861BE9A0380BEEAC0DBF685018B9E0001906C16767E3BA43CA9A8026A3C64EB883D27B0C50A8476A06F0EA031759CA1812C3DFCB55AA
310
BB9CB164E5C6133C463DED523D25377DD3E840F48796D5E3EB8174D766246D77B9927EAC2969597FE958DF1CBB978657592C78D0CBCF76E550069C40D4941D09ED48DDBF517A6AE889B5EFBCCA4CC17D70E9E77D69FE0E84436FA353E879B54DFFB8C675FADF356A139A7A77DD141E044B473E07825739A5549E11A69A1315
310
DF504B0304140006080800C7031D4BF0D50922F3000000B1010000310000006662782F44373331333133412D374235382D344642412D394239322D3634464143383841413543392F636F72652E786D6C8D50CD8E8320187C15F3DD5151BB6A8334DA4D9F604F7B23402D6905C3CF661F7FA1BAC9EEADE1F0916186996FC8E9
310
7B79645FD23A65F400382F21939A1BA1F43C40F057D44176A2C41AE3FFD020D36C910324182899AD09EB0E71A3BDD409D546C81D64CE490F197FC4CB008EDFE4C272167C64B87BBE327E67B3CC71BEF128F16AF995722B9997026855E216951DAAFA8FB23CD6E511379FA4484C4A425062B75222BAABAB9216E87B5BE37846
310
D44E870E35976944FDD457E8ADB98CE7AE1BC7C3B927451253E2BC8D3BEF9FA4ED5E956FC27F99C32A5EC8ACB4AFABDD705338A038E6793E5052A402E378B61B672A9BFE00504B0304140006080800C7031D4B68A4A79D53010000DD0200000C0000006662782F636F72652E786D6C8D525D6F832014FD2B867714D4B4DA20
310
CD9AB5BF604F7BA3481DA9824130FDF9033FD2F9B06E314172EEBDE7DC7302393EBA361A8519A45615C0310291505CD752351570F6060B101D29315ADB1F6D2052AC13150830A0A431DAF50BC4B5B2420554E95A2C201B066141C45B7FA9C0C0BF44C762E6ACEF18EE71CFF89D3522C6F1DC478973B25E4665EDD9E44D0A03
310
68B9CB717A79DFC1E29C5D605E9CCEB0BCA408E6B83C15B8CCF6C55B4692304C8995DDAACE8D6056D480A608EF212A605A7E2074C8D001E79F24099D940CD678CF8B687007E8EDFA20C98C6FF85C5FFFCDE7A4B259BAF0CD1303A0D8AF37152849423EFE3785B7CDD00BFBFC2CBBB6AB85BB8746C1AD36B9AFD4DA3D4B236B
310
9DF0D4289A3E92CC55CF3C11FCC693BEE079CDE18362AAF1AB31EBAF576783FA76A75E1838DA47A4B4E958FB5C6E5EF1793E853696D671AE5B6DFE33BD5A5DC34CC2C3A4DF504B0304140006080800C7031D4B83E6506407010000B201000008000000636F72652E786D6C8D50416EC32010FC0ADA3B36D85682234CD4A8F1
310
0B7AEA8D1AE2A0D860018EDADF1712576A6F3D2D9A99DD19861F3FE709DDB50FC6D90E684100693B3865ECD8C11A2F98013A0AEE9D8BBF6480AC9C75071906C147EFD665830667A3B619B54EE90D9421E8086898D2A383305CF52C0BB9C6A408B76291C34D8EBAA0C553277834F3CFEAE0B58C5A81A808DD63C270D5BE1172
310
A8C98136EFBCCC4AC1D7D5A8CDCAA8E46E2E467B10EDAEA155FFBAC3EC5CF7B861A7336EFB8AE086B62746DB7ACF5E6A5EE665C143F4E9CFDB919433A220EFD997974F4AF00FE7A64D904229E4ECF40582F032137F42AF8BFA476863635D6D079F1B01044D811E4432CE0DA6F1A837CDDCB6F806504B010214001400060808
310
00C7031D4B0000000000000000000000003700000000000000000000000000000000006662782F44373331333133412D374235382D344642412D394239322D3634464143383841413543392F617474726962757465732E62696E504B01021400140006080800C7031D4B000000000000000000000000350000000000000000
310
0000000000550000006662782F44373331333133412D374235382D344642412D394239322D3634464143383841413543392F76657274696365732E62696E504B01021400140006080800C7031D4BF270F13306000000040000003600000000000000000000000000A80000006662782F44373331333133412D374235382D34
310
4642412D394239322D3634464143383841413543392F747269616E676C65732E62696E504B01021400140006080800C7031D4B88E57597CD3F0000904100004200000000000000000000000000020100006662782F44373331333133412D374235382D344642412D394239322D3634464143383841413543392F7265736F75
310
726365732F322F305F67656E657269632E706E67504B01021400140006080800C7031D4B51464CB4890000004301000036000000000000000000000000002F4100006662782F44373331333133412D374235382D344642412D394239322D3634464143383841413543392F6469726563746F72792E786D6C504B0102140014
310
0006080800C7031D4B539C729B3B070000211C000034000000000000000000000000000C4200006662782F44373331333133412D374235382D344642412D394239322D3634464143383841413543392F6F626A656374732E786D6C504B01021400140006080800C7031D4BC15C590DE1000000550100003C00000000000000
310
000000000000994900006662782F44373331333133412D374235382D344642412D394239322D3634464143383841413543392F7265736F75726365732F322F636E782E786D6C504B01021400140006080800C7031D4BFF15A4A45D000000800000003A00000000000000000000000000D44A00006662782F44373331333133
310
412D374235382D344642412D394239322D3634464143383841413543392F7265736F75726365732F636E782E786D6C504B01021400140006080800C7031D4B2900E35043010000560500003000000000000000000000000000894B00006662782F44373331333133412D374235382D344642412D394239322D363446414338
310
3841413543392F636E782E786D6C504B01021400140006080800C7031D4B46F9AA0E7F000000A30000000B000000000000000000000000001A4D00006662782F636E782E786D6C504B01021400140006080800C7031D4BA6D797065F000000820000000700000000000000000000000000C24D0000636E782E786D6C504B01
310
021400140006080800C7031D4BECFD112DA8000000260100001300000000000000000000000000464E00005B436F6E74656E745F54797065735D2E786D6C504B01021400140006080800C7031D4B3DEE336E64000000790000001B000000000000000000000000001F4F00006175746F6465736B2D64657369676E2D706163
310
6B6167652E786D6C504B01021400140006080800C7031D4B25BBB64EF30000008E0100003D00000000000000000000000000BC4F00006662782F44373331333133412D374235382D344642412D394239322D3634464143383841413543392F7265736F75726365732F322F636F72652E786D6C504B01021400140006080800
310
C7031D4BD9EECC6FF8000000960100003B000000000000000000000000000A5100006662782F44373331333133412D374235382D344642412D394239322D3634464143383841413543392F7265736F75726365732F636F72652E786D6C504B01021400140006080800C7031D4BF0D50922F3000000B1010000310000000000
310
00000000000000005B5200006662782F44373331333133412D374235382D344642412D394239322D3634464143383841413543392F636F72652E786D6C504B01021400140006080800C7031D4B68A4A79D53010000DD0200000C000000000000000000000000009D5300006662782F636F72652E786D6C504B010214001400
310
06080800C7031D4B83E6506407010000B201000008000000000000000000000000001A550000636F72652E786D6C504B050600000000120012002D060000475600000000
  0
XRECORD
  5
17
102
{ACAD_REACTORS
330
12
102
}
330
12
100
AcDbXrecord
280
     1
270
     1
271
     1
  0
XRECORD
  5
16
102
{ACAD_REACTORS
330
12
102
}
330
12
100
AcDbXrecord
280
     1
270
     1
271
     1
  0
XRECORD
  5
18
102
{ACAD_REACTORS
330
12
102
}
330
12
100
AcDbXrecord
280
     1
270
     1
271
     1
  0
XRECORD
  5
15
102
{ACAD_REACTORS
330
12
102
}
330
12
100
AcDbXrecord
280
     1
270
     1
271
     1
  0
XRECORD
  5
24
102
{ACAD_REACTORS
330
22
102
}
330
22
100
AcDbXrecord
280
     1
270
     1
271
     1
  0
XRECORD
  5
23
102
{ACAD_REACTORS
330
22
102
}
330
22
100
AcDbXrecord
280
     1
270
     1
271
     1
  0
XRECORD
  5
27
102
{ACAD_REACTORS
330
22
102
}
330
22
100
AcDbXrecord
280
     1
270
     1
271
     1
  0
XRECORD
  5
26
102
{ACAD_REACTORS
330
22
102
}
330
22
100
AcDbXrecord
280
     1
270
     1
271
     1
  0
XRECORD
  5
28
102
{ACAD_REACTORS
330
22
102
}
330
22
100
AcDbXrecord
280
     1
270
     1
271
     1
  0
XRECORD
  5
25
102
{ACAD_REACTORS
330
22
102
}
330
22
100
AcDbXrecord
280
     1
270
     1
271
     1
  0
XRECORD
  5
AD1
102
{ACAD_REACTORS
330
AD0
102
}
330
AD0
100
AcDbXrecord
280
     1
102
ACAD_ROUNDTRIP_2012_MLEADER_STYLE
298
     1
  0
XRECORD
  5
AD3
102
{ACAD_REACTORS
330
AD2
102
}
330
AD2
100
AcDbXrecord
280
     1
102
DISPLAYNAME
  1
Imperial24
102
FLAGS
 90
        0
  0
CELLSTYLEMAP
  5
A8E
102
{ACAD_REACTORS
330
A8D
102
}
330
A8D
100
AcDbCellStyleMap
 90
        3
300
CELLSTYLE
  1
TABLEFORMAT_BEGIN
 90
        5
170
     1
 91
        0
 92
    32768
 62
   257
 93
        1
300
CONTENTFORMAT
  1
CONTENTFORMAT_BEGIN
 90
        0
 91
        0
 92
      512
 93
        0
300

 40
0.0
140
1.0
 94
        5
 62
     0
340
55
144
0.25
309
CONTENTFORMAT_END
171
     0
 94
        0
309
TABLEFORMAT_END
  1
CELLSTYLE_BEGIN
 90
        1
 91
        1
300
_TITLE
309
CELLSTYLE_END
300
CELLSTYLE
  1
TABLEFORMAT_BEGIN
 90
        5
170
     1
 91
        0
 92
        0
 62
   257
 93
        1
300
CONTENTFORMAT
  1
CONTENTFORMAT_BEGIN
 90
        0
 91
        0
 92
      512
 93
        0
300

 40
0.0
140
1.0
 94
        5
 62
     0
340
55
144
0.18
309
CONTENTFORMAT_END
171
     0
 94
        0
309
TABLEFORMAT_END
  1
CELLSTYLE_BEGIN
 90
        2
 91
        1
300
_HEADER
309
CELLSTYLE_END
300
CELLSTYLE
  1
TABLEFORMAT_BEGIN
 90
        5
170
     1
 91
        0
 92
        0
 62
   257
 93
        1
300
CONTENTFORMAT
  1
CONTENTFORMAT_BEGIN
 90
        0
 91
        0
 92
      512
 93
        0
300

 40
0.0
140
1.0
 94
        2
 62
     0
340
55
144
0.18
309
CONTENTFORMAT_END
171
     0
 94
        0
309
TABLEFORMAT_END
  1
CELLSTYLE_BEGIN
 90
        3
 91
        2
300
_DATA
309
CELLSTYLE_END
  0
XRECORD
  5
AAB
102
{ACAD_REACTORS
330
AAA
102
}
330
AAA
100
AcDbXrecord
280
     1
102
RTVSPost2010Prop28
280
     1
102
RTVSPost2010PropOp28
 70
     1
102
RTVSPost2010Prop29
280
     1
102
RTVSPost2010PropOp29
 70
     1
102
RTVSPost2010Prop30
280
     0
102
RTVSPost2010PropOp30
 70
     1
102
RTVSPost2010Prop31
280
     0
102
RTVSPost2010PropOp31
 70
     1
102
RTVSPost2010Prop32
280
     0
102
RTVSPost2010PropOp32
 70
     1
102
RTVSPost2010Prop33
280
     0
102
RTVSPost2010PropOp33
 70
     1
102
RTVSPost2010Prop34
280
     0
102
RTVSPost2010PropOp34
 70
     1
102
RTVSPost2010Prop35
280
     0
102
RTVSPost2010PropOp35
 70
     1
102
RTVSPost2010Prop36
280
     0
102
RTVSPost2010PropOp36
 70
     1
102
RTVSPost2010Prop37
 90
       50
102
RTVSPost2010PropOp37
 70
     1
102
RTVSPost2010Prop38
140
0.0
102
RTVSPost2010PropOp38
 70
     1
102
RTVSPost2010Prop39
140
1.0
102
RTVSPost2010PropOp39
 70
     1
102
RTVSPost2010Prop40
 90
        0
102
RTVSPost2010PropOp40
 70
     1
102
RTVSPost2010Prop41ColorIndex
 90
       18
102
RTVSPost2010Prop41ColorRGB
 90
        0
102
RTVSPost2010PropOp41
 70
     1
102
RTVSPost2010Prop42
 90
       50
102
RTVSPost2010PropOp42
 70
     1
102
RTVSPost2010Prop43
 90
        3
102
RTVSPost2010PropOp43
 70
     1
102
RTVSPost2010Prop44ColorIndex
 90
        5
102
RTVSPost2010Prop44ColorRGB
 90
      255
102
RTVSPost2010PropOp44
 70
     1
102
RTVSPost2010Prop45
280
     0
102
RTVSPost2010PropOp45
 70
     1
102
RTVSPost2010Prop46
 90
       50
102
RTVSPost2010PropOp46
 70
     1
102
RTVSPost2010Prop47
 90
       50
102
RTVSPost2010PropOp47
 70
     1
102
RTVSPost2010Prop48
 90
       50
102
RTVSPost2010PropOp48
 70
     1
102
RTVSPost2010Prop49
280
     0
102
RTVSPost2010PropOp49
 70
     1
102
RTVSPost2010Prop50
 90
       50
102
RTVSPost2010PropOp50
 70
     1
102
RTVSPost2010Prop51ColorIndex
 90
      256
102
RTVSPost2010Prop51ColorRGB
 90
-16777216
102
RTVSPost2010PropOp51
 70
     0
102
RTVSPost2010Prop52
140
1.0
102
RTVSPost2010PropOp52
 70
     0
102
RTVSPost2010Prop53
 90
        2
102
RTVSPost2010PropOp53
 70
     1
102
RTVSPost2010Prop54
  1
strokes_ogs.tif
102
RTVSPost2010PropOp54
 70
     1
102
RTVSPost2010Prop55
280
     0
102
RTVSPost2010PropOp55
 70
     1
102
RTVSPost2010Prop56
140
1.0
102
RTVSPost2010PropOp56
 70
     1
102
RTVSPost2010Prop57
140
1.0
102
RTVSPost2010PropOp57
 70
     1
  0
XRECORD
  5
AA9
102
{ACAD_REACTORS
330
AA8
102
}
330
AA8
100
AcDbXrecord
280
     1
102
RTVSPost2010Prop28
280
     0
102
RTVSPost2010PropOp28
 70
     1
102
RTVSPost2010Prop29
280
     1
102
RTVSPost2010PropOp29
 70
     1
102
RTVSPost2010Prop30
280
     1
102
RTVSPost2010PropOp30
 70
     1
102
RTVSPost2010Prop31
280
     0
102
RTVSPost2010PropOp31
 70
     1
102
RTVSPost2010Prop32
280
     0
102
RTVSPost2010PropOp32
 70
     1
102
RTVSPost2010Prop33
280
     0
102
RTVSPost2010PropOp33
 70
     1
102
RTVSPost2010Prop34
280
     0
102
RTVSPost2010PropOp34
 70
     1
102
RTVSPost2010Prop35
280
     0
102
RTVSPost2010PropOp35
 70
     1
102
RTVSPost2010Prop36
280
     0
102
RTVSPost2010PropOp36
 70
     1
102
RTVSPost2010Prop37
 90
       50
102
RTVSPost2010PropOp37
 70
     1
102
RTVSPost2010Prop38
140
0.0
102
RTVSPost2010PropOp38
 70
     1
102
RTVSPost2010Prop39
140
1.0
102
RTVSPost2010PropOp39
 70
     1
102
RTVSPost2010Prop40
 90
        0
102
RTVSPost2010PropOp40
 70
     1
102
RTVSPost2010Prop41ColorIndex
 90
       18
102
RTVSPost2010Prop41ColorRGB
 90
        0
102
RTVSPost2010PropOp41
 70
     1
102
RTVSPost2010Prop42
 90
       50
102
RTVSPost2010PropOp42
 70
     1
102
RTVSPost2010Prop43
 90
        3
102
RTVSPost2010PropOp43
 70
     1
102
RTVSPost2010Prop44ColorIndex
 90
        5
102
RTVSPost2010Prop44ColorRGB
 90
      255
102
RTVSPost2010PropOp44
 70
     1
102
RTVSPost2010Prop45
280
     0
102
RTVSPost2010PropOp45
 70
     1
102
RTVSPost2010Prop46
 90
       50
102
RTVSPost2010PropOp46
 70
     1
102
RTVSPost2010Prop47
 90
       50
102
RTVSPost2010PropOp47
 70
     1
102
RTVSPost2010Prop48
 90
       50
102
RTVSPost2010PropOp48
 70
     1
102
RTVSPost2010Prop49
280
     0
102
RTVSPost2010PropOp49
 70
     1
102
RTVSPost2010Prop50
 90
       50
102
RTVSPost2010PropOp50
 70
     1
102
RTVSPost2010Prop51ColorIndex
 90
      256
102
RTVSPost2010Prop51ColorRGB
 90
-16777216
102
RTVSPost2010PropOp51
 70
     0
102
RTVSPost2010Prop52
140
1.0
102
RTVSPost2010PropOp52
 70
     0
102
RTVSPost2010Prop53
 90
        2
102
RTVSPost2010PropOp53
 70
     1
102
RTVSPost2010Prop54
  1
strokes_ogs.tif
102
RTVSPost2010PropOp54
 70
     1
102
RTVSPost2010Prop55
280
     0
102
RTVSPost2010PropOp55
 70
     1
102
RTVSPost2010Prop56
140
1.0
102
RTVSPost2010PropOp56
 70
     1
102
RTVSPost2010Prop57
140
1.0
102
RTVSPost2010PropOp57
 70
     1
  0
XRECORD
  5
AB7
102
{ACAD_REACTORS
330
AB6
102
}
330
AB6
100
AcDbXrecord
280
     1
102
RTVSPost2010Prop28
280
     0
102
RTVSPost2010PropOp28
 70
     1
102
RTVSPost2010Prop29
280
     1
102
RTVSPost2010PropOp29
 70
     1
102
RTVSPost2010Prop30
280
     1
102
RTVSPost2010PropOp30
 70
     1
102
RTVSPost2010Prop31
280
     0
102
RTVSPost2010PropOp31
 70
     1
102
RTVSPost2010Prop32
280
     0
102
RTVSPost2010PropOp32
 70
     1
102
RTVSPost2010Prop33
280
     0
102
RTVSPost2010PropOp33
 70
     1
102
RTVSPost2010Prop34
280
     0
102
RTVSPost2010PropOp34
 70
     1
102
RTVSPost2010Prop35
280
     0
102
RTVSPost2010PropOp35
 70
     1
102
RTVSPost2010Prop36
280
     0
102
RTVSPost2010PropOp36
 70
     1
102
RTVSPost2010Prop37
 90
       50
102
RTVSPost2010PropOp37
 70
     1
102
RTVSPost2010Prop38
140
0.0
102
RTVSPost2010PropOp38
 70
     1
102
RTVSPost2010Prop39
140
1.0
102
RTVSPost2010PropOp39
 70
     1
102
RTVSPost2010Prop40
 90
        0
102
RTVSPost2010PropOp40
 70
     1
102
RTVSPost2010Prop41ColorIndex
 90
       18
102
RTVSPost2010Prop41ColorRGB
 90
        0
102
RTVSPost2010PropOp41
 70
     1
102
RTVSPost2010Prop42
 90
       50
102
RTVSPost2010PropOp42
 70
     1
102
RTVSPost2010Prop43
 90
        3
102
RTVSPost2010PropOp43
 70
     1
102
RTVSPost2010Prop44ColorIndex
 90
        5
102
RTVSPost2010Prop44ColorRGB
 90
      255
102
RTVSPost2010PropOp44
 70
     1
102
RTVSPost2010Prop45
280
     0
102
RTVSPost2010PropOp45
 70
     1
102
RTVSPost2010Prop46
 90
       50
102
RTVSPost2010PropOp46
 70
     1
102
RTVSPost2010Prop47
 90
       50
102
RTVSPost2010PropOp47
 70
     1
102
RTVSPost2010Prop48
 90
       50
102
RTVSPost2010PropOp48
 70
     1
102
RTVSPost2010Prop49
280
     0
102
RTVSPost2010PropOp49
 70
     1
102
RTVSPost2010Prop50
 90
       50
102
RTVSPost2010PropOp50
 70
     1
102
RTVSPost2010Prop51ColorIndex
 90
      256
102
RTVSPost2010Prop51ColorRGB
 90
-16777216
102
RTVSPost2010PropOp51
 70
     0
102
RTVSPost2010Prop52
140
1.0
102
RTVSPost2010PropOp52
 70
     0
102
RTVSPost2010Prop53
 90
        2
102
RTVSPost2010PropOp53
 70
     1
102
RTVSPost2010Prop54
  1
strokes_ogs.tif
102
RTVSPost2010PropOp54
 70
     1
102
RTVSPost2010Prop55
280
     0
102
RTVSPost2010PropOp55
 70
     1
102
RTVSPost2010Prop56
140
1.0
102
RTVSPost2010PropOp56
 70
     1
102
RTVSPost2010Prop57
140
1.0
102
RTVSPost2010PropOp57
 70
     1
  0
XRECORD
  5
ABF
102
{ACAD_REACTORS
330
ABE
102
}
330
ABE
100
AcDbXrecord
280
     1
102
RTVSPost2010Prop28
280
     0
102
RTVSPost2010PropOp28
 70
     1
102
RTVSPost2010Prop29
280
     1
102
RTVSPost2010PropOp29
 70
     1
102
RTVSPost2010Prop30
280
     1
102
RTVSPost2010PropOp30
 70
     1
102
RTVSPost2010Prop31
280
     0
102
RTVSPost2010PropOp31
 70
     1
102
RTVSPost2010Prop32
280
     0
102
RTVSPost2010PropOp32
 70
     1
102
RTVSPost2010Prop33
280
     0
102
RTVSPost2010PropOp33
 70
     1
102
RTVSPost2010Prop34
280
     0
102
RTVSPost2010PropOp34
 70
     1
102
RTVSPost2010Prop35
280
     0
102
RTVSPost2010PropOp35
 70
     1
102
RTVSPost2010Prop36
280
     0
102
RTVSPost2010PropOp36
 70
     1
102
RTVSPost2010Prop37
 90
       50
102
RTVSPost2010PropOp37
 70
     1
102
RTVSPost2010Prop38
140
0.0
102
RTVSPost2010PropOp38
 70
     1
102
RTVSPost2010Prop39
140
1.0
102
RTVSPost2010PropOp39
 70
     1
102
RTVSPost2010Prop40
 90
        0
102
RTVSPost2010PropOp40
 70
     1
102
RTVSPost2010Prop41ColorIndex
 90
       18
102
RTVSPost2010Prop41ColorRGB
 90
        0
102
RTVSPost2010PropOp41
 70
     1
102
RTVSPost2010Prop42
 90
       50
102
RTVSPost2010PropOp42
 70
     1
102
RTVSPost2010Prop43
 90
        3
102
RTVSPost2010PropOp43
 70
     1
102
RTVSPost2010Prop44ColorIndex
 90
        5
102
RTVSPost2010Prop44ColorRGB
 90
      255
102
RTVSPost2010PropOp44
 70
     1
102
RTVSPost2010Prop45
280
     0
102
RTVSPost2010PropOp45
 70
     1
102
RTVSPost2010Prop46
 90
       50
102
RTVSPost2010PropOp46
 70
     1
102
RTVSPost2010Prop47
 90
       50
102
RTVSPost2010PropOp47
 70
     1
102
RTVSPost2010Prop48
 90
       50
102
RTVSPost2010PropOp48
 70
     1
102
RTVSPost2010Prop49
280
     0
102
RTVSPost2010PropOp49
 70
     1
102
RTVSPost2010Prop50
 90
       50
102
RTVSPost2010PropOp50
 70
     1
102
RTVSPost2010Prop51ColorIndex
 90
      256
102
RTVSPost2010Prop51ColorRGB
 90
-16777216
102
RTVSPost2010PropOp51
 70
     0
102
RTVSPost2010Prop52
140
1.0
102
RTVSPost2010PropOp52
 70
     0
102
RTVSPost2010Prop53
 90
        2
102
RTVSPost2010PropOp53
 70
     1
102
RTVSPost2010Prop54
  1
strokes_ogs.tif
102
RTVSPost2010PropOp54
 70
     1
102
RTVSPost2010Prop55
280
     0
102
RTVSPost2010PropOp55
 70
     1
102
RTVSPost2010Prop56
140
1.0
102
RTVSPost2010PropOp56
 70
     1
102
RTVSPost2010Prop57
140
1.0
102
RTVSPost2010PropOp57
 70
     1
  0
XRECORD
  5
AB1
102
{ACAD_REACTORS
330
AB0
102
}
330
AB0
100
AcDbXrecord
280
     1
102
RTVSPost2010Prop28
280
     0
102
RTVSPost2010PropOp28
 70
     1
102
RTVSPost2010Prop29
280
     1
102
RTVSPost2010PropOp29
 70
     1
102
RTVSPost2010Prop30
280
     1
102
RTVSPost2010PropOp30
 70
     1
102
RTVSPost2010Prop31
280
     0
102
RTVSPost2010PropOp31
 70
     1
102
RTVSPost2010Prop32
280
     0
102
RTVSPost2010PropOp32
 70
     1
102
RTVSPost2010Prop33
280
     0
102
RTVSPost2010PropOp33
 70
     1
102
RTVSPost2010Prop34
280
     0
102
RTVSPost2010PropOp34
 70
     1
102
RTVSPost2010Prop35
280
     0
102
RTVSPost2010PropOp35
 70
     1
102
RTVSPost2010Prop36
280
     0
102
RTVSPost2010PropOp36
 70
     1
102
RTVSPost2010Prop37
 90
       50
102
RTVSPost2010PropOp37
 70
     1
102
RTVSPost2010Prop38
140
0.0
102
RTVSPost2010PropOp38
 70
     1
102
RTVSPost2010Prop39
140
1.0
102
RTVSPost2010PropOp39
 70
     1
102
RTVSPost2010Prop40
 90
        0
102
RTVSPost2010PropOp40
 70
     1
102
RTVSPost2010Prop41ColorIndex
 90
       18
102
RTVSPost2010Prop41ColorRGB
 90
        0
102
RTVSPost2010PropOp41
 70
     1
102
RTVSPost2010Prop42
 90
       50
102
RTVSPost2010PropOp42
 70
     1
102
RTVSPost2010Prop43
 90
        3
102
RTVSPost2010PropOp43
 70
     1
102
RTVSPost2010Prop44ColorIndex
 90
        5
102
RTVSPost2010Prop44ColorRGB
 90
      255
102
RTVSPost2010PropOp44
 70
     1
102
RTVSPost2010Prop45
280
     0
102
RTVSPost2010PropOp45
 70
     1
102
RTVSPost2010Prop46
 90
       50
102
RTVSPost2010PropOp46
 70
     1
102
RTVSPost2010Prop47
 90
       50
102
RTVSPost2010PropOp47
 70
     1
102
RTVSPost2010Prop48
 90
       50
102
RTVSPost2010PropOp48
 70
     1
102
RTVSPost2010Prop49
280
     0
102
RTVSPost2010PropOp49
 70
     1
102
RTVSPost2010Prop50
 90
       50
102
RTVSPost2010PropOp50
 70
     1
102
RTVSPost2010Prop51ColorIndex
 90
      256
102
RTVSPost2010Prop51ColorRGB
 90
-16777216
102
RTVSPost2010PropOp51
 70
     0
102
RTVSPost2010Prop52
140
1.0
102
RTVSPost2010PropOp52
 70
     0
102
RTVSPost2010Prop53
 90
        2
102
RTVSPost2010PropOp53
 70
     1
102
RTVSPost2010Prop54
  1
strokes_ogs.tif
102
RTVSPost2010PropOp54
 70
     1
102
RTVSPost2010Prop55
280
     0
102
RTVSPost2010PropOp55
 70
     1
102
RTVSPost2010Prop56
140
1.0
102
RTVSPost2010PropOp56
 70
     1
102
RTVSPost2010Prop57
140
1.0
102
RTVSPost2010PropOp57
 70
     1
  0
XRECORD
  5
AB5
102
{ACAD_REACTORS
330
AB4
102
}
330
AB4
100
AcDbXrecord
280
     1
102
RTVSPost2010Prop28
280
     0
102
RTVSPost2010PropOp28
 70
     1
102
RTVSPost2010Prop29
280
     1
102
RTVSPost2010PropOp29
 70
     1
102
RTVSPost2010Prop30
280
     1
102
RTVSPost2010PropOp30
 70
     1
102
RTVSPost2010Prop31
280
     0
102
RTVSPost2010PropOp31
 70
     1
102
RTVSPost2010Prop32
280
     0
102
RTVSPost2010PropOp32
 70
     1
102
RTVSPost2010Prop33
280
     0
102
RTVSPost2010PropOp33
 70
     1
102
RTVSPost2010Prop34
280
     0
102
RTVSPost2010PropOp34
 70
     1
102
RTVSPost2010Prop35
280
     0
102
RTVSPost2010PropOp35
 70
     1
102
RTVSPost2010Prop36
280
     0
102
RTVSPost2010PropOp36
 70
     1
102
RTVSPost2010Prop37
 90
       50
102
RTVSPost2010PropOp37
 70
     1
102
RTVSPost2010Prop38
140
0.0
102
RTVSPost2010PropOp38
 70
     1
102
RTVSPost2010Prop39
140
1.0
102
RTVSPost2010PropOp39
 70
     1
102
RTVSPost2010Prop40
 90
        0
102
RTVSPost2010PropOp40
 70
     1
102
RTVSPost2010Prop41ColorIndex
 90
       18
102
RTVSPost2010Prop41ColorRGB
 90
        0
102
RTVSPost2010PropOp41
 70
     1
102
RTVSPost2010Prop42
 90
       50
102
RTVSPost2010PropOp42
 70
     1
102
RTVSPost2010Prop43
 90
        3
102
RTVSPost2010PropOp43
 70
     1
102
RTVSPost2010Prop44ColorIndex
 90
        5
102
RTVSPost2010Prop44ColorRGB
 90
      255
102
RTVSPost2010PropOp44
 70
     1
102
RTVSPost2010Prop45
280
     0
102
RTVSPost2010PropOp45
 70
     1
102
RTVSPost2010Prop46
 90
       50
102
RTVSPost2010PropOp46
 70
     1
102
RTVSPost2010Prop47
 90
       50
102
RTVSPost2010PropOp47
 70
     1
102
RTVSPost2010Prop48
 90
       50
102
RTVSPost2010PropOp48
 70
     1
102
RTVSPost2010Prop49
280
     0
102
RTVSPost2010PropOp49
 70
     1
102
RTVSPost2010Prop50
 90
       50
102
RTVSPost2010PropOp50
 70
     1
102
RTVSPost2010Prop51ColorIndex
 90
      256
102
RTVSPost2010Prop51ColorRGB
 90
-16777216
102
RTVSPost2010PropOp51
 70
     0
102
RTVSPost2010Prop52
140
1.0
102
RTVSPost2010PropOp52
 70
     0
102
RTVSPost2010Prop53
 90
        2
102
RTVSPost2010PropOp53
 70
     1
102
RTVSPost2010Prop54
  1
strokes_ogs.tif
102
RTVSPost2010PropOp54
 70
     1
102
RTVSPost2010Prop55
280
     0
102
RTVSPost2010PropOp55
 70
     1
102
RTVSPost2010Prop56
140
1.0
102
RTVSPost2010PropOp56
 70
     1
102
RTVSPost2010Prop57
140
1.0
102
RTVSPost2010PropOp57
 70
     1
  0
XRECORD
  5
ACF
102
{ACAD_REACTORS
330
ACE
102
}
330
ACE
100
AcDbXrecord
280
     1
102
RTVSPost2010Prop28
280
     0
102
RTVSPost2010PropOp28
 70
     0
102
RTVSPost2010Prop29
280
     1
102
RTVSPost2010PropOp29
 70
     0
102
RTVSPost2010Prop30
280
     1
102
RTVSPost2010PropOp30
 70
     0
102
RTVSPost2010Prop31
280
     0
102
RTVSPost2010PropOp31
 70
     0
102
RTVSPost2010Prop32
280
     0
102
RTVSPost2010PropOp32
 70
     0
102
RTVSPost2010Prop33
280
     0
102
RTVSPost2010PropOp33
 70
     0
102
RTVSPost2010Prop34
280
     0
102
RTVSPost2010PropOp34
 70
     0
102
RTVSPost2010Prop35
280
     0
102
RTVSPost2010PropOp35
 70
     0
102
RTVSPost2010Prop36
280
     0
102
RTVSPost2010PropOp36
 70
     0
102
RTVSPost2010Prop37
 90
       50
102
RTVSPost2010PropOp37
 70
     0
102
RTVSPost2010Prop38
140
0.0
102
RTVSPost2010PropOp38
 70
     0
102
RTVSPost2010Prop39
140
1.0
102
RTVSPost2010PropOp39
 70
     0
102
RTVSPost2010Prop40
 90
        0
102
RTVSPost2010PropOp40
 70
     0
102
RTVSPost2010Prop41ColorIndex
 90
       18
102
RTVSPost2010Prop41ColorRGB
 90
        0
102
RTVSPost2010PropOp41
 70
     0
102
RTVSPost2010Prop42
 90
       50
102
RTVSPost2010PropOp42
 70
     0
102
RTVSPost2010Prop43
 90
        3
102
RTVSPost2010PropOp43
 70
     0
102
RTVSPost2010Prop44ColorIndex
 90
        5
102
RTVSPost2010Prop44ColorRGB
 90
      255
102
RTVSPost2010PropOp44
 70
     0
102
RTVSPost2010Prop45
280
     0
102
RTVSPost2010PropOp45
 70
     0
102
RTVSPost2010Prop46
 90
       50
102
RTVSPost2010PropOp46
 70
     0
102
RTVSPost2010Prop47
 90
       50
102
RTVSPost2010PropOp47
 70
     0
102
RTVSPost2010Prop48
 90
       50
102
RTVSPost2010PropOp48
 70
     0
102
RTVSPost2010Prop49
280
     0
102
RTVSPost2010PropOp49
 70
     0
102
RTVSPost2010Prop50
 90
       50
102
RTVSPost2010PropOp50
 70
     0
102
RTVSPost2010Prop51ColorIndex
 90
      256
102
RTVSPost2010Prop51ColorRGB
 90
-16777216
102
RTVSPost2010PropOp51
 70
     0
102
RTVSPost2010Prop52
140
1.0
102
RTVSPost2010PropOp52
 70
     0
102
RTVSPost2010Prop53
 90
        2
102
RTVSPost2010PropOp53
 70
     0
102
RTVSPost2010Prop54
  1
strokes_ogs.tif
102
RTVSPost2010PropOp54
 70
     0
102
RTVSPost2010Prop55
280
     0
102
RTVSPost2010PropOp55
 70
     0
102
RTVSPost2010Prop56
140
1.0
102
RTVSPost2010PropOp56
 70
     0
102
RTVSPost2010Prop57
140
1.0
102
RTVSPost2010PropOp57
 70
     0
  0
XRECORD
  5
ABD
102
{ACAD_REACTORS
330
ABC
102
}
330
ABC
100
AcDbXrecord
280
     1
102
RTVSPost2010Prop28
280
     0
102
RTVSPost2010PropOp28
 70
     1
102
RTVSPost2010Prop29
280
     1
102
RTVSPost2010PropOp29
 70
     1
102
RTVSPost2010Prop30
280
     1
102
RTVSPost2010PropOp30
 70
     1
102
RTVSPost2010Prop31
280
     0
102
RTVSPost2010PropOp31
 70
     1
102
RTVSPost2010Prop32
280
     0
102
RTVSPost2010PropOp32
 70
     1
102
RTVSPost2010Prop33
280
     0
102
RTVSPost2010PropOp33
 70
     1
102
RTVSPost2010Prop34
280
     0
102
RTVSPost2010PropOp34
 70
     1
102
RTVSPost2010Prop35
280
     0
102
RTVSPost2010PropOp35
 70
     1
102
RTVSPost2010Prop36
280
     0
102
RTVSPost2010PropOp36
 70
     1
102
RTVSPost2010Prop37
 90
       50
102
RTVSPost2010PropOp37
 70
     1
102
RTVSPost2010Prop38
140
0.0
102
RTVSPost2010PropOp38
 70
     1
102
RTVSPost2010Prop39
140
1.0
102
RTVSPost2010PropOp39
 70
     1
102
RTVSPost2010Prop40
 90
        0
102
RTVSPost2010PropOp40
 70
     1
102
RTVSPost2010Prop41ColorIndex
 90
       18
102
RTVSPost2010Prop41ColorRGB
 90
        0
102
RTVSPost2010PropOp41
 70
     1
102
RTVSPost2010Prop42
 90
       50
102
RTVSPost2010PropOp42
 70
     1
102
RTVSPost2010Prop43
 90
        3
102
RTVSPost2010PropOp43
 70
     1
102
RTVSPost2010Prop44ColorIndex
 90
        5
102
RTVSPost2010Prop44ColorRGB
 90
      255
102
RTVSPost2010PropOp44
 70
     1
102
RTVSPost2010Prop45
280
     0
102
RTVSPost2010PropOp45
 70
     1
102
RTVSPost2010Prop46
 90
       50
102
RTVSPost2010PropOp46
 70
     1
102
RTVSPost2010Prop47
 90
       50
102
RTVSPost2010PropOp47
 70
     1
102
RTVSPost2010Prop48
 90
       50
102
RTVSPost2010PropOp48
 70
     1
102
RTVSPost2010Prop49
280
     0
102
RTVSPost2010PropOp49
 70
     1
102
RTVSPost2010Prop50
 90
       50
102
RTVSPost2010PropOp50
 70
     1
102
RTVSPost2010Prop51ColorIndex
 90
      256
102
RTVSPost2010Prop51ColorRGB
 90
-16777216
102
RTVSPost2010PropOp51
 70
     0
102
RTVSPost2010Prop52
140
1.0
102
RTVSPost2010PropOp52
 70
     0
102
RTVSPost2010Prop53
 90
        2
102
RTVSPost2010PropOp53
 70
     1
102
RTVSPost2010Prop54
  1
strokes_ogs.tif
102
RTVSPost2010PropOp54
 70
     1
102
RTVSPost2010Prop55
280
     0
102
RTVSPost2010PropOp55
 70
     1
102
RTVSPost2010Prop56
140
1.0
102
RTVSPost2010PropOp56
 70
     1
102
RTVSPost2010Prop57
140
1.0
102
RTVSPost2010PropOp57
 70
     1
  0
XRECORD
  5
AA1
102
{ACAD_REACTORS
330
AA0
102
}
330
AA0
100
AcDbXrecord
280
     1
102
RTVSPost2010Prop28
280
     0
102
RTVSPost2010PropOp28
 70
     1
102
RTVSPost2010Prop29
280
     1
102
RTVSPost2010PropOp29
 70
     1
102
RTVSPost2010Prop30
280
     1
102
RTVSPost2010PropOp30
 70
     1
102
RTVSPost2010Prop31
280
     0
102
RTVSPost2010PropOp31
 70
     1
102
RTVSPost2010Prop32
280
     0
102
RTVSPost2010PropOp32
 70
     1
102
RTVSPost2010Prop33
280
     0
102
RTVSPost2010PropOp33
 70
     1
102
RTVSPost2010Prop34
280
     0
102
RTVSPost2010PropOp34
 70
     1
102
RTVSPost2010Prop35
280
     0
102
RTVSPost2010PropOp35
 70
     1
102
RTVSPost2010Prop36
280
     0
102
RTVSPost2010PropOp36
 70
     1
102
RTVSPost2010Prop37
 90
       50
102
RTVSPost2010PropOp37
 70
     1
102
RTVSPost2010Prop38
140
0.0
102
RTVSPost2010PropOp38
 70
     1
102
RTVSPost2010Prop39
140
1.0
102
RTVSPost2010PropOp39
 70
     1
102
RTVSPost2010Prop40
 90
        0
102
RTVSPost2010PropOp40
 70
     1
102
RTVSPost2010Prop41ColorIndex
 90
       18
102
RTVSPost2010Prop41ColorRGB
 90
        0
102
RTVSPost2010PropOp41
 70
     1
102
RTVSPost2010Prop42
 90
       50
102
RTVSPost2010PropOp42
 70
     1
102
RTVSPost2010Prop43
 90
        3
102
RTVSPost2010PropOp43
 70
     1
102
RTVSPost2010Prop44ColorIndex
 90
        5
102
RTVSPost2010Prop44ColorRGB
 90
      255
102
RTVSPost2010PropOp44
 70
     1
102
RTVSPost2010Prop45
280
     0
102
RTVSPost2010PropOp45
 70
     1
102
RTVSPost2010Prop46
 90
       50
102
RTVSPost2010PropOp46
 70
     1
102
RTVSPost2010Prop47
 90
       50
102
RTVSPost2010PropOp47
 70
     1
102
RTVSPost2010Prop48
 90
       50
102
RTVSPost2010PropOp48
 70
     1
102
RTVSPost2010Prop49
280
     0
102
RTVSPost2010PropOp49
 70
     1
102
RTVSPost2010Prop50
 90
       50
102
RTVSPost2010PropOp50
 70
     1
102
RTVSPost2010Prop51ColorIndex
 90
      256
102
RTVSPost2010Prop51ColorRGB
 90
-16777216
102
RTVSPost2010PropOp51
 70
     0
102
RTVSPost2010Prop52
140
1.0
102
RTVSPost2010PropOp52
 70
     0
102
RTVSPost2010Prop53
 90
        2
102
RTVSPost2010PropOp53
 70
     1
102
RTVSPost2010Prop54
  1
strokes_ogs.tif
102
RTVSPost2010PropOp54
 70
     1
102
RTVSPost2010Prop55
280
     0
102
RTVSPost2010PropOp55
 70
     1
102
RTVSPost2010Prop56
140
1.0
102
RTVSPost2010PropOp56
 70
     1
102
RTVSPost2010Prop57
140
1.0
102
RTVSPost2010PropOp57
 70
     1
  0
XRECORD
  5
AA3
102
{ACAD_REACTORS
330
AA2
102
}
330
AA2
100
AcDbXrecord
280
     1
102
RTVSPost2010Prop28
280
     0
102
RTVSPost2010PropOp28
 70
     1
102
RTVSPost2010Prop29
280
     1
102
RTVSPost2010PropOp29
 70
     1
102
RTVSPost2010Prop30
280
     1
102
RTVSPost2010PropOp30
 70
     1
102
RTVSPost2010Prop31
280
     0
102
RTVSPost2010PropOp31
 70
     1
102
RTVSPost2010Prop32
280
     0
102
RTVSPost2010PropOp32
 70
     1
102
RTVSPost2010Prop33
280
     0
102
RTVSPost2010PropOp33
 70
     1
102
RTVSPost2010Prop34
280
     0
102
RTVSPost2010PropOp34
 70
     1
102
RTVSPost2010Prop35
280
     0
102
RTVSPost2010PropOp35
 70
     1
102
RTVSPost2010Prop36
280
     0
102
RTVSPost2010PropOp36
 70
     1
102
RTVSPost2010Prop37
 90
       50
102
RTVSPost2010PropOp37
 70
     1
102
RTVSPost2010Prop38
140
0.0
102
RTVSPost2010PropOp38
 70
     1
102
RTVSPost2010Prop39
140
1.0
102
RTVSPost2010PropOp39
 70
     1
102
RTVSPost2010Prop40
 90
        0
102
RTVSPost2010PropOp40
 70
     1
102
RTVSPost2010Prop41ColorIndex
 90
       18
102
RTVSPost2010Prop41ColorRGB
 90
        0
102
RTVSPost2010PropOp41
 70
     1
102
RTVSPost2010Prop42
 90
       50
102
RTVSPost2010PropOp42
 70
     1
102
RTVSPost2010Prop43
 90
        3
102
RTVSPost2010PropOp43
 70
     1
102
RTVSPost2010Prop44ColorIndex
 90
        5
102
RTVSPost2010Prop44ColorRGB
 90
      255
102
RTVSPost2010PropOp44
 70
     1
102
RTVSPost2010Prop45
280
     0
102
RTVSPost2010PropOp45
 70
     1
102
RTVSPost2010Prop46
 90
       50
102
RTVSPost2010PropOp46
 70
     1
102
RTVSPost2010Prop47
 90
       50
102
RTVSPost2010PropOp47
 70
     1
102
RTVSPost2010Prop48
 90
       50
102
RTVSPost2010PropOp48
 70
     1
102
RTVSPost2010Prop49
280
     0
102
RTVSPost2010PropOp49
 70
     1
102
RTVSPost2010Prop50
 90
       50
102
RTVSPost2010PropOp50
 70
     1
102
RTVSPost2010Prop51ColorIndex
 90
      256
102
RTVSPost2010Prop51ColorRGB
 90
-16777216
102
RTVSPost2010PropOp51
 70
     0
102
RTVSPost2010Prop52
140
1.0
102
RTVSPost2010PropOp52
 70
     0
102
RTVSPost2010Prop53
 90
        2
102
RTVSPost2010PropOp53
 70
     1
102
RTVSPost2010Prop54
  1
strokes_ogs.tif
102
RTVSPost2010PropOp54
 70
     1
102
RTVSPost2010Prop55
280
     0
102
RTVSPost2010PropOp55
 70
     1
102
RTVSPost2010Prop56
140
1.0
102
RTVSPost2010PropOp56
 70
     1
102
RTVSPost2010Prop57
140
1.0
102
RTVSPost2010PropOp57
 70
     1
  0
XRECORD
  5
AA5
102
{ACAD_REACTORS
330
AA4
102
}
330
AA4
100
AcDbXrecord
280
     1
102
RTVSPost2010Prop28
280
     0
102
RTVSPost2010PropOp28
 70
     1
102
RTVSPost2010Prop29
280
     1
102
RTVSPost2010PropOp29
 70
     1
102
RTVSPost2010Prop30
280
     1
102
RTVSPost2010PropOp30
 70
     1
102
RTVSPost2010Prop31
280
     0
102
RTVSPost2010PropOp31
 70
     1
102
RTVSPost2010Prop32
280
     0
102
RTVSPost2010PropOp32
 70
     1
102
RTVSPost2010Prop33
280
     0
102
RTVSPost2010PropOp33
 70
     1
102
RTVSPost2010Prop34
280
     0
102
RTVSPost2010PropOp34
 70
     1
102
RTVSPost2010Prop35
280
     0
102
RTVSPost2010PropOp35
 70
     1
102
RTVSPost2010Prop36
280
     0
102
RTVSPost2010PropOp36
 70
     1
102
RTVSPost2010Prop37
 90
       50
102
RTVSPost2010PropOp37
 70
     1
102
RTVSPost2010Prop38
140
0.0
102
RTVSPost2010PropOp38
 70
     1
102
RTVSPost2010Prop39
140
1.0
102
RTVSPost2010PropOp39
 70
     1
102
RTVSPost2010Prop40
 90
        0
102
RTVSPost2010PropOp40
 70
     1
102
RTVSPost2010Prop41ColorIndex
 90
       18
102
RTVSPost2010Prop41ColorRGB
 90
        0
102
RTVSPost2010PropOp41
 70
     1
102
RTVSPost2010Prop42
 90
       50
102
RTVSPost2010PropOp42
 70
     1
102
RTVSPost2010Prop43
 90
        3
102
RTVSPost2010PropOp43
 70
     1
102
RTVSPost2010Prop44ColorIndex
 90
        5
102
RTVSPost2010Prop44ColorRGB
 90
      255
102
RTVSPost2010PropOp44
 70
     1
102
RTVSPost2010Prop45
280
     0
102
RTVSPost2010PropOp45
 70
     1
102
RTVSPost2010Prop46
 90
       50
102
RTVSPost2010PropOp46
 70
     1
102
RTVSPost2010Prop47
 90
       50
102
RTVSPost2010PropOp47
 70
     1
102
RTVSPost2010Prop48
 90
       50
102
RTVSPost2010PropOp48
 70
     1
102
RTVSPost2010Prop49
280
     0
102
RTVSPost2010PropOp49
 70
     1
102
RTVSPost2010Prop50
 90
       50
102
RTVSPost2010PropOp50
 70
     1
102
RTVSPost2010Prop51ColorIndex
 90
      256
102
RTVSPost2010Prop51ColorRGB
 90
-16777216
102
RTVSPost2010PropOp51
 70
     0
102
RTVSPost2010Prop52
140
1.0
102
RTVSPost2010PropOp52
 70
     0
102
RTVSPost2010Prop53
 90
        2
102
RTVSPost2010PropOp53
 70
     1
102
RTVSPost2010Prop54
  1
strokes_ogs.tif
102
RTVSPost2010PropOp54
 70
     1
102
RTVSPost2010Prop55
280
     0
102
RTVSPost2010PropOp55
 70
     1
102
RTVSPost2010Prop56
140
1.0
102
RTVSPost2010PropOp56
 70
     1
102
RTVSPost2010Prop57
140
1.0
102
RTVSPost2010PropOp57
 70
     1
  0
XRECORD
  5
AA7
102
{ACAD_REACTORS
330
AA6
102
}
330
AA6
100
AcDbXrecord
280
     1
102
RTVSPost2010Prop28
280
     0
102
RTVSPost2010PropOp28
 70
     1
102
RTVSPost2010Prop29
280
     1
102
RTVSPost2010PropOp29
 70
     1
102
RTVSPost2010Prop30
280
     1
102
RTVSPost2010PropOp30
 70
     1
102
RTVSPost2010Prop31
280
     0
102
RTVSPost2010PropOp31
 70
     1
102
RTVSPost2010Prop32
280
     0
102
RTVSPost2010PropOp32
 70
     1
102
RTVSPost2010Prop33
280
     0
102
RTVSPost2010PropOp33
 70
     1
102
RTVSPost2010Prop34
280
     0
102
RTVSPost2010PropOp34
 70
     1
102
RTVSPost2010Prop35
280
     0
102
RTVSPost2010PropOp35
 70
     1
102
RTVSPost2010Prop36
280
     0
102
RTVSPost2010PropOp36
 70
     1
102
RTVSPost2010Prop37
 90
       50
102
RTVSPost2010PropOp37
 70
     1
102
RTVSPost2010Prop38
140
0.0
102
RTVSPost2010PropOp38
 70
     1
102
RTVSPost2010Prop39
140
1.0
102
RTVSPost2010PropOp39
 70
     1
102
RTVSPost2010Prop40
 90
        0
102
RTVSPost2010PropOp40
 70
     1
102
RTVSPost2010Prop41ColorIndex
 90
       18
102
RTVSPost2010Prop41ColorRGB
 90
        0
102
RTVSPost2010PropOp41
 70
     1
102
RTVSPost2010Prop42
 90
       50
102
RTVSPost2010PropOp42
 70
     1
102
RTVSPost2010Prop43
 90
        3
102
RTVSPost2010PropOp43
 70
     1
102
RTVSPost2010Prop44ColorIndex
 90
        5
102
RTVSPost2010Prop44ColorRGB
 90
      255
102
RTVSPost2010PropOp44
 70
     1
102
RTVSPost2010Prop45
280
     0
102
RTVSPost2010PropOp45
 70
     1
102
RTVSPost2010Prop46
 90
       50
102
RTVSPost2010PropOp46
 70
     1
102
RTVSPost2010Prop47
 90
       50
102
RTVSPost2010PropOp47
 70
     1
102
RTVSPost2010Prop48
 90
       50
102
RTVSPost2010PropOp48
 70
     1
102
RTVSPost2010Prop49
280
     0
102
RTVSPost2010PropOp49
 70
     1
102
RTVSPost2010Prop50
 90
       50
102
RTVSPost2010PropOp50
 70
     1
102
RTVSPost2010Prop51ColorIndex
 90
      256
102
RTVSPost2010Prop51ColorRGB
 90
-16777216
102
RTVSPost2010PropOp51
 70
     0
102
RTVSPost2010Prop52
140
1.0
102
RTVSPost2010PropOp52
 70
     0
102
RTVSPost2010Prop53
 90
        2
102
RTVSPost2010PropOp53
 70
     1
102
RTVSPost2010Prop54
  1
strokes_ogs.tif
102
RTVSPost2010PropOp54
 70
     1
102
RTVSPost2010Prop55
280
     0
102
RTVSPost2010PropOp55
 70
     1
102
RTVSPost2010Prop56
140
1.0
102
RTVSPost2010PropOp56
 70
     1
102
RTVSPost2010Prop57
140
1.0
102
RTVSPost2010PropOp57
 70
     1
  0
XRECORD
  5
AAF
102
{ACAD_REACTORS
330
AAE
102
}
330
AAE
100
AcDbXrecord
280
     1
102
RTVSPost2010Prop28
280
     0
102
RTVSPost2010PropOp28
 70
     1
102
RTVSPost2010Prop29
280
     1
102
RTVSPost2010PropOp29
 70
     1
102
RTVSPost2010Prop30
280
     1
102
RTVSPost2010PropOp30
 70
     1
102
RTVSPost2010Prop31
280
     0
102
RTVSPost2010PropOp31
 70
     1
102
RTVSPost2010Prop32
280
     0
102
RTVSPost2010PropOp32
 70
     1
102
RTVSPost2010Prop33
280
     0
102
RTVSPost2010PropOp33
 70
     1
102
RTVSPost2010Prop34
280
     0
102
RTVSPost2010PropOp34
 70
     1
102
RTVSPost2010Prop35
280
     0
102
RTVSPost2010PropOp35
 70
     1
102
RTVSPost2010Prop36
280
     0
102
RTVSPost2010PropOp36
 70
     1
102
RTVSPost2010Prop37
 90
       50
102
RTVSPost2010PropOp37
 70
     1
102
RTVSPost2010Prop38
140
0.0
102
RTVSPost2010PropOp38
 70
     1
102
RTVSPost2010Prop39
140
1.0
102
RTVSPost2010PropOp39
 70
     1
102
RTVSPost2010Prop40
 90
        0
102
RTVSPost2010PropOp40
 70
     1
102
RTVSPost2010Prop41ColorIndex
 90
       18
102
RTVSPost2010Prop41ColorRGB
 90
        0
102
RTVSPost2010PropOp41
 70
     1
102
RTVSPost2010Prop42
 90
       50
102
RTVSPost2010PropOp42
 70
     1
102
RTVSPost2010Prop43
 90
        3
102
RTVSPost2010PropOp43
 70
     1
102
RTVSPost2010Prop44ColorIndex
 90
        5
102
RTVSPost2010Prop44ColorRGB
 90
      255
102
RTVSPost2010PropOp44
 70
     1
102
RTVSPost2010Prop45
280
     0
102
RTVSPost2010PropOp45
 70
     1
102
RTVSPost2010Prop46
 90
       50
102
RTVSPost2010PropOp46
 70
     1
102
RTVSPost2010Prop47
 90
       50
102
RTVSPost2010PropOp47
 70
     1
102
RTVSPost2010Prop48
 90
       50
102
RTVSPost2010PropOp48
 70
     1
102
RTVSPost2010Prop49
280
     0
102
RTVSPost2010PropOp49
 70
     1
102
RTVSPost2010Prop50
 90
       50
102
RTVSPost2010PropOp50
 70
     1
102
RTVSPost2010Prop51ColorIndex
 90
      256
102
RTVSPost2010Prop51ColorRGB
 90
-16777216
102
RTVSPost2010PropOp51
 70
     0
102
RTVSPost2010Prop52
140
1.0
102
RTVSPost2010PropOp52
 70
     0
102
RTVSPost2010Prop53
 90
        2
102
RTVSPost2010PropOp53
 70
     1
102
RTVSPost2010Prop54
  1
strokes_ogs.tif
102
RTVSPost2010PropOp54
 70
     1
102
RTVSPost2010Prop55
280
     0
102
RTVSPost2010PropOp55
 70
     1
102
RTVSPost2010Prop56
140
1.0
102
RTVSPost2010PropOp56
 70
     1
102
RTVSPost2010Prop57
140
1.0
102
RTVSPost2010PropOp57
 70
     1
  0
XRECORD
  5
ACB
102
{ACAD_REACTORS
330
ACA
102
}
330
ACA
100
AcDbXrecord
280
     1
102
RTVSPost2010Prop28
280
     0
102
RTVSPost2010PropOp28
 70
     0
102
RTVSPost2010Prop29
280
     1
102
RTVSPost2010PropOp29
 70
     0
102
RTVSPost2010Prop30
280
     1
102
RTVSPost2010PropOp30
 70
     0
102
RTVSPost2010Prop31
280
     0
102
RTVSPost2010PropOp31
 70
     0
102
RTVSPost2010Prop32
280
     0
102
RTVSPost2010PropOp32
 70
     0
102
RTVSPost2010Prop33
280
     0
102
RTVSPost2010PropOp33
 70
     0
102
RTVSPost2010Prop34
280
     0
102
RTVSPost2010PropOp34
 70
     0
102
RTVSPost2010Prop35
280
     0
102
RTVSPost2010PropOp35
 70
     0
102
RTVSPost2010Prop36
280
     0
102
RTVSPost2010PropOp36
 70
     0
102
RTVSPost2010Prop37
 90
       50
102
RTVSPost2010PropOp37
 70
     0
102
RTVSPost2010Prop38
140
0.0
102
RTVSPost2010PropOp38
 70
     0
102
RTVSPost2010Prop39
140
1.0
102
RTVSPost2010PropOp39
 70
     0
102
RTVSPost2010Prop40
 90
        0
102
RTVSPost2010PropOp40
 70
     0
102
RTVSPost2010Prop41ColorIndex
 90
       18
102
RTVSPost2010Prop41ColorRGB
 90
        0
102
RTVSPost2010PropOp41
 70
     0
102
RTVSPost2010Prop42
 90
       50
102
RTVSPost2010PropOp42
 70
     0
102
RTVSPost2010Prop43
 90
        3
102
RTVSPost2010PropOp43
 70
     0
102
RTVSPost2010Prop44ColorIndex
 90
        5
102
RTVSPost2010Prop44ColorRGB
 90
      255
102
RTVSPost2010PropOp44
 70
     0
102
RTVSPost2010Prop45
280
     0
102
RTVSPost2010PropOp45
 70
     0
102
RTVSPost2010Prop46
 90
       50
102
RTVSPost2010PropOp46
 70
     0
102
RTVSPost2010Prop47
 90
       50
102
RTVSPost2010PropOp47
 70
     0
102
RTVSPost2010Prop48
 90
       50
102
RTVSPost2010PropOp48
 70
     0
102
RTVSPost2010Prop49
280
     0
102
RTVSPost2010PropOp49
 70
     0
102
RTVSPost2010Prop50
 90
       50
102
RTVSPost2010PropOp50
 70
     0
102
RTVSPost2010Prop51ColorIndex
 90
      256
102
RTVSPost2010Prop51ColorRGB
 90
-16777216
102
RTVSPost2010PropOp51
 70
     0
102
RTVSPost2010Prop52
140
1.0
102
RTVSPost2010PropOp52
 70
     0
102
RTVSPost2010Prop53
 90
        2
102
RTVSPost2010PropOp53
 70
     0
102
RTVSPost2010Prop54
  1
strokes_ogs.tif
102
RTVSPost2010PropOp54
 70
     0
102
RTVSPost2010Prop55
280
     0
102
RTVSPost2010PropOp55
 70
     0
102
RTVSPost2010Prop56
140
1.0
102
RTVSPost2010PropOp56
 70
     0
102
RTVSPost2010Prop57
140
1.0
102
RTVSPost2010PropOp57
 70
     0
  0
XRECORD
  5
ABB
102
{ACAD_REACTORS
330
ABA
102
}
330
ABA
100
AcDbXrecord
280
     1
102
RTVSPost2010Prop28
280
     0
102
RTVSPost2010PropOp28
 70
     1
102
RTVSPost2010Prop29
280
     1
102
RTVSPost2010PropOp29
 70
     1
102
RTVSPost2010Prop30
280
     1
102
RTVSPost2010PropOp30
 70
     1
102
RTVSPost2010Prop31
280
     0
102
RTVSPost2010PropOp31
 70
     1
102
RTVSPost2010Prop32
280
     0
102
RTVSPost2010PropOp32
 70
     1
102
RTVSPost2010Prop33
280
     0
102
RTVSPost2010PropOp33
 70
     1
102
RTVSPost2010Prop34
280
     0
102
RTVSPost2010PropOp34
 70
     1
102
RTVSPost2010Prop35
280
     0
102
RTVSPost2010PropOp35
 70
     1
102
RTVSPost2010Prop36
280
     0
102
RTVSPost2010PropOp36
 70
     1
102
RTVSPost2010Prop37
 90
       50
102
RTVSPost2010PropOp37
 70
     1
102
RTVSPost2010Prop38
140
0.0
102
RTVSPost2010PropOp38
 70
     1
102
RTVSPost2010Prop39
140
1.0
102
RTVSPost2010PropOp39
 70
     1
102
RTVSPost2010Prop40
 90
        0
102
RTVSPost2010PropOp40
 70
     1
102
RTVSPost2010Prop41ColorIndex
 90
       18
102
RTVSPost2010Prop41ColorRGB
 90
        0
102
RTVSPost2010PropOp41
 70
     1
102
RTVSPost2010Prop42
 90
       50
102
RTVSPost2010PropOp42
 70
     1
102
RTVSPost2010Prop43
 90
        3
102
RTVSPost2010PropOp43
 70
     1
102
RTVSPost2010Prop44ColorIndex
 90
        5
102
RTVSPost2010Prop44ColorRGB
 90
      255
102
RTVSPost2010PropOp44
 70
     1
102
RTVSPost2010Prop45
280
     0
102
RTVSPost2010PropOp45
 70
     1
102
RTVSPost2010Prop46
 90
       50
102
RTVSPost2010PropOp46
 70
     1
102
RTVSPost2010Prop47
 90
       50
102
RTVSPost2010PropOp47
 70
     1
102
RTVSPost2010Prop48
 90
       50
102
RTVSPost2010PropOp48
 70
     1
102
RTVSPost2010Prop49
280
     0
102
RTVSPost2010PropOp49
 70
     1
102
RTVSPost2010Prop50
 90
       50
102
RTVSPost2010PropOp50
 70
     1
102
RTVSPost2010Prop51ColorIndex
 90
      256
102
RTVSPost2010Prop51ColorRGB
 90
-16777216
102
RTVSPost2010PropOp51
 70
     0
102
RTVSPost2010Prop52
140
1.0
102
RTVSPost2010PropOp52
 70
     0
102
RTVSPost2010Prop53
 90
        2
102
RTVSPost2010PropOp53
 70
     1
102
RTVSPost2010Prop54
  1
strokes_ogs.tif
102
RTVSPost2010PropOp54
 70
     1
102
RTVSPost2010Prop55
280
     0
102
RTVSPost2010PropOp55
 70
     1
102
RTVSPost2010Prop56
140
1.0
102
RTVSPost2010PropOp56
 70
     1
102
RTVSPost2010Prop57
140
1.0
102
RTVSPost2010PropOp57
 70
     1
  0
XRECORD
  5
ACD
102
{ACAD_REACTORS
330
ACC
102
}
330
ACC
100
AcDbXrecord
280
     1
102
RTVSPost2010Prop28
280
     0
102
RTVSPost2010PropOp28
 70
     0
102
RTVSPost2010Prop29
280
     1
102
RTVSPost2010PropOp29
 70
     0
102
RTVSPost2010Prop30
280
     1
102
RTVSPost2010PropOp30
 70
     0
102
RTVSPost2010Prop31
280
     0
102
RTVSPost2010PropOp31
 70
     0
102
RTVSPost2010Prop32
280
     0
102
RTVSPost2010PropOp32
 70
     0
102
RTVSPost2010Prop33
280
     0
102
RTVSPost2010PropOp33
 70
     0
102
RTVSPost2010Prop34
280
     0
102
RTVSPost2010PropOp34
 70
     0
102
RTVSPost2010Prop35
280
     0
102
RTVSPost2010PropOp35
 70
     0
102
RTVSPost2010Prop36
280
     0
102
RTVSPost2010PropOp36
 70
     0
102
RTVSPost2010Prop37
 90
       50
102
RTVSPost2010PropOp37
 70
     0
102
RTVSPost2010Prop38
140
0.0
102
RTVSPost2010PropOp38
 70
     0
102
RTVSPost2010Prop39
140
1.0
102
RTVSPost2010PropOp39
 70
     0
102
RTVSPost2010Prop40
 90
        0
102
RTVSPost2010PropOp40
 70
     0
102
RTVSPost2010Prop41ColorIndex
 90
       18
102
RTVSPost2010Prop41ColorRGB
 90
        0
102
RTVSPost2010PropOp41
 70
     0
102
RTVSPost2010Prop42
 90
       50
102
RTVSPost2010PropOp42
 70
     0
102
RTVSPost2010Prop43
 90
        3
102
RTVSPost2010PropOp43
 70
     0
102
RTVSPost2010Prop44ColorIndex
 90
        5
102
RTVSPost2010Prop44ColorRGB
 90
      255
102
RTVSPost2010PropOp44
 70
     0
102
RTVSPost2010Prop45
280
     0
102
RTVSPost2010PropOp45
 70
     0
102
RTVSPost2010Prop46
 90
       50
102
RTVSPost2010PropOp46
 70
     0
102
RTVSPost2010Prop47
 90
       50
102
RTVSPost2010PropOp47
 70
     0
102
RTVSPost2010Prop48
 90
       50
102
RTVSPost2010PropOp48
 70
     0
102
RTVSPost2010Prop49
280
     0
102
RTVSPost2010PropOp49
 70
     0
102
RTVSPost2010Prop50
 90
       50
102
RTVSPost2010PropOp50
 70
     0
102
RTVSPost2010Prop51ColorIndex
 90
      256
102
RTVSPost2010Prop51ColorRGB
 90
-16777216
102
RTVSPost2010PropOp51
 70
     0
102
RTVSPost2010Prop52
140
1.0
102
RTVSPost2010PropOp52
 70
     0
102
RTVSPost2010Prop53
 90
        2
102
RTVSPost2010PropOp53
 70
     0
102
RTVSPost2010Prop54
  1
strokes_ogs.tif
102
RTVSPost2010PropOp54
 70
     0
102
RTVSPost2010Prop55
280
     0
102
RTVSPost2010PropOp55
 70
     0
102
RTVSPost2010Prop56
140
1.0
102
RTVSPost2010PropOp56
 70
     0
102
RTVSPost2010Prop57
140
1.0
102
RTVSPost2010PropOp57
 70
     0
  0
XRECORD
  5
AB3
102
{ACAD_REACTORS
330
AB2
102
}
330
AB2
100
AcDbXrecord
280
     1
102
RTVSPost2010Prop28
280
     0
102
RTVSPost2010PropOp28
 70
     1
102
RTVSPost2010Prop29
280
     1
102
RTVSPost2010PropOp29
 70
     1
102
RTVSPost2010Prop30
280
     1
102
RTVSPost2010PropOp30
 70
     1
102
RTVSPost2010Prop31
280
     0
102
RTVSPost2010PropOp31
 70
     1
102
RTVSPost2010Prop32
280
     0
102
RTVSPost2010PropOp32
 70
     1
102
RTVSPost2010Prop33
280
     0
102
RTVSPost2010PropOp33
 70
     1
102
RTVSPost2010Prop34
280
     0
102
RTVSPost2010PropOp34
 70
     1
102
RTVSPost2010Prop35
280
     0
102
RTVSPost2010PropOp35
 70
     1
102
RTVSPost2010Prop36
280
     0
102
RTVSPost2010PropOp36
 70
     1
102
RTVSPost2010Prop37
 90
       50
102
RTVSPost2010PropOp37
 70
     1
102
RTVSPost2010Prop38
140
0.0
102
RTVSPost2010PropOp38
 70
     1
102
RTVSPost2010Prop39
140
1.0
102
RTVSPost2010PropOp39
 70
     1
102
RTVSPost2010Prop40
 90
        0
102
RTVSPost2010PropOp40
 70
     1
102
RTVSPost2010Prop41ColorIndex
 90
       18
102
RTVSPost2010Prop41ColorRGB
 90
        0
102
RTVSPost2010PropOp41
 70
     1
102
RTVSPost2010Prop42
 90
       50
102
RTVSPost2010PropOp42
 70
     1
102
RTVSPost2010Prop43
 90
        3
102
RTVSPost2010PropOp43
 70
     1
102
RTVSPost2010Prop44ColorIndex
 90
        5
102
RTVSPost2010Prop44ColorRGB
 90
      255
102
RTVSPost2010PropOp44
 70
     1
102
RTVSPost2010Prop45
280
     0
102
RTVSPost2010PropOp45
 70
     1
102
RTVSPost2010Prop46
 90
       50
102
RTVSPost2010PropOp46
 70
     1
102
RTVSPost2010Prop47
 90
       50
102
RTVSPost2010PropOp47
 70
     1
102
RTVSPost2010Prop48
 90
       50
102
RTVSPost2010PropOp48
 70
     1
102
RTVSPost2010Prop49
280
     0
102
RTVSPost2010PropOp49
 70
     1
102
RTVSPost2010Prop50
 90
       50
102
RTVSPost2010PropOp50
 70
     1
102
RTVSPost2010Prop51ColorIndex
 90
      256
102
RTVSPost2010Prop51ColorRGB
 90
-16777216
102
RTVSPost2010PropOp51
 70
     0
102
RTVSPost2010Prop52
140
1.0
102
RTVSPost2010PropOp52
 70
     0
102
RTVSPost2010Prop53
 90
        2
102
RTVSPost2010PropOp53
 70
     1
102
RTVSPost2010Prop54
  1
strokes_ogs.tif
102
RTVSPost2010PropOp54
 70
     1
102
RTVSPost2010Prop55
280
     0
102
RTVSPost2010PropOp55
 70
     1
102
RTVSPost2010Prop56
140
1.0
102
RTVSPost2010PropOp56
 70
     1
102
RTVSPost2010Prop57
140
1.0
102
RTVSPost2010PropOp57
 70
     1
  0
XRECORD
  5
AC9
102
{ACAD_REACTORS
330
AC8
102
}
330
AC8
100
AcDbXrecord
280
     1
102
RTVSPost2010Prop28
280
     0
102
RTVSPost2010PropOp28
 70
     1
102
RTVSPost2010Prop29
280
     1
102
RTVSPost2010PropOp29
 70
     1
102
RTVSPost2010Prop30
280
     1
102
RTVSPost2010PropOp30
 70
     1
102
RTVSPost2010Prop31
280
     0
102
RTVSPost2010PropOp31
 70
     1
102
RTVSPost2010Prop32
280
     0
102
RTVSPost2010PropOp32
 70
     1
102
RTVSPost2010Prop33
280
     0
102
RTVSPost2010PropOp33
 70
     1
102
RTVSPost2010Prop34
280
     0
102
RTVSPost2010PropOp34
 70
     1
102
RTVSPost2010Prop35
280
     0
102
RTVSPost2010PropOp35
 70
     1
102
RTVSPost2010Prop36
280
     0
102
RTVSPost2010PropOp36
 70
     1
102
RTVSPost2010Prop37
 90
       50
102
RTVSPost2010PropOp37
 70
     1
102
RTVSPost2010Prop38
140
0.0
102
RTVSPost2010PropOp38
 70
     1
102
RTVSPost2010Prop39
140
1.0
102
RTVSPost2010PropOp39
 70
     1
102
RTVSPost2010Prop40
 90
        0
102
RTVSPost2010PropOp40
 70
     1
102
RTVSPost2010Prop41ColorIndex
 90
       18
102
RTVSPost2010Prop41ColorRGB
 90
        0
102
RTVSPost2010PropOp41
 70
     1
102
RTVSPost2010Prop42
 90
       50
102
RTVSPost2010PropOp42
 70
     1
102
RTVSPost2010Prop43
 90
        3
102
RTVSPost2010PropOp43
 70
     1
102
RTVSPost2010Prop44ColorIndex
 90
        5
102
RTVSPost2010Prop44ColorRGB
 90
      255
102
RTVSPost2010PropOp44
 70
     1
102
RTVSPost2010Prop45
280
     0
102
RTVSPost2010PropOp45
 70
     1
102
RTVSPost2010Prop46
 90
       50
102
RTVSPost2010PropOp46
 70
     1
102
RTVSPost2010Prop47
 90
       50
102
RTVSPost2010PropOp47
 70
     1
102
RTVSPost2010Prop48
 90
       50
102
RTVSPost2010PropOp48
 70
     1
102
RTVSPost2010Prop49
280
     0
102
RTVSPost2010PropOp49
 70
     1
102
RTVSPost2010Prop50
 90
       50
102
RTVSPost2010PropOp50
 70
     1
102
RTVSPost2010Prop51ColorIndex
 90
      256
102
RTVSPost2010Prop51ColorRGB
 90
-16777216
102
RTVSPost2010PropOp51
 70
     0
102
RTVSPost2010Prop52
140
1.0
102
RTVSPost2010PropOp52
 70
     0
102
RTVSPost2010Prop53
 90
        2
102
RTVSPost2010PropOp53
 70
     1
102
RTVSPost2010Prop54
  1
strokes_ogs.tif
102
RTVSPost2010PropOp54
 70
     1
102
RTVSPost2010Prop55
280
     0
102
RTVSPost2010PropOp55
 70
     1
102
RTVSPost2010Prop56
140
1.0
102
RTVSPost2010PropOp56
 70
     1
102
RTVSPost2010Prop57
140
1.0
102
RTVSPost2010PropOp57
 70
     1
  0
XRECORD
  5
AC7
102
{ACAD_REACTORS
330
AC6
102
}
330
AC6
100
AcDbXrecord
280
     1
102
RTVSPost2010Prop28
280
     0
102
RTVSPost2010PropOp28
 70
     1
102
RTVSPost2010Prop29
280
     1
102
RTVSPost2010PropOp29
 70
     1
102
RTVSPost2010Prop30
280
     1
102
RTVSPost2010PropOp30
 70
     1
102
RTVSPost2010Prop31
280
     0
102
RTVSPost2010PropOp31
 70
     1
102
RTVSPost2010Prop32
280
     0
102
RTVSPost2010PropOp32
 70
     1
102
RTVSPost2010Prop33
280
     0
102
RTVSPost2010PropOp33
 70
     1
102
RTVSPost2010Prop34
280
     0
102
RTVSPost2010PropOp34
 70
     1
102
RTVSPost2010Prop35
280
     0
102
RTVSPost2010PropOp35
 70
     1
102
RTVSPost2010Prop36
280
     0
102
RTVSPost2010PropOp36
 70
     1
102
RTVSPost2010Prop37
 90
       50
102
RTVSPost2010PropOp37
 70
     1
102
RTVSPost2010Prop38
140
0.0
102
RTVSPost2010PropOp38
 70
     1
102
RTVSPost2010Prop39
140
1.0
102
RTVSPost2010PropOp39
 70
     1
102
RTVSPost2010Prop40
 90
        0
102
RTVSPost2010PropOp40
 70
     1
102
RTVSPost2010Prop41ColorIndex
 90
       18
102
RTVSPost2010Prop41ColorRGB
 90
        0
102
RTVSPost2010PropOp41
 70
     1
102
RTVSPost2010Prop42
 90
       50
102
RTVSPost2010PropOp42
 70
     1
102
RTVSPost2010Prop43
 90
        3
102
RTVSPost2010PropOp43
 70
     1
102
RTVSPost2010Prop44ColorIndex
 90
        5
102
RTVSPost2010Prop44ColorRGB
 90
      255
102
RTVSPost2010PropOp44
 70
     1
102
RTVSPost2010Prop45
280
     0
102
RTVSPost2010PropOp45
 70
     1
102
RTVSPost2010Prop46
 90
       50
102
RTVSPost2010PropOp46
 70
     1
102
RTVSPost2010Prop47
 90
       50
102
RTVSPost2010PropOp47
 70
     1
102
RTVSPost2010Prop48
 90
       50
102
RTVSPost2010PropOp48
 70
     1
102
RTVSPost2010Prop49
280
     0
102
RTVSPost2010PropOp49
 70
     1
102
RTVSPost2010Prop50
 90
       50
102
RTVSPost2010PropOp50
 70
     1
102
RTVSPost2010Prop51ColorIndex
 90
      256
102
RTVSPost2010Prop51ColorRGB
 90
-16777216
102
RTVSPost2010PropOp51
 70
     0
102
RTVSPost2010Prop52
140
1.0
102
RTVSPost2010PropOp52
 70
     0
102
RTVSPost2010Prop53
 90
        2
102
RTVSPost2010PropOp53
 70
     1
102
RTVSPost2010Prop54
  1
strokes_ogs.tif
102
RTVSPost2010PropOp54
 70
     1
102
RTVSPost2010Prop55
280
     0
102
RTVSPost2010PropOp55
 70
     1
102
RTVSPost2010Prop56
140
1.0
102
RTVSPost2010PropOp56
 70
     1
102
RTVSPost2010Prop57
140
1.0
102
RTVSPost2010PropOp57
 70
     1
  0
XRECORD
  5
AC1
102
{ACAD_REACTORS
330
AC0
102
}
330
AC0
100
AcDbXrecord
280
     1
102
RTVSPost2010Prop28
280
     0
102
RTVSPost2010PropOp28
 70
     1
102
RTVSPost2010Prop29
280
     1
102
RTVSPost2010PropOp29
 70
     1
102
RTVSPost2010Prop30
280
     1
102
RTVSPost2010PropOp30
 70
     1
102
RTVSPost2010Prop31
280
     0
102
RTVSPost2010PropOp31
 70
     1
102
RTVSPost2010Prop32
280
     0
102
RTVSPost2010PropOp32
 70
     1
102
RTVSPost2010Prop33
280
     0
102
RTVSPost2010PropOp33
 70
     1
102
RTVSPost2010Prop34
280
     0
102
RTVSPost2010PropOp34
 70
     1
102
RTVSPost2010Prop35
280
     0
102
RTVSPost2010PropOp35
 70
     1
102
RTVSPost2010Prop36
280
     0
102
RTVSPost2010PropOp36
 70
     1
102
RTVSPost2010Prop37
 90
       50
102
RTVSPost2010PropOp37
 70
     1
102
RTVSPost2010Prop38
140
0.0
102
RTVSPost2010PropOp38
 70
     1
102
RTVSPost2010Prop39
140
1.0
102
RTVSPost2010PropOp39
 70
     1
102
RTVSPost2010Prop40
 90
        0
102
RTVSPost2010PropOp40
 70
     1
102
RTVSPost2010Prop41ColorIndex
 90
       18
102
RTVSPost2010Prop41ColorRGB
 90
        0
102
RTVSPost2010PropOp41
 70
     1
102
RTVSPost2010Prop42
 90
       50
102
RTVSPost2010PropOp42
 70
     1
102
RTVSPost2010Prop43
 90
        3
102
RTVSPost2010PropOp43
 70
     1
102
RTVSPost2010Prop44ColorIndex
 90
        5
102
RTVSPost2010Prop44ColorRGB
 90
      255
102
RTVSPost2010PropOp44
 70
     1
102
RTVSPost2010Prop45
280
     0
102
RTVSPost2010PropOp45
 70
     1
102
RTVSPost2010Prop46
 90
       50
102
RTVSPost2010PropOp46
 70
     1
102
RTVSPost2010Prop47
 90
       50
102
RTVSPost2010PropOp47
 70
     1
102
RTVSPost2010Prop48
 90
       50
102
RTVSPost2010PropOp48
 70
     1
102
RTVSPost2010Prop49
280
     0
102
RTVSPost2010PropOp49
 70
     1
102
RTVSPost2010Prop50
 90
       50
102
RTVSPost2010PropOp50
 70
     1
102
RTVSPost2010Prop51ColorIndex
 90
      256
102
RTVSPost2010Prop51ColorRGB
 90
-16777216
102
RTVSPost2010PropOp51
 70
     0
102
RTVSPost2010Prop52
140
1.0
102
RTVSPost2010PropOp52
 70
     0
102
RTVSPost2010Prop53
 90
        2
102
RTVSPost2010PropOp53
 70
     1
102
RTVSPost2010Prop54
  1
strokes_ogs.tif
102
RTVSPost2010PropOp54
 70
     1
102
RTVSPost2010Prop55
280
     0
102
RTVSPost2010PropOp55
 70
     1
102
RTVSPost2010Prop56
140
1.0
102
RTVSPost2010PropOp56
 70
     1
102
RTVSPost2010Prop57
140
1.0
102
RTVSPost2010PropOp57
 70
     1
  0
XRECORD
  5
AC3
102
{ACAD_REACTORS
330
AC2
102
}
330
AC2
100
AcDbXrecord
280
     1
102
RTVSPost2010Prop28
280
     0
102
RTVSPost2010PropOp28
 70
     1
102
RTVSPost2010Prop29
280
     1
102
RTVSPost2010PropOp29
 70
     1
102
RTVSPost2010Prop30
280
     1
102
RTVSPost2010PropOp30
 70
     1
102
RTVSPost2010Prop31
280
     0
102
RTVSPost2010PropOp31
 70
     1
102
RTVSPost2010Prop32
280
     0
102
RTVSPost2010PropOp32
 70
     1
102
RTVSPost2010Prop33
280
     0
102
RTVSPost2010PropOp33
 70
     1
102
RTVSPost2010Prop34
280
     0
102
RTVSPost2010PropOp34
 70
     1
102
RTVSPost2010Prop35
280
     0
102
RTVSPost2010PropOp35
 70
     1
102
RTVSPost2010Prop36
280
     0
102
RTVSPost2010PropOp36
 70
     1
102
RTVSPost2010Prop37
 90
       50
102
RTVSPost2010PropOp37
 70
     1
102
RTVSPost2010Prop38
140
0.0
102
RTVSPost2010PropOp38
 70
     1
102
RTVSPost2010Prop39
140
1.0
102
RTVSPost2010PropOp39
 70
     1
102
RTVSPost2010Prop40
 90
        0
102
RTVSPost2010PropOp40
 70
     1
102
RTVSPost2010Prop41ColorIndex
 90
       18
102
RTVSPost2010Prop41ColorRGB
 90
        0
102
RTVSPost2010PropOp41
 70
     1
102
RTVSPost2010Prop42
 90
       50
102
RTVSPost2010PropOp42
 70
     1
102
RTVSPost2010Prop43
 90
        3
102
RTVSPost2010PropOp43
 70
     1
102
RTVSPost2010Prop44ColorIndex
 90
        5
102
RTVSPost2010Prop44ColorRGB
 90
      255
102
RTVSPost2010PropOp44
 70
     1
102
RTVSPost2010Prop45
280
     0
102
RTVSPost2010PropOp45
 70
     1
102
RTVSPost2010Prop46
 90
       50
102
RTVSPost2010PropOp46
 70
     1
102
RTVSPost2010Prop47
 90
       50
102
RTVSPost2010PropOp47
 70
     1
102
RTVSPost2010Prop48
 90
       50
102
RTVSPost2010PropOp48
 70
     1
102
RTVSPost2010Prop49
280
     0
102
RTVSPost2010PropOp49
 70
     1
102
RTVSPost2010Prop50
 90
       50
102
RTVSPost2010PropOp50
 70
     1
102
RTVSPost2010Prop51ColorIndex
 90
      256
102
RTVSPost2010Prop51ColorRGB
 90
-16777216
102
RTVSPost2010PropOp51
 70
     0
102
RTVSPost2010Prop52
140
1.0
102
RTVSPost2010PropOp52
 70
     0
102
RTVSPost2010Prop53
 90
        2
102
RTVSPost2010PropOp53
 70
     1
102
RTVSPost2010Prop54
  1
strokes_ogs.tif
102
RTVSPost2010PropOp54
 70
     1
102
RTVSPost2010Prop55
280
     0
102
RTVSPost2010PropOp55
 70
     1
102
RTVSPost2010Prop56
140
1.0
102
RTVSPost2010PropOp56
 70
     1
102
RTVSPost2010Prop57
140
1.0
102
RTVSPost2010PropOp57
 70
     1
  0
XRECORD
  5
AB9
102
{ACAD_REACTORS
330
AB8
102
}
330
AB8
100
AcDbXrecord
280
     1
102
RTVSPost2010Prop28
280
     0
102
RTVSPost2010PropOp28
 70
     1
102
RTVSPost2010Prop29
280
     1
102
RTVSPost2010PropOp29
 70
     1
102
RTVSPost2010Prop30
280
     1
102
RTVSPost2010PropOp30
 70
     1
102
RTVSPost2010Prop31
280
     0
102
RTVSPost2010PropOp31
 70
     1
102
RTVSPost2010Prop32
280
     0
102
RTVSPost2010PropOp32
 70
     1
102
RTVSPost2010Prop33
280
     0
102
RTVSPost2010PropOp33
 70
     1
102
RTVSPost2010Prop34
280
     0
102
RTVSPost2010PropOp34
 70
     1
102
RTVSPost2010Prop35
280
     0
102
RTVSPost2010PropOp35
 70
     1
102
RTVSPost2010Prop36
280
     0
102
RTVSPost2010PropOp36
 70
     1
102
RTVSPost2010Prop37
 90
       50
102
RTVSPost2010PropOp37
 70
     1
102
RTVSPost2010Prop38
140
0.0
102
RTVSPost2010PropOp38
 70
     1
102
RTVSPost2010Prop39
140
1.0
102
RTVSPost2010PropOp39
 70
     1
102
RTVSPost2010Prop40
 90
        0
102
RTVSPost2010PropOp40
 70
     1
102
RTVSPost2010Prop41ColorIndex
 90
       18
102
RTVSPost2010Prop41ColorRGB
 90
        0
102
RTVSPost2010PropOp41
 70
     1
102
RTVSPost2010Prop42
 90
       50
102
RTVSPost2010PropOp42
 70
     1
102
RTVSPost2010Prop43
 90
        3
102
RTVSPost2010PropOp43
 70
     1
102
RTVSPost2010Prop44ColorIndex
 90
        5
102
RTVSPost2010Prop44ColorRGB
 90
      255
102
RTVSPost2010PropOp44
 70
     1
102
RTVSPost2010Prop45
280
     0
102
RTVSPost2010PropOp45
 70
     1
102
RTVSPost2010Prop46
 90
       50
102
RTVSPost2010PropOp46
 70
     1
102
RTVSPost2010Prop47
 90
       50
102
RTVSPost2010PropOp47
 70
     1
102
RTVSPost2010Prop48
 90
       50
102
RTVSPost2010PropOp48
 70
     1
102
RTVSPost2010Prop49
280
     0
102
RTVSPost2010PropOp49
 70
     1
102
RTVSPost2010Prop50
 90
       50
102
RTVSPost2010PropOp50
 70
     1
102
RTVSPost2010Prop51ColorIndex
 90
      256
102
RTVSPost2010Prop51ColorRGB
 90
-16777216
102
RTVSPost2010PropOp51
 70
     0
102
RTVSPost2010Prop52
140
1.0
102
RTVSPost2010PropOp52
 70
     0
102
RTVSPost2010Prop53
 90
        2
102
RTVSPost2010PropOp53
 70
     1
102
RTVSPost2010Prop54
  1
strokes_ogs.tif
102
RTVSPost2010PropOp54
 70
     1
102
RTVSPost2010Prop55
280
     0
102
RTVSPost2010PropOp55
 70
     1
102
RTVSPost2010Prop56
140
1.0
102
RTVSPost2010PropOp56
 70
     1
102
RTVSPost2010Prop57
140
1.0
102
RTVSPost2010PropOp57
 70
     1
  0
XRECORD
  5
AAD
102
{ACAD_REACTORS
330
AAC
102
}
330
AAC
100
AcDbXrecord
280
     1
102
RTVSPost2010Prop28
280
     0
102
RTVSPost2010PropOp28
 70
     1
102
RTVSPost2010Prop29
280
     1
102
RTVSPost2010PropOp29
 70
     1
102
RTVSPost2010Prop30
280
     1
102
RTVSPost2010PropOp30
 70
     1
102
RTVSPost2010Prop31
280
     0
102
RTVSPost2010PropOp31
 70
     1
102
RTVSPost2010Prop32
280
     0
102
RTVSPost2010PropOp32
 70
     1
102
RTVSPost2010Prop33
280
     0
102
RTVSPost2010PropOp33
 70
     1
102
RTVSPost2010Prop34
280
     0
102
RTVSPost2010PropOp34
 70
     1
102
RTVSPost2010Prop35
280
     0
102
RTVSPost2010PropOp35
 70
     1
102
RTVSPost2010Prop36
280
     0
102
RTVSPost2010PropOp36
 70
     1
102
RTVSPost2010Prop37
 90
       50
102
RTVSPost2010PropOp37
 70
     1
102
RTVSPost2010Prop38
140
0.0
102
RTVSPost2010PropOp38
 70
     1
102
RTVSPost2010Prop39
140
1.0
102
RTVSPost2010PropOp39
 70
     1
102
RTVSPost2010Prop40
 90
        0
102
RTVSPost2010PropOp40
 70
     1
102
RTVSPost2010Prop41ColorIndex
 90
       18
102
RTVSPost2010Prop41ColorRGB
 90
        0
102
RTVSPost2010PropOp41
 70
     1
102
RTVSPost2010Prop42
 90
       50
102
RTVSPost2010PropOp42
 70
     1
102
RTVSPost2010Prop43
 90
        3
102
RTVSPost2010PropOp43
 70
     1
102
RTVSPost2010Prop44ColorIndex
 90
        5
102
RTVSPost2010Prop44ColorRGB
 90
      255
102
RTVSPost2010PropOp44
 70
     1
102
RTVSPost2010Prop45
280
     0
102
RTVSPost2010PropOp45
 70
     1
102
RTVSPost2010Prop46
 90
       50
102
RTVSPost2010PropOp46
 70
     1
102
RTVSPost2010Prop47
 90
       50
102
RTVSPost2010PropOp47
 70
     1
102
RTVSPost2010Prop48
 90
       50
102
RTVSPost2010PropOp48
 70
     1
102
RTVSPost2010Prop49
280
     0
102
RTVSPost2010PropOp49
 70
     1
102
RTVSPost2010Prop50
 90
       50
102
RTVSPost2010PropOp50
 70
     1
102
RTVSPost2010Prop51ColorIndex
 90
      256
102
RTVSPost2010Prop51ColorRGB
 90
-16777216
102
RTVSPost2010PropOp51
 70
     0
102
RTVSPost2010Prop52
140
1.0
102
RTVSPost2010PropOp52
 70
     0
102
RTVSPost2010Prop53
 90
        2
102
RTVSPost2010PropOp53
 70
     1
102
RTVSPost2010Prop54
  1
strokes_ogs.tif
102
RTVSPost2010PropOp54
 70
     1
102
RTVSPost2010Prop55
280
     0
102
RTVSPost2010PropOp55
 70
     1
102
RTVSPost2010Prop56
140
1.0
102
RTVSPost2010PropOp56
 70
     1
102
RTVSPost2010Prop57
140
1.0
102
RTVSPost2010PropOp57
 70
     1
  0
XRECORD
  5
AC5
102
{ACAD_REACTORS
330
AC4
102
}
330
AC4
100
AcDbXrecord
280
     1
102
RTVSPost2010Prop28
280
     0
102
RTVSPost2010PropOp28
 70
     1
102
RTVSPost2010Prop29
280
     1
102
RTVSPost2010PropOp29
 70
     1
102
RTVSPost2010Prop30
280
     1
102
RTVSPost2010PropOp30
 70
     1
102
RTVSPost2010Prop31
280
     0
102
RTVSPost2010PropOp31
 70
     1
102
RTVSPost2010Prop32
280
     0
102
RTVSPost2010PropOp32
 70
     1
102
RTVSPost2010Prop33
280
     0
102
RTVSPost2010PropOp33
 70
     1
102
RTVSPost2010Prop34
280
     0
102
RTVSPost2010PropOp34
 70
     1
102
RTVSPost2010Prop35
280
     0
102
RTVSPost2010PropOp35
 70
     1
102
RTVSPost2010Prop36
280
     0
102
RTVSPost2010PropOp36
 70
     1
102
RTVSPost2010Prop37
 90
       50
102
RTVSPost2010PropOp37
 70
     1
102
RTVSPost2010Prop38
140
0.0
102
RTVSPost2010PropOp38
 70
     1
102
RTVSPost2010Prop39
140
1.0
102
RTVSPost2010PropOp39
 70
     1
102
RTVSPost2010Prop40
 90
        0
102
RTVSPost2010PropOp40
 70
     1
102
RTVSPost2010Prop41ColorIndex
 90
       18
102
RTVSPost2010Prop41ColorRGB
 90
        0
102
RTVSPost2010PropOp41
 70
     1
102
RTVSPost2010Prop42
 90
       50
102
RTVSPost2010PropOp42
 70
     1
102
RTVSPost2010Prop43
 90
        3
102
RTVSPost2010PropOp43
 70
     1
102
RTVSPost2010Prop44ColorIndex
 90
        5
102
RTVSPost2010Prop44ColorRGB
 90
      255
102
RTVSPost2010PropOp44
 70
     1
102
RTVSPost2010Prop45
280
     0
102
RTVSPost2010PropOp45
 70
     1
102
RTVSPost2010Prop46
 90
       50
102
RTVSPost2010PropOp46
 70
     1
102
RTVSPost2010Prop47
 90
       50
102
RTVSPost2010PropOp47
 70
     1
102
RTVSPost2010Prop48
 90
       50
102
RTVSPost2010PropOp48
 70
     1
102
RTVSPost2010Prop49
280
     0
102
RTVSPost2010PropOp49
 70
     1
102
RTVSPost2010Prop50
 90
       50
102
RTVSPost2010PropOp50
 70
     1
102
RTVSPost2010Prop51ColorIndex
 90
      256
102
RTVSPost2010Prop51ColorRGB
 90
-16777216
102
RTVSPost2010PropOp51
 70
     0
102
RTVSPost2010Prop52
140
1.0
102
RTVSPost2010PropOp52
 70
     0
102
RTVSPost2010Prop53
 90
        2
102
RTVSPost2010PropOp53
 70
     1
102
RTVSPost2010Prop54
  1
strokes_ogs.tif
102
RTVSPost2010PropOp54
 70
     1
102
RTVSPost2010Prop55
280
     0
102
RTVSPost2010PropOp55
 70
     1
102
RTVSPost2010Prop56
140
1.0
102
RTVSPost2010PropOp56
 70
     1
102
RTVSPost2010Prop57
140
1.0
102
RTVSPost2010PropOp57
 70
     1
  0
ENDSEC
  0
EOF
